#TITLE:Chu☆Chu☆Tonight;
#ARTIST:VENUS;
#TITLETRANSLIT:Chu Chu Tonight;
#GENRE:WITHOUT YOU TONIGHT -V-;
#BANNER:Chu Chu Tonight.png;
#BACKGROUND:Chu Chu Tonight-bg.png;
#CDTITLE:./CDTitles/RB colette -Autumn-.png;
#MUSIC:Chu Chu Tonight.ogg;
#SAMPLESTART:61.95;
#SAMPLELENGTH:15;
#BPMS:0=165;
#BGSTAGE:2;

//--------------- dance-single - Fred-104 ----------------
#NOTES:
     dance-single:
     Fred-104:
     Beginner:
     3:
     :
0000
0000
0000
0000
,
0000
0000
0000
0000
,
0000
0000
0000
0000
,
0000
0000
0000
0000
,
0000
0000
0000
0000
,
1000
0000
0000
0000
,
0000
0000
0000
0000
,
0001
0000
0000
0000
,
0000
0000
0000
0000
,
1000
0000
0000
0000
,
1000
0000
0000
0000
,
0001
0000
0000
0000
,
0001
0000
0000
0000
,
0010
0000
0000
0000
,
0010
0000
0000
0000
,
0100
0000
0000
0000
,
1000
0000
0000
0000
,
0001
0000
0000
0000
,
1000
0000
1000
0000
,
0001
0000
0000
0000
,
0100
0000
0001
0000
,
0100
0000
0000
0000
,
0001
0000
1000
0000
,
0001
0000
0000
0000
,
1000
0000
1000
0000
,
0100
0000
0000
0000
,
0010
0000
0100
0000
,
0010
0000
0000
0000
,
0001
0000
1000
0000
,
0001
0000
0000
0000
,
1000
0000
0000
0000
,
1001
0000
0000
0000
,
0000
0000
0000
0000
,
0001
0000
0000
0000
,
1000
0000
0000
0000
,
0010
0000
0000
0000
,
0100
0000
0000
0000
,
0001
0000
0000
0000
,
1000
0000
0000
0000
,
0100
0000
0000
0000
,
1000
0000
0000
0000
,
1001
0000
0000
0000
,
0000
0000
0000
0000
,
0001
0000
1000
0000
,
0001
0000
0000
0000
,
0010
0000
0100
0000
,
0010
0000
0000
0000
,
0100
0000
1000
0000
,
0100
0000
1000
0000
,
0001
0000
0001
0000
,
1001
0000
0000
0000
,
0002
0000
0000
0003
,
2000
0000
0000
3000
,
0002
0000
0000
0003
,
1001
0000
0000
0000
,
2000
0000
0000
3000
,
0002
0000
0000
0003
,
2000
0000
0000
3000
,
0000
0000
0000
0000
,
0001
0000
0001
0000
,
0100
0000
0100
0000
,
0010
0000
0010
0000
,
1000
0000
1000
0000
,
0001
0000
0010
0000
,
0001
0000
0001
0000
,
1000
0000
0100
0000
,
1000
0000
1000
0000
,
0002
0000
0000
0000
,
0003
0000
0000
0000
,
2000
0000
0000
0000
,
3000
0000
0000
0000
,
0001
0001
0001
0000
,
0000
0000
0000
0000
,
1000
1000
1000
0000
,
0000
0000
0000
0000
,
1001
0000
0000
0000
,
0000
0000
0000
0000
,
1001
0000
0000
0000
,
0000
0000
0000
0000
,
0001
0000
1000
0000
,
0001
0000
0001
0000
,
0010
0000
0001
0000
,
1001
0000
0000
0000
,
1000
0000
1000
0000
,
0001
0001
0001
0000
,
0100
0000
0010
0000
,
0100
0100
0100
0000
,
0001
0000
1000
0000
,
0100
0100
0100
0000
,
0010
0000
0001
0000
,
1000
0000
0000
1001
;

//--------------- dance-single - Fred-104 ----------------
#NOTES:
     dance-single:
     Fred-104:
     Easy:
     5:
     :
0000
0000
0000
0000
,
0000
0000
0000
0000
,
0000
0000
0000
0000
,
0000
0000
0000
0000
,
0000
0000
0000
0000
,
1000
0000
0010
0000
,
1000
1000
0001
0010
,
0100
0000
1000
0000
,
1001
0000
0000
0000
,
0001
0001
0002
0003
,
1000
0100
0010
0001
,
1000
1000
2000
3000
,
0001
0100
0010
1000
,
0100
0100
0200
0300
,
1000
0010
0100
0001
,
0010
0010
0020
0030
,
0001
1000
0001
1000
,
0001
0000
1000
0000
,
0001
0100
0020
0030
,
0100
0000
0001
0000
,
1000
0100
0020
0030
,
0001
0000
1000
0000
,
0001
1000
0002
0003
,
0100
0010
0100
0000
,
0001
1000
1001
0000
,
0001
0010
1000
0000
,
1000
0010
0001
0000
,
1000
0001
1000
0000
,
0010
0100
0020
0030
,
1000
0100
0001
0000
,
0001
0100
1000
0000
,
0001
1000
0001
0000
,
0100
0100
0200
0300
,
1001
0000
0001
0000
,
1000
0000
0010
0010
,
0100
0000
0001
0000
,
1000
0000
0100
0010
,
0001
0000
1000
0000
,
0010
0100
0110
0000
,
0001
1000
0001
1000
,
0001
0000
0100
0000
,
2002
0000
0000
0000
,
3003
0000
0000
0000
,
1000
0000
0010
0000
,
0001
0000
0100
1000
,
0001
0000
1000
0000
,
0001
0010
0010
0000
,
0100
0000
1000
0000
,
0001
1000
0001
0000
,
0100
0000
0010
0000
,
0100
0100
0100
0000
,
0002
0000
0000
0003
,
2000
0000
0000
3000
,
0200
0000
0000
0300
,
0020
0000
0000
0030
,
0001
0000
0100
0000
,
0001
1000
0010
0000
,
0100
0000
0001
0000
,
1001
0000
0000
0000
,
1000
0000
0010
0000
,
0001
0000
0100
0000
,
1000
0000
0001
0000
,
1000
0000
0001
0000
,
0010
0000
1000
0000
,
0100
0000
0001
0000
,
1000
0000
0100
0000
,
0010
0010
0010
0000
,
0001
0000
1000
0000
,
0001
0100
0001
0000
,
0100
0010
0100
0000
,
0010
1000
0001
0000
,
0000
1000
1001
0000
,
0000
0000
0001
1000
,
0100
0000
0010
0100
,
1000
0000
0001
0000
,
1001
0000
0000
0000
,
0000
0000
0000
0000
,
0110
0000
0000
0000
,
0000
0000
0000
0000
,
0001
0000
1000
0000
,
0010
0100
0010
0000
,
1000
0001
0010
0000
,
0100
0100
0100
0000
,
1000
1000
2000
3000
,
0001
0010
0100
1000
,
0001
0001
0002
0003
,
0100
0010
0100
0001
,
0100
0100
0200
0300
,
0010
1000
0001
0100
,
0010
0010
0020
0030
,
0100
0000
0000
1001
;

//--------------- dance-single - Fred-104 ----------------
#NOTES:
     dance-single:
     Fred-104:
     Medium:
     9:
     :
0000
0000
0000
0000
,
0000
0000
0000
0000
,
0000
0000
0000
0000
,
0000
0000
0000
0000
,
0000
0000
0000
0000
,
1000
0000
1000
0000
1000
0000
0000
0010
,
0000
0100
0000
0100
0001
0000
1000
0000
,
0001
0000
0010
0000
0100
0000
1000
1001
,
0000
0000
0000
0000
,
0001
0000
0010
0000
1000
0000
0000
0001
,
0000
0100
0000
1000
0001
0000
1000
0000
,
1000
0000
0010
0000
0001
0000
0000
1000
,
0000
0100
0000
0001
1000
0000
0001
0000
,
0001
0000
0100
0000
1000
0000
0000
0001
,
0000
0010
0000
1000
0001
0000
1000
0000
,
1000
0000
0100
0000
0001
0000
0000
1000
,
0000
0010
0001
1000
0001
0000
0001
0000
,
0100
0000
0100
0000
0100
0000
0000
0001
,
1000
0100
0010
0100
,
1000
0000
1000
0000
0001
0000
0000
0100
,
0010
0100
0001
1000
,
0001
0010
0002
0000
0000
0000
0013
0000
,
0100
0000
0000
1000
0000
0000
0001
0000
,
0100
0000
0010
0000
0100
0000
0100
0100
,
0000
0001
1000
0000
0001
1000
0001
0000
,
1000
0000
0100
0000
0100
0000
0000
0010
,
0100
0000
1000
0000
0001
0000
0100
0001
,
0100
0000
0010
0000
0010
0000
0000
0100
,
0001
1000
0100
0010
,
0100
0010
0200
0000
0000
0000
0310
0000
,
0001
0000
1000
1000
0000
0001
1000
0001
,
0000
0100
0010
0100
0000
0001
1000
0000
,
0100
0010
0100
0010
0100
0000
1001
0000
,
0001
0000
0000
0010
0000
0000
0100
0000
,
2000
0010
3010
0100
,
0001
1000
0001
0001
,
0100
0000
0010
0000
0100
0001
0100
0000
,
0002
0010
0013
0100
,
1000
0000
0001
0000
1000
0000
0000
1001
,
0000
0001
0010
0100
,
1000
0000
0010
0100
0000
0001
0000
2002
,
0000
0000
0000
0000
0000
3003
0000
1001
,
0000
1000
0000
0110
0000
0002
0000
2003
,
0000
3001
0001
0000
0100
0000
0010
0000
,
0100
0000
0000
0001
0000
1000
0000
0100
,
0000
0000
0010
0000
0100
0000
1000
1000
,
0000
0110
0000
0001
0000
1001
0000
0001
,
0000
0010
0100
0010
0000
0010
0001
0000
,
1000
0000
0000
0010
0000
0000
0100
0000
,
0010
0000
0000
1000
0000
0001
0000
1001
,
0000
1000
0010
1000
0010
0000
0101
0000
,
0001
0000
0100
0000
0010
1000
0010
0000
,
0100
0000
0100
0000
0001
1000
0001
1000
,
0100
0000
0010
0000
0001
0000
1000
0010
,
0000
0100
0001
0100
0001
0000
1100
0000
,
0001
0010
0010
0100
,
1000
0010
1000
0010
0100
0000
0001
0000
,
1000
0000
0001
0000
0010
0000
0100
0100
,
0000
0000
0000
0000
0000
1000
0010
1000
,
0001
0000
0000
0010
0000
0000
1000
0000
,
0001
0000
0000
0100
0000
0000
1000
0000
,
0001
0000
0000
0100
0000
0000
1000
0000
,
0001
0000
0000
0010
0000
0000
1000
0000
,
0001
0000
0000
0010
0000
0100
1000
0000
,
0001
0000
0000
0100
0000
0010
0100
0000
,
0001
0000
0000
1000
0000
0100
0010
0000
,
0001
1000
0001
1000
0000
0100
0000
1001
,
0000
0001
1000
0100
,
1000
0010
1000
0000
0010
0001
0010
0000
,
1000
0001
1000
0000
0010
0000
0100
0000
,
0001
0000
0010
0000
0100
0100
0000
1001
,
0000
1000
0001
1000
0001
0000
0000
0000
,
0000
0000
0000
0000
0100
0010
0100
0010
,
0000
0100
0001
0000
1000
0000
0001
0001
,
0000
0100
0000
0110
0000
1000
0000
1001
,
0000
0000
0000
0000
0000
0000
0000
0001
,
0000
1001
0000
0000
0000
0000
1000
1000
,
0000
0000
0000
0000
0000
0000
0001
0001
,
0000
1001
0000
0110
0000
1000
0001
1000
,
0000
0001
1000
0010
0000
0100
0010
0000
,
0100
0000
0001
1000
0000
0100
1000
0000
,
0100
0010
0100
0000
0010
0000
0001
0100
,
0000
0010
1000
0010
1000
0000
0011
0000
,
1000
0000
0100
0000
0010
0010
0000
0001
,
0000
1000
0000
0010
0100
0000
0001
0000
,
1000
0000
0001
0000
0010
0010
0000
0100
,
0000
1000
0000
0010
0100
0000
0001
0000
,
1000
0000
0001
0000
0010
0010
0000
0100
,
0000
0010
0001
0010
0001
0000
1000
0000
,
0001
0000
1000
0000
0100
0100
0000
1001
,
0000
0001
1000
0010
0100
0000
0001
0001
;

//--------------- dance-single - Fred-104 ----------------
#NOTES:
     dance-single:
     Fred-104:
     Hard:
     12:
     :
0000
0000
0000
0000
,
0000
0000
0000
0000
,
0000
0000
0000
0000
,
0000
0000
0000
0000
,
0000
0000
0000
0000
,
0001
1000
0001
0100
0001
0100
0010
0100
,
0000
0010
1000
0001
1000
0000
0100
0010
,
0100
0010
0001
0010
0001
1000
0010
1000
,
0000
0000
0100
0100
0100
0000
1001
0000
,
0001
0000
1100
0000
0101
0000
1000
0100
,
0000
0100
0010
0001
0010
0000
0011
0000
,
1000
0000
0011
0000
1010
0000
0001
0010
,
0000
0010
0100
1000
0001
0100
0110
0000
,
1000
0000
0101
0000
1100
0000
0001
0100
,
0000
0100
0010
1000
0100
0000
0110
0000
,
0001
0000
0000
0000
1010
0000
0000
0001
1000
0000
0001
0000
1000
0000
0010
0000
,
0000
0000
0010
0000
0100
0000
0010
0000
1000
0001
1000
0001
0010
0000
0100
0000
,
1000
0000
0100
0000
0100
0000
0000
0010
,
0001
1000
0001
0100
0010
0100
0001
1000
,
0001
0000
0010
0000
0010
0000
0000
0100
,
1000
0010
1000
0100
1000
0010
0100
0001
,
1000
0020
0001
0000
0100
0000
1030
0001
,
1000
0100
0010
0001
0000
0100
0100
0001
,
1000
0100
0000
0001
0100
1000
0100
0010
,
0000
0001
0100
0010
1000
0001
1000
1000
,
0001
0000
0010
0000
0010
0000
0100
0010
,
0001
0100
0010
0100
0001
0010
0100
1000
,
0001
0000
0100
0000
0100
0000
0010
0100
,
0010
1000
0100
1000
0001
1000
0100
0010
,
0001
0020
1000
0000
0001
0000
0130
1000
,
0001
0100
0010
1000
0000
0100
0010
0110
,
0000
0001
1000
0100
0000
0010
0100
0000
,
1000
1000
0001
0001
0000
0100
0110
0000
,
1000
0000
0000
0001
0100
0000
1000
0100
,
0020
0000
1000
0000
0100
0000
1030
0001
,
0010
0100
0010
0001
0010
0010
0000
0100
,
1000
0001
1000
0010
0100
0001
1000
0100
,
2000
0000
0010
0000
0001
0000
3100
0010
,
0002
0000
0100
0000
0103
0010
0100
0001
,
0000
1000
0100
1000
0100
0010
0100
0010
,
0001
1000
0010
0100
0000
0001
1000
2002
,
0000
0000
0000
0000
0000
0000
3003
1100
,
0000
0101
0000
0110
0000
2000
0000
3002
,
0000
0013
0010
0000
0100
0010
0001
1000
,
0010
0100
0010
0100
0000
1000
0100
0001
,
0000
1000
0100
0010
0100
1000
0001
0101
,
0000
1010
0000
0011
0000
1100
0000
1001
,
0000
1000
0010
0100
0000
0010
1000
0000
,
0001
0010
0100
0010
0000
0100
1000
0000
,
0001
0100
0001
1000
0000
0100
0000
0110
,
0000
0010
0010
0010
0010
0000
1001
0000
,
1000
0000
0001
0010
0100
0010
0001
0000
,
0100
0020
1000
0000
0100
0000
1030
0000
,
0001
0010
1000
0010
0001
0000
1000
0010
,
0000
0100
0100
0100
0100
0000
1001
0000
,
0001
0010
0001
0010
0100
1000
0001
1000
,
0000
0010
1000
0100
0010
0000
0001
1000
,
0001
0100
0010
1000
0100
0010
0100
1000
,
0000
0000
0000
0000
0000
0001
1000
0010
,
0100
0000
0001
1000
0000
0100
0010
0000
,
0001
0000
0010
0100
0000
1000
0001
0000
,
0100
0000
0010
1000
0000
0010
0100
0000
,
0010
0000
1000
0100
0000
0010
0001
0000
,
1000
0000
0001
0010
0000
0100
0010
0001
,
1000
0000
0001
0100
0000
0010
1000
0100
,
1000
0000
0010
0100
0000
0001
1000
0100
,
0010
0000
0001
0000
1000
0000
0001
0000
0000
0000
0110
0000
0000
0000
1000
0001
,
1000
0000
0110
0000
0001
1000
0010
1000
,
0001
0100
0001
0100
1000
0100
1000
0100
,
0001
2000
0100
0000
3100
1000
0001
1000
,
0010
0000
0100
0000
0010
0010
0000
1001
,
0000
1000
0100
0010
0001
0000
0000
0000
,
0000
0000
0000
0000
0000
0000
0000
0000
0001
0100
0001
0000
1000
0000
0100
0000
,
0000
0001
0100
0010
0100
0000
1000
0001
,
0000
0101
0000
1010
0000
0001
1000
1001
,
0000
0000
0000
0000
0000
0000
0000
1100
,
0000
0110
0000
0000
0000
0000
0001
0011
,
0000
0000
0000
0000
0000
0000
1000
1010
,
0000
0101
0001
1000
0100
0010
0100
1000
,
0000
0010
0100
1000
0000
0100
0001
0000
,
1000
0100
0010
0011
0000
0001
1000
0000
,
0001
0001
0010
0100
0010
0001
1000
0010
,
0000
0100
0100
0100
0100
0000
1001
0000
,
1000
0000
0101
0000
1000
0100
0000
0011
,
0000
1010
0000
0100
0001
1000
0001
0000
,
1000
0000
0011
0000
1000
0010
0000
0101
,
0000
1100
0000
0010
0001
1000
0001
0000
,
0100
0000
0110
0000
1000
0100
0010
0001
,
0000
1000
0010
0100
0001
0010
0100
0010
,
0001
0000
0110
0000
1000
0100
0010
0011
,
0000
0001
0100
1000
0100
0000
1001
1001
;

//--------------- dance-single - Fred-104† ----------------
#NOTES:
     dance-single:
     Fred-104†:
     Challenge:
     16:
     :
0000
0000
0000
0000
,
0000
0000
0000
0000
,
0000
0000
0000
0000
,
0000
0000
0000
0000
,
0000
0000
0000
0000
,
1000
0100
1000
0010
1000
0100
2000
0001
,
0000
3100
0010
0002
1000
0000
0013
0100
,
0010
0001
0100
0010
0001
1000
0100
0010
,
0000
0000
0000
0000
1000
0000
1000
0000
1000
0100
0010
0001
1000
0010
1000
0010
,
2000
0010
3002
0100
1003
0100
0010
0011
,
0000
0000
1010
0000
0000
0000
0101
0000
0001
1000
0100
0010
0002
0000
0000
0000
,
2003
0100
3002
0010
1003
0001
0010
0110
,
0000
0000
1100
0000
0000
0000
0101
0000
1000
0100
0010
0001
0100
0010
1000
0000
,
0012
1003
0102
1003
0011
0010
0100
1100
,
0000
0000
0101
0000
0000
0000
1001
0000
1000
0100
0010
0001
1000
0000
0001
0000
,
0120
0000
1000
0130
0020
0000
0001
0130
0010
0000
1000
0000
0100
0000
0110
0000
,
0000
0000
0011
0000
1010
0000
1001
0000
0001
0010
0100
1000
0001
0100
0010
1000
,
0001
0000
0000
0000
1100
0000
0000
0000
0101
0000
0000
0000
0000
0000
1000
0010
,
0001
0000
0001
0010
1000
0000
0001
0100
1000
0000
1000
0100
0001
0000
1000
0000
,
0001
0000
0000
0000
1010
0000
0000
0000
0011
0000
0000
0000
0000
0000
1000
0100
,
0001
0000
0001
0100
1000
0000
0001
0010
1000
0000
1000
0010
0001
0000
1000
0000
,
0010
0000
0100
0000
1000
0000
0100
0000
0001
1000
0100
0000
0010
0000
0001
1000
,
0010
0000
0100
0010
1000
0000
0001
0000
1000
0000
0100
0000
1000
0000
0001
0000
,
0100
0000
2000
0000
0000
0000
3100
0000
0010
0001
0010
0000
1000
0000
1001
0000
,
0000
0000
0001
0000
0010
0000
1000
0000
0010
0100
1000
0100
1000
0001
0100
0001
,
2000
0000
0010
0000
3002
0000
0100
0000
1003
0000
0001
0000
0010
0000
0010
0100
,
1000
0000
1000
0010
0100
0000
0100
0001
0010
0000
0010
0100
1000
0100
1000
0000
,
0002
0000
0100
0000
2003
0000
0010
0000
3001
0000
0010
0000
0100
0000
1000
0100
,
0010
0000
0010
0001
0100
0000
0100
0010
1000
0000
1000
0001
0010
0001
0100
0000
,
0001
0000
0100
0000
0010
0000
1000
0000
0010
1000
0001
0000
0100
0000
0001
1000
,
0100
0000
0010
0100
1000
0000
0001
0000
0100
0000
0010
0000
1000
0000
1001
0000
,
0000
0000
0001
0000
0010
0100
1000
0000
0010
0100
0010
0000
1000
0000
0001
0010
,
0100
0000
0100
0000
1000
0000
1001
0000
0000
0001
1000
0010
1000
0000
0001
0000
,
1000
0010
0100
1000
0001
0010
0100
0001
,
0010
0000
0100
0000
1000
0000
0001
0000
1000
0100
1000
0100
0010
0000
0001
0000
,
0100
0010
0001
1000
0100
0010
1000
0001
,
0100
0000
1000
0000
0001
0000
0010
0000
0100
0001
1000
0000
0100
0010
0001
0000
,
1001
0000
0000
1010
0000
0000
0101
0000
0000
0000
1000
0100
0010
0000
0001
0000
,
1000
0000
0001
0100
0010
0000
1000
0000
0010
0100
0001
0000
1000
0000
1001
0000
,
0000
1000
0010
0001
1000
0100
0010
1000
,
0001
0010
1000
0010
0000
0100
1000
2002
,
0000
0000
0000
0000
0000
0000
3003
1100
,
0000
0101
0000
0011
0000
2010
3000
1002
,
0003
0000
1000
0001
0010
0000
0000
0000
0100
0000
1000
0001
0100
0000
0010
0000
,
1000
0000
0100
0010
0001
1000
0020
0000
0000
0000
0130
0001
1000
0000
1001
0000
,
0000
0000
0001
1000
0010
0000
0100
0000
0010
0000
1000
0001
0010
0100
1000
0000
,
0000
1100
0000
0101
0000
0011
0000
1010
,
0000
0000
0001
1000
0010
0000
0100
0000
0010
1000
0001
0010
0100
0000
1000
0000
,
1010
1010
1001
1001
0000
0110
1001
0000
,
0001
0010
0001
1000
0001
0100
0010
1000
,
0000
1100
1100
0101
0101
0000
1001
0000
,
0001
0000
0010
0000
0100
0000
1000
0001
1000
0100
1000
0000
0010
0000
0100
0000
,
0001
0010
0100
0001
1000
0010
0100
1000
,
0010
0000
0100
0000
0010
0000
1000
0001
0010
0100
0010
0000
0001
0000
1000
0000
,
0000
1010
1010
0011
0011
0000
1001
0000
,
2000
3200
0302
0203
0320
2030
3020
0001
,
0000
0230
2300
3002
0100
0000
2003
3200
,
0320
0032
0203
0320
0032
2003
3200
0320
,
0030
0000
0000
0000
0000
0000
0000
0000
1000
0100
0010
0001
1000
0010
0100
0010
,
1000
0000
0001
0010
0100
0000
1000
0001
0100
0000
0010
0000
2000
0000
0000
0000
,
3001
0000
0010
0100
0010
0000
0001
1000
0010
0000
0100
0001
2000
0000
0000
0000
,
3100
0000
0010
0001
1000
0000
0010
0100
0010
0000
1000
0000
0002
0000
0000
0000
,
0013
0000
0100
1000
0001
0000
0100
0010
1000
0000
0001
0010
0100
1000
0001
0000
,
1000
0000
0100
0001
0100
0000
1000
0000
0001
0100
1000
0000
0100
0000
0001
1000
,
0001
0000
0010
1000
0010
0000
0001
0000
1000
0010
0001
0000
0010
0000
1000
0001
,
0010
0000
0100
1000
0001
0000
0100
0000
0001
1000
0100
1000
0001
0010
0100
0000
,
1000
0000
0002
0000
0203
0000
2300
0000
3100
0000
0010
0000
1000
0000
0001
1000
,
0002
0000
0010
0000
0100
0100
0103
0000
,
0020
0000
1000
0130
0020
0000
0001
0130
0020
0000
2030
0000
3001
0000
0020
0000
,
1030
0020
0130
1000
0001
0200
0320
2030
,
3001
0010
0100
0000
1000
0001
0100
0000
0010
1000
0002
0000
1003
0000
1001
0000
,
0000
1100
0101
0000
0110
0000
0000
0000
,
0000
0000
0000
0000
0000
0000
0000
0000
0001
0010
0100
0000
1100
0000
0110
0000
,
0000
0001
0100
1000
0100
0001
1000
1001
,
0000
0000
0110
0000
0000
0000
1001
0000
0000
0001
0100
0010
0100
0000
0101
0000
,
0000
0000
0000
0000
0000
0000
0000
1010
,
0000
0011
0000
0000
0000
0000
1100
1001
,
0000
0000
0000
0000
0000
0000
0110
1001
,
0000
0000
0102
0000
1003
0000
0012
0000
1003
0100
0010
0001
1000
0010
0100
0010
,
1000
0000
0001
0000
0010
0000
1000
0000
0001
0000
0100
0010
0001
0000
1000
0000
,
1010
0000
0010
0000
0100
0000
0101
0000
0000
0000
1000
0100
0010
0000
0000
0000
,
0011
1000
0001
0201
1300
1200
0301
1001
,
0000
0000
1010
0000
1010
0000
0101
0000
0101
0000
1000
0001
1001
0000
0000
0000
,
0101
0000
0000
0000
1100
0000
0000
0000
0101
0000
0001
1000
0010
0000
0100
0000
,
0020
0000
1000
0130
0020
0000
0001
0130
0010
1000
0001
0010
0100
0000
0000
0000
,
1010
0000
0000
0000
0011
0000
0000
0000
1010
0000
1000
0001
0010
0000
0100
0000
,
0020
0000
0001
1030
0020
0000
1000
0031
0010
0100
0010
0001
1000
0000
0001
0000
,
0011
0000
0000
0000
1010
0000
0000
0000
0101
0000
1000
0100
0010
0000
0001
0000
,
0200
0000
0001
0310
0200
0000
1000
0310
0100
0010
1000
0001
0010
0000
0000
0000
,
0011
0000
0000
0000
0000
0000
1010
0000
0000
0001
1000
0001
1000
0000
0000
1100
0000
0000
0001
0000
0000
0101
0000
0000
,
0000
0000
1000
0100
0010
0001
1000
0100
0010
0001
1000
0100
0010
0000
0011
0000
;

//--------------- dance-double - Fred-104 ----------------
#NOTES:
     dance-double:
     Fred-104:
     Easy:
     6:
     :
00000000
00000000
00000000
00000000
,
00000000
00000000
00000000
00000000
,
00000000
00000000
00000000
00000000
,
00000000
00000000
00000000
00000000
,
00000000
00000000
00000000
00000000
,
10000000
00000000
00100000
00000000
,
00010000
00001000
00010000
00001000
,
00000010
00000000
00000100
00000000
,
00001001
00000000
00000000
00000000
,
00000001
00000100
00002000
00003000
,
00000100
00000001
00001000
00000100
,
00010000
00001000
00020000
00030000
,
00001000
00010000
01000000
10000000
,
00010000
01000000
20000000
30000000
,
01000000
00010000
10000000
01000000
,
00100000
00010000
00200000
00300000
,
00001000
00010000
00000010
00010000
,
00001000
00000000
00010000
00000000
,
00001000
00000100
00000002
00000003
,
00001000
00000000
00000100
00000000
,
00000010
00000001
00002000
00003000
,
00000010
00000000
00010000
00000000
,
00001000
00010000
00200000
00300000
,
01000000
00010000
10000000
00000000
,
01000000
00100000
00110000
00000000
,
00001000
00010000
00100000
00000000
,
00010000
00001000
00000010
00000000
,
00001000
00010000
00001000
00000000
,
00100000
00010000
20000000
30000000
,
10000000
01000000
00010000
00000000
,
00001000
00000100
00000001
00000000
,
00000010
00000100
00010000
00000000
,
00001000
00010000
00002000
00003000
,
00011000
00000000
00001000
00000000
,
00010000
00000000
01000000
01000000
,
01000000
00000000
10000000
00000000
,
00100000
00000000
00010000
00001000
,
00010000
00000000
00001000
00000000
,
00000100
00000001
00000011
00000000
,
00000001
00000100
00001000
00010000
,
00001000
00000000
00000000
00000000
00010000
00000000
00000000
00022000
,
00000000
00000000
00000000
00000000
,
00033000
00000000
00000000
00000000
00000000
00001000
00000000
01000000
,
00000000
00001000
00010000
00000000
,
00001000
00000000
00010000
00100000
,
10000000
00000000
01000000
00000000
,
00100000
00001000
00010000
00000000
,
00001000
00000000
00000010
00000000
,
00000001
00000100
00001000
00000000
,
00010000
00000000
00001000
00000000
,
01000000
01000000
01000000
00000000
,
00020000
00030000
20000000
30000000
,
02000000
03000000
00020000
00030000
,
00002000
00003000
00000200
00000300
,
00000002
00000003
00000020
00000030
,
00001000
00000000
00010000
00000000
,
00001000
00010000
00100000
00000000
,
00010000
00000000
00001000
00000000
,
00011000
00000000
00000000
00000000
,
00001000
00000000
00010000
00000000
,
01000000
00000000
10000000
00000000
,
00010000
00000000
00100000
00000000
,
01000000
00000000
00100000
00000000
,
00001000
00000000
00000010
00000000
,
00000100
00000000
00001000
00000000
,
00000001
00000000
00000100
00000000
,
00001000
00001000
00001000
00000000
,
00010000
00000000
00001000
00000000
,
01000000
00010000
01000000
00000000
,
00001000
00010000
00001000
00000000
,
00100000
00000000
01000000
00000000
10000000
00000000
00000000
10000000
,
00000000
01000000
01100000
00000000
,
00000000
00000000
00001000
00010000
,
00000100
00000000
00000000
00000000
00010000
00000000
00000000
00001000
,
00000000
00000000
00000000
00011000
00000000
00000000
00000000
00011000
,
00000000
00000000
00000000
00000000
,
00000000
00000000
00000000
00000000
,
00001001
00000000
00000000
00000000
,
00000000
00000000
00000000
00000000
,
00000001
00000000
00000010
00000000
,
00000100
00001000
00000100
00000000
,
00010000
00001000
00100000
00000000
,
00001000
00001000
00001000
00000000
,
00010000
00010000
00020000
00030000
,
00001000
00010000
00100000
10000000
,
01000000
01000000
02000000
03000000
,
00010000
00001000
00000010
00000001
,
00000100
00000100
00000200
00000300
,
00001000
00010000
00100000
01000000
,
00010000
00010000
00020000
00030000
,
10000000
00000000
00000000
10010000
;

//--------------- dance-double - Fred-104 ----------------
#NOTES:
     dance-double:
     Fred-104:
     Medium:
     9:
     :
00000000
00000000
00000000
00000000
,
00000000
00000000
00000000
00000000
,
00000000
00000000
00000000
00000000
,
00000000
00000000
00000000
00000000
,
00000000
00000000
00000000
00000000
,
00000001
00000000
00000010
00000000
00000100
00000000
00000000
00010000
,
00000000
00001000
00000000
00010000
00001000
00000000
01000000
00000000
,
00001000
00000000
00010000
00000000
00100000
00000000
10000000
10010000
,
00000000
00000000
00000000
00000000
,
10000000
00000000
01000000
00000000
00010000
00000000
00000000
00001000
,
00000000
00000100
00000000
00000001
00001000
00000000
00001000
00000000
,
00000001
00000000
00000100
00000000
00001000
00000000
00000000
00010000
,
00000000
01000000
00000000
10000000
00010000
00000000
00010000
00000000
,
10000000
00000000
00100000
00000000
00010000
00000000
00000000
00001000
,
00000000
00000010
00000000
00000001
00001000
00000000
00001000
00000000
,
00000001
00000000
00000010
00000000
00001000
00000000
00000000
00010000
,
00000000
00100000
10000000
00010000
10000000
00000000
10000000
00000000
,
01000000
00000000
01000000
00000000
01000000
00000000
00000000
00100000
,
00001000
00010000
00001000
00000010
,
00000100
00000000
00001000
00000000
00000100
00000000
00000000
00000010
,
00000001
00001000
00000010
00010000
,
00001000
00010000
00002000
00000000
00000000
00000000
00103000
00000000
,
00001000
00000000
00000000
00010000
00000000
00000000
00100000
00000000
,
01000000
00000000
00100000
00000000
10000000
00000000
01000000
01000000
,
00000000
00010000
00001000
00000000
00010000
00001000
00010000
00000000
,
00001000
00000000
00010000
00000000
00001000
00000000
00000000
00010000
,
00001000
00000000
00000100
00000000
00000010
00000000
00010000
00001000
,
00000100
00000000
00000001
00000000
00000001
00000000
00000000
00000010
,
00000100
00010000
00001000
00010000
,
00000010
00001000
00000020
00000000
00000000
00000000
00010030
00000000
,
00001000
00000000
00001000
00010000
00000000
00100000
01000000
00100000
,
00000000
10000000
01000000
00100000
00000000
00001000
00010000
00000000
,
00100000
01000000
00100000
01000000
00010000
00000000
10010000
00000000
,
10000000
00000000
00000000
01000000
00000000
00000000
00010000
00000000
,
00002000
00010000
00013000
00001000
,
01000000
00010000
00001000
00000010
,
00010000
00000000
00001000
00000000
01000000
00010000
01000000
00000000
,
00020000
10000000
10030000
01000000
,
00100000
00000000
00001000
00000000
00010000
00000000
00000000
00011000
,
00000000
00010000
00001000
00000100
,
00000001
00000000
00000010
00001000
00000000
00010000
00000000
00022000
,
00000000
00000000
00000000
00000000
00000000
00033000
00000000
00011000
,
00000000
00001000
00000000
00011000
00000000
00020000
00000000
00032000
,
00000000
01003000
01000000
00000000
00100000
00000000
10000000
00000000
,
01000000
00000000
00000000
00100000
00000000
00001000
00000000
00010000
,
00000000
00000000
00001000
00000000
00000100
00000000
00000001
00000001
,
00000000
00000110
00000000
00010000
00000000
00011000
00000000
00001000
,
00000000
00100000
00010000
00100000
00000000
00100000
01000000
00000000
,
10000000
00000000
00000000
00100000
00000000
00000000
00010000
00000000
,
00001000
00000000
00000000
00000010
00000000
00000100
00000000
00001001
,
00000000
00000001
00000100
00000001
00000100
00000000
00011000
00000000
,
00001000
00000000
00010000
00000000
00100000
10000000
01000000
00000000
,
10000000
00000000
10000000
00000000
01000000
00100000
01000000
00100000
,
00001000
00000000
00010000
00000000
00001000
00000000
00000100
00000001
,
00000000
00000010
00000100
00000010
00000100
00000000
00011000
00000000
,
00010000
00001000
00000100
00000001
,
00000010
00000000
00001000
00000000
00010000
00001000
00010000
00000000
,
00001000
01000000
00010000
00000000
10000000
00000000
01000000
01000000
,
00000000
00000000
00000000
00000000
00000000
00100000
00001000
00010000
,
00001000
00000000
00000000
00010000
00000000
00000000
00100000
00000000
,
00010000
00000000
00000000
00001000
00000000
00000000
00000010
00000000
,
00001000
00000000
00000000
00010000
00000000
00000000
01000000
00000000
,
00010000
00000000
00000000
00001000
00000000
00000000
00000100
00000000
,
00001000
00000000
00000000
00010000
00000000
00000000
01000000
00000000
,
10000000
00000000
00000000
01000000
00000000
00000000
00010000
00000000
,
00001000
00000000
00000000
00000100
00000000
00000000
00000001
00000000
,
00001000
00000100
00000010
00000001
00000000
00000100
00000000
00000110
,
00000000
00001000
00010000
00100000
,
10000000
01000000
00010000
00000000
00001000
00010000
01000000
00000000
,
10000000
00100000
00010000
00000000
00001000
00000000
00000010
00000000
,
00000100
00000000
00001000
00000000
00000001
00000001
00000000
00000110
,
00000000
00000001
00000100
00001000
00010000
00000000
00000000
00000000
,
00000000
00000000
00000000
00000000
00010000
00100000
00010000
00100000
,
00000000
10000000
00100000
00000000
00010000
00000000
00100000
00001000
,
00000000
00010000
00000000
00011000
00000000
00000010
00000000
00001001
,
00000000
00000000
00000000
00000000
00000000
00000000
00000000
00001000
,
00000000
00010010
00000000
00000000
00000000
00000000
00001000
00001000
,
00000000
00000000
00000000
00000000
00000000
00000000
00010000
00010000
,
00000000
00011000
00000000
01001000
00000000
00001000
00010000
01000000
,
00000000
10000000
01000000
00100000
00000000
00010000
00100000
00000000
,
00001000
00000000
00010000
00001000
00000000
00000010
00001000
00000000
,
00010000
00001000
00010000
00000000
00001000
00000000
00000100
00000001
,
00000000
00001000
00000100
00001000
00000100
00000000
00000011
00000000
,
00001000
00000000
00000001
00000000
00000100
00000100
00000000
00001000
,
00000000
00010000
00000000
00001000
00010000
00000000
00100000
00000000
,
10000000
00000000
01000000
00000000
00100000
00100000
00000000
00001000
,
00000000
00010000
00000000
00001000
00000100
00000000
00000010
00000000
,
00001000
00000000
00000001
00000000
00000010
00000010
00000000
00001000
,
00000000
00010000
00001000
00010000
00001000
00000000
00010000
00000000
,
00100000
00000000
10000000
00000000
00010000
00010000
00000000
10010000
,
00000000
10000000
01000000
00010000
00001000
00000000
00000100
00000001
;

//--------------- dance-double - Fred-104 ----------------
#NOTES:
     dance-double:
     Fred-104:
     Hard:
     12:
     :
00000000
00000000
00000000
00000000
,
00000000
00000000
00000000
00000000
,
00000000
00000000
00000000
00000000
,
00000000
00000000
00000000
00000000
,
00000000
00000000
00000000
00000000
,
00010000
00001000
00010000
00000100
00000010
00000100
00000010
00000001
,
00000000
00000100
00001000
00010000
00001000
00000000
01000000
00010000
,
10000000
01000000
10000000
01000000
00010000
00001000
00010000
00001000
,
00000000
00000000
00000010
00000010
00000010
00000000
00000011
00000000
,
00001000
00000000
00001001
00000000
00010010
00000000
00000000
00011000
,
00000000
00101000
00000000
01000000
00100000
00000000
10010000
00000000
,
10000000
00000000
01100000
00000000
00110000
00000000
00000000
00101000
,
00000000
00010010
00000000
00000010
00000100
00000001
00001001
00000000
,
00000100
00000000
00011000
00000000
01001000
00000000
00000000
00010100
,
00000000
00101000
00000000
00001000
00011000
00000000
00010010
00000000
,
00011000
00000000
00000000
00000000
01010000
00000000
00000000
10000000
01000000
00000000
00100000
00000000
00001000
00000000
00001000
00000000
,
00000000
00000000
00010000
00000000
00010000
00000000
00000100
00000000
00001000
00000001
00001000
00000001
00000100
00000000
00001000
00000000
,
00010000
00000000
00001000
00000000
00001000
00000000
00000000
00010000
,
00001000
00010000
00100000
01000000
00100000
10000000
01000000
00100000
,
00001000
00000000
00010000
00000000
00010000
00000000
00000000
00001000
,
00010000
00001000
00000100
00000010
00000100
00000001
00001000
00000001
,
00001000
00000200
00000001
00000000
00000010
00000000
00001300
00000001
,
00001000
00000100
00000010
00001000
00000000
00010000
01000000
00100000
,
00010000
10000000
00000000
00100000
00010000
00100000
01000000
00100000
,
00000000
00010000
00001000
00010000
00000100
00000010
00000001
00001000
,
00000001
00000000
00000100
00000000
00000100
00000000
00000000
00000010
,
00001000
00000001
00000010
00000100
00010000
00001000
00100000
00001000
,
00010000
00000000
00001000
00000000
00001000
00000000
00000000
00010000
,
00001000
00000100
00000010
00001000
00000100
00000010
00001000
00010000
,
00001000
00020000
00000100
00000000
00001000
00000000
00030010
00001000
,
00000001
00000010
00000100
00000010
00000000
00001000
00010000
00011000
,
00000000
00001000
01000000
00010000
10000000
01000000
00100000
00001000
,
00010000
00010000
00001000
00001000
00000000
00000010
00000110
00000000
,
00001000
00000000
00000000
00000001
00000010
00000000
00000100
00010000
,
00002000
00000000
00010000
00000000
00000100
00000000
00013000
00001000
,
01000000
00001000
00010000
00001000
01000000
01000000
00000000
00100000
,
10000000
00010000
00100000
01000000
00010000
00001000
00010000
00000010
,
00020000
00000000
00001000
00000000
00000100
00000000
00031000
00010000
,
00002000
00000000
00010000
00000000
00013000
00000100
00000010
00000001
,
00000000
00000100
00000010
00000100
00001000
00010000
00100000
01000000
,
00010000
10000000
01000000
00010000
00000000
00001000
00010000
00022000
,
00000000
00000000
00000000
00000000
00000000
00000000
00033000
00010010
,
00000000
00101000
00000000
00011000
00000000
00002000
00000000
00023000
,
00000000
00031000
00001000
00000000
00100000
00010000
00100000
01000000
,
10000000
00010000
01000000
00100000
00000000
00010000
00001000
00000100
,
00000000
00000010
00001000
00000100
00010000
00001000
00010000
00011000
,
00000000
01001000
00000000
00010100
00000000
00101000
00000000
00010010
,
00000000
00001000
00010000
00100000
01000000
10000000
01000000
00010000
,
10000000
01000000
01000000
00100000
00000000
00001000
00010000
00001000
,
00001000
00010000
00001000
00000100
00000000
00000010
00000000
00001001
,
00000000
00000100
00000100
00000100
00000100
00000000
00011000
00000000
,
00001000
00100000
00001000
00100000
00010000
10000000
00010000
00000000
,
10000000
01000000
10000000
00000000
01000000
00100000
01000000
00000000
,
00100000
00001000
00010000
00001000
01000000
00000000
00001000
00010000
,
00000000
00000100
00000100
00000100
00000100
00000000
00001001
00000000
,
00000001
00000100
00000001
00000100
00001000
00010000
00001000
00010000
,
00000000
01000000
10000000
01000000
10000000
00000000
00010000
10000000
,
00100000
10000000
00100000
00010000
00001000
00000010
00000001
00000010
,
00000000
00000000
00000000
00000000
00000000
00000001
00001000
00000010
,
00010000
00000000
00000000
00001000
00000000
00100000
00010000
00000000
,
10000000
00000000
00000000
01000000
00000000
00100000
00001000
00000000
,
00010000
00000000
00000000
00000010
00000000
00000100
00000001
00000000
,
00001000
00000000
00000000
00000001
00000000
00000100
00001000
00000000
,
00010000
00000000
00001000
00100000
00000000
00010000
10000000
00000000
,
01000000
00000000
00100000
00001000
00000000
00010000
00000010
00000000
,
00001000
00000000
00000100
00000010
00000000
00000100
00000001
00000000
,
00000100
00000000
00001000
00000000
00000001
00000000
00000100
00000000
00000000
00000000
00011000
00000000
00000000
00000000
00010000
00001000
,
00010000
00000000
01100000
00000000
10000000
00100000
00010000
00001000
,
00010000
00001000
00010000
00001000
00000010
00000100
00000010
00000001
,
00000010
00000200
00001000
00000000
00001300
00000010
00010000
00001000
,
00010000
00000000
00001000
00000000
00010000
00010000
00000000
00011000
,
00000000
00001000
00010000
00100000
01000000
00000000
00000000
00000000
,
00000000
00000000
00000000
00000000
00000000
00000000
00000000
00000000
00010000
00100000
00010000
00000000
10000000
00000000
00100000
00000000
,
00000000
00010000
00001000
00000100
00000010
00000000
00001000
00000001
,
00000000
00000011
00000000
00001010
00000000
00010000
00001000
00011000
,
00000000
00000000
00000000
00000000
00000000
00000000
00000000
00011000
,
00000000
01001000
00000000
00000000
00000000
00000000
01000000
01100000
,
00000000
00000000
00000000
00000000
00000000
00000000
10000000
11000000
,
00000000
00110000
00000000
10000000
01000000
00010000
00001000
00010000
,
00000000
00001000
00010000
00001000
00000000
01000000
00001000
00000000
,
00010000
00001000
00000100
00000001
00000000
00000010
00000100
00000000
,
00001000
00001000
00000001
00000100
00001000
00010000
00100000
01000000
,
00000000
00010000
00010000
00010000
00010000
00000000
10010000
00000000
,
10000000
01000000
00100000
00000000
00001000
00001000
00000000
00010000
,
00000000
00000100
00001000
00000100
00000010
00000000
00001001
00000000
,
00000100
00010000
00001000
00000000
00010000
00010000
00000000
00000010
,
00000000
00001000
00010000
01000000
00100000
10000000
10010000
00000000
,
01000000
00000000
10010000
00000000
10000000
01000000
00010000
00001000
,
00000000
00000010
00000100
00001000
00000010
00010000
00001000
00000000
,
00010000
00000000
00000110
00000000
00000001
00001000
00000100
00000011
,
00000000
00000001
00000100
00001000
00010000
00000000
00011000
00011000
;

//--------------- dance-double - Fred-104† ----------------
#NOTES:
     dance-double:
     Fred-104†:
     Challenge:
     16:
     :
00000000
00000000
00000000
00000000
,
00000000
00000000
00000000
00000000
,
00000000
00000000
00000000
00000000
,
00000000
00000000
00000000
00000000
,
00000000
00000000
00000000
00000000
,
00001000
00010000
01000000
00100000
01000000
10000000
00200000
00010000
,
00000000
00310000
00001000
00000200
00000001
00000000
00000310
00001000
,
00000001
00000010
00000100
00001000
00010000
00100000
01000000
10000000
,
00000000
00000000
00000000
00000000
00010000
00000000
00010000
00000000
00010000
10000000
01000000
00100000
00001000
00010000
00001000
00000000
,
00020000
00001000
00030020
00001000
00010030
00001000
00000100
00000101
,
00000000
00000011
00000000
00001010
00011000
00000000
01001000
00000000
,
00002000
00010000
00203000
00010000
00301000
00010000
00100000
01100000
,
00000000
00000000
11000000
00000000
00000000
00000000
01010000
00000000
10000000
01000000
00100000
00010000
00100000
00000000
00001000
00000000
,
00020000
00001000
00030200
00001000
00000310
00000001
00000010
00000110
,
00000000
00011000
00000000
01100000
01010000
00000000
10010000
00000000
,
02100000
00000000
10000000
03010000
02000000
00000000
00010000
13000000
01000000
00000000
00100000
00000000
00001000
00000000
00011000
00000000
,
00000000
00000000
00011000
00000000
00010100
00000000
00011000
00000000
00010000
00001000
00010000
00001000
00000100
00000001
00000100
00000001
,
00001000
00000000
00000000
00000000
00000110
00000000
00000000
00000000
00001001
00000000
00000000
00000000
00000000
00000000
00000001
00000010
,
00000100
00000000
00010000
00001000
00100000
00000000
00010000
10000000
00100000
00000000
01000000
00001000
00010000
00000000
00001000
00000000
,
00010000
00000000
00000000
00000000
01001000
00000000
00000000
00000000
01010000
00000000
00000000
00000000
00000000
00000000
10000000
00010000
,
00100000
00000000
00001000
00010000
00000010
00000000
00001000
00000001
00000010
00000000
00000100
00010000
00001000
00000000
00010000
00000000
,
01000000
00000000
10000000
00000000
00010000
00000000
00100000
00000000
01000000
00000000
00100000
00000000
00001000
00000000
00000010
00000100
,
00001000
00000000
00000010
00000100
00001000
00000000
00010000
00000000
00100000
00000000
01000000
00000000
00010000
00000000
00100000
00000000
,
01000000
00000000
20000000
00000000
00000000
00000000
30100000
00000000
00010000
00001000
00010000
00000000
00001000
00000000
00011000
00000000
,
00000000
00000000
00010000
00000000
00001000
00000000
00000100
00000000
00000001
00000100
00000001
00000010
00000100
00010000
00001000
00010000
,
00001000
00000000
00000000
00000000
00010010
00000000
00000000
00000000
00110000
00000000
00000000
00000000
00001000
00000000
00100000
00010000
,
10000000
00000000
00010000
00100000
01000000
00000000
00100000
00001000
00010000
00000000
00001000
00000100
00000001
00000000
00000010
00000000
,
00000100
00000000
00000000
00000000
00010100
00000000
00000000
00000000
01010000
00000000
00000000
00000000
00001000
00000000
00010000
00001000
,
01000000
00000000
00010000
00100000
01000000
00000000
10000000
00100000
00010000
00000000
00001000
00010000
00001000
00000000
00000100
00000000
,
00000010
00000000
00001000
00000000
00000100
00000000
00000010
00000000
00000001
00000000
00000100
00000000
00001000
00000000
00010000
00001000
,
00010000
00000000
00100000
01000000
00010000
00000000
10000000
00000000
00100000
00000000
00010000
00000000
00001000
00000000
00011000
00000000
,
00000000
00000000
00010000
00000000
00001000
00000100
00000001
00000000
00001000
00000100
00000010
00000000
00000001
00000000
00001000
00000010
,
00000100
00000000
00000100
00000000
00000010
00000000
00000110
00000000
00000000
00000000
00000001
00001000
00000100
00010000
00001000
00000000
,
00010000
00001000
00000100
00000010
00010000
00001000
00000010
00000100
,
00001000
00000000
00010000
00000000
00100000
00000000
01000000
00000000
10000000
00100000
10000000
00100000
00010000
00000000
00001000
00000000
,
00010000
00001000
00000010
00000001
00001000
00000010
00000100
00001000
,
00010000
00000000
00100000
00000000
10000000
00000000
00010000
00000000
00100000
01000000
10000000
00000000
01000000
00100000
00001000
00000000
,
00011000
00000000
00000000
00010100
00000000
00000000
00001100
00000000
00000000
00000000
00001000
00000100
00000010
00000000
00000001
00000000
,
00001000
00000000
00000001
00001000
00000010
00000000
00010000
00001000
00100000
00000000
00001000
00000000
00010000
00000000
00011000
00000000
,
00000000
00010000
00001000
00000010
00000100
00000010
00000001
00001000
,
00000100
00010000
01000000
00100000
00000000
00010000
10000000
20200000
,
00000000
00000000
00000000
00000000
00000000
00000000
30300000
11000000
,
00000000
00110000
00000000
00001010
00000000
00000101
00000000
00001001
,
00000000
00000000
00000001
00000010
00000100
00000000
00000100
00000000
00010000
00001000
00010000
00000000
00000100
00000000
00010000
00000000
,
00001000
00000000
00100000
00010000
10000000
00010000
02000000
00000000
00000000
00000000
03100000
10000000
01000000
00000000
01100000
00000000
,
00000000
00000000
00001000
00010000
00001000
00000000
00001000
00000000
00010000
00000100
00001000
00000000
00000100
00000010
00000001
00000000
,
00000000
00000011
00000000
00001100
00000000
01010000
00000000
10100000
,
00000000
00000000
00010000
10000000
01000000
00000000
00100000
00000000
00001000
00010000
00000010
00010000
00001000
00000000
00010000
00000000
,
00010100
00010000
00011000
00010000
00000000
00011000
00010010
00000000
,
00010000
00001000
00000010
00000100
00001000
00000001
00000010
00001000
,
00000000
00011000
00011000
00011000
00011000
00000000
10010000
00000000
,
10000000
00000000
00100000
00000000
00010000
00000000
00001000
00010000
00001000
00010000
00001000
00000000
00000010
00000000
00000001
00000000
,
00001000
00000010
00000100
00001000
00010000
00100000
10000000
00010000
,
00100000
00000000
10000000
00000000
00100000
00000000
00001000
00010000
00001000
00010000
00001000
00000000
00000100
00000000
00000010
00000000
,
00000000
00000110
00000110
00000110
00000110
00000000
00001001
00000000
,
00000002
00000023
00000230
00020300
00032000
00203000
02300000
10000000
,
00000000
03200000
00302000
00023000
00000010
00000000
00032000
00023000
,
00030200
00000320
00000032
00000203
00002300
00023000
00230000
20300000
,
30000000
00000000
00000000
00000000
00000000
00000000
00000000
00000000
00001000
00010000
00001000
00010000
00001000
00000000
00010000
00000000
,
00000100
00000000
00001000
00000100
00000010
00000000
00000001
00001000
00000010
00000000
00010000
00000000
00002000
00000000
00000000
00000000
,
00013000
00000000
00000100
00001000
00000001
00000000
00000010
00000100
00001000
00000000
00000100
00000000
00020000
00000000
00000000
00000000
,
00031000
00000000
00100000
00010000
10000000
00000000
00010000
01000000
00001000
00000000
00010000
00000000
00002000
00000000
00000000
00000000
,
00013000
00000000
00001000
00000100
00000010
00000000
00001000
00000100
00000010
00000000
00000001
00000000
00001000
00000010
00000100
00000000
,
00000001
00000000
00000010
00000100
00000010
00000000
00000001
00000000
00000100
00001000
00010000
00000000
00001000
00000000
00010000
00001000
,
00100000
00000000
00010000
10000000
00100000
00000000
10000000
00000000
00100000
00010000
00001000
00000000
00010000
00000000
00001000
00000100
,
00000010
00000000
00001000
00000001
00000010
00000000
00000100
00000000
00001000
00000100
00001000
00000100
00010000
00000000
00001000
00000000
,
00010000
00000000
00002000
00000000
00003020
00000000
00000032
00000000
00000103
00000000
00001000
00000000
00010000
00000000
00001000
01000000
,
00002000
00000000
01000000
00000000
00010000
00010000
00013000
00000000
,
00002000
00000000
00010000
00003010
00002000
00000000
00000010
00013000
00002000
00000000
00023000
00000000
00130000
00000000
20000000
00000000
,
30010000
00200000
10300000
00010000
01000000
00200000
00320000
20030000
,
31000000
00000000
00010000
00000000
00001000
00000000
00000100
00000000
00000001
00001000
00000001
00001000
00000100
00000000
00000110
00000000
,
00000000
00000011
00001001
00000000
00010100
00000000
00000000
00000000
,
00000000
00000000
00000000
00000000
00000000
00000000
00000000
00000000
01000000
00010000
10000000
00000000
11000000
00000000
01100000
00000000
,
00000000
10000000
00100000
00010000
00001000
00010000
00001000
00011000
,
00000000
00000000
00000110
00000000
00000000
00000000
00001001
00000000
00000000
00000001
00000010
00000100
00001000
00000000
00001001
00000000
,
00000000
00000000
00000000
00000000
00000000
00000000
00000000
00010100
,
00000000
01001000
00000000
00000000
00000000
00000000
00010010
00011000
,
00000000
00000000
00000000
00000000
00000000
00000000
00101000
00011000
,
00000000
00000000
00010010
00000000
00000000
00000000
00000101
00000000
00000001
00001000
00000100
00000010
00000001
00001000
00000010
00000000
,
00000100
00000000
00001000
00000000
00010000
00000000
00100000
10000000
00010000
00000000
00100000
00000000
01000000
00000000
10000000
00000000
,
11000000
00000000
01000000
00000000
00100000
00000000
00110000
00000000
00000000
00000000
10000000
00100000
00010000
00000000
00001000
00000000
,
00011000
00010000
00000010
00001010
00001000
00000001
00000010
00000110
,
00000000
00011000
00011000
00011000
00011000
00000000
01100000
00000000
,
11000000
00000000
01010000
00000000
10000000
00100000
00001000
00000010
,
00010000
00000000
00001000
00000000
00000100
00000000
00000001
00000000
00001000
00000100
00000010
00000001
00001000
00000000
00000000
00000000
,
00000110
00000000
00001001
00000000
00000001
00000010
00010000
00100000
,
00001000
00000000
00010000
00000000
01000000
00000000
10000000
00000000
00010000
01000000
00010000
01000000
00100000
00000000
00000000
00000000
,
01100000
00000000
00000000
00000000
10010000
00000000
00000000
00000000
10000000
00000000
00100000
00010000
00100000
00000000
10000000
00000000
,
01000000
00000000
00100000
00001000
00010000
00000000
00001000
00000100
00000010
00000000
00001000
00000001
00000010
00000000
00000000
00000000
,
00000110
00000000
00000000
00000000
00000000
00000000
00001001
00000000
00000000
00000001
00000100
00000001
00000100
00000000
00000000
00000010
00000000
00000000
00010000
00000000
00000000
00011000
00000000
00000000
,
00000000
00000000
00001000
00100000
00010000
00100000
00010000
01000000
00010000
00100000
00001000
00010000
00001000
00000000
00011000
00000000
;
