#TITLE:Chronoxia;
#ARTIST:DJ Totoriott;
#BANNER:Chronoxia.png;
#BACKGROUND:Chronoxia-bg.png;
#CDTITLE:./CDTitles/RB groovin'!!.png;
#MUSIC:Chronoxia.ogg;
#SAMPLESTART:82.084;
#SAMPLELENGTH:15;
#BPMS:0=180;
#BGSTAGE:16;

//--------------- dance-single - Fred-104 ----------------
#NOTES:
     dance-single:
     Fred-104:
     Beginner:
     5:
     :
0000
0000
0000
0000
,
0000
0000
0000
0000
,
0000
0000
0000
0000
,
0000
0000
0000
0000
,
0000
0000
0000
0000
,
0000
0000
0000
0000
,
0000
0000
0000
0000
,
0000
0000
0000
0000
,
0000
0000
0000
0000
,
0000
0000
0000
0000
,
1001
0000
0001
0000
,
1000
0000
0100
0100
,
0100
0000
0001
0000
,
0100
0000
1000
1000
,
1000
0000
0010
0000
,
0100
0000
0001
0000
,
1000
1000
1000
1000
,
2000
0000
3000
0000
,
1001
0000
0000
0000
,
0000
0000
0000
0000
,
1001
0000
0000
0000
,
0000
0000
0000
0000
,
0001
0000
1000
0000
,
0001
0000
0100
0000
,
0001
0000
0010
0000
,
0001
0000
1000
1000
,
1000
0000
0001
0000
,
1000
0000
0010
0010
,
0010
0000
0100
0000
,
0010
0000
1000
1000
,
1000
0000
0001
0000
,
1000
0000
0001
0001
,
0001
0000
0100
0000
,
1000
0000
0010
0010
,
0010
0000
0001
0000
,
1000
0000
0001
0001
,
0001
0000
1000
0000
,
0010
0000
1000
1000
,
1000
0000
0001
0000
,
1000
0000
0001
0000
,
0100
0000
0010
0000
,
1001
0000
0110
0000
,
2000
0000
0000
0000
,
3020
0000
0230
0300
,
0002
0000
0000
0000
,
0023
0000
0230
0000
,
2300
0000
0000
0000
,
3002
0000
0203
0000
,
0302
0000
2003
0000
,
3001
0001
1000
1000
,
2002
0000
3003
0000
,
0002
0000
0003
0000
,
0200
0300
0020
0030
,
2000
3000
0200
0300
,
2000
0000
0000
3000
,
0002
0000
2003
0000
,
3002
0000
0000
0000
,
2000
0000
3003
0000
,
0001
0000
0100
0000
,
0010
0000
1000
0000
,
0001
0000
1000
0000
,
0001
0001
1001
0000
,
1000
0000
0010
0000
,
2000
0000
3100
0000
,
1000
0000
0010
0000
,
0100
0010
0100
0000
,
0001
0000
1000
0000
,
0002
0000
0103
0000
,
0001
0000
0010
0000
,
0001
1000
0001
0000
,
1000
0000
0100
0000
,
2000
0000
3010
0000
,
0100
0000
0010
0000
,
0100
0001
0100
0000
,
0001
0000
1000
0000
,
0200
0000
0310
0000
,
0001
0000
1000
0000
,
0001
1000
0001
0000
,
1000
0000
0010
0000
,
0100
0010
0100
0000
,
0001
0000
1000
0000
,
0001
0010
0001
0000
,
0100
0000
0010
0000
,
1000
0010
1000
0000
,
0001
0001
1000
1000
,
0001
0000
0001
0000
1000
0000
0000
1001
;

//--------------- dance-single - Fred-104 ----------------
#NOTES:
     dance-single:
     Fred-104:
     Easy:
     9:
     :
0000
0000
0000
0000
,
0000
0000
0000
0000
,
0000
0000
0000
0000
,
0000
0000
0000
0000
,
0000
0000
0000
0000
,
0000
0000
0000
0000
,
0000
0000
0000
0000
,
0000
0000
0000
0000
,
0000
0000
0000
0000
,
0000
0000
0000
0000
,
1001
0000
0001
0000
,
0100
0000
0001
0100
,
1000
0000
0100
0000
,
0001
0000
1000
0010
,
0100
0000
0001
0000
,
1000
0000
0010
0001
,
0010
0000
1000
0001
,
1000
0000
0010
0000
0100
0001
0100
0000
,
1001
0000
0001
0000
,
0100
0000
0010
1000
,
0100
0100
0000
0000
1000
0000
0000
0000
,
0010
0000
0100
0001
,
1000
0100
0001
0100
,
1000
0010
0001
0010
,
1000
0100
0010
0001
,
0100
0000
0010
0000
0100
0010
0100
0000
,
0001
0000
0010
0000
0001
1000
0001
0000
,
0200
0000
0310
1000
,
0100
0000
1000
0000
0001
0100
0001
0000
,
0020
0000
0031
1000
,
0001
0000
1000
0000
0100
0010
0100
0000
,
0020
0000
0031
1000
,
0001
0100
1000
0100
,
0001
0000
1000
0000
0001
1000
0001
0000
,
0100
0000
0010
0000
1000
0100
1000
0000
,
0020
0000
0130
0010
,
0100
0000
0001
0000
1000
0001
1000
0000
,
0200
0000
0310
0001
,
1000
0000
0000
0001
0100
0000
0010
0000
,
1000
0000
0001
1000
0001
0000
0100
0000
,
0110
0000
0010
1000
,
1100
0000
0011
0000
,
1000
1000
0100
0100
,
0010
0010
0001
1000
,
0001
0001
0100
0100
,
0010
0010
1000
0001
,
0100
0100
0010
0010
,
0100
0001
1000
0001
,
1000
1000
0100
0100
,
0001
0001
0010
1000
,
1002
0000
0000
0000
,
0203
0000
0000
0000
,
0320
0000
2030
3200
,
0302
0203
2300
3002
,
0023
0000
0032
0000
,
0203
0000
0310
1000
,
0100
0200
0000
0000
2300
0000
0000
0000
,
0002
0000
3003
0000
,
1000
1000
0010
0010
,
0001
0001
1000
1000
,
0100
0100
0001
0001
,
1000
0001
1000
0001
1000
0000
0000
0000
,
0002
0000
0203
0000
,
0301
0010
1000
0010
,
0002
0000
1003
0010
,
0100
0000
0010
0100
0000
0010
1000
0000
,
0200
0000
2300
0000
,
3001
0010
0100
0001
,
0100
0010
0001
1000
,
0001
1000
1001
0000
,
2000
0000
3200
0000
,
0301
0000
0100
0000
1000
0000
0010
0100
,
0010
1000
0010
0100
,
0001
0000
1000
0001
0000
0100
0001
0000
,
2000
0000
3200
0000
,
0301
0000
1000
0000
0010
0000
0001
1000
,
0001
0000
0100
0000
0010
1000
0010
0000
,
0100
0001
0100
0001
0100
0001
1000
0000
,
1000
0000
0100
0000
0001
0100
0001
0000
,
0100
0000
1000
0000
0001
0010
0001
0000
,
1000
0000
0010
0000
0001
0010
0001
0000
,
0010
0000
0100
0000
0001
1000
0001
0000
,
1000
0000
0100
0000
0010
0100
0010
0000
,
0100
0000
1000
0000
0001
1000
0001
0000
,
1000
0010
1000
0000
0001
0100
0001
0000
,
1000
0001
1000
0000
0001
1000
0001
1001
;

//--------------- dance-single - Fred-104 ----------------
#NOTES:
     dance-single:
     Fred-104:
     Medium:
     13:
     :
0000
0000
0000
0000
,
0000
0000
0000
0000
,
0000
0000
0000
0000
,
0000
0000
0000
0000
,
0000
0000
0000
0000
,
0000
0000
0000
0000
,
0000
0000
0000
0000
,
0000
0000
0000
0000
,
0000
0000
0000
0000
,
0000
0000
0000
0000
,
1100
0000
0010
0000
,
0001
0000
1000
0001
,
0100
0000
0010
0000
,
1000
0000
0001
0100
,
0101
0010
1000
0100
,
0110
0001
1000
0100
,
1001
0100
0110
0010
,
1001
0000
0001
0100
1000
0100
0010
1000
,
1100
0000
0001
0000
,
1000
0000
0100
0010
,
0011
0011
0000
0000
0001
0000
0000
0000
,
0100
0000
0010
1000
,
0001
0000
0000
0001
0100
0000
0000
0100
0010
0000
1000
0000
0010
0000
0100
0000
,
0010
0000
0000
0010
1000
0000
0000
1000
0100
0000
0010
0000
0001
0000
1000
0000
,
0001
0100
0001
0100
1000
0100
1000
0100
,
0001
0010
0100
1000
0010
0100
0001
0000
,
1000
0100
0010
0100
1000
0001
0100
0010
,
0200
0001
1000
0320
,
1030
0001
0100
0001
0010
0100
0010
0001
,
0200
0000
0010
0000
0001
0000
0310
1000
,
0001
0100
0001
1000
0010
1000
0001
0010
,
0200
1000
0010
2300
,
3001
0010
0001
0010
1000
0010
1000
0010
,
0001
0100
0010
1000
0100
0010
0001
0000
,
1000
0010
1000
0010
0100
0001
0010
0001
,
1000
0010
0200
0000
0310
1000
0002
0000
,
1003
0100
1000
0010
0100
0001
0010
0001
,
0200
0000
0320
0000
1030
0001
1001
0000
,
0110
0000
0000
1000
0100
0000
0010
0001
,
1000
0000
0001
0010
0100
0001
0100
1000
,
0001
0000
1000
0001
0100
0010
1000
0000
,
0001
0011
0000
0000
1000
1100
0000
0000
,
1001
0000
0001
0100
0000
0100
0010
0000
0010
1000
0000
1000
,
0100
0000
0100
0010
0000
0010
0001
0100
0001
0100
0000
0000
,
0110
0000
0010
1000
0000
1000
0100
0000
0100
1000
0000
1000
,
0001
0000
0001
0100
0000
0100
0010
1000
0001
1000
0000
0000
,
1000
0000
1000
0100
0000
0100
0001
0000
0001
0100
0000
0100
,
1000
0000
1000
0010
0000
0010
0100
0001
0100
0001
0000
0000
,
1000
0100
1000
0100
0000
0000
0010
0001
0010
0001
0000
0000
,
1000
0010
1000
0010
0000
0000
0100
0001
0100
0001
0000
0000
,
2001
0000
0010
0000
,
3020
0000
0100
0000
,
0230
0000
0302
2003
,
3020
0230
0302
2003
,
3200
0000
0010
0000
,
0320
0000
0000
0000
0031
1000
0010
1000
,
0100
2000
0000
0000
0010
0000
0000
0000
,
0002
0000
3003
0000
,
1000
0000
0000
1000
0100
0000
0000
0100
0010
0000
0000
0010
0001
0000
0000
0001
,
0100
0000
0000
0100
0010
0000
0000
0010
1000
0000
0000
1000
0001
0000
0000
0001
,
0010
0100
1000
0001
0100
0001
1000
0010
,
1000
1000
0001
0001
1001
0000
0000
0000
,
1010
0000
1000
0010
0100
0000
0010
1000
,
0100
0010
0001
0100
0001
0000
1000
0001
,
1000
0000
0001
0100
0010
0100
0001
0000
,
0100
0010
1000
0002
0000
0013
0100
0010
,
0001
0000
1000
0100
0010
0000
1000
0010
,
0001
1000
0001
0100
0010
0000
1000
0010
,
0100
0001
0100
0000
0010
0100
0010
1000
,
0002
0000
0100
0000
1003
0001
1001
0000
,
0110
0000
1000
0010
0100
0000
0010
1000
,
0001
0100
1000
0100
0001
0000
1000
0001
,
0100
0000
0001
0100
0010
1000
0100
0010
,
0100
1000
0001
2000
0000
3100
1000
0001
,
1001
0000
1000
0100
0001
0000
1000
0010
,
0001
1000
0001
0100
0010
0000
1000
0001
,
0010
0001
0010
0001
1000
0100
1000
0100
,
1000
0010
0100
0001
1000
0001
1001
0000
,
0001
0000
0000
0100
0001
0000
0000
0010
0001
0000
0010
0000
0100
0000
1000
0000
,
0010
0000
0000
0100
0010
0000
0000
1000
0010
0000
0100
0000
0001
0000
1000
0000
,
0100
0000
0000
0010
0001
0000
0000
1000
0100
0000
0010
0000
0100
0000
1000
0000
,
0001
0000
0000
0100
0010
0000
0000
1000
0010
0000
0100
0000
1001
0000
0000
0000
,
0001
0100
1000
0100
0001
0010
0100
1000
,
0010
0100
0001
1000
0010
0001
0010
0100
,
0001
1000
0001
0100
0010
1000
0100
0010
,
0001
0000
0100
0000
0010
0000
1000
0000
0001
1000
0001
1000
0001
0000
1001
0000
;

//--------------- dance-single - Fred-104 ----------------
#NOTES:
     dance-single:
     Fred-104:
     Hard:
     17:
     :
0000
0000
0000
0000
,
0000
0000
0000
0000
,
0000
0000
0000
0000
,
0000
0000
0000
0000
,
0000
0000
0000
0000
,
0000
0000
0000
0000
,
0000
0000
0000
0000
,
0000
0000
0000
0000
,
0000
0000
0000
0000
,
0000
0000
0000
0000
,
1001
0000
0000
1000
0010
0100
0001
0000
0000
1000
0010
0100
,
0001
0000
0000
1000
0010
0001
1000
0100
0001
1000
0010
0100
,
0001
0000
0000
1000
0100
0010
0001
0000
0000
1000
0100
0010
,
0001
0000
0000
1000
0100
0001
1000
0010
0001
1000
0100
0010
,
1001
0000
0000
1000
0100
0010
0001
0000
0000
1000
0010
0100
,
0101
0000
0000
1000
0100
0001
0100
0010
0001
1000
0001
0100
,
0110
0000
0000
1000
0100
0010
0001
0100
1000
0100
0001
0010
,
0011
0000
0000
0000
1000
0000
0010
0000
0100
0001
1000
0010
0100
0010
1000
0000
,
1001
0000
0010
0000
,
0001
0000
0100
1100
,
1010
1001
0000
0000
0001
0000
0000
0000
,
1000
0000
0010
1001
,
0001
0000
0010
0000
1000
0000
0010
0000
0001
0000
0100
0000
1000
0100
0001
0000
,
1000
0000
0100
0000
0001
0000
0100
0000
1000
0000
0010
0000
0001
0010
1000
0000
,
0001
0000
0010
0001
0100
0000
0010
1000
0100
0000
0010
0000
0001
0000
1000
0000
,
0001
0100
0001
0100
0010
0000
0100
0000
0001
1000
0010
0100
0001
0000
1000
0000
,
0001
0000
0010
0100
1000
0000
0010
0100
0001
0000
1000
0000
0001
0000
0100
0000
,
0010
0000
1000
0001
1000
0000
0010
0000
0100
0000
0001
0000
2000
0000
0000
0000
,
3001
0000
1000
0100
0010
0000
0001
0100
0010
0000
1000
0000
0001
0000
0010
0000
,
0200
0000
0000
0000
1300
0000
0010
1000
0010
0000
0100
0001
0100
0001
0100
0000
,
0001
0000
0010
0001
1000
0000
0010
1000
0100
0000
0010
0000
0001
0000
0100
0000
,
0010
0000
0100
0001
0100
0000
0010
0000
0200
0000
0000
0000
0302
0000
0000
0000
,
1003
0000
0001
1000
0010
0000
1000
0001
0010
0000
0100
1000
0010
0000
0100
0000
,
0002
0000
0100
0000
2003
0000
0010
0000
3001
0000
1000
0000
0001
1000
0001
1000
,
0001
0000
1000
0001
0010
0000
0100
1000
0001
0000
0100
0010
1000
0010
0100
0000
,
0001
0010
0001
0010
0001
0000
1000
0000
0100
0000
0010
0100
0010
0000
0001
0000
,
1000
0000
0010
1000
0001
0000
0100
0010
0100
0000
0001
0000
0010
0000
0100
0000
,
1000
0010
1000
0010
0100
0000
0001
0000
0010
0001
1000
0001
0100
0010
1000
0000
,
1001
0000
0000
0000
0001
0100
0010
1000
0001
0000
0000
0000
1000
0000
0001
0000
,
1001
0100
0010
0001
1001
0000
0001
0100
,
0110
0000
1000
0100
0010
0000
0001
0010
0100
0000
1000
0010
0100
0001
0010
0001
,
1000
2020
3030
0000
0001
0202
0303
0000
,
1000
0100
0010
0001
0100
0010
0001
0010
1000
0001
0010
0001
,
1000
0100
0001
1000
0010
0001
1000
0100
0010
0001
0000
1000
,
0001
0010
0100
0001
0100
1000
0001
1000
0010
0001
0010
0100
,
0001
1000
0100
0010
0001
0100
0010
0001
0010
0100
0000
0001
,
1000
0100
0010
0001
1000
0010
0100
0001
0010
1000
0010
0001
,
1000
0001
0100
1000
0100
0001
1000
0100
0010
0001
0000
0000
,
0200
0300
0000
0000
0000
0000
0000
0000
0000
0000
0000
0000
0000
0000
0000
0000
0200
0300
0000
0000
0000
0000
0000
0000
0000
0000
0000
0000
0000
0000
0000
0000
1000
0000
0000
0000
0000
0000
0000
0000
0000
0000
0000
0000
0000
0000
0000
0000
0020
0030
0000
0000
0000
0000
0000
0000
0000
0000
0000
0000
0000
0000
0000
0000
0020
0030
0000
0000
0000
0000
0000
0000
0000
0000
0000
0000
0000
0000
0000
0000
0001
0000
0000
0000
0000
0000
0000
0000
0000
0000
0000
0000
0000
0000
0000
0000
0200
0300
0000
0000
0000
0000
0000
0000
0000
0000
0000
0000
0000
0000
0000
0000
0200
0300
0000
0000
0000
0000
0000
0000
0000
0000
0000
0000
0000
0000
0000
0000
1000
0000
0000
0000
0000
0000
0000
0000
0000
0000
0000
0000
0000
0000
0000
0000
0020
0030
0000
0000
0000
0000
0000
0000
0000
0000
0000
0000
0000
0000
0000
0000
0020
0030
0000
0000
0000
0000
0000
0000
0000
0000
0000
0000
0000
0000
0000
0000
0001
0000
0000
0000
0000
0000
0000
0000
0000
0000
0000
0000
0000
0000
0000
0000
,
1000
0100
0010
0001
0010
0100
1000
0001
0100
0001
1000
0010
,
2000
0000
0000
0000
,
3002
0000
0000
0000
,
2003
0000
3020
0032
,
0203
2300
3002
0203
,
0320
0000
2030
0000
,
3002
0000
0000
0000
0000
0000
0000
0000
1003
0000
0001
0010
0100
1000
0001
0010
,
0001
0102
0000
0000
2003
0000
0000
0000
,
0002
0000
3003
0000
,
1000
0000
0010
1000
0010
0000
0100
0001
0100
0000
0010
1000
0010
0000
0100
0001
,
0100
0000
0001
0010
0001
0000
1000
0100
1000
0000
0001
0010
0001
1000
0100
1000
,
0001
0000
1000
0100
0010
0000
0001
0100
0010
0000
1000
0100
0010
0000
0001
0100
,
0010
1000
0010
0100
0001
0010
0100
1000
0001
0000
0200
0000
2300
0000
3100
0010
,
1000
0000
0000
0000
0001
1000
0010
1000
0001
0000
0000
0000
1000
0100
0010
0001
,
1000
0100
0010
0001
1000
0000
0100
0000
0110
0000
0000
0000
0001
0000
1000
0000
,
1020
0000
0000
0000
0130
0000
0001
1000
0100
0000
0010
0000
0001
0000
0100
0000
,
0010
0000
0001
0000
0010
0000
2000
0000
0000
0000
3001
1000
0100
1000
0010
0100
,
0001
0000
0000
0000
1000
0010
0100
0001
1000
0000
0000
0000
0100
1000
0001
0010
,
0100
1000
0001
0010
0100
0000
1000
0000
1001
0000
0000
0000
0010
0000
1000
0000
,
0001
0000
0100
0001
0100
0000
0010
1000
0001
0000
0010
0000
0100
0000
1000
0000
,
0001
0100
0010
0000
1000
0001
0010
0000
0001
0000
0100
0000
0120
0000
1030
0000
,
1001
0000
0000
0000
0001
0010
0100
0010
0001
0000
0000
0000
1000
0001
0010
0100
,
1000
0001
0100
0001
0100
0000
1000
0000
1200
0000
0000
0000
0310
0000
1000
0000
,
0001
0000
0010
0001
0100
0000
0010
1000
0100
0000
1000
0000
0001
0000
0010
0000
,
1000
0000
0010
0000
0100
0000
2100
0000
0000
0000
3001
1000
0010
1000
0001
0000
,
1001
0000
0000
0000
1000
0100
0001
0100
1000
0000
0000
0000
0001
0100
0001
0100
,
1000
0100
1000
0100
0001
0000
1000
0000
1001
0000
0000
0000
0001
0000
0100
0000
,
0012
0000
0013
0000
0001
0000
0100
0000
0010
1000
0100
1000
0010
0100
0001
0010
,
0001
0000
1000
0100
1000
0000
0010
0000
1000
0010
0100
0000
0001
1000
0001
0000
,
1000
0000
0001
0100
0010
0000
1000
0100
0010
0000
0001
0000
1000
0001
0010
0000
,
0001
0000
0100
0001
0010
0000
0100
1000
0010
0000
0100
0000
0001
1000
0010
0000
,
1000
0000
0100
0010
0001
0000
0100
0010
1000
0000
0001
0000
1000
0001
0010
0000
,
0001
0000
0100
0010
1000
0000
0001
0100
0010
0000
1000
0000
0100
0000
0010
0000
,
0001
0000
1000
0010
0100
0000
1000
0100
0001
0000
1000
0000
0001
0010
0100
1000
,
0001
0000
1000
0001
0010
0000
1000
0010
0100
0000
1000
0000
0010
0100
0001
1000
,
0001
0000
0010
0100
0001
0000
0100
1000
0001
0000
0100
0000
0010
1000
0001
1000
,
0100
1000
0010
0100
0001
1000
0100
0010
0001
0100
0010
1000
0001
0000
1001
0000
;

//--------------- dance-double - Fred-104 ----------------
#NOTES:
     dance-double:
     Fred-104:
     Easy:
     9:
     :
00000000
00000000
00000000
00000000
,
00000000
00000000
00000000
00000000
,
00000000
00000000
00000000
00000000
,
00000000
00000000
00000000
00000000
,
00000000
00000000
00000000
00000000
,
00000000
00000000
00000000
00000000
,
00000000
00000000
00000000
00000000
,
00000000
00000000
00000000
00000000
,
00000000
00000000
00000000
00000000
,
00000000
00000000
00000000
00000000
,
00011000
00000000
00001000
00000000
,
00010000
00000000
01000000
00010000
,
00001000
00000000
00010000
00000000
,
00100000
00000000
00010000
00001000
,
00000010
00000000
00001000
00000000
,
00010000
00000000
00001000
00000100
,
00001000
00000000
00010000
00001000
,
00000100
00000000
00000001
00000000
00001000
00000001
00001000
00000000
,
00001001
00000000
00000001
00000000
,
00001000
00000000
00010000
00100000
,
10000000
10000000
00000000
00000000
00010000
00000000
00000000
00000000
,
10000000
00000000
10000000
01000000
,
00010000
00001000
00000100
00001000
,
00010000
00100000
00010000
00000000
,
00001000
00010000
01000000
00010000
,
00001000
00000000
00000010
00000000
00001000
00010000
00001000
00000000
,
00010000
00000000
00100000
00000000
10000000
00010000
10000000
00000000
,
00020000
00000000
10030000
01000000
,
00010000
00000000
00001000
00000000
00010000
00001000
00010000
00000000
,
00002000
00000000
00003010
00000001
,
00001000
00000000
00000001
00000000
00000100
00000001
00000100
00000000
,
00000020
00000000
00010030
00001000
,
00010000
00001000
00100000
00001000
,
00010000
00000000
00001000
00000000
00100000
00010000
10000000
00000000
,
01000000
00000000
00100000
00000000
00010000
01000000
00010000
00000000
,
02000000
00000000
03100000
01000000
,
00010000
00000000
00001000
00000000
00010000
00001000
00010000
00000000
,
00000200
00000000
00001300
00000001
,
00000100
00000000
00000000
00000100
00000010
00000000
00001000
00000000
,
00010000
00000000
00000000
00010000
00001000
00000000
00010000
00000000
,
00011000
00000000
01000000
00100000
,
10010000
00000000
01100000
00000000
,
10000000
01000000
00100000
00001000
,
00010000
00100000
10000000
00000000
,
10000000
01000000
00010000
00001000
,
00000010
00000001
00001000
00000000
,
00000001
00000100
00001000
00010000
,
00000100
00000010
00000001
00000000
,
00000001
00000010
00000100
00001000
,
00010000
00100000
01000000
10000000
,
10020000
00000000
00000000
00000000
,
02030000
00000000
00000000
00000000
,
03200000
00000000
20300000
32000000
,
03020000
00032000
00023000
00230000
,
20300000
00000000
30020000
00000000
,
00230000
00000000
00301000
00010000
,
00000100
00000200
00000000
00000000
00020300
00000000
00000000
00000000
,
00002000
00000000
00033000
00000000
,
00010000
00010000
00001000
00001000
,
00000010
00000010
00000001
00000001
,
00000100
00000100
00000010
00000010
,
00001000
00000001
00001000
00000001
00001000
00000000
00000000
00000000
,
00020000
00000000
00032000
00000000
,
00013000
00001000
00100000
00001000
,
00020000
00000000
00031000
01000000
,
00001000
00000000
00100000
00010000
00000000
00100000
01000000
00000000
,
20000000
00000000
30020000
00000000
,
10030000
01000000
00010000
01000000
,
10000000
00100000
00010000
00001000
,
00010000
00001000
00011000
00000000
,
00020000
00000000
00032000
00000000
,
00003010
00000000
00000001
00000000
00001000
00000000
00000001
00000100
,
00000001
00000100
00000010
00000100
,
00000001
00000000
00001000
00000010
00000000
00010000
00001000
00000000
,
00020000
00000000
00030200
00000000
,
00010300
00000000
00001000
00000000
00100000
00000000
00010000
01000000
,
00010000
00000000
10000000
00000000
01000000
00100000
01000000
00000000
,
00100000
00010000
00100000
00010000
00100000
00010000
00100000
00000000
,
00010000
00000000
01000000
00000000
10000000
01000000
00010000
00000000
,
00001000
00010000
00100000
00010000
,
00001000
00000000
00000100
00000000
00000001
00000100
00001000
00000000
,
00010000
00001000
00000010
00001000
,
00010000
00000000
00100000
00000000
10000000
00100000
00010000
00000000
,
00001000
00000000
00010000
00000000
01000000
10000000
01000000
00000000
,
00010000
00001000
00010000
00000000
00001000
00000100
00001000
00000000
,
00000100
00000001
00000100
00000000
00000001
00000010
00000001
00001001
;

//--------------- dance-double - Fred-104 ----------------
#NOTES:
     dance-double:
     Fred-104:
     Medium:
     13:
     :
00000000
00000000
00000000
00000000
,
00000000
00000000
00000000
00000000
,
00000000
00000000
00000000
00000000
,
00000000
00000000
00000000
00000000
,
00000000
00000000
00000000
00000000
,
00000000
00000000
00000000
00000000
,
00000000
00000000
00000000
00000000
,
00000000
00000000
00000000
00000000
,
00000000
00000000
00000000
00000000
,
00000000
00000000
00000000
00000000
,
10100000
00000000
10000000
00000000
,
01000000
00000000
00010000
00001000
,
00000010
00000000
00000001
00000000
,
00000100
00000000
00001000
00010000
,
01100000
10000000
00100000
01000000
,
01100000
00010000
00001000
00000100
,
00000110
00000001
00001001
00001000
,
00001001
00000000
00000001
00000010
00001000
00010000
01000000
10000000
,
10100000
00000000
01000000
00000000
,
00100000
00000000
00001000
00010000
,
00011000
00011000
00000000
00000000
00000010
00000000
00000000
00000000
,
00000100
00000000
00000010
00001000
,
00000001
00000100
00001000
00000100
00000001
00000100
00001000
00000000
,
00010000
00001000
00000010
00001000
00010000
00001000
00000100
00000000
,
00001000
00010000
01000000
00010000
00001000
00010000
00100000
00000000
,
00010000
00000000
00001000
00000000
00000010
00000000
00001000
00000000
00010000
00000000
00001000
00010000
00001000
00000000
00010000
00000000
,
00001000
00100000
00010000
10000000
00100000
01000000
00010000
00100000
,
00002000
00100000
00000010
00023000
,
00031000
00010000
01000000
00010000
00001000
00010000
00000100
00010000
,
00002000
00000000
00010000
00000000
00010000
00000000
00013000
00001000
,
00100000
00001000
00010000
00000010
00001000
00000010
00010000
00001000
,
00020000
00000100
01000000
00032000
,
00013000
00001000
00010000
01000000
00010000
00001000
00010000
00000000
,
00001000
00010000
00001000
00000010
00001000
00010000
00001000
00000000
,
00010000
00000010
00001000
00000100
00010000
00001000
00100000
00010000
,
01000000
00001000
00020000
00000000
00030100
00001000
00000020
00000000
,
00010030
00000100
00001000
00000100
00000010
00000001
00000100
00001000
,
00020000
00000000
02030000
00000000
13000000
00010000
10010000
00000000
,
01100000
00000000
00000000
10000000
01000000
00000000
00010000
01000000
,
10000000
00000000
01000000
00010000
00001000
00010000
00100000
10000000
,
00010000
00000000
10000000
01000000
00010000
00001000
00000100
00000001
,
00001000
00001010
00000000
00000000
00000001
00000101
00000000
00000000
,
00011000
00000000
00001000
00010000
00000000
00010000
01000000
00000000
01000000
10000000
00000000
10000000
,
00100000
00000000
00100000
00010000
00000000
00010000
00001000
00010000
00001000
00010000
00000000
00000000
,
00011000
00000000
00010000
00001000
00000000
00001000
00000010
00000000
00000010
00000001
00000000
00000001
,
00000100
00000000
00000100
00001000
00000000
00001000
00010000
00001000
00010000
00001000
00000000
00000000
,
00010000
00000000
00010000
00001000
00000000
00001000
00100000
00000000
00100000
00010000
00000000
00010000
,
10000000
00000000
10000000
01000000
00000000
01000000
00100000
00001000
00010000
00001000
00000000
00000000
,
01000000
00010000
01000000
00010000
00000000
00000000
00100000
00001000
00100000
00001000
00000000
00000000
,
00010000
00000100
00010000
00000100
00000000
00000000
00001000
00000010
00001000
00000010
00000000
00000000
,
00020010
00000000
00001000
00000000
,
00032000
00000000
00100000
00000000
,
00203000
00000000
00320000
20030000
,
32000000
03020000
00032000
00003020
,
00000032
00000000
00000100
00000000
,
00000203
00000000
00000000
00000000
00001300
00010000
00100000
10000000
,
00010000
02000000
00000000
00000000
03200000
00000000
00000000
00000000
,
20000000
00000000
30300000
00000000
,
10000000
01000000
00010000
00001000
00010000
01000000
00010000
00000000
,
00001000
00010000
00100000
00010000
00001000
00000010
00001000
00000000
,
00010000
00001000
00000100
00001000
00010000
01000000
00010000
00001000
,
00010000
00010000
00001000
00001000
00011000
00000000
00000000
00000000
,
00001100
00000000
00000100
00000010
00000001
00000000
00000100
00000010
,
00001000
00000001
00000100
00001000
00010000
00000000
00001000
00010000
,
00001000
00000000
00100000
10000000
00100000
10000000
00100000
00000000
,
00001000
00010000
00001000
00200000
00000000
00301000
00010000
00001000
,
00000100
00000000
00000001
00001000
00000010
00000000
00000100
00000001
,
00000010
00001000
00010000
00001000
00000100
00000000
00000001
00001000
,
00000010
00010000
00001000
00000000
00100000
00010000
10000000
00100000
,
02000000
00000000
03010000
10000000
01000000
00100000
00110000
00000000
,
10010000
00000000
10000000
01000000
00010000
00000000
00001000
00010000
,
01000000
00010000
00001000
00010000
00100000
00000000
00010000
00001000
,
00000010
00000000
00001000
00010000
00001000
00000100
00001000
00010000
,
01000000
00010000
00001000
00020000
00000000
00031000
00000010
00000001
,
00001001
00000000
00000001
00000100
00000010
00000000
00001000
00000100
,
00010000
00001000
00010000
00000010
00001000
00000000
00000100
00010000
,
00001000
00010000
01000000
10000000
00010000
10000000
00100000
00010000
,
00100000
01000000
00010000
10000000
01000000
00100000
00110000
00000000
,
10000000
01000000
00010000
00001000
00010000
00100000
00010000
00000000
,
00001000
00010000
01000000
00010000
00001000
00010000
00100000
00000000
,
00010000
00001000
00000010
00001000
00010000
00001000
00000100
00000000
,
00000001
00000100
00001000
00010000
00100000
10000000
10010000
00000000
,
00010000
01000000
10000000
01000000
00010000
01000000
10000000
01000000
,
00010000
00001000
00010000
01000000
00010000
00001000
00010000
00100000
,
00010000
00001000
00000100
00001000
00010000
00001000
00000010
00000001
,
00000100
00000000
00001000
00000000
00010000
00000000
01000000
00000000
10000000
00010000
10000000
00010000
10000000
00000000
10010000
00000000
;

//--------------- dance-double - Fred-104 ----------------
#NOTES:
     dance-double:
     Fred-104:
     Hard:
     17:
     :
00000000
00000000
00000000
00000000
,
00000000
00000000
00000000
00000000
,
00000000
00000000
00000000
00000000
,
00000000
00000000
00000000
00000000
,
00000000
00000000
00000000
00000000
,
00000000
00000000
00000000
00000000
,
00000000
00000000
00000000
00000000
,
00000000
00000000
00000000
00000000
,
00000000
00000000
00000000
00000000
,
00000000
00000000
00000000
00000000
,
00001001
00000000
00000000
00000001
00000100
00001000
00010000
00000000
00000000
00100000
10000000
00010000
,
10000000
00000000
00000000
00010000
10000000
01000000
00100000
00010000
00100000
01000000
10000000
00100000
,
01000000
00000000
00000000
00100000
10000000
01000000
00100000
00000000
00000000
00100000
00001000
00010000
,
00001000
00000000
00000000
00000100
00000001
00001000
00000001
00000010
00000100
00001000
00000100
00000010
,
00000011
00000000
00000000
00000001
00000010
00000100
00010000
00000000
00000000
00001000
00000100
00000001
,
00001001
00000000
00000000
00000001
00000010
00000100
00001000
00000100
00000010
00000001
00000100
00001000
,
00011000
00000000
00000000
00001000
00010000
00100000
01000000
00010000
10000000
01000000
00100000
00010000
,
10010000
00000000
00000000
00000000
00010000
00000000
01000000
00000000
00100000
10000000
00010000
00100000
00001000
00010000
00001000
00000000
,
00011000
00000000
00001000
00000010
,
00000001
00000000
00000100
00001000
,
00011000
01001000
00000000
00000000
00001000
00000000
00100000
00000000
,
00010000
00000000
00100000
00001000
,
00001000
00010000
00001000
00000010
00001000
00010000
00001000
00000000
,
00010000
00001000
00010000
01000000
00010000
00001000
00010000
00000000
,
00001000
00010000
00000100
00000010
00000001
00001000
00000001
00000100
,
00000010
00001000
00000010
00001000
00000100
00000000
00000010
00000000
00000001
00000100
00000010
00000100
00000001
00000000
00001000
00000000
,
00000010
00000000
00010000
00001000
00010000
00000000
00000100
00001000
00000100
00000000
00010000
00000000
00001000
00000000
00010000
00000000
,
00100000
10000000
01000000
00010000
00001000
00000010
00000002
00000000
,
00001003
00000000
00000001
00000100
00000001
00000000
00000010
00000100
00000010
00000000
00000001
00000000
00001000
00000000
00000001
00000000
,
00000100
00001000
00010000
00100000
10000000
01000000
00020000
00000000
,
00031000
00000000
00010000
00001000
00010000
00000000
00000100
00001000
00000100
00000000
00010000
00000000
00001000
00000000
00010000
00000000
,
00001000
00000010
00010000
00100000
00002000
00000000
00023000
00000000
,
00031000
00000000
00010000
00001000
00010000
00000000
00000010
00001000
00000010
00000000
00010000
00001000
00010000
00000000
00001000
00000000
,
01000000
00000000
00010000
00000000
00000100
00000000
00001000
00000000
00010000
00000000
00010000
00000000
00001000
00010000
00001000
00010000
,
00001000
00000000
00100000
00010000
10000000
00000000
00010000
10000000
00010000
00000000
00100000
01000000
10000000
01000000
10000000
00000000
,
00100000
01000000
00100000
01000000
00100000
00000000
10000000
00000000
01000000
00000000
00100000
00010000
00100000
00000000
00001000
00000000
,
01000000
00000000
00001000
00010000
00001000
00000000
00100000
00001000
00100000
00000000
00001000
00000000
00010000
00000000
00001000
00000000
,
00000010
00000001
00000010
00000001
00000010
00000000
00000100
00000000
00001000
00000001
00001000
00000001
00000100
00000010
00000100
00000000
,
00000101
00000000
00000000
00000000
00000001
00000010
00000100
00000010
00000001
00000000
00000000
00000000
00000100
00000000
00000010
00000000
,
00001010
00000010
00010000
00001000
00010000
00000000
01000000
00100000
,
01100000
00000000
00000000
00010000
10000000
00000000
00000000
00100000
10000000
00000000
00010000
01000000
00100000
01000000
00010000
01000000
,
00001000
02002000
03003000
00000000
00010000
00020020
00030030
00000000
,
00010000
00001000
00000100
00000010
00000100
00001000
00010000
00001000
00000100
00001000
00010000
00100000
,
00010000
00001000
00010000
00100000
01000000
00100000
00010000
00001000
00000100
00001000
00000000
00000000
,
00010000
00001000
00000100
00001000
00010000
00100000
00010000
00001000
00000100
00001000
00010000
00100000
,
01000000
00100000
00010000
00001000
00000100
00000010
00000100
00001000
00010000
00001000
00000000
00001000
,
00010000
00001000
00000100
00000001
00000010
00000100
00010000
00001000
00000100
00000001
00000010
00000100
,
00010000
00001000
00000100
00000001
00000010
00000100
00010000
00001000
00010000
00001000
00000000
00000000
,
00001000
00010000
00100000
01000000
00100000
01000000
00010000
10000000
01000000
00010000
00001000
00000010
,
00000001
00001000
00000010
00000100
00001000
00010000
00100000
01000000
00010000
10000000
01000000
00010000
,
00002000
00000000
00003020
00000000
,
00000032
00000000
00000203
00000000
,
00002300
00000000
00023000
00230000
,
20300000
32000000
03020000
00032000
,
00023000
00000000
00032000
00000000
,
00003020
00000000
00000000
00000000
00000000
00000000
00000000
00000000
00000031
00000000
00001000
00000001
00000100
00000001
00000100
00000001
,
00000100
00000120
00000000
00000000
00002030
00000000
00000000
00000000
,
00000002
00000000
00003003
00000000
,
00001000
00000000
00000001
00000010
00000001
00000000
00001000
00000100
00001000
00000000
00000001
00000010
00000001
00000000
00001000
00000100
,
00001000
00000000
00000100
00010000
00000100
00000000
00010000
00001000
00010000
00000000
00001000
01000000
00001000
00010000
00001000
00010000
,
00001000
00000000
00100000
00010000
00100000
00000000
01000000
10000000
01000000
00000000
00100000
00010000
00100000
00000000
01000000
10000000
,
00100000
01000000
00010000
01000000
00010000
10000000
00010000
10000000
00010000
00000000
20000000
00000000
32000000
00000000
03100000
00010000
,
00100000
00000000
00000000
00000000
00001000
00010000
00001000
00010000
00001000
00000000
00000000
00000000
00010000
00000100
00010000
00000100
,
00001000
00000100
00001000
00000100
00000010
00000000
00000001
00000000
00001001
00000000
00000000
00000000
00000001
00000000
00000100
00000000
,
00000120
00000000
00000000
00000000
00001030
00000000
00000001
00000100
00000001
00000000
00000010
00000000
00000100
00000000
00010000
00000000
,
00001000
00000000
01000000
00000000
00001000
00000000
00020000
00000000
00000000
00000000
00031000
00100000
00010000
00000000
01000000
00000000
,
01100000
00000000
00000000
00000000
10000000
00100000
10000000
00100000
10000000
00000000
00000000
00000000
00010000
01000000
00010000
01000000
,
00100000
01000000
00100000
01000000
00010000
00000000
00100000
00000000
01100000
00000000
00000000
00000000
10000000
00000000
01000000
00000000
,
00010000
00001000
00010000
00100000
01000000
00010000
10000000
01000000
,
00100000
00001000
00100000
00000000
00001000
00010000
00001000
00000000
00010000
00000000
00001000
00000000
00021000
00000000
00030010
00000000
,
00001010
00000000
00000000
00000000
00001000
00000001
00000100
00000001
00001000
00000000
00000000
00000000
00000001
00000010
00000001
00000100
,
00000010
00001000
00000010
00001000
00000010
00000000
00010000
00000000
00012000
00000000
00000000
00000000
00103000
00000000
00010000
00000000
,
10000000
00000000
00010000
00100000
01000000
00000000
00100000
00010000
01000000
00000000
00100000
00000000
10000000
00000000
01000000
00000000
,
00100000
00000000
00001000
00000000
00010000
00000000
00200000
00000000
00000000
00000000
10300000
00010000
01000000
00010000
10000000
00000000
,
11000000
00000000
00000000
00000000
10000000
01000000
00100000
00010000
00100000
00000000
00000000
00000000
00001000
00010000
00001000
00010000
,
00000100
00001000
00000100
00000010
00000001
00000000
00001000
00000000
00001001
00000000
00000000
00000000
00001000
00000000
00000100
00000000
,
00001000
00000000
00000010
00000000
00000100
00000000
00000001
00000000
00000100
00000001
00000100
00000010
00001000
00000010
00001000
00000000
,
00000001
00000000
00000010
00000100
00000010
00000000
00000001
00000000
00001000
00000010
00010000
00000000
00001000
00010000
00001000
00000000
,
00100000
00000000
00010000
10000000
00010000
00000000
01000000
00100000
01000000
00000000
00010000
00000000
10000000
01000000
00100000
00000000
,
00010000
00000000
01000000
00100000
01000000
00000000
00001000
00010000
00001000
00000000
00100000
00000000
00001000
00010000
00001000
00000000
,
00010000
00000000
00000010
00001000
00000010
00000000
00000100
00000010
00000100
00000000
00000001
00000000
00001000
00000001
00001000
00000000
,
00000001
00000000
00000010
00000100
00000010
00000000
00000001
00000100
00000001
00000000
00001000
00000000
00000100
00000000
00010000
00000000
,
00001000
00000000
00100000
00001000
00010000
00000000
00001000
00100000
00010000
00000000
10000000
00000000
00010000
00100000
01000000
10000000
,
00010000
00000000
01000000
00100000
10000000
00000000
00100000
01000000
00010000
00000000
10000000
00000000
01000000
00100000
00001000
00010000
,
00001000
00000000
00100000
00001000
00010000
00000000
00000100
00001000
00000010
00000000
00000100
00000000
00000001
00000010
00000001
00001000
,
00000001
00000100
00000001
00000100
00000010
00001000
00000010
00001000
00000001
00000010
00000100
00010000
00001000
00000000
00011000
00000000
;
