#TITLE:Chrono Diver -PENDULUMs-;
#ARTIST:猫叉L.E.D.Master+;
#ARTISTTRANSLIT:Nekomata L.E.D.Master+;
#GENRE:CHRONO BREAKS;
#BANNER:Chrono Diver -PENDULUMs-.png;
#BACKGROUND:Chrono Diver -PENDULUMs--bg.png;
#CDTITLE:./CDTitles/bm IIDX 22 PENDUAL.png;
#MUSIC:Chrono Diver -PENDULUMs-.ogg;
#SAMPLESTART:93.061;
#SAMPLELENGTH:15;
#BPMS:0=196;

//--------------- dance-single - Fred-104 ----------------
#NOTES:
     dance-single:
     Fred-104:
     Beginner:
     7:
     :
0000
0000
0000
0000
,
0000
0000
0000
0000
,
0000
0000
0000
0000
,
1000
0000
0000
0000
,
0001
0000
0000
0000
,
1001
0000
0000
0000
,
1000
0000
0000
0000
,
0001
0000
0000
0000
,
0001
0000
1000
0000
,
1001
0000
1000
0000
,
0010
0000
0010
0000
,
0001
0000
0001
0000
,
0100
0000
0100
0000
,
1000
1000
0000
0010
,
0000
0001
0000
0100
,
0000
1000
0000
1000
,
0001
0100
0010
1000
,
2002
3003
0001
0000
,
1000
0000
0100
0000
,
1000
0000
0100
0000
,
0010
0001
0010
0001
,
1001
0000
1000
0000
,
0001
0000
0100
0000
,
1000
0000
1000
0000
,
0010
0010
0001
0001
,
1001
0000
0001
0000
,
0100
0000
0010
0000
,
1000
0000
0000
0001
0000
0000
1000
0000
,
0000
0001
0000
0000
1000
0000
0001
0000
,
1001
0000
0001
0000
,
0010
0000
0100
0000
,
1000
0000
0000
0010
0000
0000
0001
0000
,
0000
0100
0000
0000
1000
0000
2000
0000
,
3002
0000
0103
0000
,
2000
0000
3010
0000
,
0001
0000
0000
0001
0000
0000
1000
0000
,
0000
1000
0000
0000
0001
0000
0001
0000
,
2000
0000
3010
0000
,
0002
0000
0103
0000
,
1000
0000
0000
0001
0000
0000
0100
0000
,
0000
0010
0000
0000
1000
0000
1000
0000
,
0001
0000
0000
0100
0000
0000
1000
0000
,
0000
0010
0000
0000
0011
0000
0000
0000
,
1000
0000
0000
0010
0000
0000
0001
0000
,
0000
0100
0000
0000
1100
0000
0000
0000
,
0001
0000
0000
0100
0000
0000
1000
0000
,
0000
0010
0000
0000
0011
0000
0000
0000
,
1000
0000
0000
0000
1000
0000
1000
0000
0000
0000
0001
0000
,
0002
0000
0000
0000
,
0000
0000
2003
3002
,
0203
0000
0000
0000
,
0320
0000
2030
0000
,
3002
0000
0000
0000
,
0000
0000
0023
0230
,
2300
0000
0000
0000
,
3002
0000
2003
0000
,
0002
0000
0000
0000
,
0000
0000
0000
0000
,
3003
0000
0000
0000
,
0000
0000
0000
0000
,
1001
0000
1000
0000
,
0100
0100
0010
0001
,
0010
0000
0001
0000
,
1000
1000
0010
1000
,
0001
0000
1000
0000
,
0100
0100
0010
0001
,
1000
0000
0010
0000
,
0001
0100
2000
3000
,
1001
0000
0001
0000
,
0100
1000
0100
0001
,
1000
0000
0100
0000
,
0010
0001
1000
0001
,
1000
0000
0001
0000
,
0010
1000
1000
0100
,
0001
0000
1000
0000
,
0001
1000
1001
0000
,
0001
0000
0000
0010
0000
0000
1000
0000
,
0000
0100
0000
0000
0001
0000
0000
1001
,
0000
1000
0100
1000
,
0001
0100
0001
0001
,
1000
0000
0000
0010
0000
0000
0001
0000
,
0000
0100
0000
0000
1000
0000
0000
1001
,
0000
0001
1000
0010
,
1000
1000
0001
0001
,
0001
0000
0000
0010
0000
0000
1000
0000
,
0000
0100
0000
0000
0001
0000
0000
1001
,
0000
1000
0100
1000
,
0001
0100
0001
0001
,
1000
0000
0000
0010
0000
0000
0001
0000
,
0000
0100
0000
0000
1000
0000
0000
1001
,
0000
0001
1000
0010
,
1000
1000
0001
0001
,
2002
0000
0000
0000
,
0000
0000
0000
3003
,
1001
0000
0000
0000
,
0110
0000
0000
0000
,
1001
0000
0000
0000
0000
0110
0000
0000
,
0000
2002
0000
0000
,
0000
0000
0000
0000
,
0000
0000
0000
0000
0000
0000
0000
3003
;

//--------------- dance-single - Fred-104 ----------------
#NOTES:
     dance-single:
     Fred-104:
     Easy:
     12:
     :
0000
0000
0000
0000
,
0000
0000
0000
0000
,
0000
0000
0000
0000
,
0000
0000
0000
0000
,
0000
0000
0000
0000
,
0000
0000
0000
0000
,
0000
0000
0000
0000
,
0000
0000
0000
0000
,
0000
0000
0000
0000
,
1000
0000
1000
0100
0000
1000
0100
0010
,
0000
0100
0010
0001
0000
0010
0001
1000
,
0000
0001
1000
0000
0001
0100
0001
0000
,
1000
0100
0010
0001
0000
0001
1000
0000
,
0001
0010
0002
0000
0013
0100
0020
0000
,
0130
1000
0200
0000
1300
0001
2000
0000
,
3001
0010
0001
0000
1000
0010
1000
0000
,
0001
1000
0001
1000
0100
0010
0100
0010
,
0002
0000
0003
0000
1000
0010
1000
0000
,
0100
0010
0001
0000
1000
0010
1000
0000
,
0010
0100
0010
0000
1000
0001
1000
0000
,
0001
0010
0001
0010
0000
0100
1000
0001
,
1000
0000
0010
1000
0000
0100
1000
0100
,
0000
0010
0002
0000
1003
0001
1000
0000
,
0001
0000
0100
0001
1000
0100
1000
0001
,
0000
1000
0010
0100
0001
0100
0001
0000
,
1001
0000
1100
0000
1000
0010
1000
0000
,
0001
0010
0001
1000
0001
0100
0001
0000
,
1000
0000
1000
0100
0000
0100
0010
0000
,
0010
0001
0000
0001
1000
0001
1000
0000
,
0001
0000
0100
0010
0000
1000
0010
1000
,
0000
0001
0200
0000
0301
1000
0001
0000
,
1001
0000
1000
0100
0000
0100
0010
0000
,
0010
0000
0001
0000
0010
0000
0001
0000
1000
0000
0000
1000
0000
0000
0001
0000
,
1000
0010
0001
0010
,
1000
0000
0001
0000
0010
0100
1000
0000
,
1001
0000
1000
0010
0000
0010
0100
0000
,
0100
0001
0000
0001
0010
0100
1000
0000
,
0001
0100
1000
0100
,
0001
0000
1000
0000
0100
0010
0001
0000
,
1001
0000
0001
0010
0000
0010
0100
0000
,
0100
1000
0001
1000
0010
1000
0001
0000
,
1001
0000
0001
1000
0000
0100
1000
0000
,
0100
1000
0001
1000
0010
1000
0100
0000
,
1001
0000
1000
0010
0000
0100
0001
0000
,
1000
0001
0100
0010
0100
0001
1000
0000
,
1001
0000
0001
1000
0000
0010
1000
0000
,
0001
0010
0001
0010
0100
1000
0001
0000
,
1000
0000
1000
0000
1000
0000
0001
0000
0001
0000
0001
0000
,
2001
0000
0000
0000
,
0000
0000
3200
0320
,
0032
0000
0000
0000
,
2003
0000
3020
0100
,
0230
0000
0000
0000
,
0000
0000
0302
2003
,
3002
0000
0000
0000
,
0023
0000
0230
1000
,
2300
0000
0000
0000
,
0000
0000
0000
0000
,
3000
0000
0000
0000
,
0001
1000
0001
1000
0001
1000
0001
0000
,
1000
0001
1000
0000
0100
0000
0010
0001
,
0100
0000
0010
0000
1000
0001
0010
0000
,
0100
0010
0001
0000
1000
0000
0010
1000
,
0010
0000
0100
0000
0001
1000
0001
0000
,
1000
0100
0010
0000
0100
0000
1000
0001
,
0100
0000
0010
0000
1000
0001
1000
0000
,
0001
0010
0001
0000
0010
0100
0010
0000
,
0100
1000
0100
0000
1000
0001
1000
0000
,
0010
1000
0010
0000
0100
0000
0010
1000
,
0001
0000
1000
0000
0100
0010
0001
0000
,
1000
0001
0100
0000
0001
0000
1000
0100
,
1000
0000
0001
0000
0010
0100
0010
0000
,
0001
0100
0001
0000
1000
0000
0001
1000
,
0010
0000
1000
0000
0100
1000
0100
0000
,
0010
0001
0010
0001
1000
0001
1000
0000
,
0001
0100
0001
0100
0010
1000
0010
1000
,
0001
0000
0000
0011
0000
0000
1000
0000
,
0000
1010
0000
0000
0001
0000
0000
1001
,
0000
0000
1000
0000
0100
0010
0100
0000
,
0010
0001
0010
0000
0001
1000
0001
0000
,
1000
0000
0000
1100
0000
0000
0001
0000
,
0000
0101
0000
0000
1000
0000
0000
1001
,
0000
0000
0001
0000
0100
0010
0100
0000
,
0010
1000
0010
0000
1000
0001
1000
0000
,
0001
0000
0000
0101
0000
0000
1000
0000
,
0000
1100
0000
0000
0001
0000
0000
1001
,
0000
0000
1000
0000
0010
0100
0010
0000
,
0100
0001
0100
0000
0001
1000
0001
0000
,
1000
0000
0000
1010
0000
0000
0001
0000
,
0000
0011
0000
0000
1000
0000
0000
1001
,
0000
0000
0001
0000
0010
0100
0010
0000
,
0100
1000
0100
1000
0001
1000
0001
1000
,
0002
0000
0000
0000
,
0000
0000
0000
0000
,
1003
0000
0000
0000
1000
0000
0000
0000
0010
0000
0000
0010
0000
0000
0001
0000
,
0000
0001
0000
0000
0100
0000
0000
0100
0000
0000
1000
0000
0000
1000
0000
0000
,
0010
0000
0000
0000
0000
0001
0000
0000
0000
0000
0100
0000
0000
0000
0000
1000
,
0000
2002
0000
0000
,
0000
0000
0000
0000
,
0000
0000
0000
0000
0000
0000
0000
3003
;

//--------------- dance-single - Fred-104 ----------------
#NOTES:
     dance-single:
     Fred-104:
     Medium:
     16:
     :
0000
0000
0000
0000
,
0000
0000
0000
0000
,
0000
0000
0000
0000
,
0000
0000
0000
0000
,
0000
0000
0000
0000
,
0000
0000
0000
0000
,
0000
0000
0000
0000
,
0000
0000
0000
0000
,
0000
0000
0000
0000
,
1000
0100
1000
0100
0000
0001
0100
1000
,
0000
0001
0100
1000
0000
0100
0001
1000
,
0000
0001
0010
0100
0010
1000
0010
0001
,
1000
0010
0001
0010
0000
1000
0001
0010
,
0100
0001
0100
1000
0000
0001
0100
1000
,
0000
0100
0001
1000
0000
0100
0010
0001
,
0000
1000
0010
1000
0100
0010
1000
0010
,
0001
0000
0001
0000
1000
0010
0100
0001
,
2002
0000
3003
0000
0001
1000
0100
0010
,
0001
1000
0010
1000
0100
0010
0001
0100
,
0001
0010
0001
0100
0010
1000
0100
1000
,
0001
0000
0100
0000
1000
0000
0100
0000
0000
0000
0010
1000
0001
1000
0001
0000
,
1000
0100
0010
1000
0000
0010
0001
1000
,
0000
0001
0010
0000
0100
1000
0100
0010
,
0001
1000
0010
0100
1000
0100
0010
0001
,
0000
0010
0100
0001
1000
0100
0010
0000
,
0011
0000
1001
0000
1000
0001
0010
0100
,
1000
0001
0100
1000
0001
0010
0100
0001
,
1000
0100
0010
1000
0001
0100
1000
0010
,
0100
1000
0001
0010
1000
0001
0010
0100
,
1000
0001
0100
0010
0000
0001
0010
1000
,
0000
0100
0010
0000
0001
0100
1000
0100
,
0001
0010
1000
0001
0100
1000
0001
0100
,
0010
0000
0001
0000
1000
0000
0100
0000
0001
0000
0000
1000
0000
0000
0001
0000
,
1000
0100
1000
0000
0001
0000
0100
0000
0010
1000
0010
0000
0100
0000
0001
0000
,
1000
0100
0010
0001
1000
0000
1001
0000
,
1000
0100
0001
1000
0010
0001
1000
0010
,
0001
0000
1000
0000
0100
0000
0001
0000
0010
0100
0010
0000
0100
0000
1000
0000
,
0001
0100
0001
0000
1000
0000
0100
0000
0010
0001
0010
0000
0100
0000
1000
0000
,
0001
0100
0010
1000
0001
0000
1001
0000
,
0001
0100
1000
0001
0010
1000
0001
0010
,
1000
0000
0001
0000
0100
0000
1000
0000
0010
0100
0010
0000
0100
0000
0001
0000
,
1000
0100
0100
0010
0100
0100
1000
0010
,
0010
0100
0010
0010
1000
0000
1001
0000
,
0001
0100
0100
0010
0100
0100
0001
0010
,
0010
0100
0010
0010
0001
0000
1001
0000
,
1000
0010
0010
0001
0010
0010
1000
0100
,
0100
0001
0100
0100
1000
0001
1001
0000
,
1000
0000
0100
0000
0001
0100
0010
0000
1000
0000
0010
0001
,
0200
0000
0000
0000
,
0000
0000
0320
2030
,
3002
0000
0000
0000
,
0023
0000
0230
2300
,
3020
0000
0000
0000
,
0000
0000
0032
0203
,
2300
0000
0000
0000
,
3002
0000
2003
0000
,
0002
0000
0000
0000
,
0000
0000
0000
0000
,
3003
0000
0000
0000
,
0000
0000
0000
0000
,
1000
0100
1000
0100
0010
0000
0001
0000
1000
0000
0010
0000
1000
0000
0001
0000
,
0011
0000
0000
0000
1010
0000
0000
0000
0001
0100
0001
0100
0001
0000
0000
0000
,
1000
0010
1000
0010
0100
0000
0001
0000
1000
0000
0100
0000
0010
0000
0001
0000
,
0101
0000
0000
0000
1100
0000
0000
0000
0001
0010
0001
0010
0001
0000
0000
0000
,
1000
0001
1000
0001
0010
0000
0100
0000
0010
0000
0001
0000
1000
0000
0010
0000
,
1010
0000
0000
0000
0011
0000
0000
0000
1000
0100
1000
0100
1000
0000
0000
0000
,
0001
0000
0010
0000
0100
0000
1000
0000
0001
0000
1000
0001
1000
0000
0001
0000
,
1000
0000
0010
0000
0100
0000
0001
0000
1000
0000
0001
1000
0001
0000
1000
0000
,
0100
0010
0100
0010
0001
0000
1000
0000
0010
0000
1000
0000
0001
0000
0010
0000
,
0110
0000
0000
0000
1100
0000
0000
0000
0001
1000
0001
1000
0001
0000
0100
0000
,
0010
1000
0010
1000
0100
0000
0010
0000
0001
0000
1000
0000
0010
0000
0100
0000
,
0110
0000
0000
0000
1001
0000
1000
0000
0001
0100
0001
0100
0001
0000
0010
0000
,
0100
1000
0100
1000
0001
0000
0100
0000
0010
0000
1000
0000
0001
0000
0010
0000
,
0110
0000
0000
0000
1100
0000
1000
0000
0001
0010
0001
0010
0001
0000
1000
0000
,
0010
0000
0100
0000
1000
0000
0100
0000
0001
0000
1000
0100
1000
0000
0001
0000
,
1000
0010
0100
1000
0100
0001
1001
0000
,
1000
0100
1000
0000
0001
0000
1000
0010
1000
0000
0001
0000
1000
0100
1000
0000
,
0001
0000
1000
0010
1000
0000
0001
0000
0010
0100
0010
0100
0010
0100
0020
0000
,
0000
0031
1000
0010
0001
0010
0100
0010
,
1000
0000
0001
0000
0010
0000
1000
0000
0010
0000
0100
0000
1000
0001
1000
0000
,
0001
0010
0001
0000
1000
0000
0001
0100
0001
0000
1000
0000
0001
0010
0001
0000
,
1000
0000
0001
0100
0001
0000
1000
0000
0100
0010
0100
0010
0100
0010
0200
0000
,
0000
1300
0001
0100
1000
0100
0010
1000
,
0001
0010
0001
0000
1000
0010
1000
0000
0001
0100
0001
0000
1000
0100
1000
0000
,
0001
0100
0001
0000
1000
0000
0001
0010
0001
0000
1000
0000
0001
0100
0001
0000
,
1000
0000
0001
0010
0001
0000
1000
0000
0010
0100
0010
0100
0010
0100
0020
0000
,
0000
1030
0001
0010
1000
0010
0100
0010
,
0001
0000
1000
0000
0010
0000
0001
0000
0010
0000
0100
0000
0001
1000
0001
0000
,
1000
0010
1000
0000
0001
0000
1000
0100
1000
0000
0001
0000
1000
0010
1000
0000
,
0001
0000
1000
0100
1000
0000
0001
0000
0100
0010
0100
0010
0100
0010
0200
0000
,
0000
0301
1000
0100
0001
0100
0010
0001
,
1000
0001
1000
0001
1000
0001
1000
0001
1000
0001
1000
0001
1000
0001
1000
0002
,
2000
0000
0000
0000
,
0000
0000
0000
3003
,
0001
0000
0000
0000
0001
0000
0000
0000
0100
0000
0000
0100
0000
0000
1000
0000
,
0000
1000
0000
0000
0010
0000
0000
0010
0000
0000
0001
0000
0000
0001
0000
0000
,
0100
0000
0000
0000
0000
1000
0000
0000
0000
0000
0010
0000
0000
0000
0000
0001
,
0000
2002
0000
0000
,
0000
0000
0000
0000
,
0000
0000
0000
0000
0000
0000
0000
3003
;

//--------------- dance-single - Fred-104 ----------------
#NOTES:
     dance-single:
     Fred-104:
     Hard:
     18:
     :
0000
0000
0000
0000
,
0000
0000
0000
0000
,
0000
0000
0000
0000
,
0000
0000
0000
0000
,
0000
0000
0000
0000
,
0000
0000
0000
0000
,
0000
0000
0000
0000
,
0000
0000
0000
0000
,
0000
0000
0000
0000
0000
0000
0000
0000
1000
0001
1000
0001
1000
0001
1000
0000
,
0001
0100
0001
0010
0000
0100
1000
0010
,
0000
0100
0001
0010
0000
0100
1000
0010
,
0000
0100
0001
0010
1000
0010
0100
1000
,
0001
0100
0010
1000
0000
0001
0010
0100
,
1000
0010
1000
0100
0000
0001
0100
1000
,
0000
0001
0100
1000
0000
0100
0001
1000
,
0001
0010
0100
1000
0010
0100
0010
1000
,
1001
0000
0000
0000
0110
0000
0000
0000
1000
0001
0100
0010
1000
0001
0100
0010
,
1000
0000
0000
0000
0010
0001
0010
1000
,
0001
0010
1000
0001
0100
0010
0001
1000
,
0010
0001
0010
0100
0001
0010
0100
0001
,
1000
0000
0010
0000
0001
1000
0001
0000
0100
0010
0100
0010
1000
0010
1000
0010
,
0100
0000
0001
0000
1000
0100
0010
0000
0001
0000
0100
0010
1000
0010
0100
0000
,
0001
0000
1000
0100
2000
0000
0000
0000
3001
0010
0001
0010
0100
0010
0100
0010
,
0001
0100
0010
1000
0100
0001
0100
0120
,
0000
0000
0031
0000
1000
0000
0010
0000
1000
0000
0001
0010
0100
0000
1000
0000
,
1001
0000
0101
0000
1000
0100
0010
0001
,
0100
0001
0010
0100
0010
0001
0100
0010
,
1000
0010
1000
0010
0100
0000
0001
0010
0001
0010
0100
0000
1000
0100
1000
0100
,
0010
0000
0001
0100
0001
0100
0010
0000
1000
0100
1000
0010
0100
0001
1000
0100
,
0010
0000
0001
0000
1000
0001
0100
0000
0010
0000
1000
0001
0010
0000
0100
0000
,
0010
0000
0001
0000
2001
0000
0000
0000
3001
0100
0001
0100
0010
1000
0010
1000
,
0001
0010
0001
0010
0100
0000
1000
0010
1000
0010
0100
0000
0001
0010
0100
1000
,
0001
0000
0100
0010
0100
0001
1000
0000
0100
0000
0000
0100
0000
0000
0010
0000
,
0001
1000
0001
0000
0100
0010
0100
0000
0001
0100
0001
0000
1000
0100
1000
0000
,
0001
0010
0001
0000
1000
0001
1000
0000
0001
0010
0100
0000
1000
0100
0010
0000
,
0001
0010
0001
0010
0001
0000
1000
0010
1000
0010
1000
0000
0001
0100
0001
0100
,
0001
0000
1000
0100
1000
0100
1000
0000
0001
1000
0010
1000
0001
0010
0001
1000
,
0001
1000
0100
0000
1000
0001
0100
0000
0001
0010
0100
0000
1000
0010
0100
0000
,
0001
1000
0100
0000
0010
0001
1000
0000
0010
1000
0100
0000
1000
0010
0100
0000
,
0001
1000
0100
1000
0001
0000
1000
0001
0010
0001
1000
0000
0001
1000
0010
1000
,
0001
0000
0100
0010
1000
0010
0100
0001
0010
0001
1000
0100
1000
0001
1000
0000
,
1100
0000
1000
0100
1000
0000
0101
0000
0001
0100
0001
0000
1100
0000
1000
0100
,
1000
0000
0101
0000
0001
0100
0001
0000
0100
0000
0010
0000
1000
0000
0010
0000
,
1010
0000
1000
0010
1000
0000
0011
0000
0001
0010
0001
0000
1010
0000
1000
0010
,
1000
0000
0011
0000
0001
0010
0001
0000
1000
0000
0100
0000
0010
0000
0001
0000
,
1001
0000
1000
0100
1000
0000
1001
0000
0001
0100
0001
0000
1001
0000
1000
0010
,
1000
0000
1001
0000
0001
0010
0001
0000
1000
0000
0001
0000
0100
0000
0010
0000
,
1000
0100
0010
1000
0010
0001
1000
0010
0001
0010
0100
0001
,
2000
0000
0000
0000
,
0000
0000
3200
0302
,
2003
0000
0000
0000
,
3020
0000
0230
0000
,
2300
0000
0000
0000
,
0000
0000
3002
0203
,
2300
0000
0000
0000
,
3020
0000
0032
0000
,
2000
0000
0000
0000
,
0000
0000
0000
0000
,
3003
0000
0000
0000
,
0000
0000
0000
0000
0000
0000
0000
0000
0000
0000
0000
0000
0001
1000
0001
1000
,
0001
0010
0100
1000
0001
0000
0100
0010
1000
0000
0100
0000
0010
0001
1000
0001
,
0010
0000
0001
1000
0010
0000
1000
0000
0001
1000
0100
1000
0001
0000
0100
0000
,
0001
0010
0100
1000
0001
0000
1000
0010
0100
0000
0001
0000
1000
0100
1000
0100
,
0010
0000
0001
0100
0010
0000
0100
0000
0001
0010
0100
1000
0001
0000
0100
0000
,
0010
1000
0001
1000
0100
0000
0010
0100
1000
0000
0001
0000
0100
0001
1000
0001
,
0100
0000
0001
1000
0010
0000
1000
0000
0100
0010
0001
1000
0010
0000
1000
0000
,
0001
0000
0000
0010
0000
0000
1000
0000
0000
0001
0000
0000
0100
0000
0000
0010
0001
0010
0001
0000
0000
1000
0000
0000
,
0001
0000
0000
0100
0000
0000
0010
0000
0000
0001
0000
0000
1000
0000
0000
0100
0001
0100
0001
0000
0000
1000
0000
0000
,
0001
1000
0010
0100
0001
0000
1000
0100
0010
0001
1000
0000
0001
0100
0010
0100
,
0001
0000
1000
0100
0010
0000
0001
0010
0100
0010
0001
1000
0010
0100
0001
0000
,
0010
0100
0010
0001
1000
0000
0010
1000
0001
1000
0100
0000
0010
0001
0010
0100
,
1000
0000
0001
1000
0010
0000
1000
0001
0100
0001
1000
0001
0010
0100
1000
0000
,
0001
0100
0010
1000
0001
0000
1000
0100
0010
0100
1000
0010
0100
0001
1000
0000
,
0100
0000
0010
0001
1000
0000
0001
0100
0001
1000
0100
0010
0001
1000
0001
0000
,
1000
0100
0001
0100
1000
0010
0001
0010
,
0100
0010
1000
1100
0001
0101
1001
0000
,
1000
0100
1000
0010
0100
0001
0010
0001
0100
0010
1000
0100
1000
0010
0100
0001
,
0010
0001
0100
0010
1000
0100
1000
0010
0100
0001
0010
0100
1000
0010
0200
0000
,
0000
0301
0010
0100
0001
0100
1000
0001
,
0100
0000
1000
0000
0001
0000
0010
0000
1000
0000
0001
0000
0010
0100
1000
0000
,
0001
0100
0010
1000
0100
1000
0010
0100
0001
0010
0001
0100
0010
1000
0100
1000
,
0010
0100
0001
0010
0001
0100
0010
1000
0100
0010
0001
0100
0010
1000
0002
0000
,
0000
1003
0010
0001
0010
0100
0001
1000
,
0001
0010
0001
0010
0100
1000
0100
1000
0001
0100
0010
0100
0001
1000
0001
0000
,
1000
0010
1000
0100
0010
0001
0100
0001
0010
0100
1000
0010
1000
0100
0010
0001
,
0100
0001
0010
0100
1000
0010
1000
0100
0010
0001
0100
0010
1000
0100
0020
0000
,
0000
0031
0100
0010
0001
0010
1000
0001
,
0010
0000
1000
0000
0001
0000
0100
0000
1000
0000
0001
0000
0100
0010
1000
0000
,
0001
0010
0100
1000
0010
1000
0100
0010
0001
0100
0001
0010
0100
1000
0010
1000
,
0100
0010
0001
0100
0001
0010
0100
1000
0010
0100
0001
0010
0100
1000
0002
0000
,
0000
1003
0100
0001
0100
0010
0001
1000
,
0001
0010
0001
0100
0010
1000
0100
1000
0010
0100
0001
0010
0001
0100
0010
1000
,
0002
0000
0000
0000
,
0000
0000
0000
0000
,
1003
0000
0000
0000
0001
0000
0000
0000
1000
0000
0000
0010
0000
0000
0100
0000
,
0000
0010
0000
0000
0001
0000
0000
1000
0000
0000
0100
0000
0000
0010
0000
0000
,
0100
0000
0000
0000
0000
0001
0000
0000
0000
0000
1000
0000
0000
0000
0000
0100
,
0000
2002
0000
0000
,
0000
0000
0000
0000
,
0000
0000
0000
0000
0000
0000
0000
3003
;

//--------------- dance-single - Fred-104† ----------------
#NOTES:
     dance-single:
     Fred-104†:
     Challenge:
     19:
     :
0000
0000
0000
0000
,
0000
0000
0000
0000
,
0000
0000
0000
0000
,
0000
0000
0000
0000
,
0000
0000
0000
0000
,
0000
0000
0000
0000
,
0000
0000
0000
0000
,
0000
0000
0000
0000
,
0000
0000
0000
0000
0000
0000
0000
0000
0001
0010
0100
1000
0001
0010
0100
1000
,
0001
1000
0100
0020
0000
1030
0010
0002
,
0000
1003
0001
0200
0000
1300
0100
0020
,
0000
1030
0001
0010
0100
0001
1000
0010
,
0100
1000
0001
2000
0000
3100
0010
0001
,
1000
0010
0001
0020
0000
0130
0001
1000
,
0100
0001
0100
0020
0000
0130
1000
0001
,
0010
0100
0001
0100
0010
1000
0010
0001
,
1000
0010
1000
0010
0100
0001
0100
0001
1000
0100
0010
0001
0010
0100
1000
0001
,
1000
0000
0000
0000
0001
0000
1000
0000
0100
0010
0001
0000
1000
0010
0100
0000
,
0010
1000
0001
0000
0010
0100
1000
0000
0001
0100
0010
0000
0100
0001
1000
0000
,
0100
0010
0001
0000
1000
0010
0100
0000
0010
1000
0001
0000
0010
0100
1000
0000
,
0001
0000
1000
0000
0010
0100
0001
0000
1000
0100
0010
0001
0100
0010
1000
0001
,
1000
0000
0010
0000
0100
0010
0001
0000
0010
0000
1000
0001
0010
0100
1000
0000
,
0001
0000
1000
0000
0002
0000
0000
0000
1003
0100
0010
0001
0100
0010
0100
0001
,
1000
0000
0001
0000
0010
0100
1000
0000
0001
0000
0100
0000
0010
0000
1000
0000
,
0000
0000
0000
0001
0000
0000
0010
0000
0000
0100
0000
0000
0010
0000
0000
0001
1000
0010
1000
0000
0000
0001
0000
0000
,
1001
0000
1000
0001
0100
0010
0100
0001
,
1000
0001
0010
0000
0100
1000
0010
0000
0100
0001
1000
0100
0010
0000
0001
0000
,
1000
0100
0010
0100
0001
0000
1000
0010
0100
0010
0001
0000
0001
0100
0010
0100
,
1000
0000
0001
0010
0100
0010
1000
0000
1000
0010
0100
0001
0010
0100
1000
0001
,
1000
0000
0100
0000
0001
0100
0010
0000
0001
0000
0100
0010
0100
1000
0100
0000
,
0001
0000
1000
0010
2000
0000
0000
0000
3001
0010
0100
0010
0001
1000
0010
1000
,
0001
0100
0010
1000
0001
0000
1000
0100
0010
0001
1000
0000
0001
0100
1000
0100
,
0010
0000
1000
0100
0010
0100
0001
0100
0010
0001
1000
0001
0100
0010
1000
0000
,
0010
1000
0100
0000
0010
0001
0100
0000
0010
1000
0100
0000
0010
0001
0100
0000
,
0010
1000
0100
0000
0010
0001
1000
0000
0001
0010
0100
1000
0010
0100
1000
0000
,
0100
0001
1000
0100
0010
0000
0001
1000
0010
0100
0001
0000
1000
0100
0010
0001
,
0100
0000
1000
0100
0001
0010
0100
0000
1000
0010
0100
0010
1000
0100
0010
0001
,
1000
0001
0100
0000
0001
1000
0100
0000
1000
0001
0010
0000
0001
1000
0010
0000
,
1000
0100
0010
0000
0001
0010
0100
0000
1000
0010
1000
0001
0100
0001
1000
0000
,
0001
0010
0100
1000
0100
0000
0010
0001
1000
0100
0001
0000
0100
1000
0010
0100
,
0001
0000
0100
0010
0001
0010
0100
0001
1000
0100
1000
0001
0010
0001
1000
0000
,
0110
0000
1000
0100
0001
0000
0110
0000
0001
0100
1000
0000
0110
0000
1000
0100
,
0001
0000
0110
0000
0001
0100
1000
0000
0001
0000
1000
0000
1001
0000
0000
0000
,
0110
0000
0001
0010
1000
0000
0110
0000
1000
0010
0001
0000
0110
0000
0001
0010
,
1000
0000
0110
0000
1000
0010
0001
0000
1000
0000
0001
0000
1001
0000
0000
0000
,
0011
0000
0001
0100
1000
0000
1010
0000
1000
0100
0001
0000
0101
0000
0001
0010
,
1000
0000
1100
0000
1000
0010
0001
0000
1000
0000
0001
0000
1001
0000
0000
0000
,
0001
0010
0100
0010
1000
1000
0001
0100
0010
0100
1000
1000
,
0002
0000
0000
0000
,
0000
0000
2003
3020
,
0032
0000
0000
0000
,
0203
0000
2300
0000
,
3001
0010
0100
0001
0100
1000
0001
0100
1000
0100
0010
1000
,
0100
0010
1000
0010
0001
1000
0010
0001
0100
0001
0010
1000
,
0001
0000
0000
0000
0100
0000
0000
0000
1000
0000
0000
0000
0100
0010
0100
0000
0001
0000
1000
0000
0001
0000
0010
0000
,
0100
0000
0000
0000
0001
0000
0000
0000
0100
0000
0000
0000
1000
0001
1000
0000
0001
0000
0100
0000
0010
0000
0100
0001
,
2000
0000
0000
0000
,
0000
0000
0000
0000
,
3000
0000
0000
0000
,
0001
0000
1000
0000
0001
0010
0100
0010
0001
1000
0010
0000
1000
0001
1000
0001
,
0100
0010
1000
0001
0010
0000
0001
0100
0010
0000
0100
0000
0001
1000
0100
1000
,
0001
0000
1000
0100
0010
0000
0001
0010
0100
1000
0001
0100
0001
1000
0001
0000
,
1000
0010
0100
0010
1000
0100
0010
0001
1000
0000
0100
0000
0010
0100
1000
0001
,
0100
0000
1000
0100
0010
0000
1000
0001
0100
0010
1000
0001
0100
0010
0100
0000
,
0001
0010
0001
0100
0010
0100
0001
1000
0100
0000
0010
0000
0100
1000
0010
0100
,
0001
0000
1000
0010
1000
0000
0001
0010
0100
1000
0001
0100
0010
1000
0001
0000
,
1000
0000
0000
0100
0000
0000
0001
0000
0000
0100
0000
0000
0010
0000
0000
0001
1000
0010
0100
0000
0000
0001
0000
0000
,
1000
0000
0000
0010
0000
0000
0001
0000
0000
0010
0000
0000
0100
0000
0000
0001
1000
0100
0010
0000
0000
0001
0000
0000
,
1000
0001
0010
0100
0001
0100
1000
0001
1000
0000
0010
0100
0001
1000
0001
0100
,
0001
0000
0010
0100
1000
0000
0001
1000
0010
0100
1000
0100
0010
0100
0001
0000
,
1000
0001
0010
0100
0001
0100
1000
0001
1000
0000
0001
0100
0010
1000
0001
0010
,
0001
0000
0100
0010
1000
0000
0001
0100
0001
1000
0100
0010
0001
1000
0010
0000
,
1000
0001
0100
0010
0001
0010
0100
0010
1000
0000
0010
1000
0001
0100
0001
0000
,
1000
0000
0001
0010
0100
0000
0001
0100
0010
1000
0010
0100
0001
0100
1000
0000
,
0001
0000
0000
1000
0000
0000
0010
0000
0000
0100
0000
0000
0001
0000
0000
1000
0100
0010
0100
0000
0000
1000
0000
0000
,
0001
0100
0101
1010
1100
0011
1001
0000
,
1000
0010
0100
1000
0100
0010
0100
0001
1000
0100
0001
1000
0001
0100
1000
0001
,
0100
1000
0100
0010
0100
0001
1000
0100
0010
1000
0001
0100
0010
0001
2000
0000
,
0000
0000
3001
0000
0010
0000
0100
0000
1000
0000
0001
0100
1000
0000
0100
0000
,
0001
0000
0010
0100
1000
0000
0001
0000
0100
0000
0010
0000
1000
0001
1000
0000
,
0001
0010
0100
0001
0100
1000
0001
0100
1000
0001
0010
0100
0001
1000
0100
0010
,
0100
0001
0100
1000
0001
0100
1000
0001
1000
0100
0001
1000
0100
0010
0002
0000
,
0000
0000
1003
0000
0100
0000
0010
0000
0001
0000
0100
0010
1000
0000
0001
0000
,
1000
0001
0010
0100
0010
0001
1000
0001
0100
0010
1000
0100
0010
0001
1000
0000
,
0001
0010
0100
0001
1000
0010
0100
1000
0001
0100
1000
0001
1000
0100
0001
1000
,
0100
0010
1000
0001
0100
1000
0001
0100
0010
0001
1000
0100
0010
1000
0002
0000
,
0000
0000
1003
0000
0010
0000
0100
0000
0001
0000
1000
0100
0001
0000
0100
0000
,
1000
0000
0010
0100
0001
0000
1000
0000
0100
0000
0010
0000
0001
1000
0001
0000
,
1000
0010
0001
1000
0100
0001
1000
0100
0001
1000
0010
0100
1000
0001
0100
0010
,
0001
1000
0100
0001
1000
0100
0001
1000
0001
0100
1000
0001
0100
0010
2000
0000
,
0000
0000
3001
0000
0100
0000
0010
0000
1000
0000
0100
0010
0001
0000
1000
0000
,
0001
0000
0000
0100
0000
0000
0001
0000
0000
1000
0000
0000
0100
0000
0000
0010
0000
0000
0001
0000
0000
1000
0000
0000
0010
0000
0000
0100
0000
0000
0001
0000
0000
1000
0000
0000
0100
0000
0010
0000
0001
0000
1000
0000
0010
0000
0100
0000
,
0002
0000
0000
0000
,
0000
0000
0000
0003
,
0001
0000
0000
0000
0010
0000
0000
0000
0100
0000
0000
1000
0000
0000
0010
0000
,
0000
0100
0000
0000
0001
0000
0000
0010
0000
0000
1000
0000
0000
0100
0000
0000
,
0001
0000
0000
0000
0000
0010
0000
0000
0000
0000
1000
0000
0000
0000
0000
0100
,
0000
2002
0000
0000
,
0000
0000
0000
0000
,
0000
0000
0000
0000
0000
0000
0000
3003
;

//--------------- dance-double - Fred-104 ----------------
#NOTES:
     dance-double:
     Fred-104:
     Easy:
     13:
     :
00000000
00000000
00000000
00000000
,
00000000
00000000
00000000
00000000
,
00000000
00000000
00000000
00000000
,
00000000
00000000
00000000
00000000
,
00000000
00000000
00000000
00000000
,
00000000
00000000
00000000
00000000
,
00000000
00000000
00000000
00000000
,
00000000
00000000
00000000
00000000
,
00000000
00000000
00000000
00000000
,
00010000
00000000
00001000
00000100
00000000
00000000
00000100
00000001
,
00000000
00000000
00000001
00001000
00000000
00000000
00001000
00000001
,
00000000
00000000
00000001
00000000
00001000
00000010
00001000
00000000
,
00000010
00010000
00001000
00010000
00000000
00100000
01000000
00000000
,
00010000
00200000
10300000
00200000
,
00301000
00020000
00130000
20000000
,
30010000
10000000
00010000
00000000
10000000
01000000
00100000
00000000
,
00001000
00010000
00001000
00010000
00000010
00010000
00000010
00010000
,
00011000
00000000
00000000
00000000
00010000
00001000
00010000
00000000
,
00001000
00000000
00000100
00000000
00000001
00001000
00000001
00000000
,
00000010
00000000
00000100
00000000
00000010
00001000
00010000
00000000
,
00001000
00100000
00010000
01000000
00000000
00010000
10000000
00010000
,
10000000
00000000
01000000
00100000
00000000
01000000
00010000
00001000
,
00000000
00010000
00000100
00000000
00010000
00001000
00010000
00000000
,
00000010
00000000
00001000
00000000
00000100
00000010
00000100
00010000
,
00000000
00001000
01000000
00000000
00010000
10000000
00010000
00000000
,
10010000
00000000
11000000
00000000
01000000
00010000
00001000
00000000
,
00010000
00000010
00001000
00000000
00000010
00010000
00001000
00000000
,
00011000
00000000
00001000
01000000
00000000
01000000
00010000
00000000
,
10000000
01000000
00000000
01000000
00100000
00001000
00010000
00000000
,
00011000
00000000
00010000
00000010
00000000
00001000
00000010
00001000
,
00000000
00000100
00000010
00000000
00000001
00001000
00000001
00000000
,
00001001
00000000
00000001
00000100
00000000
00000100
00001000
00000000
,
00010000
00000000
00001000
00000000
00010000
00000000
00000000
00000000
00010000
00000000
00000000
00010000
00000000
00000000
00010000
00000000
,
00011000
00010000
00100000
01000000
,
00010000
00100000
01000000
00010000
,
00001000
00000000
00010000
00000010
00000000
00010000
00001000
00000000
,
00010000
00000100
00000000
00010000
00001000
00010000
00000010
00000000
,
00011000
00001000
00000010
00000100
,
00001000
00000010
00000100
00001000
,
00010000
00000000
00001000
00100000
00000000
00001000
00010000
00000000
,
00001000
01000000
00001000
00000000
00010000
00001000
00100000
00000000
,
00011000
00000000
00010000
00001000
00000000
00000010
00001000
00000000
,
00010000
00001000
00000000
00100000
00001000
00010000
00001000
00010000
,
00011000
00000000
00010000
00001000
00000000
00000100
00001000
00000000
,
00010000
00001000
00000000
01000000
00001000
00010000
00001000
00010000
,
00011000
00000000
00010000
00001000
00000000
00000100
00001000
00000000
,
00010000
00001000
00000000
00010000
00001000
00010000
00000010
00010000
,
00011000
00000000
00010000
00000000
00000100
00000000
00000001
00000000
00000100
00000000
00010000
00000000
,
00012000
00000000
00000000
00000000
,
00000000
00000000
00023000
00030200
,
00020300
00000000
00000000
00000000
,
00032000
00000000
00023000
00100000
,
00230000
00000000
00000000
00000000
,
00000000
00000000
20300000
32000000
,
03200000
00000000
00001000
00000000
,
00302000
00000000
00023000
00001000
,
00002000
00000000
00000000
00000000
,
00000000
00000000
00000000
00000000
,
00033000
00000000
00000000
00000000
,
00000000
00000000
00010000
00011000
,
00010000
00001000
00000100
00000000
00000101
00000000
00001000
00000100
,
00000010
00000000
00000001
00000000
00001000
00000001
00001000
00000000
,
00000001
00000100
00001000
00000000
00011000
00000000
00001000
00010000
,
00001000
00000000
00010000
00000000
00001000
01000000
00001000
00000000
,
00010000
00100000
00010000
00000000
00011000
00000000
00010000
01000000
,
10000000
00000000
00010000
00000000
01000000
00100000
01000000
00000000
,
00010000
00000000
10000000
00000000
01000000
00100000
00001000
00000000
,
00010000
00000000
00000010
00000000
00010000
00001000
00010000
00000000
,
00000100
00001000
00000001
00000100
00000010
00001000
00000010
00010000
,
00001000
00000000
00010000
00000000
00001000
00010000
00001000
00000000
,
00010000
00001000
00000100
00000010
00000100
00000001
00001000
00000001
,
00001000
00000000
00000001
00000000
00000010
00000100
00001000
00000000
,
00000100
00010000
00001000
00010000
00100000
01000000
00100000
10000000
,
00010000
00000000
01000000
00000000
00010000
10000000
00010000
00000000
,
10000000
01000000
10000000
00010000
00100000
00001000
00100000
00001000
,
00010000
00000010
00001000
00000010
00010000
00001000
00011000
00000000
,
00011000
00000000
00001000
00000010
00000000
00000010
00000001
00000000
,
00000001
00000100
00000000
00000100
00001000
00000000
00001000
00020000
,
00000000
00031000
00001000
00000000
01000000
00000000
00010000
00000000
,
00100000
01000000
00100000
00001000
,
00010000
00000000
00010000
01000000
00000000
01000000
10000000
00000000
,
10000000
00100000
00000000
00100000
00010000
00000000
00010000
00002000
,
00000000
00013000
00010000
00000000
00000100
00000000
00000010
00000000
,
00000001
00001000
00000010
00000100
00001000
00010000
00001000
00000000
,
00011000
00000000
00010000
00100000
00000000
00100000
10000000
00000000
,
10000000
01000000
00000000
01000000
00010000
00000000
00010000
00002000
,
00000000
00013000
00010000
00000000
00000100
00000000
00001000
00000000
,
00000010
00000100
00000010
00010000
,
00001000
00000000
00001000
00000100
00000000
00000100
00000001
00000000
,
00000001
00000010
00000000
00000010
00001000
00000000
00001000
00020000
,
00000000
00031000
00001000
00000000
01000000
00000000
00100000
00000000
,
10000000
00010000
10000000
01000000
00100000
00001000
00010000
00001000
,
00011000
00000000
00000000
00000000
,
00000000
00000000
00000000
00000000
,
00001000
00000000
00000000
00000000
00001000
00000000
00000000
00000000
00010000
00000000
00000000
00010000
00000000
00000000
00100000
00000000
,
00000000
00100000
00000000
00000000
10000000
00000000
00000000
10000000
00000000
00000000
01000000
00000000
00000000
01000000
00000000
00000000
,
00010000
00000000
00000000
00000000
00000000
00010000
00000000
00000000
00000000
00000000
00001000
00000000
00000000
00000000
00000000
00001000
,
00000000
00022000
00000000
00000000
,
00000000
00000000
00000000
00000000
,
00000000
00000000
00000000
00000000
00000000
00000000
00000000
00033000
;

//--------------- dance-double - Fred-104 ----------------
#NOTES:
     dance-double:
     Fred-104:
     Medium:
     16:
     :
00000000
00000000
00000000
00000000
,
00000000
00000000
00000000
00000000
,
00000000
00000000
00000000
00000000
,
00000000
00000000
00000000
00000000
,
00000000
00000000
00000000
00000000
,
00000000
00000000
00000000
00000000
,
00000000
00000000
00000000
00000000
,
00000000
00000000
00000000
00000000
,
00000000
00000000
00000000
00000000
,
00001000
00010000
00001000
00010000
00000000
01000000
00100000
00010000
,
00000000
10000000
00100000
00010000
00000000
00001000
00010000
00001000
,
00000000
01000000
00001000
00000100
00000010
00010000
00001000
00000100
,
00000001
00001000
00000100
00000010
00000000
00000001
00001000
00000010
,
00010000
00001010
00010000
00001100
,
00001000
01010000
00001000
00110000
,
00001000
00010000
00100000
00010000
,
00001000
00000000
00010000
00000000
00000100
00000000
00010000
00000000
00001000
00010000
00001000
00010000
00001000
00010000
00001000
00010000
,
00001000
00000000
00000000
00000000
00010000
00100000
10000000
00010000
,
00100000
01000000
00100000
00001000
00010000
00000100
00000010
00000001
,
00001000
00000010
00000100
00001000
00010000
00001000
00100000
01000000
,
00010000
00000000
00001000
00000000
00000010
00000000
00000001
00000000
00000000
00000000
00000100
00000010
00000100
00000010
00000100
00000000
,
00000001
00000010
00001000
00020000
00000000
01030000
10000000
02000000
,
00000000
03100000
00020000
00000000
10030000
01000000
00010000
01000000
,
10000000
00100000
01000000
00100000
00010000
00001000
00000010
00001000
,
00000000
00000000
00010000
00000000
00001000
00000000
00000010
00000000
00000100
00000000
00010000
00001000
00010000
00000000
00001000
00000000
,
00011000
00000000
00000110
00000000
00001000
00000001
00000100
00000010
,
00000100
00001000
00010000
00001000
00100000
01000000
00100000
00010000
,
10000000
01000000
00010000
00001000
00010000
00100000
10000000
00100000
,
00010000
00001000
00010000
01000000
10000000
00100000
00010000
00001000
,
00100000
00001000
00010000
00000020
00000000
00001030
00000100
00020000
,
00000000
00031000
00011000
00000000
00001000
00010000
01000000
00010000
,
00001000
00010000
00100000
10000000
00010000
10000000
01000000
00010000
,
00001000
00000000
00000010
00000000
00000001
00000000
00001000
00000000
00000001
00000000
00000000
00000100
00000000
00000000
00001000
00000000
,
00010000
00001000
00000000
00000000
00001000
00100000
00000000
00000000
00100000
00010000
00000000
00000000
00010000
10000000
00000000
00000000
,
10000000
00100000
00000000
00000000
00100000
00010000
00000000
00000000
00010000
00001000
00000000
00000000
00001000
00010000
00000000
00000000
,
00010000
00000100
00000001
00001000
00000010
00000001
00000100
00001000
,
00000001
00000010
00010000
00001000
00100000
00001000
00011000
00000000
,
00001000
00010000
00000000
00000000
00010000
00000010
00000000
00000000
00000010
00001000
00000000
00000000
00001000
00000001
00000000
00000000
,
00000001
00000010
00000000
00000000
00000010
00001000
00000000
00000000
00001000
00010000
00000000
00000000
00010000
00001000
00000000
00000000
,
00001000
01000000
10000000
00010000
00100000
10000000
01000000
00010000
,
10000000
00100000
00001000
00010000
00000010
00010000
00011000
00000000
,
00010000
00000100
00000001
00001000
00000010
00000001
00001000
00000010
,
00000001
00001000
00000100
00000001
00000010
00001000
00010000
00010000
,
00001000
01000000
10000000
00010000
00100000
10000000
00010000
00100000
,
10000000
00010000
01000000
10000000
00100000
00010000
00001000
00001000
,
00010000
00000010
00000001
00001000
00000100
00000010
00001000
00000100
,
00000001
00001000
00000010
00000001
00000100
00001000
00010000
00010000
,
00001000
00000000
00010000
00000000
01000000
00100000
00010000
00000000
01000000
00000000
00100000
00010000
,
00002000
00000000
00000000
00000000
,
00000000
00000000
00023000
00230000
,
20300000
00000000
00000000
00000000
,
32000000
00000000
00000000
00000000
00000000
00000000
03200000
00000000
00000000
00301000
00010000
00001000
,
00020000
00000000
00000000
00000000
,
00000000
00000000
00000000
00000000
00000000
00000000
00031000
00000000
00001000
00000100
00000000
00000100
,
00000002
00000000
00000000
00000000
,
00002003
00000000
00003020
00000000
,
00020030
00000000
00000000
00000000
,
00000000
00000000
00000000
00000000
,
00030000
00000000
00000000
00000000
,
00000000
00000000
00000000
00000000
00000000
00000000
00000000
00000000
00000000
00000000
00000000
00000000
00010000
00001000
00010000
00001000
,
00010000
00001000
00010000
00001000
00010000
00000000
00001000
00000000
00010000
00000000
00100000
00000000
01000000
00000000
00000000
00000000
,
01100000
00000000
00000000
00000000
01010000
00000000
00000000
00000000
10000000
01000000
10000000
01000000
10000000
00000000
00000000
00000000
,
00010000
01000000
00010000
01000000
00010000
00000000
10000000
00000000
00100000
00000000
00010000
00000000
00001000
00000000
00000000
00000000
,
00011000
00000000
00000000
00000000
00010010
00000000
00000000
00000000
00010000
00001000
00010000
00001000
00010000
00000000
00000000
00000000
,
00000100
00001000
00000100
00001000
00000100
00000000
00000010
00000000
00000001
00000000
00001000
00000000
00000010
00000000
00000000
00000000
,
00001010
00000000
00000000
00000000
00010010
00000000
00000000
00000000
00010000
00001000
00010000
00001000
00010000
00000000
00000000
00000000
,
00001000
00010000
00100000
01000000
00010000
00100000
01000000
10000000
,
00100000
00010000
00001000
00000100
00000001
00000010
00000100
00001000
,
00000001
00000100
00000001
00000100
00000001
00000000
00000010
00000000
00000100
00000000
00000010
00000000
00001000
00000000
00010000
00000000
,
00011000
00000000
00000000
00000000
01001000
00000000
00001000
00000000
01000000
00010000
01000000
00010000
01000000
00000000
00000000
00000000
,
00100000
10000000
00100000
10000000
00100000
00000000
10000000
00000000
01000000
00000000
00010000
00000000
00001000
00000000
00010000
00000000
,
00010100
00000000
00000000
00000000
00001001
00000000
00000001
00000000
00000100
00000001
00000100
00000001
00000100
00000000
00000000
00000000
,
00000001
00001000
00000001
00001000
00000001
00000000
00000100
00000000
00001000
00000000
00010000
00000000
00001000
00000000
01000000
00000000
,
01010000
00000000
00000000
00000000
10100000
00000000
10000000
00000000
00010000
10000000
00010000
10000000
00010000
00000000
00000000
00000000
,
10000000
01000000
00100000
00010000
01000000
00100000
00010000
00001000
,
00000100
00000000
00000010
00000000
00001000
00000000
00000100
00000000
00000010
00000001
00000010
00000001
00001000
00000000
00001000
00000000
,
00000001
00000100
00000001
00000000
00001000
00000000
00000100
00010000
00000100
00000000
00010000
00000000
00001000
01000000
00001000
00000000
,
00010000
00000000
00100000
01000000
00100000
00000000
10000000
00000000
00010000
10000000
00010000
10000000
00010000
10000000
00020000
00000000
,
00000000
10030000
00100000
00010000
00001000
00010000
01000000
00010000
,
00001000
00000000
00000100
00000000
00001000
00000000
00010000
00000000
00001000
00000000
00000010
00000000
00000001
00001000
00000001
00000000
,
00001000
00000100
00001000
00000000
00000100
00000000
00010000
00001000
00010000
00000000
00100000
00000000
01000000
00010000
01000000
00000000
,
00100000
00000000
10000000
00010000
10000000
00000000
00010000
00000000
10000000
01000000
00100000
01000000
00100000
01000000
20000000
00000000
,
00000000
30010000
01000000
00100000
00010000
00001000
00010000
00000100
,
00000010
00000001
00000100
00001000
00010000
00100000
10000000
00010000
,
10000000
01000000
10000000
00000000
00010000
00000000
01000000
00001000
01000000
00000000
00001000
00000000
00010000
00000100
00010000
00000000
,
00001000
00000000
00000010
00000100
00000010
00000000
00000001
00000000
00001000
00000001
00001000
00000001
00001000
00000001
00002000
00000000
,
00000000
00003001
00000010
00001000
00010000
00001000
00000100
00001000
,
00010000
00000000
01000000
00000000
00010000
00000000
00001000
00000000
00010000
00000000
00100000
00000000
10000000
00010000
10000000
00000000
,
00010000
01000000
00010000
00000000
01000000
00000000
00001000
00010000
00001000
00000000
00000010
00000000
00000100
00001000
00000100
00000000
,
00000010
00000000
00000001
00001000
00000001
00000000
00001000
00000000
00000001
00000100
00000010
00000100
00000010
00000100
00000002
00000000
,
00000000
00001003
00000100
00000010
00001000
00010000
00000100
00001000
,
00000010
00001000
00000010
00001000
00000010
00001000
00000010
00001000
00000010
00001000
00000010
00001000
00000010
00001000
00000010
00001000
,
00000020
00000000
00000000
00000000
,
00000000
00000000
00000000
00000000
,
00010030
00000000
00000000
00000000
00010000
00000000
00000000
00000000
00001000
00000000
00000000
00001000
00000000
00000000
00000010
00000000
,
00000000
00000010
00000000
00000000
00000001
00000000
00000000
00000001
00000000
00000000
00000100
00000000
00000000
00000100
00000000
00000000
,
00001000
00000000
00000000
00000000
00000000
00010000
00000000
00000000
00000000
00000000
00100000
00000000
00000000
00000000
00000000
10000000
,
00000000
20020000
00000000
00000000
,
00000000
00000000
00000000
00000000
,
00000000
00000000
00000000
00000000
00000000
00000000
00000000
30030000
;

//--------------- dance-double - Fred-104 writes another 18.999 ----------------
#NOTES:
     dance-double:
     Fred-104 writes another 18.999:
     Hard:
     18:
     :
00000000
00000000
00000000
00000000
,
00000000
00000000
00000000
00000000
,
00000000
00000000
00000000
00000000
,
00000000
00000000
00000000
00000000
,
00000000
00000000
00000000
00000000
,
00000000
00000000
00000000
00000000
,
00000000
00000000
00000000
00000000
,
00000000
00000000
00000000
00000000
,
00000000
00000000
00000000
00000000
00000000
00000000
00000000
00000000
00010000
00001000
00010000
00001000
00010000
00001000
00010000
00001000
,
00010000
00001000
00000100
00000001
00000000
00001000
00000001
00000010
,
00000000
00001000
00010000
01000000
00000000
10000000
00010000
10000000
,
00000000
01000000
00010000
00001000
00100000
00001000
00000010
00000100
,
00001000
00000010
00000100
00001000
00010000
00100000
01000000
00010000
,
10000000
01000000
10000000
11000000
00000000
01000000
00010000
00011000
,
00000000
00010000
00000100
00001100
00000000
00010000
00001000
00011000
,
00010000
00001000
00000100
00000001
00001000
00000100
00000010
00000001
,
00001000
00000000
00000000
00000000
00010010
00000000
00000000
00000000
00010000
00001000
00100000
00001000
00010000
00001000
00100000
00001000
,
00010000
00000000
00000000
00000000
00001000
00010000
00100000
01000000
,
00001000
00010000
01000000
00100000
00001000
00000010
00010000
00100000
,
00001000
00010000
00100000
01000000
00001000
00000100
00010000
01000000
,
00001000
00000000
00010000
00000000
00001000
00000010
00000100
00000000
00001000
00000100
00000010
00000100
00000010
00000100
00001000
00000100
,
00010000
00000000
00001000
00000000
01000000
00010000
01000000
00000000
00010000
00000000
10000000
01000000
00100000
00000000
00010000
00000000
,
10000000
00000000
00100000
00000000
20100000
00000000
00000000
00000000
30010000
10000000
01000000
00100000
00001000
00010000
00000100
00000010
,
00000001
00001000
00000010
00000100
00001000
01000000
00001000
00021000
,
00000000
00000000
00000000
00031000
00000000
00000000
00010000
00000000
00000000
00100000
00000000
00000000
10000000
00000000
00000000
01000000
00100000
01000000
00100000
00000000
00000000
00001000
00000000
00000000
,
00011000
00000000
00001010
00000000
00011000
00010000
00001000
00000100
,
00000001
00000100
00010000
01000000
10000000
01000000
00001000
00010000
,
00001000
00010000
00100000
00010000
00001000
00000000
00010000
00001000
00000100
00001000
00010000
00000000
00001000
00010000
01000000
00010000
,
00001000
00000000
00010000
00001000
00000010
00001000
00010000
00000000
00001000
00100000
00010000
00100000
01000000
10000000
00010000
01000000
,
00010000
00000000
10000000
00010000
01000000
00100000
00010000
00000000
00001000
00000000
00010000
00001000
00000010
00000100
00000010
00000000
,
00000001
00000000
00000100
00000000
00002100
00000000
00000000
00000000
00013000
00001000
00010000
00000100
00001000
00000001
00000100
00000010
,
00001000
00000001
00000010
00000100
00010000
00000000
00001000
00010000
00000010
00001000
00000010
00000000
00000100
00000001
00001000
00000100
,
00000010
00000000
00000001
00001000
00000010
00010000
00002000
00000000
00013000
00000000
00100000
01000000
00000000
01000000
00010000
00000000
,
10000000
00010000
00100000
00000000
00001000
00100000
00001000
00000000
00010000
00000010
00010000
00000000
00001000
00010000
00001000
00000000
,
01000000
00001000
01000000
00000000
00001000
00010000
00001000
00000000
00010000
00000100
00010000
00000000
00000100
00001000
00000001
00000000
,
00000010
00000001
00001000
00000001
00000100
00000000
00000001
00000010
00000100
00001000
00000100
00000000
00010000
00001000
01000000
00010000
,
10000000
00000000
01000000
00100000
00010000
10000000
00010000
00000000
01000000
00100000
01000000
00100000
10000000
00100000
10000000
00100000
,
01000000
00100000
10000000
00000000
00010000
00100000
00010000
00000000
00100000
00001000
00100000
00000000
00001000
00010000
00001000
00000000
,
00010000
00001000
00010000
00000000
00000010
00001000
00000010
00000000
00010000
00001000
00010000
00000000
00000010
00001000
00000001
00000000
,
00001000
00000100
00001000
00000100
00000010
00000000
00000001
00000100
00000001
00000100
00000010
00000000
00001000
00000100
00000010
00000001
,
00001000
00000000
00000010
00010000
00001000
00100000
00010000
00100000
01000000
10000000
00010000
00000000
10010000
00000000
00000000
00000000
,
10100000
00000000
10000000
01000000
10000000
00000000
01000000
00000000
00100000
00010000
00100000
00000000
00001000
00000000
00010000
00000010
,
00010000
00000000
00000100
00000000
00001000
00000010
00001000
00000000
00000001
00000000
00000100
00000000
00000110
00000000
00000000
00000000
,
00001001
00000000
00000001
00000100
00000001
00000000
00000010
00000000
00000100
00001000
00000100
00000000
00010000
00000000
00001000
00100000
,
00001000
00000000
01000000
00000000
00010000
00100000
00010000
00000000
10000000
00000000
01000000
00000000
01100000
00000000
00000000
00000000
,
01010000
00000000
01000000
00100000
10000000
00000000
01000000
00000000
00100000
00001000
00010000
00000000
00000100
00000000
00001000
00000100
,
00000010
00000000
00000001
00000000
00000100
00001000
00010000
00000000
00100000
00000000
01000000
00000000
01010000
00000000
00000000
00000000
,
10000000
01000000
00010000
00001000
00000010
00000001
00001000
00000001
00000100
00000010
00000100
00001000
,
00020000
00000000
00000000
00000000
,
00000000
00000000
00032000
00003020
,
00000032
00000000
00000000
00000000
,
00002003
00000000
00000000
00000000
00000000
00000000
00003002
00000000
00000000
00000103
00000010
00000100
,
00002000
00000000
00000000
00000000
,
00000000
00000000
00000000
00000000
00000000
00000000
00013000
00000000
00010000
00100000
00000000
00100000
,
20000000
00000000
00000000
00000000
,
32000000
00000000
03200000
00302000
,
00020000
00000000
00000000
00000000
,
00000000
00000000
00000000
00000000
,
00033000
00000000
00000000
00000000
,
00000000
00000000
00000000
00000000
00000000
00000000
00000000
00000000
00000000
00000000
00000000
00000000
00001000
00010000
00001000
00010000
,
00001000
01000000
00010000
01000000
00100000
00000000
10000000
00010000
00100000
00000000
01000000
00000000
10000000
00010000
01000000
00010000
,
10000000
00000000
00000000
01000000
00100000
00000000
00010000
00000000
00100000
00001000
00010000
00000010
00001000
00000010
00010000
00000000
,
00001000
00010000
00000010
00001000
00000001
00000000
00001000
00000010
00000100
00000000
00001000
00000000
00010000
00001000
00010000
00000100
,
00010000
00000000
00000000
00001000
00010000
00000000
00100000
00000000
01000000
00010000
10000000
00010000
00100000
01000000
10000000
00000000
,
00010000
01000000
00100000
10000000
00010000
00000000
00100000
00001000
00010000
00000000
00001000
00000000
00000100
00000001
00001000
00000100
,
00000010
00000000
00000000
00000001
00000100
00000000
00001000
00000000
00010000
00001000
00010000
00100000
01000000
00100000
10000000
00000000
,
00010000
00000000
00100000
00000000
10000000
00000000
00100000
00000000
00001000
00000000
00010000
00001000
00010000
00000000
00000100
00000000
,
00001000
00000000
00000010
00000000
00000001
00000000
00000010
00000000
00010000
00000000
00001000
00010000
00001000
00000000
01000000
00000000
,
00001000
00010000
00001000
00100000
00010000
00000000
00100000
01000000
10000000
00000000
00100000
00000000
01000000
00100000
00010000
00001000
,
00010000
00000000
00001000
00000100
00000010
00000000
00001000
00000001
00000010
00000100
00001000
00000100
00010000
00001000
00010000
00000000
,
00001000
00010000
01000000
00010000
00001000
00000000
00010000
00000100
00001000
00000000
00000100
00000000
00000010
00000001
00001000
00000010
,
00000100
00000000
00001000
00010000
00001000
00000000
00010000
01000000
00100000
00010000
10000000
00010000
01000000
00001000
00010000
00000000
,
00001000
00010000
00000010
00010000
00001000
00000000
00010000
00000100
00001000
00000000
00000001
00000100
00000010
00000100
00001000
00000000
,
00010000
00000000
00000000
00100000
01000000
00000000
00010000
00100000
01000000
10000000
00010000
01000000
00010000
10000000
00010000
00000000
,
10000000
00000000
01000000
00000000
00001000
00000000
00010000
00000000
00000010
00000000
00000001
00001000
00000010
00000000
00000100
00000000
,
00000001
00000101
00001000
00001100
00000100
00010000
00011000
00000000
,
00010000
00001000
00000010
00000100
00000010
00000001
00001000
00000001
00000100
00000010
00000100
00001000
00010000
00001000
00010000
01000000
,
00100000
01000000
10000000
00010000
10000000
00100000
01000000
00100000
00010000
00001000
00000100
00000010
00000100
00001000
00020000
00000000
,
00000000
00031000
01000000
10000000
00010000
00100000
10000000
01000000
,
00010000
00000000
00000010
00000000
00001000
00000000
00010000
00000000
00100000
00000000
00001000
00000000
00000100
00000001
00001000
00000000
,
00000001
00000100
00000010
00000100
00001000
00010000
00100000
01000000
00100000
10000000
00010000
10000000
01000000
00100000
01000000
00010000
,
00001000
00000010
00000100
00000010
00000001
00001000
00000010
00000100
00001000
00010000
00100000
01000000
00010000
10000000
00020000
00000000
,
00000000
10030000
01000000
00001000
00010000
00000010
00000001
00001000
,
00000001
00000100
00000010
00001000
00000100
00010000
00001000
00100000
00010000
01000000
00100000
10000000
01000000
00100000
00001000
00000000
,
00010000
00001000
00000100
00000010
00000100
00000001
00001000
00000001
00000010
00000100
00000010
00001000
00010000
00001000
00010000
00100000
,
01000000
00100000
10000000
00010000
10000000
01000000
00100000
01000000
00010000
00001000
00000010
00000100
00000010
00001000
00020000
00000000
,
00000000
00031000
00100000
10000000
00010000
01000000
10000000
00100000
,
00010000
00000000
00000100
00000000
00001000
00000000
00010000
00000000
01000000
00000000
00001000
00000000
00000010
00000001
00001000
00000000
,
00000001
00000010
00000100
00000010
00001000
00010000
01000000
00100000
01000000
10000000
00010000
10000000
00100000
01000000
00100000
00010000
,
00001000
00000100
00000010
00000100
00000001
00001000
00000100
00000010
00001000
00010000
01000000
00100000
00010000
10000000
00020000
00000000
,
00000000
10030000
00100000
00001000
00010000
00000100
00000001
00001000
,
00000010
00001000
00000100
00010000
00001000
01000000
00010000
00100000
00001000
00010000
00000010
00001000
00000100
00010000
00001000
00100000
,
00002000
00000000
00000000
00000000
,
00000000
00000000
00000000
00000000
,
00013000
00000000
00000000
00000000
00100000
00000000
00000000
00000000
10000000
00000000
00000000
01000000
00000000
00000000
00010000
00000000
,
00000000
00001000
00000000
00000000
00000010
00000000
00000000
00000001
00000000
00000000
00000100
00000000
00000000
00001000
00000000
00000000
,
00010000
00000000
00000000
00000000
00000000
00100000
00000000
00000000
00000000
00000000
10000000
00000000
00000000
00000000
00000000
01000000
,
00000000
00022000
00000000
00000000
,
00000000
00000000
00000000
00000000
,
00000000
00000000
00000000
00000000
00000000
00000000
00000000
00033000
;

//--------------- dance-double - Fred-104† ----------------
#NOTES:
     dance-double:
     Fred-104†:
     Challenge:
     19:
     :
00000000
00000000
00000000
00000000
,
00000000
00000000
00000000
00000000
,
00000000
00000000
00000000
00000000
,
00000000
00000000
00000000
00000000
,
00000000
00000000
00000000
00000000
,
00000000
00000000
00000000
00000000
,
00000000
00000000
00000000
00000000
,
00000000
00000000
00000000
00000000
,
00000000
00000000
00000000
00000000
00000000
00000000
00000000
00000000
00000001
00000100
00000010
00001000
00000100
00010000
00001000
00010000
,
00001000
00010000
00100000
20000000
00000000
30010000
10000000
02000000
,
00000000
03010000
00001000
00000020
00000000
00000031
00001000
00000020
,
00000000
00000130
00001000
00010000
00001000
01000000
00010000
00100000
,
10000000
00100000
00001000
00000020
00000000
00000031
00000010
00001000
,
00010000
00000000
00000010
00000100
00000010
00000000
00002000
00000000
00013000
00000000
01000000
00100000
01000000
00000000
00002000
00000000
,
00013000
00000000
00000100
00000010
00000100
00000000
00002000
00000000
00013000
00000000
00100000
01000000
00100000
00000000
00002000
00000000
,
00013000
00000000
00001000
00000100
00000010
00000000
00001000
00000000
00000100
00000000
00000010
00001000
00010000
00000000
00001000
00000000
,
00010000
00001000
00010000
00001000
00100000
00001000
00100000
00001000
00010000
00100000
01000000
00010000
10000000
00100000
01000000
00010000
,
10000000
00000000
01000000
00010000
00001000
00010000
00100000
10000000
,
00010000
00100000
01000000
00000000
00100000
01000000
00010000
00000000
00001000
00000010
00000100
00000000
00000010
00000001
00001000
00000000
,
00000010
00000100
00000001
00000000
00000010
00000100
00001000
00000000
00000010
00000100
00001000
00000000
00010000
00001000
01000000
00000000
,
00010000
00000000
00100000
00000000
10000000
00100000
00010000
00000000
10000000
00100000
00010000
00001000
00010000
00000010
00001000
00000001
,
00000010
00000000
00000100
00000000
00000010
00000001
00001000
00000000
00000001
00000000
00000100
00000010
00000100
00001000
00010000
00000000
,
00100000
00000000
01000000
00010000
10000000
00000000
00000000
00000000
01000000
00100000
01000000
00100000
00010000
10000000
00100000
00010000
,
00001000
00000000
00010000
00000000
00000100
00000010
00001000
00000000
00010000
00000000
00001000
00000000
01000000
00000000
00010000
00000000
,
00000000
00000000
01000000
00000000
00001000
00010000
00000100
00000000
00000010
00000000
00000001
00001000
00000010
00000000
00001000
00000000
,
00001010
00000000
00000100
00000001
00001000
00000100
00000010
00000001
,
00001000
00000001
00000100
00000000
00000010
00000100
00000001
00000000
00001000
00000100
00000010
00001000
00000010
00000100
00001000
00000000
,
00000001
00000100
00001000
00010000
00100000
00000000
10000000
00010000
10000000
01000000
00010000
00000000
00001000
00000010
00000001
00001000
,
00000001
00000000
00000100
00000010
00000100
00001000
00010000
00000000
00001000
00000010
00000100
00000010
00000001
00001000
00000010
00001000
,
00000001
00000000
00001000
00000000
00000010
00000100
00001000
00000000
00010000
00000000
00001000
01000000
00010000
01000000
00001000
00000000
,
00010000
00001000
01000000
00001000
00010000
00000000
00000000
00000000
00001000
00100000
00010000
10000000
00100000
01000000
00010000
10000000
,
01000000
00100000
01000000
00010000
00001000
00000000
00000010
00000100
00001000
00000001
00000100
00000000
00000010
00000100
00001000
00010000
,
00100000
00000000
01000000
00010000
10000000
01000000
00100000
00010000
10000000
00100000
00010000
00001000
00100000
00001000
00010000
00000000
,
00001000
00010000
00100000
00000000
00010000
00001000
00000010
00000000
00001000
00010000
01000000
00000000
00010000
00001000
00000100
00000000
,
00001000
00010000
00100000
00000000
01000000
00010000
10000000
00000000
01000000
00100000
00010000
10000000
00100000
00010000
00001000
00000000
,
00010000
00001000
00000100
00000001
00001000
00000000
00000001
00000010
00000100
00000010
00001000
00000000
00010000
01000000
00100000
00010000
,
10000000
00000000
00010000
01000000
00100000
00010000
00001000
00000000
00000100
00000010
00000100
00000001
00001000
00000100
00001000
00000001
,
00000100
00000001
00001000
00000000
00000010
00010000
00001000
00000000
00100000
00010000
10000000
00000000
01000000
10000000
00010000
00000000
,
10000000
01000000
00010000
00000000
00001000
00010000
00100000
00000000
01000000
00100000
10000000
00010000
00100000
00001000
00100000
00000000
,
00010000
10000000
01000000
00010000
00001000
00000000
00010000
00001000
00000100
00000010
00001000
00000000
00000001
00000100
00001000
00000100
,
00000001
00000000
00000010
00000001
00001000
00000001
00000100
00000010
00001000
00000001
00000010
00000100
00010000
00001000
00010000
00000000
,
00011000
00000000
00001000
00010000
01000000
00000000
11000000
00000000
10000000
00100000
00010000
00000000
00011000
00000000
00001000
00000100
,
00000001
00000000
00000011
00000000
00000010
00001000
00010000
00000000
00001000
00000000
00010000
00000000
00011000
00000000
00000000
00000000
,
00011000
00000000
00001000
00010000
00100000
00000000
10100000
00000000
10000000
01000000
00010000
00000000
00011000
00000000
00001000
00000010
,
00000001
00000000
00000101
00000000
00000100
00001000
00010000
00000000
00001000
00000000
00010000
00000000
00011000
00000000
00000000
00000000
,
00011000
00000000
00010000
00001000
00000100
00000000
00000101
00000000
00000001
00000010
00001000
00000000
00011000
00000000
00010000
01000000
,
10000000
00000000
10100000
00000000
00100000
00010000
00001000
00000000
00010000
00000000
00001000
00000000
00011000
00000000
00000000
00000000
,
00010000
00001000
00000100
00000001
00000010
00000010
00010000
00001000
00000010
00000001
00000100
00000100
,
00020000
00000000
00000000
00000000
,
00000000
00000000
00032000
00003020
,
00000032
00000000
00000000
00000000
,
00000203
00000000
00000000
00000000
00000000
00000000
00002300
00000000
00000000
00013000
00001000
00010000
,
00001000
00001000
00010000
00100000
01000000
00010000
10000000
10000000
01000000
00100000
00001000
00010000
,
00000100
00000100
00000010
00000001
00001000
00000010
00000100
00000100
00001000
00010000
00001000
01000000
,
00001000
00000000
00000000
00000000
00100000
00000000
00000000
00000000
10000000
00000000
00000000
00000000
00100000
00010000
00100000
00000000
00001000
00000000
00010000
00000000
00001000
00000000
00010000
00000000
,
00000010
00000000
00000000
00000000
00000001
00000000
00000000
00000000
00000010
00000000
00000000
00000000
00001000
00000001
00001000
00000000
00000010
00000000
00000100
00000000
00001000
00000000
00010000
00001000
,
00020000
00000000
00000000
00000000
,
00000000
00000000
00000000
00000000
,
00031000
00000000
00000000
00000000
,
00001000
00000000
00000000
00000000
00000000
00000000
00000000
00000000
00000000
00000000
00000000
00000000
00001000
00010000
00001000
00010000
,
00001000
00100000
00010000
10000000
00010000
00000000
01000000
00100000
10000000
01000000
00100000
00000000
00010000
00100000
00001000
00010000
,
00000010
00000000
00001000
00000100
00000010
00000000
00000001
00000100
00000010
00001000
00000001
00000010
00000001
00001000
00000010
00000000
,
00001000
00000001
00000100
00000010
00000100
00000000
00001000
00010000
00001000
00010000
01000000
00000000
00100000
00010000
10000000
00100000
,
10000000
00000000
00010000
00100000
01000000
00000000
00100000
00010000
10000000
00100000
01000000
00100000
00010000
00001000
00010000
00000000
,
00001000
01000000
00010000
10000000
01000000
00000000
00100000
00001000
00010000
00001000
00000100
00000000
00000001
00001000
00000100
00000010
,
00000001
00000000
00001000
00000010
00000100
00000000
00001000
00010000
00000010
00001000
00000010
00000100
00000001
00001000
00000001
00000000
,
00001000
00000000
00000000
00000001
00000000
00000000
00000100
00000000
00000000
00001000
00000000
00000000
00010000
00000000
00000000
00100000
01000000
00100000
01000000
00000000
00000000
00010000
00000000
00000000
,
10000000
00000000
00000000
01000000
00000000
00000000
00010000
00000000
00000000
00001000
00000000
00000000
00000010
00000000
00000000
00000100
00001000
00000100
00001000
00000000
00000000
00000001
00000000
00000000
,
00000010
00000100
00001000
00000100
00010000
00000100
00001000
00000100
00000010
00000000
00000001
00000000
00001000
00000010
00010000
00001000
,
00010000
00000000
01000000
00100000
00010000
00000000
00100000
01000000
10000000
00100000
10000000
00010000
00100000
01000000
10000000
00000000
,
01000000
00100000
00010000
00100000
00001000
00100000
00010000
00100000
01000000
00000000
10000000
00010000
01000000
00100000
00010000
00001000
,
00010000
00000000
00000100
00001000
00000100
00000000
00000001
00000100
00001000
00000001
00000100
00000010
00000100
00000001
00001000
00000000
,
00000010
00000100
00001000
00010000
00001000
00000010
00001000
00010000
00001000
00000000
00100000
00010000
10000000
00010000
01000000
00001000
,
00010000
00000000
01000000
00010000
00001000
00000000
00010000
00100000
01000000
00100000
00010000
00100000
10000000
00010000
00100000
00000000
,
01000000
00000000
00000000
10000000
00000000
00000000
00100000
00000000
00000000
00010000
00000000
00000000
00001000
00000000
00000000
00010000
00001000
00010000
00001000
00000000
00000000
00000010
00000000
00000000
,
00000001
00001000
00001010
00000101
00001100
00000011
00001001
00000000
,
00000001
00000100
00000010
00000100
00001000
00010000
00100000
01000000
00010000
10000000
01000000
00010000
00001000
00000010
00000100
00000010
,
00000001
00001000
00000100
00000010
00001000
00010000
01000000
00100000
01000000
10000000
00010000
01000000
00100000
00010000
00002000
00000000
,
00000000
00013000
00000100
00000001
00001000
00000010
00000001
00000100
,
00001000
00000000
00010000
00000000
00100000
00000000
10000000
00000000
01000000
00000000
00010000
00000000
00001000
00010000
00001000
00000000
,
00010000
00001000
00000100
00000001
00001000
00000001
00000010
00001000
00010000
01000000
10000000
00010000
10000000
00100000
00010000
00001000
,
00000100
00000001
00001000
00000001
00000010
00001000
00010000
01000000
10000000
00010000
10000000
00100000
00010000
00001000
00020000
00000000
,
00000000
00031000
00100000
10000000
00100000
00001000
00010000
00100000
,
10000000
00010000
10000000
01000000
00010000
00001000
00010000
00100000
00010000
00001000
00000100
00000001
00000100
00000010
00001000
00000000
,
00000001
00000010
00000100
00000010
00001000
00010000
01000000
00100000
00010000
10000000
00100000
00010000
00001000
00000100
00000010
00000100
,
00000001
00001000
00000010
00000100
00001000
00010000
00100000
01000000
00100000
10000000
00010000
00100000
01000000
00010000
00002000
00000000
,
00000000
00013000
00000010
00000001
00001000
00000100
00000001
00000010
,
00001000
00000000
00010000
00000000
01000000
00000000
10000000
00000000
00100000
00000000
00010000
00000000
00001000
00010000
00001000
00000000
,
00010000
00001000
00000010
00000001
00001000
00000001
00000100
00001000
00010000
00100000
10000000
00010000
10000000
01000000
00010000
00001000
,
00000010
00000001
00001000
00000001
00000100
00001000
00010000
00100000
10000000
00010000
10000000
01000000
00010000
00001000
00020000
00000000
,
00000000
00031000
01000000
10000000
01000000
00001000
00010000
01000000
,
10000000
00000000
00000000
00010000
00000000
00000000
00100000
00000000
00000000
00001000
00000000
00000000
00010000
00000000
00000000
00000010
00000000
00000000
00001000
00000000
00000000
00000001
00000000
00000000
00000010
00000000
00000000
00000100
00000000
00000000
00001000
00000000
00000000
00000100
00000000
00000000
00010000
00000000
00001000
00000000
00010000
00000000
00001000
00000000
00010000
00000000
00001000
00000000
,
00020000
00000000
00000000
00000000
,
00000000
00000000
00000000
00000000
,
00031000
00000000
00000000
00000000
00001000
00000000
00000000
00000000
00000010
00000000
00000000
00000001
00000000
00000000
00000100
00000000
,
00000000
00001000
00000000
00000000
00010000
00000000
00000000
00100000
00000000
00000000
10000000
00000000
00000000
01000000
00000000
00000000
,
00010000
00000000
00000000
00000000
00000000
00001000
00000000
00000000
00000000
00000000
00000010
00000000
00000000
00000000
00000000
00000001
,
00000000
00002002
00000000
00000000
,
00000000
00000000
00000000
00000000
,
00000000
00000000
00000000
00000000
00000000
00000000
00000000
00003003
;
