#TITLE:超青少年ノ為ノ超多幸ナ超古典的超舞曲;
#ARTIST:Project B-;
#TITLETRANSLIT:Chouseishounen no tame no choutakou na choukotenteki choubukyoku;
#GENRE:PIECED EUPHORIA;
#BANNER:Chouseishounen no tame no choutakou na choukotenteki choubukyoku.png;
#BACKGROUND:Chouseishounen no tame no choutakou na choukotenteki choubukyoku-bg.png;
#CDTITLE:./CDTitles/bm IIDX 22 PENDUAL.png;
#MUSIC:Chouseishounen no tame no choutakou na choukotenteki choubukyoku.ogg;
#SAMPLESTART:54.4;
#SAMPLELENGTH:15;
#BPMS:0=150;

//--------------- dance-single - Fred-104 ----------------
#NOTES:
     dance-single:
     Fred-104:
     Beginner:
     1:
     :
0000
0000
0000
0000
,
0000
0000
0000
0000
,
0000
0000
0000
0000
,
0000
0000
0000
0000
,
0000
0000
0000
0000
,
0000
0000
0000
0000
,
1000
0000
0000
0000
,
0000
0000
0000
0000
,
1000
0000
0000
0000
,
0001
0000
0000
0000
,
0001
0000
0000
0000
,
0000
0000
0000
0000
,
1000
0000
0000
0000
,
0001
0000
0000
0000
,
0001
0000
0000
0000
,
0010
0000
0000
0000
,
1000
0000
0000
0000
,
1000
0000
0000
0000
,
0010
0000
0000
0000
,
0001
0000
0000
0000
,
0001
0000
0000
0000
,
1000
0000
0000
0000
,
0001
0000
0000
0000
,
1000
0000
0000
0000
,
0100
0000
0000
0000
,
0100
0000
0000
0000
,
1000
0000
0000
0000
,
0100
0000
0000
0000
,
0001
0000
0000
0000
,
0001
0000
0000
0000
,
0100
0000
0000
0000
,
0100
0000
0000
0000
,
1000
0000
0000
0000
,
0001
0000
0000
0000
,
1000
0000
0000
0000
,
0001
0000
0000
0000
,
1000
0000
0000
0000
,
0001
0000
0000
0000
,
0010
0000
0000
0000
,
0100
0000
0000
0000
,
0010
0000
0000
0000
,
0000
0000
0000
0000
,
0001
0000
0000
0000
,
0001
0000
0000
0000
,
1000
0000
0000
0000
,
1000
0000
0000
0000
,
0001
0000
0000
0000
,
1000
0000
0000
0000
,
0001
0000
0000
0000
,
0000
0000
0000
0000
,
0000
0000
0000
0000
,
1000
0000
0000
0000
,
0000
0000
0000
0000
,
0000
0000
0000
0000
,
0000
0000
0000
0000
,
0001
0000
0000
0000
,
0010
0000
0000
0000
,
0100
0000
0000
0000
,
1000
0000
0000
0000
,
0000
0000
0000
0000
,
1000
0000
0000
0000
,
0001
0000
0000
0000
,
1000
0000
0000
0000
,
0010
0000
0000
0000
,
1000
0000
0000
0000
,
1000
0000
0000
0000
,
0001
0000
0000
0000
,
0001
0000
0000
0000
,
1000
0000
0000
0000
,
0001
0000
0000
0000
,
0100
0000
0000
0000
,
0001
0000
0000
0000
,
0100
0000
0000
0000
,
0001
0000
0000
0000
,
1000
0000
0000
0000
,
0001
0000
0000
0000
;

//--------------- dance-single - Fred-104 ----------------
#NOTES:
     dance-single:
     Fred-104:
     Easy:
     7:
     :
0000
0000
0000
0000
,
0000
0000
0000
0000
,
0000
0000
0000
0000
,
0000
0000
0000
0000
,
0000
0000
0000
0000
,
0000
0000
0000
0000
,
1000
0000
0100
0000
,
0010
0010
0001
1000
,
0010
0010
0100
0100
,
0001
0010
0100
1001
,
1000
0100
1000
0100
,
0001
0100
1000
0001
,
1000
0010
0100
0010
,
1000
0000
0000
0000
0100
0000
0000
0100
0000
0000
0010
0000
0000
0010
0000
0000
,
0001
1000
0010
1000
,
0001
0010
0001
0010
,
1000
0010
0001
1000
,
0010
0000
0000
0000
0100
0000
0000
0100
0000
0000
0100
0000
0000
0100
0000
0000
,
0101
0000
1000
0100
,
0010
0001
1000
0010
,
0110
0000
0100
0001
,
1000
0001
0010
0100
,
1100
0000
0010
1000
,
0010
0100
0001
1000
,
0100
0100
0010
0010
,
1001
0000
0001
0100
,
1000
0100
0001
1000
,
0110
0000
0001
1000
,
0010
1000
0100
0010
,
1001
0000
0001
0100
,
0010
0100
0001
0010
,
0100
0100
1000
1000
,
0001
0000
0001
0000
1000
1000
1000
0000
,
0001
0100
0010
0100
,
0001
0000
0010
0010
,
0100
1000
0010
1000
,
0100
0000
0010
0010
,
0001
1000
0010
0100
,
0001
0000
1000
1000
,
0100
0010
0001
1000
,
0001
0000
0000
0000
0100
0000
0000
0000
0010
0000
0000
0000
1000
0000
0000
1000
,
0000
0000
0001
0000
0000
0001
0000
0000
1000
0000
0000
1000
0000
0000
1000
0000
,
0001
0010
1000
0100
,
0001
0000
1000
0100
,
1000
0010
0001
0100
,
1000
0000
0001
1000
,
0001
0100
1000
0010
,
0001
0000
1000
0010
,
1000
0000
0000
0000
0100
0000
0000
0000
0010
0000
0000
0000
0001
0000
0000
0001
,
0000
0000
1000
0000
0000
1000
0000
0000
0010
0000
0000
0010
0000
0000
0100
0000
,
0000
0100
0000
0000
0001
0000
0000
0001
0000
0000
0001
0000
0001
0000
0000
0000
,
1001
0000
0000
0000
,
0000
0000
0000
0000
,
0000
0000
0000
0000
,
0000
0000
0000
0000
,
0001
0001
0010
0010
,
1000
1000
0100
0100
,
0001
0010
1000
0100
,
0001
0100
1000
0010
,
0001
0000
0000
0000
,
1000
0100
1000
0100
,
0001
0100
0001
0100
,
1000
0001
1000
0001
,
0100
0010
1000
0001
,
1000
0010
1000
0010
,
0001
0010
0001
0010
,
1000
0100
0010
0001
,
0100
0000
0010
0000
0100
0100
0100
0000
,
0001
0100
0001
0100
,
1000
0100
1000
0100
,
0001
1000
0001
1000
,
0100
0010
0001
1000
,
0001
0010
0001
0010
,
1000
0010
1000
0010
,
0001
0100
0010
1000
,
0100
0000
0010
0000
0100
0100
0110
0000
;

//--------------- dance-single - Fred-104 ----------------
#NOTES:
     dance-single:
     Fred-104:
     Medium:
     10:
     :
0000
0000
0000
0000
,
0000
0000
0000
0000
,
0000
0000
0000
0000
,
0000
0000
0000
0000
,
0000
0000
0000
0000
,
0000
0000
0000
0000
,
1000
1000
0100
0100
,
0001
0001
0010
0010
,
1000
0100
0001
0010
,
1000
0100
0010
0011
,
1000
0010
1000
0010
0100
0001
0100
0000
,
0001
1000
0001
1000
0100
0010
0001
0000
,
1000
0100
1000
0001
0100
0001
0100
0000
,
0010
0000
1000
0000
0010
0000
0000
0010
0000
0000
0100
0000
0000
0100
0000
0000
,
0001
1000
0001
0100
0001
0100
0010
0000
,
1000
0001
1000
0100
0010
0100
1000
0000
,
0001
1000
0010
1000
0100
0010
0001
0000
,
1000
0000
0010
0000
0100
0000
0000
0101
0000
0000
1001
0000
0000
1100
0000
0000
,
0100
0010
0001
0100
0010
1000
0100
1000
,
0010
0100
0010
0100
0001
1000
0001
0000
,
1000
0100
0010
0001
0100
0010
1000
0010
,
0100
0001
0100
0001
0010
0100
1000
0000
,
0001
0100
0001
0010
0001
0100
0010
1000
,
0001
0010
0100
1000
0100
0010
0001
0000
,
1000
0100
0001
0000
1000
0010
0001
0000
,
1000
0010
0001
0000
1000
0100
0001
0000
,
0010
0100
0010
0100
1000
0010
1000
0001
,
0010
0100
1000
0100
0010
0001
1000
0000
,
0001
0100
0001
0100
0010
0100
0001
0010
,
0100
1000
0100
0010
0001
1000
0010
0000
,
1000
0100
1000
0001
0100
0010
1000
0010
,
0100
0001
1000
0100
0010
0001
1000
0000
,
0001
0100
1000
0000
0001
0010
1000
0000
,
0100
0000
0100
0000
0010
0010
1001
0000
,
0001
0100
0001
0100
1000
0100
1000
0100
,
0001
1000
0100
0000
0010
0001
1000
0000
,
0001
0010
0001
0010
1000
0010
1000
0010
,
0100
1000
0001
0000
0100
0010
1000
0000
,
0001
0100
0001
0100
1000
0100
1000
0100
,
0010
1000
0100
0000
0010
0001
1000
0000
,
0001
0000
0010
0000
0100
0000
1000
0000
0010
0000
0100
0000
0001
0000
0000
0001
,
0000
0000
1000
0000
0000
1000
0000
0000
0001
0000
0000
0001
0000
0000
0001
0000
,
1000
0100
0001
0100
1000
0100
0010
0001
,
1000
0010
0100
0010
1000
0001
1000
0000
,
0001
0100
1000
0100
0001
0100
0010
1000
,
0001
0010
0100
0010
0001
1000
0010
0000
,
1000
0010
0001
0010
0100
0010
1000
0001
,
0010
0100
1000
0001
0100
0010
0100
0000
,
0010
0000
1000
0000
0100
0000
0010
0000
0001
0000
0100
0000
0001
0000
0000
0001
,
0000
0000
0010
0000
0000
0010
0000
0000
1000
0000
0000
1000
0000
0000
0100
0000
,
0000
0100
0000
0000
0001
0000
0000
0001
0000
0000
0001
0000
1000
0000
0000
0000
,
1001
0000
0000
0000
,
0001
0000
0000
0000
,
0010
0000
0000
0000
,
0100
0000
0100
0000
,
1000
1000
0100
0100
,
0001
0001
0010
0010
,
1000
0100
0010
0001
,
0100
0010
1000
0000
0010
0100
0001
0000
,
1001
0000
0000
0000
,
0001
0010
0001
0000
0010
0100
1000
0000
,
0010
0100
0001
0000
1000
0100
0010
0000
,
0001
1000
0010
0000
1000
0001
0010
0000
,
0100
0010
0001
0000
1000
0010
1000
0000
,
0001
0100
0001
0100
0001
0100
0001
0000
,
1000
0100
1000
0100
1000
0100
1000
0000
,
0001
0010
0001
0010
0100
1000
0100
1000
,
0001
0000
0001
0000
1000
1000
1001
0000
,
1000
0010
1000
0000
0010
0100
0001
0000
,
0010
0100
1000
0000
0001
0100
0010
0000
,
1000
0001
0010
0000
0001
1000
0010
0000
,
0100
0010
1000
0000
0001
0010
0001
0000
,
1000
0100
1000
0100
1000
0100
1000
0000
,
0001
0100
0001
0100
0001
0100
0001
0000
,
1000
0010
1000
0010
0100
0001
0100
0001
,
1000
0000
1000
0000
0001
0001
1001
0000
;

//--------------- dance-single - Fred-104 ----------------
#NOTES:
     dance-single:
     Fred-104:
     Hard:
     15:
     :
0000
0000
0000
0000
,
0000
0000
0000
0000
,
0000
0000
0000
0000
,
0000
0000
0000
0000
,
0000
0000
0000
0000
,
0000
0000
0000
0000
,
0001
0100
0001
0100
0010
1000
0010
1000
,
0001
0010
0100
1000
0100
0010
0001
1000
,
0010
0100
0010
0000
1000
0100
1000
0000
0001
0100
0001
0000
1000
0010
1000
0000
,
0001
0000
0010
0000
0100
0000
1000
0000
0001
1000
0001
1000
0001
0000
0000
0000
,
1000
0100
0010
0100
1000
0001
0100
0010
,
1000
0001
0010
0100
0010
0001
1000
0010
,
0100
0010
1000
0001
0010
0100
1000
0001
,
0100
0010
0100
0010
0100
0000
0000
0110
0000
0000
1010
0000
0000
0101
0000
0000
,
1000
0100
0001
0100
1000
0100
0001
0100
,
0010
1000
0010
0001
0010
1000
0010
0001
,
1000
0010
0001
0010
0100
1000
0100
0001
,
1000
0100
1000
0100
0010
0000
0000
0011
0000
0000
1010
0000
0000
0101
0000
0000
,
1001
0000
0001
0100
0001
0000
1000
0100
1000
0100
0010
0000
0001
1000
0001
0000
,
0100
0010
0100
0000
0010
1000
0010
0000
0100
0001
0100
0000
0001
1000
0001
1000
,
0001
0000
1000
0100
1000
0000
0001
0100
0001
0100
0010
0000
1000
0001
1000
0000
,
0001
0010
0001
0000
1000
0010
1000
0000
0001
0100
0001
0000
1000
0001
1000
0001
,
1000
0000
0001
0100
0001
0000
1000
0100
0010
0100
0010
0000
0001
1000
0001
0000
,
0100
0001
0100
0000
0010
1000
0010
0000
1000
0100
1000
0000
0001
0010
0001
0000
,
0100
0010
0100
0000
0010
1000
0010
0000
0100
0001
0100
0000
0001
1000
0001
0000
,
1000
0100
1000
0100
0010
0000
0001
1000
0010
0000
1000
0001
0010
0000
0100
0000
,
1000
0000
0001
0010
0001
0000
1000
0010
0100
0010
0100
0000
0001
1000
0001
0000
,
0010
0100
0010
0000
0100
1000
0100
0000
1000
0001
1000
0000
0001
0100
0001
0100
,
0010
0000
1000
0001
1000
0000
0001
1000
0100
1000
0100
0000
0010
0001
0010
0000
,
0001
1000
0001
0000
0100
0010
0100
0000
0010
1000
0010
0000
0100
0001
0100
0001
,
1000
0000
0100
0010
0100
0000
1000
0001
0100
0001
0100
0000
0010
1000
0010
0000
,
1000
0100
1000
0000
0001
0100
0001
0000
1000
0100
1000
0000
0100
0010
0001
0010
,
0001
0000
1000
0010
1000
0000
0001
0010
0001
0000
1000
0100
1000
0000
0001
0100
,
0001
0000
1000
0100
0010
0000
0001
0100
0010
0000
0010
0000
0110
0000
0000
0000
,
1001
0000
0001
0010
0001
0000
0010
0100
0010
0000
0100
1000
0100
0000
1000
0001
,
1000
0000
0001
0000
0100
0000
0010
0000
0100
0000
0000
0100
0001
0000
1000
0000
,
1001
0000
1000
0010
1000
0000
0010
0100
0010
0000
0100
0001
0100
0000
0001
1000
,
0100
0000
0010
0000
0001
0000
1000
0000
0001
0000
0000
0001
1000
0000
0001
0000
,
1001
0000
0001
0100
0001
0000
0100
0010
0100
0000
0010
1000
0010
0000
1000
0001
,
0100
0000
0010
0000
1000
0000
0001
0000
0010
0100
0010
0100
0010
0000
0001
0000
,
1000
0010
1000
0010
0100
0001
0100
0001
1000
0100
1000
0100
0010
0001
0010
0001
,
0000
0000
0011
0000
0000
1010
0000
0000
0101
0000
0000
1100
0000
0000
0110
0000
,
1001
0000
0001
0010
0100
0000
0010
0100
1000
0000
0100
1000
0001
0000
0010
0001
,
1000
0000
0001
0100
0010
0000
1000
0000
0001
0000
0010
0100
1000
0000
0001
0000
,
1001
0000
1000
0010
0100
0000
0010
0100
0001
0000
0100
0001
1000
0000
0010
1000
,
0001
0000
0010
0100
1000
0000
0001
0000
1000
0000
0010
0100
0001
0000
1000
0000
,
1001
0000
0001
0100
0010
0000
0100
0010
1000
0000
0010
1000
0001
0000
0100
0001
,
1000
0000
0100
0010
0001
0000
0010
0000
0001
0000
0100
0010
1000
0000
0010
0000
,
1000
0100
1000
0100
0010
0001
0010
0001
1000
0010
1000
0010
0100
0001
0100
0001
,
0000
0000
0101
0000
0000
1010
0000
0000
0011
0000
0000
1100
0000
0000
0101
0000
,
0000
1010
0000
0000
0011
0000
0000
1100
0000
0000
0110
0000
0110
0000
0000
0000
,
1001
0000
0001
0000
,
0010
0100
1000
0000
,
0001
0000
0100
0000
,
0010
0000
1000
0000
0001
1000
0001
0000
,
1000
0100
1000
0000
1000
0100
1000
0000
0001
0100
0001
0000
0001
0100
0001
0000
,
1000
0010
1000
0000
1000
0010
1000
0000
0001
0010
0001
0000
0001
0010
0001
0000
,
1000
0000
0010
0100
0010
0000
1000
0000
0001
0000
0010
0100
0010
0000
0001
0000
,
1000
0010
1000
0010
1000
0010
1000
0010
0100
0001
0100
0001
0100
0001
0100
0001
,
0100
0000
0000
0000
,
0001
1000
0001
0000
0010
0000
0100
0000
1000
0001
1000
0000
0010
0000
0100
0000
,
0001
0100
0001
0000
1000
0000
0100
0000
0010
0001
0010
0000
0100
0000
1000
0000
,
0010
1000
0010
0000
0100
0000
0001
0000
1000
0100
1000
0000
0001
0000
0010
0000
,
0100
1000
0100
0000
0010
0001
0010
0000
0001
1000
0001
1000
0001
0000
0100
0000
,
0010
1000
0010
0000
0010
1000
0010
0000
0100
0001
0100
0000
0100
0001
0100
0000
,
0001
0010
0001
0000
0001
0010
0001
0000
1000
0100
1000
0000
1000
0100
1000
0000
,
0001
0100
0001
0100
0001
0100
0001
0100
0010
1000
0010
1000
0010
1000
0010
1000
,
0001
0010
0100
1000
0001
0001
1001
0000
,
1000
0001
1000
0000
0010
0000
0100
0000
0001
1000
0001
0000
0010
0000
0100
0000
,
1000
0100
1000
0000
0001
0000
0100
0000
0010
1000
0010
0000
0100
0000
0001
0000
,
0010
0001
0010
0000
0100
0000
1000
0000
0001
0100
0001
0000
1000
0000
0010
0000
,
0100
0001
0100
0000
0010
1000
0010
0000
1000
0001
1000
0001
1000
0000
0100
0000
,
0010
0001
0010
0000
0010
0001
0010
0000
0100
1000
0100
0000
0100
1000
0100
0000
,
1000
0010
1000
0000
1000
0010
1000
0000
0001
0100
0001
0000
0001
0100
0001
0000
,
1000
0100
1000
0100
1000
0100
1000
0100
0010
0001
0010
0001
0010
0001
0010
0001
,
1000
0010
0100
0001
1000
1000
1001
0000
;

//--------------- dance-single - Fred-104† ----------------
#NOTES:
     dance-single:
     Fred-104†:
     Challenge:
     18:
     :
0000
0000
0000
0000
,
0000
0000
0000
0000
,
0000
0000
0000
0000
,
0000
0000
0000
0000
,
0000
0000
0000
0000
,
0000
0000
0000
0000
,
1000
0100
0010
0000
0001
0100
0010
0000
,
1000
0000
0100
0000
0010
0000
0001
0000
1000
0000
0100
0010
0001
1000
0001
1000
,
0001
0100
0001
0100
0010
1000
0010
1000
0001
0010
0001
0010
0100
1000
0100
1000
,
0001
0000
0000
0010
0000
0000
0001
0000
0000
0100
0000
0000
0010
0000
0000
1000
0000
0000
0100
0000
0000
1000
0000
0000
0001
0000
0100
0000
0010
0000
1000
0000
0010
0000
0100
0000
0001
0000
0000
0000
0000
0000
0000
0000
0000
0000
0000
0000
,
1000
0100
0010
0001
1000
0100
0010
0001
1000
0010
0100
0001
1000
0010
0100
0001
,
1000
0001
0010
0100
1000
0001
0010
0100
1000
0010
0100
0001
1000
0010
0100
0001
,
0100
0001
1000
0010
0100
0001
1000
0010
1000
0100
0010
0001
1000
0100
0010
0001
,
1000
0010
1000
0100
0010
0001
0100
0001
0000
0000
1100
0000
0000
0101
0000
0000
,
0001
0010
0100
1000
0001
0100
0010
1000
0100
0010
0001
1000
0010
0100
0001
1000
,
0001
0010
0001
1000
0100
0010
0001
1000
0001
0100
0001
1000
0010
0100
0001
1000
,
0010
0100
0010
1000
0001
0010
0100
0010
0001
1000
0010
1000
0001
0010
0100
1000
,
0001
0100
0010
1000
1100
0000
0000
0101
0000
0000
0011
0000
0000
1010
0000
0000
,
1001
0000
1000
0100
1000
0001
1000
0100
0010
0001
1000
0010
0100
0001
1000
0001
,
0010
0100
1000
0010
0100
0010
1000
0100
0010
0001
0100
0010
1000
0100
0010
0001
,
1000
0000
0001
0100
0001
1000
0001
0010
0100
1000
0001
0100
0010
1000
0010
0100
,
0001
1000
0100
1000
0001
0100
0001
1000
0001
0010
0001
1000
0010
1000
0100
0010
,
0001
0000
1000
0010
0100
0010
1000
0100
0010
0100
1000
0010
0100
0001
1000
0100
,
0010
0001
1000
0001
0100
0001
0010
0100
1000
0001
1000
0010
0100
0010
1000
0100
,
0010
0001
1000
0010
0100
0001
1000
0100
0010
0001
1000
0010
0100
0001
1000
0100
,
0010
0001
1000
0001
0100
0010
0100
0001
0010
0100
0010
0100
1000
0001
0100
0010
,
1000
0000
0001
0010
0100
0010
0001
0100
0010
0001
0010
0100
0001
0010
0100
1000
,
0001
0100
0010
1000
0001
1000
0100
0010
0001
0010
0100
1000
0001
0100
0010
1000
,
0001
0000
1000
0010
0100
0010
1000
0100
0010
1000
0010
0100
1000
0001
0100
0010
,
1000
0001
0010
0100
1000
0100
0010
0001
1000
0001
0100
0010
1000
0100
0010
0001
,
0010
0000
0001
1000
0100
0001
0100
1000
0001
0100
1000
0100
0001
1000
0100
0010
,
0001
1000
0010
0100
0010
0100
1000
0100
0010
1000
0010
0100
0001
0010
0100
0010
,
0001
0000
1000
0100
0010
0000
0001
0100
0010
0000
1000
0100
0010
0001
1000
0001
,
0100
0000
0000
0000
0010
1000
0010
1000
0010
0000
0000
0000
0100
0001
0100
0001
0100
0000
0000
0000
0110
0000
0000
0000
1001
0000
0000
0000
0000
0000
0000
0000
,
0110
0000
0001
0100
1000
0000
1000
0100
0001
0000
1000
0100
0001
0000
0001
0100
,
1000
0000
0001
0100
0010
0100
0001
0010
0100
0010
0001
0100
0010
1000
0001
0010
,
0110
0000
1000
0010
0001
0000
0001
0010
1000
0000
0001
0010
1000
0000
1000
0010
,
0001
0000
1000
0100
0010
0100
1000
0010
0100
0001
0010
0001
1000
0010
0100
0001
,
1001
0000
0001
0100
1000
0000
0001
0010
1000
0000
0001
0010
1000
0000
0001
0100
,
1000
0000
0001
1000
0100
0010
0100
1000
0010
0100
0010
1000
0001
1000
0100
1000
,
0001
0010
0001
0100
0010
1000
0100
1000
0001
0100
0001
0010
0100
1000
0010
1010
,
0000
0000
0011
0000
0000
0101
0000
0000
1100
0000
0000
0011
0000
0000
0110
0000
,
1001
0000
1000
0100
0001
0000
0100
0010
1000
0000
0010
0100
0001
0000
0100
1000
,
0001
0000
1000
0001
0100
0010
0001
0010
0100
1000
0100
0010
0001
0010
0100
0001
,
1001
0000
0001
1000
0100
0000
0001
0100
0010
0000
1000
0010
0100
0000
0001
0100
,
1000
0000
0001
1000
0010
0100
1000
0100
0010
0100
1000
0100
0010
0001
0010
1000
,
1001
0000
1000
0100
0010
0000
1000
0010
0100
0000
0001
0100
0010
0000
0001
1000
,
0010
0000
1000
0001
0010
0100
0001
0100
0010
1000
0010
0100
0001
0100
0010
0001
,
1000
0010
1000
0100
0010
0001
0100
0001
1000
0100
1000
0010
0100
0001
0010
0011
,
0000
0000
1010
0000
0000
1100
0000
0000
0101
0000
0000
1100
0000
0000
1010
0000
,
0000
0011
0000
0000
1100
0000
0000
0101
0000
0000
1010
0000
0110
0000
0000
0000
,
1001
0000
0000
0000
,
0000
0000
0000
0000
,
0000
0000
0000
0000
,
0000
0000
0000
0000
,
0001
0100
0010
1000
0001
0100
0010
1000
0001
0010
0001
1000
0100
0010
0001
1000
,
0001
0010
0100
1000
0001
0010
0100
1000
0001
0100
0001
1000
0010
0100
0001
1000
,
0001
0010
0001
0100
0010
1000
0100
1000
0001
0100
0001
0010
0100
1000
0010
1000
,
0001
0000
0000
0010
0000
0000
0100
0000
0000
1000
0000
0000
0100
0000
0000
0010
0000
0000
0001
0000
0000
1000
0000
0000
0001
0000
0100
0000
0010
0000
1000
0000
0010
0000
0100
0000
0001
0000
1000
0000
0100
0000
0010
0000
0001
0000
1000
0000
,
0001
0000
0000
0000
0000
0000
0000
0000
0000
0000
0000
0000
0000
0000
0000
0000
0000
0000
0000
0000
1000
0001
1000
0001
1000
0000
0000
0000
0000
0000
0000
0000
,
0001
0010
0100
0010
0001
0010
0100
0010
0001
0010
0100
0010
0001
0010
0100
1000
,
0001
0100
0010
0100
0001
0100
0010
0100
0001
0100
0010
0100
0001
0100
0010
1000
,
0001
1000
0100
1000
0001
1000
0100
1000
0001
1000
0100
1000
0001
1000
0100
0010
,
0001
1000
0010
1000
0001
1000
0010
1000
0001
1000
0010
1000
0001
1000
0010
0100
,
0001
1000
0100
0010
0001
1000
0010
0100
0001
1000
0100
0010
0001
1000
0010
0100
,
0001
1000
0100
1000
0001
1000
0010
1000
0001
1000
0100
0010
0001
1000
0010
0100
,
0001
1000
0100
0010
0001
0010
0100
1000
0010
0100
0001
0100
0010
1000
0100
0010
,
0001
0000
0000
0000
1000
0010
1000
0010
1000
0000
0000
0000
0001
0010
0001
0010
0001
0000
0000
0000
0110
0000
0000
0000
1001
0000
0000
0000
0000
0000
0000
0000
,
1000
0100
0010
0001
0010
0100
1000
0001
1000
0010
0100
0001
0100
0010
1000
0001
,
0010
0100
1000
0001
0010
0100
1000
0001
0100
0010
1000
0001
0100
0010
1000
0001
,
0010
0001
1000
0010
1000
0001
0010
0100
1000
0100
1000
0001
0100
0001
1000
0100
,
0010
0001
1000
0001
0100
0001
1000
0001
0010
0100
1000
0001
0100
0010
1000
0001
,
1000
0100
0010
0001
0100
0010
1000
0001
1000
0010
0100
0001
0010
0100
1000
0001
,
0100
0001
1000
0100
0010
0100
1000
0010
0100
0010
1000
0100
0010
0001
1000
0001
,
1000
0000
0010
0000
1000
0000
0010
0000
0000
0100
0000
0000
0001
0000
0000
1000
0000
0000
0100
0000
0000
0010
0000
0000
0001
0000
0010
0000
0001
0000
0010
0000
0000
0100
0000
0000
1000
0000
0000
0001
0000
0000
0100
0000
0000
0010
0000
0000
,
1000
0000
0000
0000
0001
0100
0001
0100
0001
0000
0000
0000
1000
0100
1000
0100
1000
0000
0000
0000
0110
0000
0000
0000
1001
0000
0000
0000
0000
0000
0000
0000
;

//--------------- dance-double - Fred-104 ----------------
#NOTES:
     dance-double:
     Fred-104:
     Easy:
     7:
     :
00000000
00000000
00000000
00000000
,
00000000
00000000
00000000
00000000
,
00000000
00000000
00000000
00000000
,
00000000
00000000
00000000
00000000
,
00000000
00000000
00000000
00000000
,
00000000
00000000
00000000
00000000
,
00001000
00000000
00100000
00000000
,
00001000
00010000
00001000
00000000
,
01000000
00100000
01000000
00000000
,
00010000
00010000
00010000
00010000
,
10000000
01000000
10000000
00000000
,
01000000
00100000
00010000
00000000
,
00100000
00001000
00010000
00000000
,
00001000
00010000
00011000
00000000
,
00010000
00001000
00000100
00000000
,
00000001
00001000
00000100
00000000
,
00000010
00000001
00000100
00000000
,
00001000
00010000
00011000
00000000
,
00001000
00010000
00001000
00010000
,
00100000
10000000
00010000
00000000
,
01000000
00100000
01000000
00100000
,
10000000
01000000
00100000
00000000
,
00001000
00010000
00001000
00010000
,
00000010
00001000
00000010
00000000
,
00000100
00000000
00000001
00000000
,
00000010
00000100
00010000
00001000
,
00010000
00001000
00010000
00000100
,
00001000
00000100
00010000
00000000
,
00001000
01000000
00010000
01000000
,
00010000
00100000
01000000
00000000
,
10000000
00010000
10000000
00100000
,
00010000
00001000
00010000
00000000
,
00001000
00000000
00010000
00000000
,
00000010
00000100
00000110
00000000
,
00000001
00000100
00000001
00000100
,
00001000
00010000
00001000
00000000
,
00010000
00001000
01000000
00001000
,
01000000
00010000
00100000
00000000
,
01000000
10000000
00010000
10000000
,
00100000
00010000
00001000
00000000
,
00010000
00001000
00000010
00000001
,
00000000
00000001
00000000
00000000
00000001
00000000
00000000
00000000
,
00001000
00000010
00000100
00001000
,
00010000
00001000
00010000
00000000
,
00001000
00010000
00100000
01000000
,
00100000
01000000
00010000
00000000
,
10000000
01000000
00100000
01000000
,
10000000
00100000
00010000
00000000
,
00001000
00010000
00001000
00010000
,
00000000
00010000
00000000
00000000
00001000
00000000
00000000
00001000
,
00000000
00010000
00001000
00010000
,
00011000
00000000
00000000
00000000
,
00000000
00000000
00000000
00000000
,
00000000
00000000
00000000
00000000
,
00000000
00000000
00000000
00000000
,
00001000
00100000
00001000
00100000
,
00010000
00100000
01000000
10000000
,
00010000
01000000
00100000
00010000
,
00001000
00000100
00000001
00001000
,
00001001
00000000
00000000
00000000
,
00000001
00000010
00000100
00000010
,
00001000
00010000
00001000
01000000
,
00010000
00100000
01000000
10000000
,
00010000
01000000
00100000
01000000
,
00010000
10000000
01000000
00100000
,
00010000
00100000
00001000
00010000
,
00000010
00001000
00000100
00010000
,
00001000
00000000
00100000
00000000
01000000
01000000
01000000
00000000
,
10000000
00100000
01000000
00100000
,
00010000
00001000
00010000
00000100
,
00001000
00000010
00000100
00000001
,
00001000
00000100
00000010
00000100
,
00001000
00000001
00000100
00000010
,
00001000
00000010
00010000
00001000
,
00100000
00010000
01000000
00001000
,
00010000
00000000
00001000
00000000
00010000
00010000
00010000
00000000
;

//--------------- dance-double - Fred-104 ----------------
#NOTES:
     dance-double:
     Fred-104:
     Medium:
     10:
     :
00000000
00000000
00000000
00000000
,
00000000
00000000
00000000
00000000
,
00000000
00000000
00000000
00000000
,
00000000
00000000
00000000
00000000
,
00000000
00000000
00000000
00000000
,
00000000
00000000
00000000
00000000
,
00010000
00001000
00000010
00000100
,
00010000
00001000
00000100
00000010
,
00010000
00001000
00000010
00000001
,
00000100
00001000
00010000
00011000
,
00001000
00010000
00001000
00000000
00100000
00010000
10000000
00000000
,
00100000
01000000
00100000
00000000
00010000
00001000
00010000
00000000
,
00000010
00001000
00000100
00000000
00000010
00000001
00001000
00000000
,
00000010
00000000
00000100
00000000
00001000
00000000
00000000
00010000
00000000
00000000
00010000
00000000
00000000
00010000
00000000
00000000
,
00001000
00100000
00010000
00000000
10000000
00010000
00100000
00000000
,
01000000
10000000
00010000
00000000
01000000
00001000
00010000
00000000
,
00001000
00000100
00000001
00000000
00000010
00000100
00001000
00000000
,
00000100
00000000
00010000
00000000
00001000
00000000
00000000
01000000
00000000
00000000
01000000
00000000
00000000
00100000
00000000
00000000
,
00100000
10000000
00100000
10000000
01000000
00100000
00010000
00000000
,
00100000
00001000
00010000
00000000
00001000
00010000
00000010
00000000
,
00001000
00000100
00001000
00000100
00000010
00000100
00001000
00000000
,
00000001
00000100
00001000
00000000
00010000
00001000
00010000
00000000
,
00001000
00100000
00010000
00100000
00001000
00100000
00010000
00000000
,
00100000
01000000
10000000
00000000
00100000
01000000
00010000
00000000
,
10000000
01000000
00010000
00000000
00001000
00000100
00000001
00000000
,
00000010
00000100
00001000
00000000
00000001
00000010
00001000
00000000
,
00010000
00001000
00100000
00001000
00010000
00001000
00100000
00000000
,
00010000
10000000
00010000
00100000
01000000
00100000
00010000
00000000
,
10000000
00100000
10000000
00100000
00010000
00001000
00010000
00000000
,
00001000
00010000
00000010
00010000
00001000
00010000
00000100
00000000
,
00001000
00000100
00000010
00000100
00001000
00000001
00001000
00000000
,
00000001
00000100
00000010
00000100
00001000
00010000
00001000
00000000
,
00010000
00001010
00010000
00001100
,
00010000
00000000
00011000
00000000
00001000
00001000
00011000
00000000
,
00001000
00010000
00001000
00010000
01000000
00010000
01000000
00010000
,
00001000
00000000
00010000
00000000
00000100
00000010
00000001
00000000
,
00001000
00000010
00001000
00000010
00000001
00000010
00000001
00000010
,
00001000
00000000
00000001
00000000
00000010
00001000
00010000
00000000
,
00001000
00010000
00001000
00010000
00100000
00010000
00100000
00010000
,
00001000
00000000
01000000
00000000
00010000
00100000
01000000
00000000
,
10000000
00000000
01000000
00000000
10000000
00000000
00000000
00000000
01000000
00000000
00100000
00000000
00001000
00000000
00000000
00001000
,
00000000
00000000
00010000
00000000
00000000
00010000
00000000
00000000
00000010
00000000
00000000
00001000
00000000
00000000
00000100
00000000
,
00001000
00000010
00000001
00000010
00001000
00000001
00001000
00000000
,
00000001
00000100
00001000
00000000
00010000
00001000
00010000
00000000
,
00001000
00010000
00100000
00010000
00001000
00010000
01000000
00000000
,
10000000
00100000
01000000
00000000
00100000
10000000
01000000
00000000
,
10000000
00100000
00010000
00001000
00010000
00000100
00010000
00000000
,
00001000
00000010
00000100
00000000
00001000
00000100
00000010
00000000
,
00000001
00000000
00000100
00000000
00000010
00000000
00000000
00000000
00000100
00000000
00001000
00000000
00010000
00000000
00000000
00001000
,
00000000
00000000
00010000
00000000
00000000
00100000
00000000
00000000
10000000
00000000
00000000
01000000
00000000
00000000
00010000
00000000
,
00000000
00001000
00000000
00000000
00000010
00000000
00000000
00000001
00000000
00000000
00000100
00000000
00001000
00000000
00000000
00000000
,
00011000
00000000
00001000
00000000
,
00100000
00000000
00001000
00000000
,
00010000
00000000
00001000
00000000
,
01000000
00000000
00010000
00000000
,
10000000
01000000
00010000
00000010
,
00001000
00000100
00000010
00000001
,
00000100
00001000
00010000
00001000
,
00010000
00001000
00010000
00000010
00001000
00000010
00010000
00001000
,
00011000
00000000
00000000
00000000
,
00001000
00100000
00001000
00000000
00010000
00000000
01000000
00000000
,
10000000
00100000
01000000
00000000
00100000
00000000
10000000
00000000
,
01000000
00100000
00010000
00000000
00100000
00000000
00001000
00000000
,
00010000
00001000
00000010
00000000
00000100
00000010
00000001
00000000
,
00001000
00000010
00000100
00000000
00001000
00010000
00001000
00000000
,
01000000
00010000
10000000
00010000
01000000
00010000
10000000
00000000
,
01000000
00100000
01000000
00100000
00010000
00100000
00001000
00010000
,
00001000
00000000
00001000
00000000
00010000
00010000
00011000
00000000
,
00010000
00000010
00010000
00000000
00001000
00000000
00000100
00000000
,
00000001
00000010
00000100
00000000
00000010
00000000
00000001
00000000
,
00000100
00000010
00001000
00000000
00000010
00000000
00010000
00000000
,
00001000
00010000
00100000
00000000
01000000
00100000
10000000
00000000
,
00010000
00100000
01000000
00000000
00010000
00001000
00010000
00000000
,
00000100
00001000
00000001
00001000
00000100
00001000
00000001
00000000
,
00000100
00000010
00000100
00000010
00001000
00000010
00010000
00001000
,
00010000
00000000
00010000
00000000
00001000
00001000
00011000
00000000
;

//--------------- dance-double - Fred-104 ----------------
#NOTES:
     dance-double:
     Fred-104:
     Hard:
     15:
     :
00000000
00000000
00000000
00000000
,
00000000
00000000
00000000
00000000
,
00000000
00000000
00000000
00000000
,
00000000
00000000
00000000
00000000
,
00000000
00000000
00000000
00000000
,
00000000
00000000
00000000
00000000
,
00010000
00001000
00010000
00000000
00000010
00001000
00000010
00000000
,
00000100
00000001
00001000
00000000
00000100
00000010
00000001
00000000
,
00001000
00000010
00000100
00001000
00010000
00100000
00010000
00001000
,
00010000
00000100
00010000
00000000
00000100
00001000
00000100
00000000
00000010
00000001
00000010
00000001
00001000
00000000
00000000
00000000
,
00000001
00000100
00001000
00010000
01000000
00010000
00001000
00010000
,
00001000
00000010
00001000
00010000
00100000
10000000
00010000
00100000
,
01000000
10000000
00010000
01000000
00100000
00010000
00001000
00000010
,
00000100
00000000
00001000
00000000
00000001
00000000
00000000
00000101
00000000
00000000
00001100
00000000
00000000
00011000
00000000
00000000
,
00010000
00000000
00000010
00001000
00000010
00000000
00010000
00000000
00001000
00000000
00100000
00010000
00100000
00000000
00001000
00000000
,
00010000
00000000
00000100
00001000
00000100
00000000
00010000
00000000
00001000
00000000
01000000
00010000
01000000
00000000
00001000
00000000
,
00010000
00000000
00000100
00001000
00000100
00000000
00010000
00000000
00001000
00000000
00100000
00010000
00100000
00000000
00001000
00000000
,
00010000
00001000
00010000
00001000
00010000
00000000
00000000
00010010
00000000
00000000
00101000
00000000
00000000
00010100
00000000
00000000
,
00011000
00000000
00001000
01000000
00001000
00000000
01000000
00010000
01000000
00000000
00100000
10000000
00100000
00000000
01000000
00000000
,
00010000
00000000
10000000
01000000
10000000
00000000
01000000
00010000
01000000
00000000
00010000
00001000
00010000
00000000
00000100
00000000
,
00001000
00000000
00000001
00000010
00000001
00000000
00001000
00000010
00001000
00000000
00000001
00000100
00000001
00000000
00001000
00000000
,
00000100
00000000
00010000
00001000
00010000
00000000
00000010
00001000
00000010
00000000
00010000
00001000
00010000
00000000
00001000
00000000
,
01000000
00000000
00010000
00100000
00010000
00000000
01000000
00100000
01000000
00000000
00010000
10000000
00010000
00000000
10000000
00000000
,
01000000
00000000
00100000
00010000
00100000
00000000
00001000
00010000
00001000
00000000
00010000
00000010
00010000
00000000
00000010
00000000
,
00001000
00000100
00001000
00000000
00000100
00000010
00000100
00000000
00000010
00000001
00000010
00000000
00000001
00001000
00000001
00000000
,
00000100
00000000
00000010
00001000
00000010
00000000
00010000
00001000
00010000
00000000
00001000
00100000
00001000
00000000
00010000
00000000
,
00001000
00000000
01000000
00010000
01000000
00000000
00010000
00100000
00010000
00000000
01000000
00010000
01000000
00000000
00100000
00000000
,
10000000
01000000
10000000
00000000
01000000
00100000
01000000
00000000
00100000
00001000
00100000
00000000
00001000
00010000
00001000
00000000
,
00010000
00000000
00000100
00001000
00000100
00000000
00010000
00000100
00010000
00000000
00000010
00000100
00000010
00000000
00001000
00000000
,
00000100
00000010
00000100
00000000
00000010
00000001
00000010
00000000
00000100
00001000
00000100
00000000
00010000
00001000
00010000
00000000
,
00001000
00000000
00100000
00010000
00100000
00000000
00001000
00010000
00001000
00000000
01000000
00010000
01000000
00000000
00010000
00000000
,
00100000
01000000
00100000
00000000
01000000
10000000
01000000
00000000
00100000
00010000
00100000
00000000
00001000
00010000
00001000
00000000
,
00010000
00000000
00001000
00000010
00001000
00000000
00010000
00000000
00001000
00000000
00010000
00100000
00010000
00000000
00001000
00000000
,
00010000
00000000
00001000
00100000
00010000
00000000
00100000
01000000
10000000
00000000
00100000
00000000
01100000
00000000
00000000
00000000
,
10010000
00000000
10000000
01000000
10000000
00000000
01000000
00010000
01000000
00000000
00010000
00001000
00010000
00000000
00000100
00001000
,
00000100
00000000
00010000
00000000
00001000
00000000
00000100
00000000
00000001
00000000
00000000
00000010
00000100
00000000
00010000
00000000
,
00011000
00000000
00001000
01000000
00001000
00000000
01000000
00010000
01000000
00000000
00001000
00010000
00001000
00000000
00010000
00000100
,
00010000
00000000
00001000
00000000
00000010
00000000
00000100
00000000
00001000
00000000
00000000
00000001
00000100
00000000
00000010
00000000
,
00001010
00000000
00001000
00000100
00001000
00000000
00000001
00000100
00000001
00000000
00000100
00001000
00000100
00000000
00001000
00010000
,
00001000
00000000
00010000
00000000
01000000
00000000
00100000
00000000
00010000
10000000
00010000
10000000
00100000
00000000
01000000
00000000
,
00010000
10000000
00010000
00000000
10000000
00100000
10000000
00000000
00010000
00100000
00010000
00100000
00001000
00010000
00001000
00010000
,
00000000
00000000
00011000
00000000
00000000
00001100
00000000
00000000
00000101
00000000
00000000
00001010
00000000
00000000
00000011
00000000
,
00001001
00000000
00001000
00000100
00001000
00000000
00000001
00000100
00000001
00000000
00001000
00000010
00001000
00000000
00000001
00000010
,
00000100
00000000
00010000
00001000
00010000
00000000
00000010
00000000
00010000
00000000
00001000
00010000
00001000
00000000
00100000
00000000
,
01100000
00000000
10000000
00010000
10000000
00000000
00100000
01000000
00100000
00000000
00010000
00001000
00010000
00000000
00000010
00001000
,
00000010
00000000
00000100
00000001
00000100
00000000
00000010
00000000
00000100
00000000
00001000
00010000
00001000
00000000
01000000
00000000
,
01010000
00000000
00010000
10000000
00010000
00000000
00100000
00001000
00100000
00000000
00001000
00010000
00001000
00000000
00010000
00000010
,
00010000
00000000
00000100
00001000
00000001
00000000
00000100
00000000
00000010
00000000
00001000
00000001
00000010
00000000
00000100
00000000
,
00010000
00001000
00010000
00000000
00001000
00100000
00001000
00000000
00100000
00010000
00100000
00010000
10000000
00100000
10000000
00100000
,
00000000
00000000
10100000
00000000
00000000
00110000
00000000
00000000
00011000
00000000
00000000
00001100
00000000
00000000
00000101
00000000
,
00000000
00000011
00000000
00000000
00001010
00000000
00000000
00011000
00000000
00000000
01010000
00000000
11000000
00000000
00000000
00000000
,
10010000
00000000
10000000
00000000
,
01000000
00100000
00001000
00000000
,
00010000
00000000
00000100
00000000
,
00010000
00001000
00000100
00000000
,
00000001
00000010
00000100
00001000
00000010
00000100
00001000
00010000
,
00100000
01000000
00010000
00100000
01000000
10000000
00010000
01000000
,
00100000
10000000
00100000
00000000
01000000
00010000
01000000
00000000
00010000
00100000
00010000
00000000
10000000
01000000
10000000
00000000
,
00010000
10000000
00010000
10000000
00010000
10000000
00010000
10000000
00010000
10000000
00010000
10000000
00010000
10000000
00010000
10000000
,
00010000
00000000
00000000
00000000
,
10000000
01000000
10000000
00000000
01000000
00000000
00100000
00000000
00001000
00010000
00001000
00000000
00010000
00000000
00000010
00000000
,
00001000
00000010
00001000
00000000
00000100
00000000
00000010
00000000
00000001
00001000
00000001
00000000
00000100
00000000
00001000
00000000
,
00010000
00001000
00010000
00000000
00000100
00000000
00010000
00000000
00001000
00010000
00001000
00000000
00010000
00000000
01000000
00000000
,
00100000
00010000
00100000
00000000
01000000
00000000
10000000
00000000
00010000
01000000
00010000
00000000
10000000
00000000
01000000
00000000
,
00100000
00010000
00100000
00000000
00100000
00010000
00100000
00000000
00001000
00010000
00001000
00000000
00001000
00010000
00001000
00000000
,
00010000
00000010
00010000
00000000
00010000
00000010
00010000
00000000
00000010
00001000
00000010
00000000
00000010
00001000
00000010
00000000
,
00010000
00001000
00010000
00001000
00010000
00001000
00010000
00001000
00010000
00000010
00001000
00000010
00001000
00000010
00001000
00000010
,
00000100
00000000
00000100
00000001
00001000
00000000
00001000
00000100
00000010
00000000
00000010
00000000
00000011
00000000
00000000
00000000
,
00000001
00000100
00000001
00000000
00000100
00000000
00000010
00000000
00010000
00001000
00010000
00000000
00001000
00000000
00100000
00000000
,
00010000
00100000
00010000
00000000
01000000
00000000
00100000
00000000
10000000
00010000
10000000
00000000
01000000
00000000
00010000
00000000
,
00001000
00010000
00001000
00000000
01000000
00000000
00001000
00000000
00010000
00001000
00010000
00000000
00001000
00000000
00000100
00000000
,
00000010
00001000
00000010
00000000
00000100
00000000
00000001
00000000
00001000
00000100
00001000
00000000
00000001
00000000
00000100
00000000
,
00000010
00001000
00000010
00000000
00000010
00001000
00000010
00000000
00010000
00001000
00010000
00000000
00010000
00001000
00010000
00000000
,
00001000
00100000
00001000
00000000
00001000
00100000
00001000
00000000
00100000
00010000
00100000
00000000
00100000
00010000
00100000
00000000
,
00001000
00010000
00001000
00010000
00001000
00010000
00001000
00010000
00001000
00100000
00010000
00100000
00010000
00100000
00010000
00100000
,
01000000
00000000
01000000
10000000
00010000
00000000
00010000
01000000
00100000
00000000
00100000
00000000
10100000
00000000
00000000
00000000
;

//--------------- dance-double - Fred-104† ----------------
#NOTES:
     dance-double:
     Fred-104†:
     Challenge:
     18:
     :
00000000
00000000
00000000
00000000
,
00000000
00000000
00000000
00000000
,
00000000
00000000
00000000
00000000
,
00000000
00000000
00000000
00000000
,
00000000
00000000
00000000
00000000
,
00000000
00000000
00000000
00000000
,
00001000
00010000
00100000
00000000
01000000
00010000
10000000
00000000
,
01000000
00000000
00100000
00000000
00010000
00000000
01000000
00000000
00001000
00000000
00010000
00001000
00010000
00000000
00000010
00000000
,
00001000
00000010
00000100
00000000
00000010
00001000
00000001
00000000
00000010
00000100
00001000
00000000
00000100
00010000
00001000
00000000
,
00100000
00000000
00010000
00000000
00100000
00000000
00010000
00000000
00000000
10000000
00000000
00000000
00100000
00000000
01000000
00000000
00100000
00000000
01000000
00000000
00000000
00010000
00000000
00000000
10000000
00000000
00010000
00000000
10000000
00000000
00010000
00000000
10000000
00000000
00010000
00000000
00100000
00000000
00000000
00000000
00000000
00000000
00000000
00000000
00000000
00000000
00000000
00000000
,
00001000
00010000
00001000
00010000
00000010
00001000
00000010
00001000
00000001
00001000
00000001
00001000
00000100
00001000
00000100
00001000
,
00000001
00001000
00000001
00001000
00000010
00010000
00000010
00010000
00001000
00010000
00001000
00010000
00001000
00100000
00001000
00100000
,
00010000
10000000
00010000
10000000
01000000
00100000
01000000
00100000
00010000
10000000
00010000
10000000
00100000
01000000
00100000
01000000
,
00010000
10000000
00010000
10000000
01000000
00100000
00010000
00100000
00000000
00000000
00011000
00000000
00000000
00010010
00000000
00000000
,
00000010
00001000
00000010
00001000
00000010
00000100
00000010
00000100
00000010
00001000
00000010
00001000
00000001
00000010
00000001
00000010
,
00000100
00001000
00000100
00001000
00000100
00010000
00000100
00010000
00001000
01000000
00001000
01000000
00010000
10000000
00010000
10000000
,
01000000
00100000
01000000
00100000
00001000
00010000
00001000
00010000
00000010
00001000
00000010
00001000
00000010
00010000
00000010
00010000
,
00001000
00010000
00001000
00010000
00011000
00000000
00000000
00010010
00000000
00000000
01001000
00000000
00000000
00010100
00000000
00000000
,
00101000
00000000
00001000
00010000
00001000
00100000
00010000
00100000
00001000
00010000
00001000
01000000
00010000
01000000
00001000
00010000
,
00001000
00010000
00001000
00010000
00000010
00001000
00000010
00001000
00000001
00000010
00000100
00001000
00000100
00010000
00001000
00010000
,
00001000
00000000
01000000
00010000
10000000
00010000
00100000
00010000
00100000
00001000
00010000
00001000
01000000
00010000
10000000
00010000
,
10000000
01000000
00100000
00010000
00100000
00001000
00010000
00001000
00010000
00000100
00001000
00000100
00000010
00000001
00001000
00000001
,
00000100
00000000
00000010
00001000
00000010
00000100
00000010
00001000
00000001
00000010
00000100
00001000
00000100
00010000
00001000
01000000
,
00010000
10000000
00010000
00100000
01000000
00100000
00010000
10000000
01000000
00100000
00010000
00100000
00001000
00010000
00000010
00010000
,
00001000
00010000
00001000
00010000
00000100
00001000
00000100
00010000
00001000
00010000
00001000
00010000
00000010
00001000
00000010
00010000
,
00001000
00100000
00010000
10000000
00010000
00100000
01000000
10000000
00100000
01000000
00100000
10000000
01000000
00100000
00010000
00100000
,
00001000
00000000
00010000
00001000
00010000
00001000
00000010
00000100
00000010
00000001
00000010
00000100
00001000
00000100
00010000
00001000
,
00010000
00001000
01000000
00010000
10000000
00010000
00100000
01000000
10000000
00010000
01000000
00100000
10000000
01000000
00100000
00001000
,
00010000
00000000
00001000
00010000
00001000
00010000
00100000
01000000
00100000
10000000
00100000
01000000
00010000
01000000
00001000
00010000
,
00001000
00010000
00000100
00001000
00000001
00001000
00000010
00000100
00000001
00001000
00000100
00000010
00000001
00000100
00000010
00010000
,
00001000
00000000
00010000
00001000
01000000
00010000
01000000
00001000
00010000
00000100
00001000
00000100
00000010
00000001
00001000
00000010
,
00000100
00000010
00000100
00001000
00010000
00100000
01000000
00100000
01000000
00010000
00100000
01000000
10000000
00010000
01000000
00010000
,
10000000
00000000
00100000
01000000
00010000
00000000
00100000
00001000
00010000
00000000
00000100
00001000
00000010
00000000
00000100
00000001
,
00000010
00000000
00000001
00000100
00001000
00000000
00010000
01000000
10000000
00000000
00010000
00000000
10010000
00000000
00000000
00000000
,
01100000
00000000
10000000
00100000
00010000
00000000
00001000
00000010
00000001
00000000
00000100
00000010
00000001
00000000
00000010
00000100
,
00000001
00000000
00001000
00000100
00001000
00000010
00000100
00000001
00000010
00000100
00001000
00000100
00010000
00001000
00010000
00000000
,
00011000
00000000
00001000
00010000
00100000
00000000
10000000
00100000
00010000
00000000
00001000
00010000
01000000
00000000
10000000
01000000
,
00100000
00000000
00010000
10000000
00100000
01000000
00100000
10000000
01000000
00100000
00001000
00010000
00000100
00001000
00000100
00000000
,
00000110
00000000
00000001
00000010
00001000
00000000
00010000
00100000
10000000
00000000
01000000
00100000
10000000
00000000
00100000
01000000
,
10000000
00000000
00010000
01000000
00100000
10000000
01000000
00100000
00010000
00100000
00001000
00010000
00000100
00001000
00000010
00000000
,
00000100
00000001
00000010
00000100
00001000
00000100
00010000
00001000
00100000
00010000
00100000
01000000
10000000
00010000
10000000
11000000
,
00000000
00000000
01010000
00000000
00000000
00011000
00000000
00000000
00001010
00000000
00000000
00000011
00000000
00000000
00001001
00000000
,
00000110
00000000
00000001
00000100
00001000
00000000
00010000
00100000
10000000
00000000
10000000
01000000
00010000
00000000
00001000
00000010
,
00000001
00000000
00001000
00000100
00000010
00000001
00001000
00000010
00000100
00001000
00010000
00001000
01000000
00010000
10000000
00000000
,
10010000
00000000
10000000
00100000
00010000
00000000
00001000
00000100
00000001
00000000
00000001
00000010
00001000
00000000
00010000
01000000
,
10000000
00000000
00010000
01000000
00100000
10000000
00010000
00100000
00001000
00010000
00001000
00000100
00000010
00001000
00000001
00000000
,
00001001
00000000
00000001
00000100
00001000
00000000
00010000
00100000
10000000
00000000
10000000
01000000
00010000
00000000
00001000
00000010
,
00000001
00000000
00001000
00000010
00000100
00000001
00000010
00000100
00001000
00000100
00010000
00001000
00100000
00010000
00100000
01000000
,
10000000
00100000
01000000
00010000
00100000
00001000
00010000
00000100
00001000
00000010
00000100
00000001
00000010
00000100
00000010
00000011
,
00000000
00000000
00001010
00000000
00000000
00011000
00000000
00000000
01010000
00000000
00000000
11000000
00000000
00000000
10100000
00000000
,
00000000
00110000
00000000
00000000
00011000
00000000
00000000
00001100
00000000
00000000
00000101
00000000
00000110
00000000
00000000
00000000
,
00001001
00000000
00000000
00000000
,
00000000
00000000
00000000
00000000
,
00000000
00000000
00000000
00000000
,
00000000
00000000
00000000
00000000
,
10000000
01000000
00100000
00000000
01000000
00100000
00010000
00000000
00100000
00001000
00010000
00000000
00001000
00010000
00000100
00000000
,
00001000
00000100
00000010
00000001
00000010
00000100
00001000
00000000
00000001
00000100
00000010
00001000
00000010
00000100
00000001
00000000
,
00001000
00000001
00000010
00000100
00001000
00000100
00010000
00001000
00010000
00001000
00100000
00010000
00100000
01000000
10000000
00010000
,
01000000
00000000
00000000
00100000
00000000
00000000
10000000
00000000
00000000
00100000
00000000
00000000
01000000
00000000
00000000
00010000
00000000
00000000
00100000
00000000
00000000
00001000
00000000
00000000
00010000
00000000
00001000
00000000
00010000
00000000
00000100
00000000
00000000
00001000
00000000
00000000
00000001
00000000
00000100
00000000
00000010
00000000
00001000
00000000
00000000
00000010
00000000
00000000
,
00000100
00000000
00000000
00000000
00000000
00000000
00000000
00000000
00000000
00000000
00000000
00000000
00000000
00000000
00000000
00000000
00000000
00000000
00000000
00000000
00000001
00001000
00000001
00001000
00000001
00000000
00000000
00000000
00000000
00000000
00000000
00000000
,
00001000
00000001
00001000
00000001
00000010
00000100
00000010
00000100
00010000
00001000
00010000
00001000
01000000
00010000
01000000
00010000
,
10000000
01000000
10000000
01000000
00100000
00010000
00100000
00010000
00001000
00000100
00001000
00000100
00000010
00000001
00000010
00000001
,
00001000
00000010
00001000
00000010
00000100
00000001
00000100
00000001
00001000
00000100
00001000
00000100
00010000
00001000
00010000
00001000
,
01000000
00010000
01000000
00010000
10000000
00100000
10000000
00100000
00010000
00001000
00010000
00001000
00000010
00000001
00000010
00000001
,
00001000
00000001
00000010
00000100
00001000
00000100
00010000
00001000
00100000
00001000
00010000
00001000
01000000
00010000
00100000
01000000
,
10000000
00010000
01000000
00010000
10000000
01000000
00100000
00010000
00100000
00001000
00010000
00000010
00001000
00000100
00000010
00000100
,
00001000
00000001
00000100
00000010
00000100
00001000
00010000
00001000
01000000
00010000
10000000
00010000
00100000
01000000
10000000
00010000
,
01000000
00000000
00000000
00000000
00100000
10000000
00100000
10000000
00100000
00000000
00000000
00000000
01000000
00010000
01000000
00010000
01000000
00000000
00000000
00000000
01000000
00000000
00000000
00000000
01100000
00000000
00000000
00000000
00000000
00000000
00000000
00000000
,
10000000
01000000
00100000
00010000
10000000
01000000
00100000
00010000
00100000
00001000
00010000
00000100
00001000
00000100
00000010
00000001
,
00001000
00000010
00000100
00000001
00001000
00000010
00000100
00000001
00001000
00000100
00000010
00001000
00010000
00001000
01000000
00010000
,
00100000
01000000
10000000
00010000
00100000
01000000
10000000
00010000
01000000
00010000
10000000
01000000
00100000
00010000
00100000
00001000
,
00010000
00000010
00001000
00000010
00000100
00000010
00001000
00000010
00000100
00000001
00001000
00000100
00000010
00000001
00000010
00000100
,
00001000
00000001
00000100
00000001
00001000
00000100
00010000
00001000
01000000
00010000
00100000
01000000
10000000
00010000
01000000
00100000
,
10000000
00010000
00100000
00010000
01000000
00001000
00010000
00000100
00001000
00000100
00000010
00000001
00001000
00000010
00010000
00001000
,
00010000
00001000
00000010
00000100
00001000
00000100
00000010
00001000
00010000
00100000
01000000
00010000
01000000
00100000
00010000
00001000
,
00010000
00000000
00000000
00000000
00000100
00001000
00000100
00001000
00000100
00000000
00000000
00000000
00000010
00000001
00000010
00000001
00000010
00000000
00000000
00000000
00000100
00000000
00000000
00000000
00001001
00000000
00000000
00000000
00000000
00000000
00000000
00000000
;
