#TITLE:Chirality;
#ARTIST:かめりあ;
#ARTISTTRANSLIT:Camellia;
#BANNER:Chirality.png;
#BACKGROUND:Chirality-bg.png;
#CDTITLE:./CDTitles/RB groovin'!!.png;
#MUSIC:Chirality.ogg;
#SAMPLESTART:67.015;
#SAMPLELENGTH:15;
#DISPLAYBPM:201;
#BPMS:0=201,64=402,64.5=201,64.75=100.5,65=201,66=402,66.5=201,66.75=100.5,67=201,79=402,83=201,96=402,98=201,106=402,108=201,112=100.5,112.25=201,112.5=402,113=201,127.5=402,128.5=201,151=402,151.5=201,151.75=100.5,152=201,174.5=100.5,174.75=201,175=402,175.5=201,236.5=402,237.5=201;
#STOPS:39.5=0.896,52.5=0.895,58.9375=0.896,79=0.074,79.5=0.075,80=0.074,80.5=0.075,81=0.075,81.5=0.075,82=0.149,89=0.298,96=0.074,96.5=0.075,97=0.149,106=0.374,106.5=0.038,106.75=0.037,107=0.037,107.25=0.037,107.5=0.038,107.75=0.037,127.5=0.075,128=0.074,150.5=0.299,176.5=0.15,177.5=0.149,178.5=0.149,179.5=0.149,185.5=0.896,198.5=0.895,204.9375=0.895,236.5=0.15,287=0.298;
#TIMESIGNATURES:0=4=4,36=5=4,41=4=4,49=5=4,59=4=4,87=3=4,90=4=4,106=3=4,109=4=4,149=3=4,152=4=4,176=3=4,182=5=4,187=4=4,195=5=4,205=4=4,285=3=4,288=4=4;
#STAGE:3;

//--------------- dance-single - Fred-104 ----------------
#NOTES:
     dance-single:
     Fred-104:
     Beginner:
     6:
     :
0000
0000
0000
0000
,
0000
0000
0000
0000
,
0000
0000
0000
0000
,
0000
0000
0000
0000
,
0000
0000
0000
0000
,
0000
0000
0000
0000
,
0000
0000
0000
0000
,
0000
0000
0000
0000
,
0000
0000
0000
0000
,
1000
0000
0000
0000
0000
0000
0000
2002
,
3003
0001
0000
0000
,
0000
1001
0000
0000
0100
0000
0100
0000
,
0100
0100
0000
0000
,
0000
0220
0330
0000
0010
0000
0000
0000
,
0000
0000
0000
0110
0000
0000
0001
0000
,
0000
0001
0000
1000
,
1000
0100
0000
1000
,
0000
1000
0000
0001
,
1000
0001
1000
0001
,
0000
0010
0000
0100
,
0010
0100
0000
0001
,
0000
1000
0000
0001
,
0001
0000
0000
0000
0000
0000
0000
0000
0000
0000
0000
0000
0000
0000
0000
0000
2002
3003
0000
0000
0000
0000
0000
0000
0000
0000
0000
0000
0000
0000
0000
0000
2000
0000
0000
0000
0000
0000
0000
0000
0000
0000
0000
0000
0000
0000
0000
0000
3000
0000
0000
0000
0000
0000
0000
0000
0000
0000
0000
0000
0000
0000
0000
0000
,
0200
0300
0010
0010
,
0020
0030
0002
0003
,
0200
0300
1000
1000
,
0001
1000
2002
0000
,
3003
1000
0000
1000
,
0000
0001
0000
1000
,
0000
0100
0100
0100
,
0100
0200
0000
0000
,
0000
0300
0000
0000
,
0000
2000
0000
0000
,
0000
3000
0000
0000
,
0000
0020
0000
0000
,
0000
0030
0000
0000
,
0000
0002
0000
0000
,
0000
0003
0000
0000
,
1000
0000
1000
0000
,
0010
0000
1000
0000
,
0100
0000
0001
0000
,
0100
0000
1000
0000
,
0001
0000
1000
0000
,
0001
0000
0010
0000
,
0200
0000
0000
0000
,
0000
0000
0310
0000
,
0000
0000
0000
1001
0000
0000
0100
0000
,
0000
0000
0000
0000
0000
1001
0000
0000
,
0001
1000
0001
1000
,
0000
0000
0000
0000
0000
0220
0330
0000
,
0001
0000
0000
0000
0000
0000
0000
0110
,
0000
1000
0000
1000
,
0000
0100
0100
0100
,
0001
0100
0000
0001
,
0000
0010
0010
0001
,
0010
0010
0000
0001
,
0000
1000
1000
0010
,
1000
1000
0000
0001
,
0000
1000
0001
1000
,
1001
0000
0000
0001
,
0000
0001
0001
1000
,
0001
1000
0000
0010
,
0000
0100
0010
0100
,
0010
0010
0000
0100
,
0000
0001
1000
0001
,
1000
0001
0000
1000
,
0000
0010
0000
0100
,
0000
0001
0000
1000
,
0000
1000
0000
0100
,
0000
1000
0000
0010
,
0000
0100
0000
0001
,
1000
0000
0000
0000
0000
0000
0000
0000
0000
0000
0000
0000
0000
0000
0000
0000
0001
0000
0000
0000
0000
0000
0000
0000
0000
0000
0000
0000
0000
0000
0000
0000
1000
0000
0000
0000
0000
0000
0000
0000
0000
0000
0000
0000
0000
0000
0000
0000
2002
3003
0000
0000
0000
0000
0000
0000
0000
0000
0000
0000
0000
0000
0000
0000
,
0001
0000
1000
0000
,
0010
0000
1000
0100
,
0001
0000
0100
0000
,
1000
0000
0000
0000
0001
0000
0000
0000
1000
0000
0000
0001
0000
0000
1000
0000
,
0000
2002
0000
0000
3003
0000
0000
0000
0000
0000
0000
0000
0000
0000
0000
0000
;

//--------------- dance-single - Fred-104 ----------------
#NOTES:
     dance-single:
     Fred-104:
     Easy:
     11:
     :
0000
0000
0000
0000
,
0000
0000
0000
0000
,
0000
0000
0000
0000
,
0000
0000
0000
0000
,
0000
0000
0000
0000
,
0000
0000
0000
0000
,
0000
0000
0000
0000
,
0000
0000
0000
0000
,
0000
0000
0000
0000
,
1000
0000
0000
0000
0001
1000
0000
2000
,
3000
0000
0100
0000
0000
0000
0010
0100
,
0000
0100
0010
0000
0001
0000
1000
0000
,
0001
0000
1000
0000
0000
0000
0010
0100
,
0000
0200
0300
0000
0010
0000
0100
0000
,
1000
0001
1000
0001
1000
0000
1001
0000
,
0100
0000
0001
0100
0001
0000
1000
0000
,
0010
0100
0001
1000
,
0100
0000
0010
0100
0010
0000
2000
0000
,
3100
0002
0013
1001
,
0010
0000
0001
0100
0001
0000
2000
0000
,
3010
0002
0103
1000
,
0001
0000
1000
0000
0010
0000
0100
0010
,
0100
0000
0000
0000
0000
0000
0000
0000
0000
0000
0000
0000
0000
0000
0000
0000
0220
0330
0000
0000
0000
0000
0000
0000
0000
0000
0000
0000
0000
0000
0000
0000
1001
0000
0000
0000
0000
0000
0000
0000
0000
0000
0000
0000
0000
0000
0000
0000
1000
0000
0000
0000
0000
0000
0000
0000
0000
0000
0000
0000
0000
0000
0000
0000
,
0010
0100
0010
0100
0020
0000
0100
0000
,
0100
0000
0130
0000
0100
0001
0100
0000
,
0001
0010
0001
0000
1000
0000
0010
0000
,
1000
0000
0001
0000
1001
0001
1000
0001
,
1000
0000
0001
1000
0001
0000
0100
0000
,
0010
1000
0100
0100
,
0010
0001
0100
0100
,
0010
0000
1002
0000
0000
1000
0000
0000
,
1000
0000
0000
1000
0000
0000
1003
0000
,
0010
0000
0120
0000
0000
0100
0000
0000
,
0100
0000
0000
0100
0000
0000
0130
0000
,
0001
0000
2010
0000
0000
0010
0000
0000
,
0010
0000
0000
0010
0000
0000
3010
0000
,
0100
0000
0021
0000
0000
0001
0000
0000
,
0001
0000
0000
0001
0000
0030
0000
0000
,
0001
1000
0000
0000
0010
0000
1000
0000
,
0100
0000
1000
0000
0010
0100
0010
0100
,
0010
0100
0000
0000
0001
0000
1000
0000
,
0100
0000
0010
0000
0100
1000
0100
1000
,
0100
1000
0000
1000
0000
0001
0000
0001
,
0000
0100
0000
0100
0000
0020
0030
0010
,
1000
0000
0000
0000
0000
0000
0000
0000
0002
0003
0000
0000
0000
0000
0000
0000
0100
0000
0000
0000
0000
0000
0000
0000
0020
0030
0000
0000
0000
0000
0000
0000
1000
0000
0000
0000
0000
0000
0000
0000
0002
0003
0000
0000
0000
0000
0000
0000
0100
0000
0000
0000
0000
0000
0000
0000
0020
0030
0000
0000
0000
0000
0000
0000
,
1000
0100
0010
0000
,
0100
0010
0000
0020
0030
0000
0100
0000
,
0000
0000
0001
1000
0000
1000
0100
0000
,
1001
0110
1001
0001
,
0000
0000
1000
0010
0000
0020
0030
0000
,
0100
0000
0010
0000
0001
1000
0001
1000
,
0200
0310
0001
0010
,
0010
0000
0001
0000
1000
0000
0100
1000
,
0100
0010
1000
1000
,
0100
0000
0010
0000
0001
0000
0100
0001
,
0100
0001
0010
0001
,
1000
0000
0010
0000
0100
0000
0010
0100
,
0010
1000
0001
1000
,
0001
0000
1000
0000
0010
0100
0000
1000
,
0010
1000
0000
0000
0001
0000
0010
0000
,
1000
0000
0010
0000
0001
0000
0100
0001
,
0100
0001
0100
0000
0010
0000
0100
0000
,
1000
0000
0100
0000
0001
0000
1000
0001
,
1000
0001
0010
0000
0100
0000
0010
0000
,
0001
0000
0100
0000
0010
0000
1000
0100
,
1000
0100
2000
0000
0000
0000
3200
0000
,
0000
0320
0000
0032
,
0000
0000
1003
1000
0000
0010
0000
1000
,
1000
0000
0001
0000
0100
0100
0000
0010
,
0000
0100
0100
0000
0001
0000
1000
1000
,
0000
0010
0000
1000
1000
0000
0001
0000
,
1000
0000
0000
0000
0000
0000
0000
0000
1000
0000
0000
0000
0000
0000
0000
0000
0000
0000
0000
0000
0000
0000
0000
0000
0010
0000
0000
0000
0000
0000
0000
0000
0000
0000
0000
0000
0000
0000
0000
0000
0010
0000
0000
0000
0000
0000
0000
0000
0200
0300
0000
0000
0000
0000
0000
0000
0000
0000
0000
0000
0000
0000
0000
0000
,
0002
0000
0023
0000
,
2030
0000
3200
0000
,
0302
0000
2003
0000
,
3001
0000
0000
0000
1000
0000
0000
0000
0001
0000
0000
1000
0000
0000
0010
0000
,
0000
0220
0000
0000
0330
0000
0000
0000
0000
0000
0000
0000
0000
0000
0000
0000
;

//--------------- dance-single - Fred-104 ----------------
#NOTES:
     dance-single:
     Fred-104:
     Medium:
     13:
     :
0000
0000
0000
0000
,
0000
0000
0000
0000
,
0000
0000
0000
0000
,
0000
0000
0000
0000
,
0000
0000
0000
0000
,
0000
0000
0000
0000
,
0000
0000
0000
0000
,
0000
0000
0000
0000
,
0000
0000
0000
0000
,
0110
0000
0000
0000
0010
0100
0000
0220
,
0330
0000
0001
0000
0000
0000
1000
0100
,
0000
0100
0010
0001
1000
0100
0001
0100
,
1000
0000
0001
0000
0000
0000
0010
0001
,
0000
2002
3003
0000
0100
0010
0001
0100
,
0010
1000
0001
0100
0100
0000
0010
0001
,
1000
0000
0100
0000
0020
0000
0000
0230
0000
0000
2300
0000
3001
0000
0100
0000
,
1000
0000
0010
0100
1001
0000
0100
1000
,
0010
0000
0100
0000
0002
0000
0000
2003
0000
0000
3002
0000
0013
0000
0100
0000
,
0010
0001
0100
0000
0110
0000
1001
0000
,
0010
0000
0000
0000
0000
0000
0000
0000
0100
0000
0000
0000
0000
0000
0000
0000
0002
0000
0000
0000
0000
0000
0000
0000
0000
0000
0000
0000
0203
0000
0000
0000
0000
0000
0000
0000
0000
0000
0000
0000
0320
0000
0000
0000
0000
0000
0000
0000
2030
3000
0000
0000
0000
0000
0000
0000
0200
0300
0000
0000
0000
0000
0000
0000
,
0020
0030
0000
0000
0000
0000
0000
0000
0002
0003
0000
0000
0000
0000
0000
0000
2000
3000
0000
0000
0000
0000
0000
0000
0002
0003
0000
0000
0000
0000
0000
0000
0200
0000
0000
0000
0000
0000
0000
0000
0000
0000
0000
0000
0000
0000
0000
0000
0301
0000
0000
0000
0000
0000
0000
0000
0000
0000
0000
0000
0000
0000
0000
0000
,
1001
0000
0000
0010
0000
0100
0000
0100
0000
0010
0000
0000
,
0100
0000
0000
0000
0000
0000
0000
0000
0000
0000
0000
0000
0000
0000
0000
0000
2002
3003
0000
0000
0000
0000
0000
0000
0000
0000
0000
0000
0000
0000
0000
0000
0100
0000
0000
0000
0000
0000
0000
0000
0010
0000
0000
0000
0000
0000
0000
0000
0001
0000
0000
0000
0000
0000
0000
0000
0100
0000
0000
0000
0000
0000
0000
0000
,
0010
0100
0001
1000
0100
1000
1000
0010
,
0200
0300
0000
0000
0000
0000
0000
0000
0020
0030
0000
0000
0000
0000
0000
0000
0200
0300
0000
0000
0000
0000
0000
0000
0000
0000
0000
0000
0000
0000
0000
0000
0001
0000
0000
0000
0000
0000
0000
0000
0010
0000
0000
0000
0000
0000
0000
0000
0001
0000
0000
0000
0000
0000
0000
0000
1000
0000
0000
0000
0000
0000
0000
0000
,
1000
0100
0001
0100
1000
0010
0100
0001
,
1000
0000
0100
0000
0010
0000
0000
0000
0110
0000
1000
0001
1000
0001
1000
0001
,
1000
0000
0000
0000
0001
1000
0001
1000
0001
0000
1000
0000
0100
0000
0100
0000
,
0200
0000
0000
0310
0000
0000
0001
0000
0000
1000
0000
0100
,
0000
0000
1000
0000
0000
0000
0001
0000
0000
0000
0000
0000
0011
0000
0000
0000
0000
0000
0010
0000
0000
0100
0000
0000
,
1000
0001
0100
0010
0100
0001
0000
0001
,
0000
1000
0000
0100
0000
1000
0000
1000
,
0000
0010
1000
0010
0100
0001
0000
1000
,
0000
0100
0000
0010
0001
1000
0100
0010
,
0100
1000
0001
0100
0010
0100
0000
0101
,
0000
1100
0000
0101
0000
0110
0000
1001
,
0000
0010
0100
1000
0100
0010
0000
0011
,
0000
1010
0000
0101
0000
1001
0000
0000
,
0001
0010
0000
0001
1000
0100
0010
0100
,
0000
1000
0020
0000
0100
0100
0130
0000
,
0010
0100
0000
1000
0100
0001
0100
1000
,
0000
0010
0100
0001
0001
0001
1000
0100
,
1000
0010
0000
0100
0100
1000
0100
0010
,
0000
0011
0000
1001
0000
2200
3300
0010
,
0001
0000
0000
0000
0000
0000
0000
0000
0200
0300
0000
0000
0000
0000
0000
0000
0001
0000
0000
0000
0000
0000
0000
0000
2000
3000
0000
0000
0000
0000
0000
0000
1000
0000
0000
0000
0000
0000
0000
0000
0020
0030
0000
0000
0000
0000
0000
0000
1000
0000
0000
0000
0000
0000
0000
0000
0002
0003
0000
0000
0000
0000
0000
0000
,
1000
0100
0010
0100
1000
0000
0000
0000
,
0001
1000
0000
2020
3030
0000
0100
0000
,
0000
0000
0001
0010
0000
0010
0100
0010
,
1000
0010
0001
1000
0001
0000
0101
0000
,
0000
0000
0100
1000
0000
2200
3300
0000
,
0010
0100
1000
0010
0100
0001
1000
0100
,
0020
0000
0130
0001
0000
1000
0001
0000
,
0100
0010
0000
1000
0010
0000
1000
0100
,
0010
0000
0001
0010
0000
0100
0010
0000
,
0001
0100
0000
1000
0100
0000
0001
0010
,
0100
0000
0010
0001
0000
0010
0100
0000
,
0010
1000
0000
0010
0100
0000
0001
1000
,
0100
0000
0010
0000
0002
0000
0000
0203
0000
0000
0320
0000
2030
0000
0000
3200
,
0000
0320
0031
1000
0100
0100
0000
0010
,
0100
0220
0000
0330
0001
0000
1000
0000
,
0100
0010
0000
0010
0001
0000
0001
1000
,
0100
0000
0010
0100
0000
0100
1000
0000
,
0001
0010
0000
0100
0010
0000
0001
1000
,
0001
0000
1000
0100
0000
0001
0100
0000
,
1000
0010
0000
0001
0010
0000
1000
0100
,
0010
0000
0000
0000
0001
0000
0000
0001
0000
0000
0001
0000
1000
0000
0000
1000
,
0000
0000
1000
0000
0100
0000
0000
0100
0000
0000
0100
0000
0010
0000
0000
0010
,
0000
0010
0001
0001
0000
1000
0000
0100
,
0010
0000
0210
0000
0001
0001
0000
1000
,
0000
1000
1300
0000
0120
0000
0100
0100
,
0000
0001
0000
1000
1030
0000
0001
0000
,
0100
0000
0000
0000
0000
0000
0000
0000
0010
0000
0000
0000
0000
0000
0000
0000
1000
0000
0000
0000
0000
0000
0000
0000
0100
0000
0000
0000
0000
0000
0000
0000
0010
0000
0000
0000
0000
0000
0000
0000
0100
0000
0000
0000
0000
0000
0000
0000
2002
3003
0000
0000
0000
0000
0000
0000
0000
0000
0000
0000
0000
0000
0000
0000
,
0001
0000
0010
0000
0100
1000
0100
0000
,
1000
0010
0100
0010
1000
0100
0001
0000
,
0100
0000
1000
0000
0010
0100
0001
0000
,
0010
0000
0100
0000
1000
0000
0001
0000
0100
0000
0000
0001
0000
0000
1000
0000
,
0000
2002
0000
0000
3003
0000
0000
0000
0000
0000
0000
0000
0000
0000
0000
0000
;

//--------------- dance-single - Fred-104 ----------------
#NOTES:
     dance-single:
     Fred-104:
     Hard:
     16:
     :
0000
0000
0000
0000
,
0000
0000
0000
0000
,
0000
0000
0000
0000
,
0000
0000
0000
0000
,
0000
0000
0000
0000
,
0000
0000
0000
0000
,
0000
0000
0000
0000
,
0000
0000
0000
0000
,
0000
0000
0000
0000
,
1000
0000
0000
0000
0100
0001
0000
0022
,
0033
0000
0001
0000
0000
0000
0100
1000
,
0000
0000
1010
0000
0000
0000
0010
0000
0100
0000
0001
0010
0100
1000
0001
0100
,
0001
0000
1001
0000
0000
0000
1000
0100
,
0000
0220
0330
0000
0001
0010
0100
1000
,
0001
0100
0001
0100
0010
1000
0100
0010
0001
0000
0000
0000
1000
0000
0000
0000
,
0001
0100
0010
1000
0001
0000
1000
0100
0000
0010
0100
0000
1000
0000
0100
0000
,
0020
0000
0031
0100
0020
0000
1030
0000
,
0001
0010
0100
1000
0001
0000
0100
0001
0000
1000
0100
0000
0010
0000
0100
0000
,
0001
0000
0100
0010
0100
0000
0000
0000
0110
0000
0000
0000
0001
0000
0000
0000
,
1000
0000
0000
0000
0100
0000
0000
0000
1000
0000
0000
0000
0010
0000
0000
0000
0100
0000
0000
0000
0000
0000
0000
0000
0001
0000
0000
0000
0100
0000
0000
0000
0000
0000
0000
0000
0100
0000
0000
0000
0010
0000
0000
0000
0000
0000
0000
0000
2000
3000
0000
0000
0000
0000
0000
0000
0200
0300
0000
0000
0000
0000
0000
0000
,
0002
0003
0000
0000
0000
0000
0000
0000
2000
3000
0000
0000
0000
0000
0000
0000
0020
0030
0000
0000
0000
0000
0000
0000
0002
0003
0000
0000
0000
0000
0000
0000
2000
3000
0000
0000
0000
0000
0000
0000
0000
0000
0000
0000
0000
0000
0000
0000
1001
0000
0000
0000
0000
0000
0000
0000
0000
0000
0000
0000
0000
0000
0000
0000
,
0100
0000
0000
0000
0000
0000
0001
0000
0000
0000
0100
0000
0000
0000
1000
0000
0000
0000
0010
0000
0000
0100
0000
0000
,
0101
0000
0000
0000
0000
0000
0000
0000
0000
0000
0000
0000
0000
0000
0000
0000
2200
3300
0000
0000
0000
0000
0000
0000
0000
0000
0000
0000
0000
0000
0000
0000
0110
0000
0000
0000
0000
0000
0000
0000
0000
0000
0000
0000
0000
0000
0000
0000
1000
0000
0000
0000
0100
0000
0000
0000
0010
0000
0000
0000
0001
0000
0000
0000
,
0010
0000
0001
0100
0000
0010
1000
0000
0001
0000
0100
0000
1000
0000
0001
0000
,
2000
3000
0000
0000
0000
0000
0000
0000
0020
0030
0000
0000
0000
0000
0000
0000
0200
0300
0000
0000
0000
0000
0000
0000
0000
0000
0000
0000
0000
0000
0000
0000
1001
0000
0000
0000
0000
0000
0000
0000
0000
0000
0000
0000
0000
0000
0000
0000
1000
0000
0000
0000
0010
0000
0000
0000
0100
0000
0000
0000
0001
0000
0000
0000
,
1000
0000
0100
0010
0000
0010
0001
0000
1000
0000
0100
0000
0001
0000
0100
0010
,
0100
0000
0000
0000
0000
0000
0000
0000
0010
0000
0000
0000
0000
0000
0000
0000
1001
0000
0000
0000
0000
0000
0000
0000
0000
0000
0000
0000
0000
0000
0000
0000
0220
0330
0000
0000
0000
0000
0000
0000
0020
0030
0000
0000
2000
3000
0000
0000
0002
0003
0000
0000
0200
0300
0000
0000
0020
0030
0000
0000
2000
3000
0000
0000
,
0002
0000
0000
0000
1003
0100
0010
0001
1000
0000
0010
0000
0100
0001
0100
0000
,
0020
0000
0000
0000
0000
0000
0000
0000
0000
0000
0000
0000
0130
0000
0000
0000
0000
0000
1000
0000
0000
0000
0000
0000
0001
0000
0000
1000
0000
0000
0010
0000
0000
0100
0000
0000
0001
0000
0000
0000
0000
0000
0000
0000
0100
0000
0000
0000
,
0000
0000
0100
0000
0000
0000
1000
0000
0000
0100
0000
0000
1000
0000
0000
0010
0000
0000
0100
0000
0000
0001
0000
0000
,
1000
0001
0100
0010
1000
0000
0200
0000
0000
0000
0310
0000
0000
0000
0002
0000
,
0000
0000
0000
0000
0000
0000
0000
0000
0103
0000
0000
0000
0000
0000
0000
0000
0000
0000
0000
0000
0000
0000
0000
0000
2000
0000
0000
0000
0000
0000
0000
0000
0000
0000
0000
0000
0000
0000
0000
0000
3100
0000
0000
0000
0000
0000
0000
0000
0000
0000
0000
0000
0000
0000
0000
0000
0002
0003
0000
0000
0000
0000
0000
0000
,
2000
3000
0000
0000
0000
0000
0000
0000
0010
0000
0000
0000
0100
0000
0000
0000
0010
0000
0000
0000
0000
0000
0000
0000
2000
0000
0000
0000
0000
0000
0000
0000
0000
0000
0000
0000
0000
0000
0000
0000
3100
0000
0000
0000
0000
0000
0000
0000
0000
0000
0000
0000
0000
0000
0000
0000
0002
0000
0000
0000
0000
0000
0000
0000
,
0000
0000
0103
0000
0000
0000
2000
0000
0000
0000
3010
1000
0001
0010
0100
0010
,
0001
1000
0010
1000
0001
0000
0020
0000
0000
0000
0031
0000
0000
0000
0020
0000
,
0000
0130
0000
0020
0000
1030
0000
0100
,
0000
0000
0010
0100
0010
0000
0011
0000
0000
0000
1010
0000
0000
0000
0001
0000
,
1000
1100
0000
0010
0100
2002
3003
0000
,
0001
0011
0000
0001
0100
1000
0100
0101
,
0000
0000
0001
0000
1001
0000
0000
0000
0001
1000
0001
0100
0010
0000
1000
0000
,
0100
1100
0000
0100
1000
0010
0100
0101
,
0000
0000
0001
0000
1000
0000
0001
0100
0010
0100
0001
0010
0100
1000
0010
0100
,
0001
1001
0000
1000
0010
1000
0001
0101
,
0000
0010
0100
1100
0000
2002
3003
0001
,
1000
0000
0000
0000
0000
0000
0000
0000
2020
3030
0000
0000
0000
0000
0000
0000
0001
0000
0000
0000
0000
0000
0000
0000
0022
0033
0000
0000
0000
0000
0000
0000
1000
0000
0000
0000
0000
0000
0000
0000
2200
3300
0000
0000
0000
0000
0000
0000
0001
0000
0000
0000
0000
0000
0000
0000
0202
0303
0000
0000
0000
0000
0000
0000
,
1000
0001
1000
0001
1000
0100
0010
0001
1000
0000
0000
0000
0000
0000
0000
0000
,
0010
0100
0000
2200
3300
0000
0001
0000
,
0000
0000
1000
0010
0000
0110
0000
0100
,
0001
0000
1000
0100
0010
0001
0010
0100
1000
0000
0000
0000
1100
0000
0000
0000
,
0000
0000
0001
0100
0000
2002
3003
0000
,
0010
0000
0100
0000
0010
0000
1000
0000
0001
0010
0100
1000
0001
0100
0010
1000
,
0001
0000
1000
0100
0010
0100
1000
0100
,
0010
0000
0100
0000
1000
0000
0100
0000
0010
0000
0100
0000
1000
0010
0100
0000
,
0001
0100
0010
0000
0100
0000
1000
0000
0100
0000
0001
0000
0100
0000
1000
0000
,
0100
0000
0001
0000
0100
0000
1000
0000
0100
0000
0001
0000
0100
0010
1000
0000
,
0001
1000
0010
0000
0100
0000
0010
0000
1000
0000
0010
0000
0100
0000
0010
0000
,
1000
0000
0000
0010
0000
0000
0100
0000
0000
0010
0000
0000
1000
0000
0000
0010
0000
0000
0100
0000
0000
0001
1000
0001
,
1000
0000
0001
0000
1000
0000
0100
0010
0000
0010
0001
0000
1000
0000
0010
0100
,
0000
0100
0001
0000
1000
0000
0001
0000
0100
0010
1000
0000
0000
0000
1000
0000
,
0001
0202
0000
0303
0001
0100
0010
1000
,
0001
0000
0010
0000
0100
0000
0010
0000
0001
0000
0100
0000
0010
0001
0010
0000
,
0100
0010
0001
0000
0100
0000
0010
0000
1000
0000
0100
0000
0001
0000
0100
0000
,
1000
0000
0010
0000
0001
0000
1000
0000
0010
0000
0100
0000
0010
0100
0010
0000
,
0001
0100
0010
0000
1000
0000
0010
0000
0001
0000
0010
0000
1000
0000
0010
0000
,
0001
0000
0000
0010
0000
0000
0100
0000
0000
0010
0000
0000
0001
0000
0000
0010
0000
0000
0100
0000
0000
0010
0100
0010
,
0100
0000
0010
0000
1000
0000
0001
0100
0000
0010
1000
0000
0001
0000
1000
0100
,
0000
0010
0001
1000
0001
0000
1000
0100
0000
1000
0010
0000
1000
0100
1000
0001
,
0100
0001
1000
0001
1000
0000
1100
0000
0000
0000
0101
0000
0000
0000
1010
0000
,
1001
0000
0011
0000
1010
0101
0000
1100
,
0000
0110
1001
0000
0110
0000
1010
1010
,
0000
0101
0000
1100
1100
0000
1001
0000
,
0100
0000
0000
0000
0000
0000
0000
0000
0100
0000
0000
0000
0000
0000
0000
0000
0001
0000
0000
0000
0010
0000
0000
0000
0100
0000
0000
0000
1000
0000
0000
0000
0010
0000
0000
0000
0100
0000
0000
0000
0001
0000
0000
0000
1000
0000
0000
0000
0002
0003
0000
0000
0000
0000
0000
0000
0000
0000
0000
0000
0000
0000
0000
0000
,
1000
0010
0100
0010
1000
0100
0001
0100
,
1000
0000
0001
0000
0100
0000
0010
1000
0001
1000
0100
0010
0001
0000
0100
0000
,
0010
0100
0001
1000
0010
0100
0100
0010
,
0100
0000
0010
0000
0001
0100
0010
1000
0002
0000
0000
0203
0000
0000
2300
0000
,
0000
0000
0000
3000
2002
0000
0000
0000
0000
0000
0000
0000
0000
0000
0000
0000
3003
0000
0000
0000
0000
0000
0000
0000
0000
0000
0000
0000
0000
0000
0000
0000
0000
0000
0000
0000
0000
0000
0000
0000
0000
0000
0000
0000
0000
0000
0000
0000
0000
0000
0000
0000
0000
0000
0000
0000
0000
0000
0000
0000
0000
0000
0000
0000
;

//--------------- dance-double - Fred-104 ----------------
#NOTES:
     dance-double:
     Fred-104:
     Easy:
     12:
     :
00000000
00000000
00000000
00000000
,
00000000
00000000
00000000
00000000
,
00000000
00000000
00000000
00000000
,
00000000
00000000
00000000
00000000
,
00000000
00000000
00000000
00000000
,
00000000
00000000
00000000
00000000
,
00000000
00000000
00000000
00000000
,
00000000
00000000
00000000
00000000
,
00000000
00000000
00000000
00000000
,
10000000
00000000
00000000
00000000
00100000
01000000
00000000
02000000
,
03000000
00000000
00010000
00000000
00000000
00000000
00001000
00000100
,
00000000
00000100
00000010
00000000
00000001
00000000
00000100
00000000
,
00000100
00000000
00000010
00000000
00000000
00000000
00010000
00001000
,
00000000
00002000
00003000
00000000
00001000
00000000
01000000
00000000
,
00100000
10000000
00100000
10000000
00100000
00000000
10000000
00000000
,
01000000
00000000
10000000
00100000
10000000
00000000
00010000
00000000
,
00010000
00100000
00001000
00000010
,
00001000
00000000
00000100
00000001
00000100
00000000
00000001
00000010
,
00000001
00000010
00000001
00000000
00001001
00000000
00000010
00000000
,
00001000
00000000
00000010
00000100
00000010
00000000
00002000
00000000
,
00023000
00032000
00023000
00031000
,
01000000
00000000
00000000
00100000
00000000
00100000
00000000
00100000
00000000
01000000
00000000
00000000
,
00100000
00000000
00000000
00000000
00000000
00000000
00000000
00000000
00000000
00000000
00000000
00000000
00000000
00000000
00000000
00000000
20020000
30030000
00000000
00000000
00000000
00000000
00000000
00000000
00000000
00000000
00000000
00000000
00000000
00000000
00000000
00000000
01000000
00000000
00000000
00000000
00000000
00000000
00000000
00000000
00000000
00000000
00000000
00000000
00000000
00000000
00000000
00000000
00010000
00000000
00000000
00000000
00000000
00000000
00000000
00000000
00000000
00000000
00000000
00000000
00000000
00000000
00000000
00000000
,
10000000
01000000
10000000
00000000
01000000
00000000
00010000
00000000
,
00001000
00100000
00001000
00010000
,
00000010
00001000
00000010
00000000
00000100
00000001
00000100
00000001
,
00000100
00000001
00000100
00000000
00000220
00000000
00000000
00000000
,
00000330
00000000
00000100
00000010
00000100
00000000
00000001
00000000
,
00000001
00000000
00000000
00001000
00000000
00000000
00000010
00000000
00000000
00010000
00000000
00001000
,
00000000
00001000
00000000
00010000
00000000
00000000
00001000
00000000
00000000
01000000
00000000
00000000
,
00100000
01000000
00200000
00000000
00000000
20300000
00000000
00000000
,
32000000
00000000
00000000
03200000
00000000
00000000
02300000
00000000
,
03020000
00000000
00032000
00000000
00000000
00003200
00000000
00000000
,
00000320
00000000
00000000
00000230
00000000
00000000
00000302
00000000
,
00000203
00000000
00000320
00000000
00000000
00000230
00000000
00000000
,
00000302
00000000
00000000
00002003
00000000
00000000
00003020
00000000
,
00002030
00000000
00023000
00000000
00000000
00230000
00000000
00000000
,
20300000
00000000
00000000
30020000
00000000
00030000
00000000
00000000
,
02000000
00000000
00000000
23000000
00000000
00000000
32000000
00000000
,
00000000
03020000
00000000
00000000
00031000
00000000
00011000
00000000
,
00020000
00000000
00000000
00030200
00000000
00000000
00000320
00000000
,
00000000
00000230
00000000
00000000
00000301
00000000
00001001
00000000
,
00000200
00000000
00000000
00000320
00000000
00000000
00000032
00000000
,
00000000
00000203
00000000
00001300
00000000
00022000
00033000
00000000
,
00010000
00000000
00000000
00000000
00000000
00000000
00000000
00000000
20000000
30000000
00000000
00000000
00000000
00000000
00000000
00000000
00100000
00000000
00000000
00000000
00000000
00000000
00000000
00000000
02000000
03000000
00000000
00000000
00000000
00000000
00000000
00000000
00010000
00000000
00000000
00000000
00000000
00000000
00000000
00000000
00200000
00300000
00000000
00000000
00000000
00000000
00000000
00000000
00001000
00000000
00000000
00000000
00000000
00000000
00000000
00000000
00020000
00030000
00000000
00000000
00000000
00000000
00000000
00000000
,
00000100
00000100
00000010
00000000
,
00000001
00001000
00000000
00002000
00003000
00000000
00000010
00000000
,
00000000
00000000
00010000
00001000
00000000
00001000
00010000
00000000
,
00001000
00000000
01000000
00010000
01000000
00000000
00100000
00000000
,
00000000
00000000
10000000
01000000
00000000
02000000
03000000
00000000
,
00100000
00000000
01000000
00000000
00010000
10000000
00010000
10000000
,
00010000
10000000
01000000
10000000
,
00100000
00000000
01000000
00000000
00010000
00000000
00100000
00001000
,
00100000
00001000
00010000
00000000
00001000
00000000
00000100
00000000
,
00000001
00000000
00001000
00000000
00000100
00000000
00000010
00000100
,
00000010
00000100
00001000
00000000
00000001
00000000
00000100
00000000
,
00001000
00000000
00010000
00000000
01000000
00000000
10000000
00010000
,
10000000
00010000
10000000
00000000
10100000
00000000
00010000
00000000
,
00110000
00000000
01000000
00000000
00010000
00001000
00000000
00010000
,
00001000
00020000
00000000
00030000
00000100
00000000
00001000
00000000
,
00000100
00000000
00000010
00000000
00000100
00000000
00000010
00000100
,
00000010
00000100
00000001
00000000
00000100
00000000
00001000
00000000
,
00000100
00000000
00010000
00000000
00001000
00000000
01000000
00100000
,
00010000
00100000
01000000
00000000
00100000
00000000
00010000
00000000
,
10000000
00000000
01000000
00000000
00010000
00000000
00001000
00010000
,
00001000
00100000
00001000
00000000
00011000
00000000
00000010
00000000
,
00001010
00000100
00000110
00000001
,
00001001
00000000
00000001
00000001
00000000
00001000
00000000
00000001
,
00000001
00000000
00000100
00000000
00000010
00000010
00000000
00010000
,
00000000
00000010
00000010
00000000
00010000
00000000
00001000
00001000
,
00000000
01000000
00000000
00001000
00001000
00000000
00010000
00000000
,
00100000
00000000
00000000
00000000
00000000
00000000
00000000
00000000
00000000
00000000
00000000
00000000
00000000
00000000
00000000
00000000
01000000
00000000
00000000
00000000
00000000
00000000
00000000
00000000
00000000
00000000
00000000
00000000
00000000
00000000
00000000
00000000
10000000
00000000
00000000
00000000
00000000
00000000
00000000
00000000
00000000
00000000
00000000
00000000
00000000
00000000
00000000
00000000
20020000
30030000
00000000
00000000
00000000
00000000
00000000
00000000
00000000
00000000
00000000
00000000
00000000
00000000
00000000
00000000
,
02000000
00000000
03020000
00000000
,
00032000
00003200
00002300
00003020
,
00000230
00000000
00000302
00000000
,
00002003
00000000
00000000
00000000
00003020
00000000
00000000
00000000
00000130
00000000
00000000
00000100
00000000
00000000
00000010
00000000
,
00000000
00000220
00000000
00000000
00000330
00000000
00000000
00000000
00000000
00000000
00000000
00000000
00000000
00000000
00000000
00000000
;

//--------------- dance-double - Fred-104 ----------------
#NOTES:
     dance-double:
     Fred-104:
     Medium:
     14:
     :
00000000
00000000
00000000
00000000
,
00000000
00000000
00000000
00000000
,
00000000
00000000
00000000
00000000
,
00000000
00000000
00000000
00000000
,
00000000
00000000
00000000
00000000
,
00000000
00000000
00000000
00000000
,
00000000
00000000
00000000
00000000
,
00000000
00000000
00000000
00000000
,
00000000
00000000
00000000
00000000
,
01100000
00000000
00000000
00000000
00100000
10000000
00000000
20020000
,
30030000
00000000
01000000
00000000
00000000
00000000
00010000
01000000
,
00000000
01000000
00010000
00001000
00010000
00100000
00001000
00010000
,
00001000
00000000
00010010
00000000
00000000
00000000
00000010
00000100
,
00000000
00000220
00000330
00000000
00000001
00000010
00000100
00001000
,
00000010
00010000
00001000
00100000
00010000
00000000
10000000
00000000
,
00100000
00000000
01000000
00000000
20000000
00000000
00000000
30020000
00000000
00000000
20030000
00000000
30100000
00000000
01000000
00000000
,
00020000
00000000
00130000
01000000
00200000
00000000
00301000
00000000
,
00000010
00000000
00000100
00000000
00000002
00000000
00000000
00002003
00000000
00000000
00003002
00000000
00000103
00000000
00000010
00000000
,
00001000
00000100
00000010
00000000
00001001
00000000
00000100
00000000
,
00000010
00000000
00000000
00000000
00000000
00000000
00000000
00000000
00010000
00000000
00000000
00000000
00000000
00000000
00000000
00000000
00002000
00000000
00000000
00000000
00000000
00000000
00000000
00000000
00000000
00000000
00000000
00000000
00023000
00000000
00000000
00000000
00000000
00000000
00000000
00000000
00000000
00000000
00000000
00000000
00032000
00000000
00000000
00000000
00000000
00000000
00000000
00000000
02003000
03000000
00000000
00000000
00000000
00000000
00000000
00000000
00020000
00030000
00000000
00000000
00000000
00000000
00000000
00000000
,
02000000
03000000
00000000
00000000
00000000
00000000
00000000
00000000
00020000
00030000
00000000
00000000
00000000
00000000
00000000
00000000
02000000
03000000
00000000
00000000
00000000
00000000
00000000
00000000
00200000
00300000
00000000
00000000
00000000
00000000
00000000
00000000
20000000
00000000
00000000
00000000
00000000
00000000
00000000
00000000
00000000
00000000
00000000
00000000
00000000
00000000
00000000
00000000
31000000
00000000
00000000
00000000
00000000
00000000
00000000
00000000
00000000
00000000
00000000
00000000
00000000
00000000
00000000
00000000
,
01100000
00000000
00000000
00010000
00000000
00001000
00000000
00000100
00000000
00000001
00000000
00000000
,
00001000
00000000
00000000
00000000
00000000
00000000
00000000
00000000
00000000
00000000
00000000
00000000
00000000
00000000
00000000
00000000
00002002
00003003
00000000
00000000
00000000
00000000
00000000
00000000
00000000
00000000
00000000
00000000
00000000
00000000
00000000
00000000
00000010
00000000
00000000
00000000
00000000
00000000
00000000
00000000
00000000
00000000
00000000
00000000
00000000
00000000
00000000
00000000
00000100
00000000
00000000
00000000
00000000
00000000
00000000
00000000
00000010
00000000
00000000
00000000
00000000
00000000
00000000
00000000
,
00000002
00000000
00000000
00002003
00000000
00000000
00003020
00000000
00010030
00000000
00000000
00000000
00001000
00000000
00000000
00000000
,
00020000
00030000
00000000
00000000
00000000
00000000
00000000
00000000
00200000
00300000
00000000
00000000
00000000
00000000
00000000
00000000
02000000
03000000
00000000
00000000
00000000
00000000
00000000
00000000
00000000
00000000
00000000
00000000
00000000
00000000
00000000
00000000
10000000
00000000
00000000
00000000
00000000
00000000
00000000
00000000
01000000
00000000
00000000
00000000
00000000
00000000
00000000
00000000
00010000
00000000
00000000
00000000
00000000
00000000
00000000
00000000
01000000
00000000
00000000
00000000
00000000
00000000
00000000
00000000
,
00200000
00000000
00000000
00302000
00000000
00000000
00023000
00000000
00030100
00000000
00001000
00000000
00000100
00000000
00000010
00000000
,
00000001
00000000
00000000
00000000
00000110
00000000
00000000
00000000
00001001
00000000
00000100
00000010
00000100
00000010
00000100
00000010
,
00000100
00000000
00000000
00000000
00000001
00001000
00000001
00001000
00000001
00000000
00000100
00000000
00000010
00000000
00000100
00000000
,
00002000
00000000
00000000
00103000
00000000
00000000
01000000
00000000
00000000
00100000
00000000
00100000
,
00000000
00000000
10000000
00000000
00000000
00000000
01000000
00000000
00000000
00000000
00000000
00000000
00010000
00000000
00000000
00000000
00000000
00000000
00001000
00000000
00000000
00000100
00000000
00000000
,
00000010
00000000
00000001
00000002
00000000
00000203
00000000
00002300
,
00000000
00003020
00000000
00020030
00000000
00032000
00000000
00023000
,
00000000
00130000
01000000
20000000
00000000
30200000
00000000
02300000
,
00000000
03020000
00000000
20030000
00000000
31000000
00010000
01000000
,
00010000
00001000
00010000
00002000
00000000
00003020
00000000
00000032
,
00000000
00000203
00000000
00002300
00000000
00023000
00000000
00230000
,
00000000
01300000
00100000
02000000
00000000
23000000
00000000
30020000
,
00000000
02030000
00000000
03100000
00000000
10010000
00000000
00000000
,
00100000
01000000
00000000
10000000
01000000
00100000
01000000
10000000
,
00000000
00010000
01000000
00001000
00010000
00000000
00011000
00000000
,
00000100
00001000
00000000
00000001
00000100
00001000
00000100
00000001
,
00000000
00000100
00000010
00001000
00010000
00001000
00010000
00001000
,
00100000
00001000
00000000
00001000
01000000
00010000
00100000
00001000
,
00000000
00011000
00000000
00110000
00000000
02200000
03300000
01000000
,
10000000
00000000
00000000
00000000
00000000
00000000
00000000
00000000
02000000
03000000
00000000
00000000
00000000
00000000
00000000
00000000
00100000
00000000
00000000
00000000
00000000
00000000
00000000
00000000
00020000
00030000
00000000
00000000
00000000
00000000
00000000
00000000
00001000
00000000
00000000
00000000
00000000
00000000
00000000
00000000
00000200
00000300
00000000
00000000
00000000
00000000
00000000
00000000
00000010
00000000
00000000
00000000
00000000
00000000
00000000
00000000
00000002
00000003
00000000
00000000
00000000
00000000
00000000
00000000
,
00000100
00000010
00000100
00000010
00001000
00000000
00000000
00000000
,
00000001
00001000
00000000
00002020
00003030
00000000
00000010
00000000
,
00000000
00000000
00010000
00001000
00000000
00001000
00010000
00100000
,
00010000
01000000
00100000
10000000
00100000
00000000
01000000
00000000
,
00000000
00000000
00100000
01000000
00000000
22000000
33000000
00000000
,
00100000
01000000
00010000
00100000
00001000
00000010
00001000
00000100
,
00000001
00000000
00010000
00001000
00000100
00001000
00010000
00000000
,
00000100
00001000
00000000
00000010
00000100
00000000
00000001
00000010
,
00000200
00000000
00000301
00000100
00000010
00000100
00000001
00000000
,
00000010
00001000
00000000
00010000
00001000
00000000
00010000
00001000
,
02000000
00000000
03010000
00100000
01000000
10000000
00100000
00000000
,
01000000
00100000
00000000
01000000
00010000
00000000
00001000
00010000
,
00100000
00000000
01000000
00000000
00200000
00000000
00000000
20300000
00000000
00000000
32000000
00000000
03200000
00000000
00000000
02300000
,
00000000
23000000
30100000
01000000
00010000
00100000
00000000
00001000
,
00010000
00022000
00000000
00033000
00001000
00000100
00000010
00000000
,
00000001
00000100
00001000
00000100
00000001
00000000
00001000
00000010
,
00010000
00001000
00010000
00100000
00010000
00001000
01000000
00000000
,
00010000
00100000
01000000
10000000
00100000
00000000
01000000
00010000
,
10000000
01000000
00010000
00001000
00010000
00001000
00000100
00000000
,
00000001
00000100
00000001
00000100
00001000
00000000
00000100
00000010
,
00000001
00000000
00000100
00000000
00000020
00000000
00000000
00000032
00000000
00000000
00002003
00000000
00003020
00000000
00000000
00020030
,
00000000
00000000
00032000
00000000
02003000
00000000
00000000
03020000
00000000
00000000
00230000
00000000
01300000
00000000
10000000
00000000
,
01000000
00100000
01000000
01100000
00000000
10000000
00000000
00010000
,
01010000
00000000
00001000
00000000
00010000
00010100
00000000
00000010
,
00000000
00000100
00000110
00000000
00000001
00000000
00001000
00001100
,
00000000
00000001
00000000
00000100
00000101
00000000
00000001
00000000
,
00001000
00000000
00000000
00000000
00000000
00000000
00000000
00000000
00010000
00000000
00000000
00000000
00000000
00000000
00000000
00000000
00001000
00000000
00000000
00000000
00000000
00000000
00000000
00000000
00000100
00000000
00000000
00000000
00000000
00000000
00000000
00000000
00010000
00000000
00000000
00000000
00000000
00000000
00000000
00000000
01000000
00000000
00000000
00000000
00000000
00000000
00000000
00000000
00200000
00300000
00000000
00000000
00000000
00000000
00000000
00000000
00000000
00000000
00000000
00000000
00000000
00000000
00000000
00000000
,
00000100
00000001
00001000
00000000
00000001
00000010
00000100
00000000
,
00001000
00000010
00001000
00010000
00100000
00010000
00001000
00000000
,
00010000
00001000
00100000
00000000
00001000
01000000
00100000
00000000
,
00010000
00000000
00100000
00000000
01000000
00000000
10000000
00000000
00100000
00000000
00000000
01000000
00000000
00000000
00010000
00000000
,
00000000
00022000
00000000
00000000
00033000
00000000
00000000
00000000
00000000
00000000
00000000
00000000
00000000
00000000
00000000
00000000
;

//--------------- dance-double - Fred-104 ----------------
#NOTES:
     dance-double:
     Fred-104:
     Hard:
     16:
     :
00000000
00000000
00000000
00000000
,
00000000
00000000
00000000
00000000
,
00000000
00000000
00000000
00000000
,
00000000
00000000
00000000
00000000
,
00000000
00000000
00000000
00000000
,
00000000
00000000
00000000
00000000
,
00000000
00000000
00000000
00000000
,
00000000
00000000
00000000
00000000
,
00000000
00000000
00000000
00000000
,
00100000
00000000
00000000
00000000
00010000
00001000
00000000
00022000
,
00033000
00000000
00000010
00000000
00000000
00000000
00000100
00000001
,
00000000
00000000
00000101
00000000
00000000
00000000
00000100
00000000
00000010
00000000
00001000
00000100
00010000
00000000
00001000
00010000
,
00001000
00000000
10010000
00000000
00000000
00000000
00100000
01000000
,
00000000
22000000
33000000
00000000
00100000
01000000
00100000
01000000
,
00010000
00100000
00010000
00100000
00010000
00100000
00001000
00010000
00001000
00000000
00000000
00000000
00011000
00000000
00000000
00000000
,
00001000
00010000
00001000
00010000
00001000
00000000
00000100
00000010
00000000
00000100
00000010
00000000
00000001
00000000
00000100
00000000
,
00002000
00000000
00013000
01000000
20000000
00000000
30010000
00000000
,
00010000
10000000
00010000
10000000
00010000
00000000
01000000
00100000
00000000
00100000
01000000
00000000
00010000
00000000
00001000
00000000
,
00000100
00000000
00000010
00000100
00000010
00000000
00000100
00000000
00000110
00000000
00000000
00000000
00001001
00000000
00000000
00000000
,
00001000
00000000
00000000
00000000
00000010
00000000
00000000
00000000
00001000
00000000
00000000
00000000
00000010
00000000
00000000
00000000
00001000
00000000
00000000
00000000
00000000
00000000
00000000
00000000
00000001
00000000
00000000
00000000
00001000
00000000
00000000
00000000
00000000
00000000
00000000
00000000
00001000
00000000
00000000
00000000
00000001
00000000
00000000
00000000
00000000
00000000
00000000
00000000
00000020
00000030
00000000
00000000
00000000
00000000
00000000
00000000
00000002
00000003
00000000
00000000
00000000
00000000
00000000
00000000
,
00000200
00000300
00000000
00000000
00000000
00000000
00000000
00000000
00002000
00003000
00000000
00000000
00000000
00000000
00000000
00000000
00020000
00030000
00000000
00000000
00000000
00000000
00000000
00000000
00200000
00300000
00000000
00000000
00000000
00000000
00000000
00000000
20000000
30000000
00000000
00000000
00000000
00000000
00000000
00000000
00000000
00000000
00000000
00000000
00000000
00000000
00000000
00000000
10010000
00000000
00000000
00000000
00000000
00000000
00000000
00000000
00000000
00000000
00000000
00000000
00000000
00000000
00000000
00000000
,
01100000
00000000
00000000
00000000
00000000
00000000
00100000
00000000
00000000
00000000
00010000
00000000
00000000
00000000
00001000
00000000
00000000
00000000
00000010
00000000
00000000
00000100
00000000
00000000
,
00000001
00000000
00000000
00000000
00000000
00000000
00000000
00000000
00000000
00000000
00000000
00000000
00000000
00000000
00000000
00000000
00000220
00000330
00000000
00000000
00000000
00000000
00000000
00000000
00000000
00000000
00000000
00000000
00000000
00000000
00000000
00000000
00001001
00000000
00000000
00000000
00000000
00000000
00000000
00000000
00000000
00000000
00000000
00000000
00000000
00000000
00000000
00000000
00000010
00000000
00000000
00000000
00001000
00000000
00000000
00000000
00000001
00000000
00000000
00000000
00001000
00000000
00000000
00000000
,
00000100
00000000
00000010
00000100
00000000
00000010
00000100
00000000
00001000
00000000
00010000
00000000
01000000
00000000
00100000
00000000
,
02000000
03000000
00000000
00000000
00000000
00000000
00000000
00000000
00020000
00030000
00000000
00000000
00000000
00000000
00000000
00000000
20000000
30000000
00000000
00000000
00000000
00000000
00000000
00000000
00000000
00000000
00000000
00000000
00000000
00000000
00000000
00000000
10100000
00000000
00000000
00000000
00000000
00000000
00000000
00000000
00000000
00000000
00000000
00000000
00000000
00000000
00000000
00000000
00100000
00000000
00000000
00000000
10000000
00000000
00000000
00000000
00010000
00000000
00000000
00000000
10000000
00000000
00000000
00000000
,
01000000
00000000
00100000
01000000
00000000
00100000
01000000
00000000
00010000
00000000
00001000
00000000
00010000
00000000
00000100
00001000
,
00000010
00000000
00000000
00000000
00000000
00000000
00000000
00000000
00000100
00000000
00000000
00000000
00000000
00000000
00000000
00000000
00000101
00000000
00000000
00000000
00000000
00000000
00000000
00000000
00000000
00000000
00000000
00000000
00000000
00000000
00000000
00000000
00002002
00003003
00000000
00000000
00000000
00000000
00000000
00000000
00000020
00000030
00000000
00000000
00000200
00000300
00000000
00000000
00000020
00000030
00000000
00000000
00000200
00000300
00000000
00000000
00000020
00000030
00000000
00000000
00000200
00000300
00000000
00000000
,
00000020
00000030
00000000
00000000
00000000
00000000
00000000
00000000
00000000
00000000
00000000
00000000
00000000
00000000
00000000
00000000
00001000
00000000
00000000
00000000
00000100
00000000
00000000
00000000
00001000
00000000
00000000
00000000
00000100
00000000
00000000
00000000
00001000
00000000
00000000
00000000
00000000
00000000
00000000
00000000
00010000
00000000
00000000
00000000
00000000
00000000
00000000
00000000
00001000
00000000
00000000
00000000
00000000
00000000
00000000
00000000
00010000
00000000
00000000
00000000
00000000
00000000
00000000
00000000
,
02000000
00000000
00000000
00000000
00000000
00000000
03100000
00000000
00000000
10000000
00000000
00000000
00100000
00000000
00000000
01000000
00000000
00000000
00010000
00000000
00000000
00000000
00010000
00000000
,
00000000
00000000
00010000
00000000
00000000
00000000
00010000
00000000
00000000
00001000
00000000
00000000
00000100
00000000
00000000
00000001
00000000
00000000
00001000
00000000
00000000
00000000
00000000
00000000
,
00000001
00001000
00000001
00001000
00000010
00000000
00002000
00000000
00000000
00000000
00013000
00000000
00000000
00000000
00200000
00000000
,
00000000
00000000
00000000
00000000
00000000
00000000
00000000
00000000
00310000
00000000
00000000
00000000
00000000
00000000
00000000
00000000
00000000
00000000
00000000
00000000
00000000
00000000
00000000
00000000
00002000
00000000
00000000
00000000
00000000
00000000
00000000
00000000
00000000
00000000
00000000
00000000
00000000
00000000
00000000
00000000
00003010
00000000
00000000
00000000
00000000
00000000
00000000
00000000
00000000
00000000
00000000
00000000
00000000
00000000
00000000
00000000
00000200
00000300
00000000
00000000
00000000
00000000
00000000
00000000
,
00020000
00030000
00000000
00000000
00000000
00000000
00000000
00000000
00001000
00000000
00000000
00000000
00010000
00000000
00000000
00000000
00001000
00000000
00000000
00000000
00000000
00000000
00000000
00000000
00020000
00000000
00000000
00000000
00000000
00000000
00000000
00000000
00000000
00000000
00000000
00000000
00000000
00000000
00000000
00000000
01030000
00000000
00000000
00000000
00000000
00000000
00000000
00000000
00000000
00000000
00000000
00000000
00000000
00000000
00000000
00000000
00020000
00000000
00000000
00000000
00000000
00000000
00000000
00000000
,
00000000
00000000
00031000
00000000
00000000
00000000
00020000
00000000
00000000
00000000
00031000
00010000
00000100
00001000
00000100
00001000
,
00000010
00000100
00000010
00000100
00000010
00000000
00000002
00000000
00000000
00000000
00000023
00000000
00000000
00000000
00002030
00000000
,
00000000
00023000
00000000
00230000
00000000
20300000
00000000
32000000
,
00000000
00000000
03100000
00010000
00100000
00000000
00101000
00000000
00000000
00000000
00010010
00000000
00000000
00000000
00001010
00000000
,
00000000
00000110
00000000
00001001
00000000
00000220
00000330
00000000
,
00000010
00000110
00000000
00000010
00010000
00001000
00010000
00011000
,
00000000
00000000
01000000
00000000
10010000
00000000
00000000
00000000
01000000
00100000
01000000
00100000
01000000
00000000
00010000
00000000
,
10000000
11000000
00000000
10000000
01000000
00010000
00001000
00011000
,
00000000
00000000
00001000
00000000
00000100
00000000
00000001
00001000
00000001
00001000
00000100
00000010
00000100
00000010
00000001
00000000
,
00001000
00001001
00000000
00000001
00000010
00001000
00010000
00011000
,
00000000
00110000
00000000
10100000
00000000
20020000
30030000
00010000
,
00001000
00000000
00000000
00000000
00000000
00000000
00000000
00000000
02002000
03003000
00000000
00000000
00000000
00000000
00000000
00000000
00010000
00000000
00000000
00000000
00000000
00000000
00000000
00000000
00020200
00030300
00000000
00000000
00000000
00000000
00000000
00000000
00001000
00000000
00000000
00000000
00000000
00000000
00000000
00000000
00202000
00303000
00000000
00000000
00000000
00000000
00000000
00000000
00010000
00000000
00000000
00000000
00000000
00000000
00000000
00000000
00020020
00030030
00000000
00000000
00000000
00000000
00000000
00000000
,
00001000
00010000
00000010
00001000
00000010
00000100
00000001
00000100
00000001
00000000
00000000
00000000
00000000
00000000
00000000
00000000
,
00000010
00000100
00000000
00000220
00000330
00000000
00000100
00000000
,
00000000
00000000
00000010
00010000
00000000
00010000
00001000
00100000
,
00010000
00000000
01000000
00100000
10000000
00000000
00010000
10000000
00010000
00000000
00000000
00000000
10000000
00000000
00000000
00000000
,
00000000
00000000
01000000
10000000
00000000
20020000
30030000
00000000
,
01000000
00000000
00010000
00000000
00100000
00000000
00001000
00000000
00010000
00000100
00010000
00000100
00001000
00000100
00001000
00000100
,
00000010
00000000
00010000
01000000
10000000
01000000
00010000
01000000
,
00100000
01000000
10000000
01000000
00010000
00001000
00000010
00000100
,
00000001
00001000
00000001
00000000
00000010
00000000
00000100
00000000
00000001
00000000
00000100
00000000
00000010
00000000
00000100
00000000
,
00001000
00000100
00010000
00001000
01000000
00010000
00100000
01000000
,
10000000
00010000
10000000
00000000
01000000
00000000
10000000
00000000
01000000
00000000
00010000
00000000
01000000
00000000
00100000
00000000
,
00001000
00000000
00000000
00010000
00000000
00000000
00001000
00000000
00000000
00000010
00000000
00000000
00000001
00000000
00000000
00000010
00000000
00000000
00001000
00000000
00000000
00000001
00001000
00000001
,
00001000
00000000
00000100
00000000
00000010
00000000
00000100
00000010
00000000
00000100
00000010
00000000
00001000
00000000
00010000
00001000
,
00000000
00010000
00001000
00000000
00100000
00000000
00010000
00000000
10000000
01000000
10000000
00000000
00000000
00000000
01000000
00000000
,
00100000
02200000
00000000
03300000
00010000
00100000
00010000
00100000
,
10000000
00000000
00100000
00000000
00010000
00000000
00001000
00000000
00000010
00000000
00000001
00000000
00000010
00001000
00000001
00000000
,
00001000
00000001
00000100
00000000
00000010
00000000
00001000
00000000
00010000
00000000
00001000
00000000
00000100
00000000
00000010
00000000
,
00000001
00000000
00000100
00000000
00001000
00000000
00010000
00000000
01000000
00000000
10000000
00000000
01000000
00100000
01000000
00000000
,
00100000
01000000
00010000
00000000
10000000
00000000
01000000
00000000
00100000
00000000
00010000
00000000
00001000
00000000
00000100
00000000
,
00000010
00000000
00000000
00000001
00000000
00000000
00000100
00000000
00000000
00001000
00000000
00000000
00010000
00000000
00000000
01000000
00000000
00000000
00100000
00000000
00000000
10000000
00010000
10000000
,
00010000
00000000
10000000
00000000
00010000
00000000
10000000
01000000
00000000
01000000
00100000
00000000
00001000
00000000
00010000
00000100
,
00000000
00000100
00001000
00000000
00000010
00000000
00000100
00000001
00000000
00000001
00001000
00000000
00000001
00000100
00000001
00000100
,
00000010
00001000
00000010
00001000
00000100
00000000
00010100
00000000
00000000
00000000
00011000
00000000
00000000
00000000
00100000
00000000
,
01010000
00000000
11000000
00000000
00010000
00110000
00000000
00101000
,
00000000
00010000
00011000
00000000
00010100
00000000
00001000
00001100
,
00000000
00000101
00000000
00000100
00000110
00000000
00001001
00000000
,
00000100
00000000
00000000
00000000
00000000
00000000
00000000
00000000
00010000
00000000
00000000
00000000
00000000
00000000
00000000
00000000
00001000
00000000
00000000
00000000
00010000
00000000
00000000
00000000
00001000
00000000
00000000
00000000
00010000
00000000
00000000
00000000
00001000
00000000
00000000
00000000
00100000
00000000
00000000
00000000
00001000
00000000
00000000
00000000
00100000
00000000
00000000
00000000
00020000
00030000
00000000
00000000
00000000
00000000
00000000
00000000
00000000
00000000
00000000
00000000
00000000
00000000
00000000
00000000
,
00100000
01000000
00100000
01000000
00100000
10000000
00010000
01000000
,
00010000
00000000
00001000
00000000
00000100
00000000
00001000
00000100
00000010
00000001
00001000
00000001
00000100
00000000
00000010
00000000
,
00000100
00000001
00000010
00000100
00001000
00010000
01000000
00100000
,
10000000
00000000
01000000
00000000
00100000
00010000
10000000
00010000
10000000
00000000
00000000
01000000
00000000
00000000
00010000
00000000
,
00000000
00022000
00000000
00000000
00033000
00000000
00000000
00000000
00000000
00000000
00000000
00000000
00000000
00000000
00000000
00000000
;
