#VERSION:0.83;
#TITLE:Chaotic Ørder;
#ARTIST:TAG VS Kai;
#TITLETRANSLIT:Chaotic Order;
#BANNER:Chaotic Order.png;
#BACKGROUND:Chaotic Order-bg.png;
#CDTITLE:./CDTitles/CHUNITHM SUN PLUS.png;
#MUSIC:Chaotic Order.ogg;
#SAMPLESTART:100.357;
#SAMPLELENGTH:15;
#BPMS:0=165;
#BGSTAGE:30;

//--------------- dance-single - Fred-104 ----------------
#NOTEDATA:;
#STEPSTYPE:dance-single;
#DESCRIPTION:Fred-104;
#DIFFICULTY:Beginner;
#METER:7;
#CREDIT:Fred-104;
#NOTES:
0000
0000
0000
0000
,
0000
0000
0000
0000
,
0000
0000
0000
0000
,
0000
0000
0000
0000
,
0000
0000
0000
0000
,
1000
0000
0000
0000
,
0001
0000
0000
0000
,
1000
0000
0000
0000
,
0001
0000
0000
0000
,
1000
0000
1000
0100
,
0001
0000
0001
0100
,
1000
0000
1000
0010
,
0001
0000
0001
0010
,
1000
0000
0100
0010
,
0001
0000
0100
0010
,
1000
0000
0001
1000
,
0001
0100
0010
1000
,
0002
0000
2003
0000
,
3002
2003
3002
2003
,
3001
0000
0100
0000
,
0010
0000
1000
1000
,
1000
0000
0100
0000
,
0010
0000
0100
0100
,
0100
0000
1000
0000
,
0001
0000
0010
0010
,
0010
0000
0001
0000
,
1000
0000
0000
2002
0000
0000
3003
0000
,
0002
0000
0000
1003
,
0010
1000
0100
0010
,
0001
0100
0001
0100
,
1000
0010
1000
0010
,
0002
0000
1003
0001
,
0100
0010
1000
0100
,
1000
0100
1000
0100
,
0001
0010
0001
0010
,
2000
0000
3001
0100
,
0002
0000
0013
0100
,
2000
0000
3010
0100
,
0002
0000
1003
0001
,
0200
0000
0301
0010
,
2000
0000
3100
0001
,
1000
0100
0001
0010
,
2020
0000
0000
3030
,
0001
0001
1000
1000
,
0001
0001
1000
1000
,
0010
0010
0100
0100
,
0010
0010
0100
0100
,
0001
0100
0110
0000
,
1000
0100
0110
0000
,
0001
0010
0001
0100
,
0001
1000
0001
1000
,
2002
0000
0000
0000
,
0000
0000
0000
0000
,
3003
0000
0000
0000
,
0000
0000
0000
0000
,
1000
0000
0010
0001
,
1000
0000
0100
0001
,
1000
1000
0001
0001
,
0100
0010
0100
0010
,
1000
0100
1000
0000
,
0001
0100
0001
0000
,
1000
0010
1000
0000
,
0001
0010
0001
0000
,
1000
0000
0010
0000
,
0001
0000
0100
0000
,
1000
0100
0010
0000
,
0001
0100
0010
1001
,
0000
0000
0000
0000
,
2002
0000
0000
3003
,
1000
0010
2000
3000
,
0100
1000
0010
1000
,
0001
1000
0002
0003
,
0100
0010
0100
0010
,
0100
0001
2000
3000
,
0001
0010
0100
1000
,
0001
0001
1000
1000
,
0001
0000
0000
2002
0000
0000
3003
0000
,
1001
0000
0001
0100
,
0110
0000
1000
0100
,
1001
0000
0001
1000
,
1001
0000
0110
0000
,
0001
0100
0001
0100
,
0001
0010
0001
0010
,
0100
1000
0010
1000
,
0001
0000
0000
1001
0000
0000
1000
0000
,
2002
3003
1000
0100
,
2000
0000
3010
1000
,
0001
0100
0001
0010
,
0100
1000
0010
1000
,
2002
0000
3003
0001
,
1000
0100
1000
0100
,
0001
0010
0001
0010
,
1000
0001
1000
0001
,
1000
0000
0000
1100
0000
0000
0001
0000
,
0000
0022
0000
0000
0000
0000
0033
0000
,
0002
0000
0000
0000
,
2000
0000
0000
3003
,
1000
0001
2002
0000
,
0000
0000
0000
0000
,
0000
0000
3003
0000
;

//--------------- dance-single - Fred-104 ----------------
#NOTEDATA:;
#STEPSTYPE:dance-single;
#DESCRIPTION:Fred-104;
#DIFFICULTY:Easy;
#METER:10;
#CREDIT:Fred-104;
#NOTES:
0000
0000
0000
0000
,
0000
0000
0000
0000
,
0000
0000
0000
0000
,
0000
0000
0000
0000
,
0000
0000
0000
0000
,
1000
0000
0010
0000
,
0100
0000
0001
1000
,
0001
0100
0001
0000
0010
0000
0100
0000
,
1000
0000
0000
0010
0000
0000
0110
0000
0000
0000
0000
0000
1001
0000
0000
0000
,
0001
0000
0010
0000
0001
1000
0010
0000
,
0100
0000
0010
0000
1000
0010
0100
0000
,
0001
0000
1000
0000
0100
0010
0001
0000
,
1000
0000
0001
0000
0100
0000
0000
0010
0000
0000
0100
0000
0001
0000
0000
0000
,
1000
0000
0001
0000
0010
0001
0100
0000
,
0010
0000
0100
0000
0001
0010
0100
0000
,
1000
0000
0010
0000
0100
0001
1000
0000
,
0001
0000
0010
0000
0100
0000
0000
1000
0000
0000
0001
0000
1000
0000
0000
0000
,
0001
0100
0001
0000
1000
0010
1000
0000
,
0001
0000
0000
0001
0000
0000
1000
0000
0000
1000
0000
0000
0001
0000
1000
0000
,
0001
0000
0100
0000
0010
0010
0000
1000
,
0000
0100
0200
0000
2300
0000
3002
0000
,
0013
0000
0001
0000
0100
0100
0000
0010
,
0000
1000
2000
0000
3200
0000
2300
0000
,
3010
0000
1000
0000
0100
0100
0000
0010
,
0000
0001
0100
0000
0001
0010
0001
0000
,
0200
0000
0320
0000
1030
1000
0000
0010
,
0100
0000
0000
0001
0000
0000
2002
0000
0000
0000
0000
0000
3003
0000
0000
0000
,
2000
0000
3010
0100
,
0010
0000
0000
1000
0000
0000
0200
0000
0000
0000
0310
0000
0100
0000
0000
0000
,
1000
0010
1000
0100
,
0010
0000
0001
0000
0100
0010
0100
0000
,
0002
0000
1003
0010
,
1000
0000
0000
0100
0000
0000
2000
0000
0000
0000
3001
0000
0100
0000
0000
0000
,
0001
0010
0001
0000
1000
0100
1000
0000
,
0001
1000
0001
2000
0000
3010
0100
0000
,
1001
0000
0000
0000
0001
0000
0000
0000
0100
0000
0000
0010
0000
0000
0200
0000
,
0000
0301
1000
0000
0010
1000
0010
0000
,
0110
0000
0000
0000
0100
0000
0000
0000
0001
0000
0000
0010
0000
0000
0002
0000
,
0000
0103
0010
0000
1000
0100
1000
0000
,
1010
0000
0000
0000
0010
0000
0000
0000
0100
0000
0000
0001
0000
0000
2000
0000
,
0000
0000
3100
0000
0010
0000
0000
0000
0001
0000
0000
1000
0000
0000
0001
0000
,
0100
0010
0100
0000
0001
1000
0001
0000
,
0200
0000
0000
0000
0301
1000
0001
0000
,
2000
3200
0320
0230
,
2300
3200
0302
0203
,
2300
3020
0032
0203
,
2300
0000
3002
0000
1003
0001
1001
0000
,
0001
0000
0100
0000
0110
0000
1000
0010
,
0100
0000
0001
0000
0101
0000
0100
0010
,
0200
0000
0302
0000
1003
0010
1000
0001
,
1000
0000
0000
0010
0000
0000
0100
0000
0001
0000
0000
0000
1000
0000
0000
0000
,
2002
0000
0000
0000
,
0000
0000
0000
0000
,
3003
0000
0000
0000
,
0000
0000
0000
0000
,
1000
0100
0010
0100
,
1000
0001
0010
1000
,
0010
0001
1000
0001
,
0100
0000
0010
0000
0100
0010
1000
0000
,
0100
0000
1001
0000
0001
0001
0000
0100
,
0000
0001
0010
0001
1000
0010
0100
0000
,
0010
0000
1001
0000
0100
0100
0000
0010
,
0000
1000
0010
0100
0001
1000
0001
0000
,
1000
0100
0001
0010
,
1000
0010
0001
0100
,
1000
0010
1000
0000
0001
0100
0001
0000
,
2000
0000
3002
0000
1003
0100
0010
0001
,
0000
0000
0000
0000
0000
0000
0000
0000
0100
0000
0000
0010
0000
0000
0100
0000
,
0220
0000
0000
0330
,
1000
0100
0010
0001
,
0100
0000
0010
0000
0200
0000
0301
1000
,
0001
0100
1000
0010
,
0002
0000
0203
0000
0310
1000
0010
0000
,
1000
0000
0000
0000
0010
0000
0000
0000
0100
0000
0000
0010
0000
0000
1000
0000
,
0100
0000
0000
0000
0010
0000
0000
0000
0001
0000
0000
1000
0000
0000
0100
0000
,
1100
0010
0101
0010
,
1000
0000
0000
0001
0000
0000
0100
0000
0020
0000
0000
0000
0130
0000
0010
0000
,
0100
0000
0000
0000
0001
0000
0000
0000
1000
0000
0000
0001
0000
0000
1000
0000
,
0100
0000
0000
0010
0000
0000
0001
0000
1000
0000
0000
0000
0001
0000
1000
0000
,
0001
0000
0000
0001
0000
0000
0100
0000
0010
0000
0000
1000
0000
0000
1000
0000
,
0100
0010
0001
1001
,
1000
0000
0010
1000
0100
0000
0010
0001
,
1000
0000
0000
0001
0000
0000
0100
0000
0001
0000
0000
0010
0000
0000
0100
0000
,
1000
0000
0000
0000
1010
0000
0000
0000
0001
0000
0000
0100
0000
0000
0010
0000
,
1000
0000
0000
0001
0000
0000
2002
0000
0000
0000
0000
0000
3003
0000
0000
0000
,
2000
0000
3001
0100
,
0001
0000
0000
0010
0000
0000
0100
0000
0010
0000
0000
0000
0001
0000
0000
0000
,
1000
0000
0001
0000
0100
0010
0100
0000
,
0001
0010
0001
0000
1000
0100
1000
0000
,
2002
0000
0000
3003
0001
1000
0001
0000
,
1000
0100
0001
0100
,
1000
0010
1000
0000
0001
0100
0001
0000
,
1000
0100
1000
0000
0001
0010
0001
0000
,
1001
0000
0000
1010
0000
0000
0101
0000
,
0000
0220
0000
0000
0000
0000
0330
0000
,
1000
0100
1000
0000
0100
0001
0100
0000
,
1000
0010
1000
0000
0010
0001
0010
0000
,
1000
1000
0001
0000
2002
0000
0000
0000
,
0000
0000
0000
0000
,
0000
0000
3003
0000
;

//--------------- dance-single - Fred-104 ----------------
#NOTEDATA:;
#STEPSTYPE:dance-single;
#DESCRIPTION:Fred-104;
#DIFFICULTY:Medium;
#METER:14;
#CREDIT:Fred-104;
#NOTES:
0000
0000
0000
0000
,
0000
0000
0000
0000
,
0000
0000
0000
0000
,
0000
0000
0000
0000
,
0000
0000
0000
0000
,
1001
0000
0001
0000
0100
0010
1000
0010
,
1000
0000
0100
0000
0010
0001
1000
0001
,
0100
0100
0100
0000
0001
0010
0100
1000
,
1010
0000
0000
0101
0000
0000
1001
0000
0000
0000
0001
0000
0100
0000
0010
1000
,
0001
0000
0000
0000
0000
0000
0000
0000
1000
0000
0000
0000
0000
0000
0000
0000
0200
0300
0000
0000
0000
0000
0000
0000
0200
0300
0000
0000
0000
0000
0000
0000
0001
0000
0000
0000
0000
0000
0000
0000
0010
0000
0000
0000
0000
0000
0000
0000
0100
0000
0000
0000
0000
0000
0000
0000
0010
0000
0000
0000
0000
0000
0000
0000
,
0001
0000
0000
0000
0000
0000
0000
0000
1000
0000
0000
0000
0000
0000
0000
0000
0020
0030
0000
0000
0000
0000
0000
0000
0020
0030
0000
0000
0000
0000
0000
0000
0001
0000
0000
0000
0000
0000
0000
0000
1000
0000
0000
0000
0000
0000
0000
0000
0010
0000
0000
0000
0000
0000
0000
0000
0100
0000
0000
0000
0000
0000
0000
0000
,
0001
0000
0000
0000
0000
0000
0000
0000
1000
0000
0000
0000
0000
0000
0000
0000
0200
0300
0000
0000
0000
0000
0000
0000
0200
0300
0000
0000
0000
0000
0000
0000
0001
0000
0000
0000
0000
0000
0000
0000
0100
0000
0000
0000
0000
0000
0000
0000
0010
0000
0000
0000
0000
0000
0000
0000
1000
0000
0000
0000
0000
0000
0000
0000
,
0001
0000
0010
0000
0100
0000
1000
0010
0000
1000
0010
0000
0100
0000
0001
0000
,
1000
0000
0000
0000
0000
0000
0000
0000
0001
0000
0000
0000
0000
0000
0000
0000
0020
0030
0000
0000
0000
0000
0000
0000
0020
0030
0000
0000
0000
0000
0000
0000
1000
0000
0000
0000
0000
0000
0000
0000
0100
0000
0000
0000
0000
0000
0000
0000
0010
0000
0000
0000
0000
0000
0000
0000
0100
0000
0000
0000
0000
0000
0000
0000
,
1000
0000
0000
0000
0000
0000
0000
0000
0001
0000
0000
0000
0000
0000
0000
0000
0200
0300
0000
0000
0000
0000
0000
0000
0200
0300
0000
0000
0000
0000
0000
0000
1000
0000
0000
0000
0000
0000
0000
0000
0100
0000
0000
0000
0000
0000
0000
0000
0010
0000
0000
0000
0000
0000
0000
0000
0001
0000
0000
0000
0000
0000
0000
0000
,
0100
0000
0000
0000
0000
0000
0000
0000
0001
0000
0000
0000
0000
0000
0000
0000
0020
0030
0000
0000
0000
0000
0000
0000
0020
0030
0000
0000
0000
0000
0000
0000
1000
0000
0000
0000
0000
0000
0000
0000
0001
0000
0000
0000
0000
0000
0000
0000
0100
0000
0000
0000
0000
0000
0000
0000
0010
0000
0000
0000
0000
0000
0000
0000
,
1000
0000
0100
0000
1000
0000
0001
0010
0000
0100
0010
0000
0100
0000
1000
0000
,
0001
0001
0100
0100
0010
0010
1000
1000
,
0001
0100
0000
0010
1000
0000
0001
0010
0000
0100
1000
0000
0001
1000
0001
1000
,
0002
0000
2003
0000
3100
1100
0000
0110
,
0000
0010
0001
1000
0001
0100
0010
0100
,
0002
0000
2003
0000
3100
0110
0000
0011
,
0000
0001
1000
0001
0100
0010
1000
0100
,
0020
0000
2030
0000
3010
0011
0000
1001
,
0000
0001
0100
0010
1000
0001
0100
0010
,
0002
0000
0023
0000
1030
1010
0000
1001
,
1100
0000
0000
0011
0000
0000
2002
0000
0000
0000
3003
0000
0001
0000
1000
0000
,
0020
0000
0000
0000
1030
0000
0100
0000
1000
0000
0010
0100
0010
0000
1000
0000
,
0200
0000
0000
0320
0000
0000
0032
0000
0000
0000
0103
0000
0001
0010
0001
0000
,
0100
0000
0010
1000
0010
0000
0100
0000
0001
0000
0010
0100
0010
0000
0100
0000
,
1000
0000
0001
0100
0001
0000
1000
0010
1000
0000
0001
1000
0001
0000
0010
0000
,
0200
0000
0000
0000
0010
0000
0000
0000
1300
0000
0010
0000
0100
0001
0100
0000
,
0002
0000
0000
0023
0000
0000
0230
0000
0000
1300
0010
0000
0100
0000
0010
1000
,
0010
0000
0100
0001
0100
0000
0001
0010
0001
0000
1000
0100
1000
0000
0001
0000
,
1000
0000
0001
1000
0010
0100
0020
0000
0000
0000
1030
0000
0100
0000
0010
0000
,
0001
0000
0100
0000
0001
0000
0010
0000
0002
0000
0000
0203
0000
0000
0320
0000
,
1030
0000
0100
0000
0010
0000
0100
0000
1000
0000
0010
1000
0010
0000
0100
0000
,
0001
0000
1000
0000
0100
0000
0010
0000
0002
0000
0000
2003
0000
0000
3020
0000
,
0000
0000
0130
0000
0001
0000
1000
0000
0100
0000
0010
0001
0010
0000
0001
0000
,
0100
0000
0010
0000
1000
0000
0001
0000
0020
0000
0000
0230
0000
0000
2300
0000
,
0000
0000
3001
0000
1000
0000
0100
0000
2000
0000
0000
3020
0000
0000
0230
0000
,
0301
0010
0100
1000
0001
0100
0010
1000
,
0001
0000
0001
0000
1000
0000
1000
0000
0001
0010
0001
0000
1000
0100
1000
0000
,
2002
0000
0000
0000
3003
0001
0100
0010
,
0002
0000
0000
0023
0000
0000
2030
0000
0000
0000
3001
0000
1000
0000
0100
0000
,
0010
0001
0100
0010
0001
0010
1000
0001
,
0100
0000
1000
0000
0100
0000
0020
0000
0000
0000
0000
0000
1030
0000
0001
1000
,
0001
0000
0000
0100
0000
0000
0001
0000
0011
0000
0000
0000
0100
0000
1000
0010
,
1000
0000
0000
0001
0000
0000
0100
0000
0110
0000
0000
0000
0010
0000
1000
0001
,
1000
0000
0100
0000
0010
0000
0001
0100
0001
0000
0100
0010
0100
0000
0010
0000
,
1010
0000
0000
0000
0000
0000
0000
0000
0000
0010
0000
0000
0000
0000
0000
0000
0000
0000
0100
0000
0000
0000
0000
0000
0001
0000
0000
0000
0010
0000
0000
0000
0001
0000
0000
0000
1000
0000
0000
0000
0010
0000
0000
0000
0100
0000
0000
0000
,
0020
0000
0000
0000
,
0000
0000
0000
0000
,
0030
0000
0000
0000
,
0000
0000
0000
0000
,
0001
0000
0010
0001
0000
1000
0001
0000
0100
0001
0000
1000
0001
0000
0010
0000
,
0100
0000
1000
0010
0000
0100
0010
0000
1000
0100
0000
0010
0001
0000
1000
0000
,
0001
0000
0010
0001
0000
1000
0001
0000
0100
0010
0000
1000
0001
0000
0010
0000
,
0001
0000
0100
0010
0000
1000
0001
0000
0100
0010
0000
1000
0001
0000
1000
0000
,
1100
0000
0110
0000
0001
0101
0000
1001
,
0000
0001
0100
0010
1000
0010
0100
0001
,
1001
0000
0110
0000
1010
0011
0000
1010
,
0000
0001
1000
0100
0001
0100
0010
0100
,
1000
0100
1000
0100
0010
0001
0010
0001
,
1000
0010
1000
0010
0100
0001
0100
0001
,
1000
0100
1000
0000
0001
0010
0001
0000
1000
0010
1000
0000
0001
0100
0001
0000
,
2000
3200
0302
0203
1300
0100
0010
0001
,
0000
0000
0000
0000
0000
0000
0000
0000
0100
0000
0000
0010
0000
0000
0100
0000
,
2002
0000
0000
3003
,
0001
0000
0010
0000
0100
0000
0010
0002
0000
0000
1003
0000
0001
0000
0100
0000
,
0001
0000
0000
0010
0000
0000
0100
0000
2100
0000
0000
0000
3001
0000
1000
0001
,
2000
0000
0000
3200
0000
0000
0302
0000
2003
0000
0000
3020
0000
0000
0032
0000
,
2003
0010
3002
0100
,
1003
0000
0000
0000
0001
0000
0010
0000
0100
0000
0000
1000
0000
0000
0010
0000
,
0100
0000
0000
0000
1000
0000
0100
0000
0001
0000
0000
1000
0000
0000
0100
0000
,
0010
0000
0010
0001
0000
0001
1000
0000
1000
0010
0000
0010
,
0100
0000
0000
0001
0000
0000
1000
0001
2000
0000
0000
0000
3001
0000
0100
0010
,
0100
0000
0001
0000
0010
0000
0001
0000
1000
0000
0000
0001
0000
0000
0100
0000
,
0010
0000
0000
1000
0000
0000
0100
0000
0102
0000
0000
0000
0103
0000
1000
0001
,
1000
0000
0000
0001
0000
0000
0010
0000
0100
0000
0000
0001
0000
0000
0100
0000
,
0020
0000
0000
0000
0031
0000
1000
0001
1000
0000
0010
0000
0100
0000
0001
0010
,
0001
0000
0010
0000
0100
0000
1000
0010
1000
0000
0010
0000
0100
0000
0001
1000
,
0001
0000
0000
1000
0000
0000
0100
0000
0001
0000
0000
0100
0000
0000
1000
0000
,
1010
0000
0000
0000
0101
0000
0000
0000
1100
0000
0000
0100
0000
0000
0010
0000
,
0011
0000
0000
1010
0000
0000
0202
0000
0000
0000
0303
0000
1000
0001
1000
0001
,
2000
0000
0000
0000
0000
0000
0000
0000
3010
0000
0100
0000
0010
1000
0010
0000
,
0200
0000
0000
0302
0000
0000
0013
0000
0001
0000
0100
0001
0010
0000
0001
0000
,
1000
0100
1000
0000
0100
0000
0010
0000
0100
0010
0100
0000
0010
0000
0001
0000
,
0100
0010
1000
0001
0010
0100
1000
0001
,
2000
0000
0000
0000
0000
0000
0000
0000
3001
0000
0010
0001
0100
0000
0001
0000
,
1000
0100
1000
0000
0001
0000
1000
0100
1000
0000
0010
0000
0100
0000
0001
0000
,
0010
0010
0100
0100
1000
1000
0001
0001
,
1000
0100
0010
0001
0100
0010
1000
0001
,
1000
0000
0010
1000
0000
0000
0001
0000
0100
0001
0000
0000
1000
0001
1000
0001
,
0000
2002
0000
0000
0000
0000
3003
0000
,
1000
0100
0001
0100
1000
0010
0001
0010
,
1000
0100
0010
0001
0100
0010
1000
0100
,
1100
0101
0220
0000
,
0000
0000
0000
0000
,
0000
0000
0330
0100
1001
0000
0000
0000
;

//--------------- dance-single - Fred-104 ----------------
#NOTEDATA:;
#STEPSTYPE:dance-single;
#DESCRIPTION:Fred-104;
#DIFFICULTY:Hard;
#METER:17;
#CREDIT:Fred-104;
#NOTES:
0000
0000
0000
0000
,
0000
0000
0000
0000
,
0000
0000
0000
0000
,
0000
0000
0000
0000
,
0000
0000
0000
0000
,
1001
0000
0001
0100
,
0110
0000
0010
1000
,
1001
1010
1001
0000
0001
0000
0100
0010
,
1100
0000
0000
0101
0000
0000
1001
0000
0000
0000
1000
0000
0001
0000
1000
0100
,
1000
0000
1200
0000
0310
0001
0010
0000
0001
0000
0100
0001
0100
0000
0001
0010
,
0100
0000
0120
0000
0031
0100
0001
0000
1000
0010
0100
0001
0010
0100
1000
0001
,
1000
0000
1020
0000
0130
0010
0100
0000
0010
0000
1000
0001
0100
0000
0001
0010
,
0100
0000
0010
0001
1000
0001
0100
0010
0000
1000
0010
0000
0100
0000
0001
1000
,
0001
0000
0201
0000
0310
1000
0001
0000
1000
0000
0100
0010
0001
0100
0010
1000
,
0001
0000
0021
0000
0130
1000
0001
0000
1000
0000
0001
0100
1000
0100
0010
1000
,
0001
0000
2001
0000
3001
0100
0010
0000
1000
0000
0100
0010
0001
0010
0100
1000
,
0001
0000
0010
0001
1000
0000
0001
0100
0000
0010
0100
0000
0001
1000
0001
0000
,
0001
0010
0001
0000
1000
0100
1000
0000
0001
0100
0001
0000
1000
0010
1000
0000
,
0001
0100
0001
1000
0010
1000
0001
0010
0001
1000
0100
1000
0001
0100
0010
1000
,
0002
0000
0203
0000
0310
0011
0000
1010
,
0000
0000
1001
0000
1000
0000
0100
0000
0010
0001
0010
0000
0001
1000
0010
0100
,
0002
0000
0203
0000
1300
1100
0000
0110
,
0000
0000
1001
0000
1000
0000
0001
0000
0010
0001
1000
0000
0100
1000
0001
1000
,
0020
0000
0230
0000
1300
1100
0000
0101
,
0000
0000
1001
0000
0001
0000
0100
0000
0010
1000
0001
1000
0100
0010
0001
1000
,
0020
0000
0032
0000
0013
0110
0000
1001
,
1100
0000
0000
0101
0000
0000
2020
0000
0000
0000
3030
0000
0001
1000
0001
1000
,
0200
0000
0000
0000
0000
0000
0000
0000
0000
0000
2300
0000
3010
1000
0001
1000
,
0100
0010
0001
0100
0010
1000
0200
0000
0000
0000
1300
0001
0100
0001
0010
0100
,
1000
0010
1000
0001
0100
0001
1000
0100
1000
0001
0010
0001
1000
0100
0010
0001
,
1000
0010
0100
0001
0010
0001
0100
0010
2000
0000
3001
0010
0100
0010
0001
1000
,
0002
0000
0000
0000
0000
0000
0000
0000
0000
0000
0103
0001
0010
0001
2000
0000
,
3001
0010
0100
1000
0010
0100
0002
0000
0000
1003
0001
0010
0001
0100
0010
1000
,
0001
0010
0100
1000
0001
0010
0100
1000
0001
0100
0010
1000
0100
0010
0001
1000
,
0001
0010
0001
1000
0100
1000
0002
0000
0000
0000
1003
0010
0100
0001
0100
0010
,
2000
0000
0000
0000
0000
0000
0000
0000
3200
0000
0000
0302
0000
0000
0023
0000
,
0000
0000
0000
0000
0000
0000
0000
0000
2030
0000
3001
1000
0001
0100
0001
0010
,
0200
0000
0000
0000
0000
0000
0000
0000
0302
0000
0000
0203
0000
0000
2300
0000
,
0000
0000
0000
0000
0000
0000
0000
0000
3001
1000
0100
1000
0001
0100
0001
1000
,
0020
0000
0000
0000
0000
0000
0000
0000
0230
0000
0000
2300
0000
0000
3200
0000
,
0000
0000
0000
0000
0000
0000
0000
0000
0302
0000
0000
2003
0000
0000
3020
0000
,
1030
0010
1000
0100
1000
0010
0100
0010
1000
0100
0010
0001
0010
0100
0010
0001
,
0100
0000
0100
0000
0010
0000
0010
0000
1000
0100
0010
0000
0001
0100
0010
0000
,
2000
3200
0302
0023
,
2030
3020
0032
0203
,
2300
3200
0302
0000
0023
0000
2030
0000
,
3002
0000
2003
0000
3001
1000
1001
0000
,
0001
0000
0000
0100
0000
0000
0010
0000
1010
0000
0000
0000
1000
0100
0010
0001
,
1000
0000
0000
0100
0000
0000
0001
0000
0011
0000
0000
0000
0010
0000
1000
0001
,
1000
0000
0100
0000
1000
0000
0010
0100
0010
0000
1000
0001
1000
0000
0001
0100
,
0110
0000
0000
0000
0000
0000
0000
0000
0000
1001
0000
0000
0000
0000
0000
0000
0000
0000
1010
0000
0000
0000
0000
0000
1000
0000
0100
0000
1000
0000
0100
0000
1000
0000
0100
0000
1000
0000
0000
0000
0100
0000
0000
0000
0010
0000
0000
0000
,
0002
0000
0000
0000
,
0000
0000
0000
0000
,
0003
0000
0000
0000
,
0000
0000
0000
0000
,
1000
0000
1000
0100
0000
0100
0010
0000
0010
0001
0000
0001
0100
0000
0001
1000
,
0001
0000
0001
0100
0000
0100
0010
0000
0010
1000
0000
1000
0100
0010
0100
0010
,
0001
0000
0100
0010
0000
1000
0010
0000
0100
0010
0000
1000
0010
0100
0010
1000
,
0001
0010
0100
1000
0001
0000
0100
0010
0000
0010
0000
0010
1000
0000
0001
1000
,
0001
0010
0011
0100
1100
1001
0000
0110
,
0000
0000
1020
0000
0130
0000
0001
0100
0001
0000
0100
0000
0001
0000
1000
0000
,
1100
0010
0011
0001
1001
0101
0000
1001
,
0000
0000
0001
0010
0100
0000
1000
0010
0100
0001
0010
0001
1000
0001
1000
0000
,
0001
0010
0001
0000
0010
0100
0010
0000
0001
0100
0001
0000
0100
0010
0100
0000
,
0001
1000
0001
0000
1000
0100
1000
0000
0001
1000
0001
0000
1000
0010
1000
0000
,
0001
0100
0001
0100
0010
1000
0001
0000
1000
0100
1000
0100
0010
0001
0010
0000
,
0001
0100
0010
1000
0000
0000
0001
0010
0100
1000
0000
0000
0001
0000
0000
0101
0000
0000
1000
0000
0000
1010
0000
0000
,
0000
0000
0000
0000
0000
0000
0000
0000
1100
0000
0000
0011
0000
0000
1010
0000
,
0202
0000
0000
0303
,
1000
0000
0100
0000
0010
0000
0001
0200
0000
0000
0000
0000
1300
0000
0100
0000
,
0010
0000
1000
0001
0000
0100
0001
0000
2000
0000
0000
0000
3001
0100
0001
0100
,
0010
0000
1000
0010
0000
0100
0010
0000
1000
0000
0100
0010
0000
0001
1000
0000
,
0020
0000
1000
0000
0100
0000
1030
0000
0001
0010
0001
0100
0001
0010
0001
1000
,
0002
0000
0000
0000
0103
0000
0010
1000
0001
0000
1000
0100
0000
0010
0001
0000
,
0101
0000
0000
0000
0001
0000
1000
0001
0010
0000
0100
0010
0000
0001
0100
0000
,
0001
0010
0100
0010
0001
0100
0010
1000
0010
0100
0001
1000
,
1001
0000
0000
1100
0000
0000
1000
0010
0200
0000
0000
0000
0301
0000
1000
0001
,
1000
0000
0100
0000
0010
0000
0001
1000
0010
0000
0100
0001
0000
0010
0100
0000
,
1000
0000
0010
0100
0000
0010
1000
0000
1002
0000
0000
0000
1003
0000
0100
0010
,
0001
0000
0100
0010
0000
0001
0010
0000
1000
0000
0001
0100
0000
1000
0100
0000
,
0120
0000
0000
0000
1030
0000
0001
1000
0001
0000
0100
0000
0010
0100
0010
0100
,
0010
0000
1000
0000
1100
0000
0100
0010
0001
0000
0100
0000
0110
0000
0010
1000
,
0001
0000
0000
0000
0000
0000
0100
0000
0000
0010
0000
0000
0000
0000
0000
0100
0000
0000
0001
0000
0000
0000
0000
0000
1000
0000
0000
0000
0000
0000
0001
0000
1000
0000
0001
0000
0010
0000
0000
0000
0000
0000
0001
0000
0000
0000
0000
0000
,
0101
0000
0100
0000
0110
0000
0010
1000
0010
0000
0000
1000
0000
0000
0100
0000
,
1100
0000
0000
0101
0000
0000
2002
0000
0000
0000
3003
0000
0001
1000
0001
0100
,
0002
0000
0000
0000
0000
0000
0000
0000
0013
0100
0010
0000
0001
0010
0001
1000
,
0002
0000
0000
0203
0000
0000
0310
1000
0001
1000
0100
0010
0001
0010
0100
0000
,
1000
0100
1000
0010
1000
0100
1000
0000
0001
0010
0100
1000
0001
0100
0001
0010
,
0001
0100
0010
1000
0001
0100
0010
1000
0001
1000
0100
0010
0001
1000
0100
0010
,
0200
0000
0000
0000
0000
0000
0000
0000
0000
0000
1300
0100
0010
0001
0100
0010
,
1000
0100
0010
0000
0001
0000
1000
0100
0010
0000
0001
0100
0001
0100
0001
0000
,
0100
0001
0010
0000
0100
1000
0010
0000
0100
0001
1000
0001
0100
0010
1000
0010
,
0100
0001
1000
0000
0010
1000
0001
0000
1000
0100
0010
0000
0001
0000
1000
0000
,
0001
0100
0001
0100
0000
0000
1000
0100
1000
0100
0000
0000
0001
1000
0001
1000
,
0000
2002
0000
0000
0000
0000
3003
0000
,
1000
0100
1000
0010
1000
0100
0010
0000
0001
0100
0001
0010
0001
0100
0010
0000
,
1000
0100
0010
0001
1000
0100
0010
0001
1000
0010
0100
0001
0010
0100
1000
0001
,
0100
0000
0000
0001
0100
0010
1000
0000
0000
0001
0010
0200
2000
0000
0000
0000
0000
0000
0000
0000
0000
0000
0000
0000
,
0000
0000
0000
0000
,
0000
0000
3300
0100
1001
0000
0000
0000
;

//--------------- dance-double - Fred-104 ----------------
#NOTEDATA:;
#STEPSTYPE:dance-double;
#DESCRIPTION:Fred-104;
#DIFFICULTY:Easy;
#METER:10;
#CREDIT:Fred-104;
#NOTES:
00000000
00000000
00000000
00000000
,
00000000
00000000
00000000
00000000
,
00000000
00000000
00000000
00000000
,
00000000
00000000
00000000
00000000
,
00000000
00000000
00000000
00000000
,
00010000
00000000
00001000
00000000
,
00010000
00000000
00000010
00001000
,
00000001
00001000
00000001
00000000
00000100
00000000
00001000
00000000
,
00010000
00000000
00000000
00001000
00000000
00000000
00011000
00000000
00000000
00000000
00000000
00000000
00011000
00000000
00000000
00000000
,
00001000
00000000
00010000
00000000
01000000
00100000
00010000
00000000
,
10000000
00000000
00100000
00000000
01000000
00100000
01000000
00000000
,
00010000
00000000
10000000
00000000
00010000
00100000
00010000
00000000
,
01000000
00000000
00001000
00000000
01000000
00000000
00000000
00001000
00000000
00000000
00010000
00000000
00001000
00000000
00000000
00000000
,
00010000
00000000
00001000
00000000
00000010
00000100
00001000
00000000
,
00000001
00000000
00000100
00000000
00000010
00000100
00001000
00000000
,
00010000
00000000
00100000
00000000
01000000
00100000
10000000
00000000
,
00010000
00000000
00100000
00000000
01000000
00000000
00000000
10000000
00000000
00000000
00010000
00000000
10000000
00000000
00000000
00000000
,
01000000
01000000
01000000
00000000
00100000
00100000
00100000
00000000
,
00001000
00000000
00000000
00001000
00000000
00000000
00010000
00000000
00000000
00010000
00000000
00000000
00001000
00000000
00010000
00000000
,
00001000
00000000
00010000
00000000
00000010
00000010
00000000
00001000
,
00000000
00000100
00000200
00000000
00002300
00000000
00003002
00000000
,
00000103
00000000
00000010
00000000
00001000
00001000
00000000
00000100
,
00000000
00010000
00020000
00000000
00032000
00000000
02003000
00000000
,
03001000
00000000
00010000
00000000
00100000
00100000
00000000
01000000
,
00000000
00001000
00010000
00000000
00001000
00100000
00010000
00000000
,
20000000
00000000
32000000
00000000
03100000
00100000
00000000
00001000
,
00010000
00000000
00000000
00001000
00000000
00000000
00022000
00000000
00000000
00000000
00000000
00000000
00033000
00000000
00000000
00000000
,
00020000
00000000
00031000
00000100
,
00000001
00000000
00000000
00000100
00000000
00000000
00000020
00000000
00000000
00000000
00001030
00000000
00000001
00000000
00000000
00000000
,
00000010
00000100
00010000
00001000
,
00000010
00000000
00000001
00000000
00001000
00000100
00010000
00000000
,
00002000
00000000
00013000
00000010
,
00010000
00000000
00000000
00001000
00000000
00000000
00020000
00000000
00000000
00000000
00031000
00000000
01000000
00000000
00000000
00000000
,
00010000
10000000
01000000
00000000
00100000
00010000
10000000
00000000
,
01000000
00100000
00001000
00020000
00000000
00031000
00010000
00000000
,
00011000
00000000
00000000
00000000
00010000
00000000
00000000
00000000
00001000
00000000
00000000
00000100
00000000
00000000
00000020
00000000
,
00000000
00010030
00001000
00000000
00010000
00000100
00001000
00000000
,
00001001
00000000
00000000
00000000
00000001
00000000
00000000
00000000
00000100
00000000
00000000
00000010
00000000
00000000
00002000
00000000
,
00000000
00003100
00010000
00000000
00001000
01000000
00010000
00000000
,
10010000
00000000
00000000
00000000
10000000
00000000
00000000
00000000
00100000
00000000
00000000
01000000
00000000
00000000
20000000
00000000
,
00000000
00000000
31000000
00000000
00100000
00000000
00000000
00000000
10000000
00000000
00000000
01000000
00000000
00000000
00100000
00000000
,
00001000
00010000
00001000
00000000
00010000
00000010
00001000
00000000
,
00000002
00000000
00000000
00000000
00001003
00000001
00001000
00000000
,
00000001
00000100
00000020
00000000
00002030
00000000
00003002
00000000
,
00000013
00000100
00000020
00000000
00000230
00000000
00020300
00000000
,
00031000
00100000
00002000
00000000
00023000
00000000
00032000
00000000
,
01003000
00010000
02000000
00000000
03010000
10000000
10010000
00000000
,
10000000
00000000
00000000
01000000
00000000
00000000
00100000
00000000
00010000
00000000
00000000
00000000
00100000
00000000
00001000
00000000
,
00010000
00000000
00000000
00001000
00000000
00000000
00010000
00000000
00011000
00000000
00000000
00000000
00010000
00000000
00000010
00000000
,
00002000
00000000
00003020
00000000
00001030
00000001
00000010
00001000
,
00010000
00000000
00000000
00001000
00000000
00000000
01000000
00000000
00001000
00000000
00000000
00000000
00010000
00000000
00000000
00000000
,
00022000
00000000
00000000
00000000
,
00000000
00000000
00000000
00000000
,
00033000
00000000
00000000
00000000
,
00000000
00000000
00000000
00000000
,
00010000
00001000
00000010
00001000
,
00010000
00001000
00000100
00001000
,
00010000
00001000
00000010
00001000
,
00010000
00000000
00001000
00000000
00010000
00010000
00010000
00000000
,
00001000
00000000
00011000
00000000
00001000
00001000
00000000
01000000
,
00000000
00010000
00100000
00010000
10000000
00100000
01000000
00000000
,
00100000
00000000
10100000
00000000
10000000
10000000
00000000
01000000
,
00000000
00100000
00001000
00010000
00001000
00000100
00000010
00000000
,
00001000
00000010
00000100
00000001
,
00000010
00000100
00001000
00000100
,
00010000
00001000
00010000
00000000
00001000
01000000
00001000
00000000
,
02000000
00000000
03002000
00000000
00013000
00010000
00001000
00001000
,
00000000
00000000
00000000
00000000
00000000
00000000
00000000
00000000
00000010
00000000
00000000
00000100
00000000
00000000
00000010
00000000
,
00000220
00000000
00000000
00000330
,
00001000
00001000
00000001
00000100
,
00000010
00000000
00000000
00001000
00000000
00000000
00000010
00000000
00000200
00000000
00000000
00000000
00000301
00000000
00001000
00000000
,
00000010
00001000
00100000
00010000
,
00002000
00000000
00020000
00033000
,
00010000
00000000
00000000
00000000
00001000
00000000
00000000
00000000
01000000
00000000
00000000
01000000
00000000
00000000
01000000
00000000
,
00100000
00000000
00000000
00000000
01000000
00000000
00000000
00000000
00010000
00000000
00000000
10000000
00000000
00000000
01000000
00000000
,
11000000
00100000
01010000
00100000
,
00001000
00000000
00000000
00001000
00000000
00000000
00001000
00000000
00020000
00000000
00000000
00000000
00031000
00000000
00010000
00000000
,
00001000
00000000
00000000
00000000
00010000
00000000
00000000
00000000
00001000
00000000
00000000
00000010
00000000
00000000
00000100
00000000
,
00001000
00000000
00000000
00000001
00000000
00000000
00000010
00000000
00000100
00000000
00000000
00000000
00000010
00000000
00000001
00000000
,
00001000
00000000
00000000
00000010
00000000
00000000
00001000
00000000
00000100
00000000
00000000
00010000
00000000
00000000
00001000
00000000
,
00010000
00001000
00010000
00011000
,
00001000
00000000
00010000
01000000
00100000
00000000
00010000
10000000
,
00100000
00000000
00000000
01000000
00000000
00000000
00010000
00000000
10000000
00000000
00000000
01000000
00000000
00000000
00100000
00000000
,
00001000
00000000
00000000
00000000
00011000
00000000
00000000
00000000
00010000
00000000
00000000
00001000
00000000
00000000
00000100
00000000
,
00000001
00000000
00000000
00001000
00000000
00000000
00002002
00000000
00000000
00000000
00000000
00000000
00003003
00000000
00000000
00000000
,
00000002
00000000
00000103
00000010
,
00000100
00000000
00000000
00000001
00000000
00000000
00001000
00000000
00000100
00000000
00000000
00000000
00010000
00000000
00000000
00000000
,
00001000
00000000
00100000
00000000
00001000
00010000
00001000
00000000
,
01000000
00010000
01000000
00000000
00001000
00010000
00001000
00000000
,
00022000
00000000
00000000
00033000
00010000
00000010
00010000
00000000
,
00001000
00010000
00000100
00001000
,
00000001
00000010
00001000
00000000
00010000
01000000
10000000
00000000
,
10000000
00100000
00010000
00000000
00001000
00000100
00000001
00000000
,
00001001
00000000
00000000
00001010
00000000
00000000
00010010
00000000
,
00000000
00022000
00000000
00000000
00000000
00000000
00033000
00000000
,
00001000
00010000
01000000
00000000
10000000
00100000
00010000
00000000
,
00001000
00000100
00000001
00000000
00000010
00001000
00010000
00000000
,
00001000
00011000
00022000
00000000
,
00000000
00000000
00000000
00000000
,
00000000
00000000
00033000
00000000
;

//--------------- dance-double - Fred-104 ----------------
#NOTEDATA:;
#STEPSTYPE:dance-double;
#DESCRIPTION:Fred-104;
#DIFFICULTY:Medium;
#METER:14;
#CREDIT:Fred-104;
#NOTES:
00000000
00000000
00000000
00000000
,
00000000
00000000
00000000
00000000
,
00000000
00000000
00000000
00000000
,
00000000
00000000
00000000
00000000
,
00000000
00000000
00000000
00000000
,
00011000
00000000
00001000
00000000
00100000
00010000
01000000
00000000
,
00100000
00000000
10000000
00000000
00010000
00100000
01000000
10000000
,
00100000
00000000
10000000
00000000
01000000
00010000
00001000
00000000
,
00010000
00000000
00000000
00000100
00000000
00000000
00000110
00000000
00000000
00000000
00000001
00000000
00001000
00000000
00000001
00001000
,
00000100
00000000
00000000
00000000
00000000
00000000
00000000
00000000
00000010
00000000
00000000
00000000
00000000
00000000
00000000
00000000
00000200
00000300
00000000
00000000
00000000
00000000
00000000
00000000
00000200
00000300
00000000
00000000
00000000
00000000
00000000
00000000
00000001
00000000
00000000
00000000
00000000
00000000
00000000
00000000
00000010
00000000
00000000
00000000
00000000
00000000
00000000
00000000
00001000
00000000
00000000
00000000
00000000
00000000
00000000
00000000
00010000
00000000
00000000
00000000
00000000
00000000
00000000
00000000
,
00001000
00000000
00000000
00000000
00000000
00000000
00000000
00000000
00100000
00000000
00000000
00000000
00000000
00000000
00000000
00000000
00001000
00000000
00000000
00000000
00000000
00000000
00000000
00000000
00020000
00030000
00000000
00000000
00000000
00000000
00000000
00000000
00020000
00030000
00000000
00000000
00000000
00000000
00000000
00000000
01000000
00000000
00000000
00000000
00000000
00000000
00000000
00000000
00010000
00000000
00000000
00000000
00000000
00000000
00000000
00000000
10000000
00000000
00000000
00000000
00000000
00000000
00000000
00000000
,
00010000
00000000
00000000
00000000
00000000
00000000
00000000
00000000
01000000
00000000
00000000
00000000
00000000
00000000
00000000
00000000
00200000
00300000
00000000
00000000
00000000
00000000
00000000
00000000
00200000
00300000
00000000
00000000
00000000
00000000
00000000
00000000
00010000
00000000
00000000
00000000
00000000
00000000
00000000
00000000
00100000
00000000
00000000
00000000
00000000
00000000
00000000
00000000
01000000
00000000
00000000
00000000
00000000
00000000
00000000
00000000
10000000
00000000
00000000
00000000
00000000
00000000
00000000
00000000
,
00010000
00000000
10000000
00000000
01000000
00000000
00100000
00010000
00000000
01000000
00001000
00000000
00010000
00000000
00001000
00000000
,
00000010
00000000
00000000
00000000
00000000
00000000
00000000
00000000
00000100
00000000
00000000
00000000
00000000
00000000
00000000
00000000
00001000
00000000
00000000
00000000
00000000
00000000
00000000
00000000
00000001
00000000
00000000
00000000
00000000
00000000
00000000
00000000
00000100
00000000
00000000
00000000
00000000
00000000
00000000
00000000
00000020
00000030
00000000
00000000
00000000
00000000
00000000
00000000
00000020
00000030
00000000
00000000
00000000
00000000
00000000
00000000
00000001
00000000
00000000
00000000
00000000
00000000
00000000
00000000
,
00001000
00000000
00000000
00000000
00000000
00000000
00000000
00000000
00000010
00000000
00000000
00000000
00000000
00000000
00000000
00000000
00010000
00000000
00000000
00000000
00000000
00000000
00000000
00000000
00001000
00000000
00000000
00000000
00000000
00000000
00000000
00000000
01000000
00000000
00000000
00000000
00000000
00000000
00000000
00000000
00002000
00003000
00000000
00000000
00000000
00000000
00000000
00000000
00002000
00003000
00000000
00000000
00000000
00000000
00000000
00000000
00000010
00000000
00000000
00000000
00000000
00000000
00000000
00000000
,
00000100
00000000
00000000
00000000
00000000
00000000
00000000
00000000
00001000
00000000
00000000
00000000
00000000
00000000
00000000
00000000
00000100
00000000
00000000
00000000
00000000
00000000
00000000
00000000
00000010
00000000
00000000
00000000
00000000
00000000
00000000
00000000
00001000
00000000
00000000
00000000
00000000
00000000
00000000
00000000
00000200
00000300
00000000
00000000
00000000
00000000
00000000
00000000
00000200
00000300
00000000
00000000
00000000
00000000
00000000
00000000
00000001
00000000
00000000
00000000
00000000
00000000
00000000
00000000
,
00001000
00000000
00000010
00000000
00010000
00000000
00000100
00001000
00000000
00000100
00010000
00000000
00001000
00000000
01000000
00000000
,
00010000
00100000
10000000
00100000
00010000
10000000
01000000
00100000
,
00010000
01000000
00000000
00001000
00010000
00000000
00000010
00001000
00000000
00000100
00010000
00000000
00001000
00010000
00001000
00010000
,
00002000
00000000
00023000
00000000
00030100
00010100
00000000
01001000
,
00000000
00010000
00001000
00000010
00000100
00001000
00000001
00000100
,
00000020
00000000
00020030
00000000
00031000
00011000
00000000
01001000
,
00000000
00001000
00010000
01000000
00100000
00010000
10000000
00100000
,
02000000
00000000
03200000
00000000
10300000
11000000
00000000
10010000
,
00000000
10000000
01000000
00010000
00001000
00000010
00000100
00001000
,
00000200
00000000
00000320
00000000
00000031
00001001
00000000
00000110
,
00001100
00000000
00000000
00010100
00000000
00000000
00022000
00000000
00000000
00000000
00033000
00000000
00001000
00000000
00100000
00000000
,
00020000
00000000
00000000
00000000
10030000
00000000
00010000
00000000
01000000
00000000
00100000
10000000
00100000
00000000
01000000
00000000
,
00020000
00000000
00000000
20030000
00000000
00000000
32000000
00000000
00000000
00000000
03010000
00000000
00001000
00000000
00010000
00000000
,
01000000
00000000
10000000
00010000
10000000
00000000
00100000
01000000
00100000
00000000
10000000
01000000
10000000
00000000
00100000
00000000
,
01000000
00000000
00010000
10000000
00010000
00000000
00100000
00000000
00001000
00000000
00010000
00000010
00010000
00000000
00000100
00000000
,
00002000
00000000
00000000
00000000
00003010
00000000
00001000
00000000
00000001
00000000
00000010
00000000
00000100
00000010
00000100
00000000
,
00000020
00000000
00000000
00000032
00000000
00000000
00000203
00000000
00000000
00000310
00000100
00000000
00000010
00000000
00010000
00001000
,
00010000
00001000
00000010
00000100
00001000
00000001
00000100
00001000
,
00010000
00000000
00000000
00001000
00000000
00000000
00012000
00000000
00000000
00000000
00103000
00001000
00010000
00000000
00001000
00000000
,
02000000
00000000
00000000
00000000
03010000
00000000
10000000
00000000
02000000
00000000
00000000
03200000
00000000
00000000
00320000
00000000
,
00000000
00000000
01030000
00000000
00001000
00000000
00010000
00000000
00001000
00000000
00000010
00000100
00001000
00000000
00000100
00000000
,
00020000
00000000
00000000
00000000
00031000
00000000
00100000
00000000
00020000
00000000
00000000
02030000
00000000
00000000
03002000
00000000
,
00000000
00000000
00013000
00000000
00000010
00000000
00010000
00000000
00001000
00000000
00010000
01000000
00100000
00000000
00010000
00000000
,
00200000
00000000
00000000
00000000
00301000
00000000
00010000
00000000
00000020
00000000
00000000
00020030
00000000
00000000
00032000
00000000
,
00000000
00000000
00013000
00000000
00000100
00000000
00001000
00000000
00000020
00000000
00000000
00020030
00000000
00000000
00032000
00000000
,
00103000
00001000
00010000
00001000
01000000
00010000
00100000
00001000
,
00010000
00000000
01000000
00000000
00100000
00000000
00010000
00000000
10000000
00100000
00010000
00000000
00001000
00010000
00001000
00000000
,
00022000
00000000
00000000
00000000
00033000
00010000
00001000
00000100
,
00000002
00000000
00000000
00002003
00000000
00000000
00003200
00000000
00000000
00000000
00000310
00000000
00000001
00000000
00001000
00000000
,
00000001
00000100
00001000
00010000
00001000
00100000
01000000
00100000
,
00010000
00000000
01000000
00000000
00001000
00000000
00020000
00000000
00000000
00000000
00000000
00000000
00031000
00000000
00000010
00000001
,
00001000
00000000
00000000
00000010
00000000
00000000
00001000
00000000
00001100
00000000
00000000
00000000
00000100
00000000
00010000
00001000
,
00010000
00000000
00000000
00100000
00000000
00000000
01000000
00000000
01010000
00000000
00000000
00000000
00010000
00000000
01000000
00100000
,
01000000
00000000
00010000
00000000
00100000
00000000
01000000
10000000
01000000
00000000
10000000
00100000
10000000
00000000
00010000
00000000
,
01010000
00000000
00000000
00000000
00000000
00000000
00000000
00000000
00000000
00010000
00000000
00000000
00000000
00000000
00000000
00000000
00000000
00000000
00100000
00000000
00000000
00000000
00000000
00000000
00001000
00000000
00000000
00000000
00010000
00000000
00000000
00000000
00000010
00000000
00000000
00000000
00010000
00000000
00000000
00000000
00000010
00000000
00000000
00000000
00001000
00000000
00000000
00000000
,
00000020
00000000
00000000
00000000
,
00000000
00000000
00000000
00000000
,
00000030
00000000
00000000
00000000
,
00000000
00000000
00000000
00000000
,
00010000
00000000
00000010
00001000
00000000
00000010
00010000
00000000
00001000
00010000
00000000
00000100
00001000
00000000
00000100
00000000
,
00010000
00000000
00001000
01000000
00000000
00001000
00010000
00000000
00001000
00100000
00000000
00001000
00010000
00000000
00001000
00000000
,
01000000
00000000
00010000
00100000
00000000
00010000
10000000
00000000
00010000
00100000
00000000
01000000
10000000
00000000
00010000
00000000
,
10000000
00000000
00100000
01000000
00000000
00100000
10000000
00000000
00100000
01000000
00000000
00010000
10000000
00000000
01000000
00000000
,
01100000
00000000
00011000
00000000
00000100
00000010
00000000
00001001
,
00000000
00001000
00000100
00000010
00000001
00000100
00001000
00010000
,
00011000
00000000
01100000
00000000
00010000
10000000
00000000
10100000
,
00000000
00100000
10000000
01000000
00010000
00001000
00000010
00000100
,
00001000
00000001
00000100
00000010
00000100
00001000
00010000
00100000
,
01000000
00010000
10000000
01000000
00010000
00001000
00010000
00000100
,
00000010
00000001
00001000
00000010
00000100
00000001
00001000
00000010
,
00000100
00000010
00002000
00000000
00003010
00000100
00000002
00000000
00001003
00000000
00000010
00000000
00010000
00000000
00001000
00000000
,
00000000
00000000
00000000
00000000
00000000
00000000
00000000
00000000
10000000
00000000
00000000
00010000
00000000
00000000
01000000
00000000
,
02200000
00000000
00000000
03300000
,
00010000
00000000
00100000
00000000
00010000
00000000
10000000
00020000
00000000
00000000
01030000
00000000
00100000
00000000
10000000
00000000
,
01000000
00000000
00000000
00100000
00000000
00000000
00001000
00000000
00021000
00000000
00000000
00000000
00031000
00000000
00000100
00000010
,
00002000
00000000
00000000
00003020
00000000
00000000
00000230
00000300
00000002
00000000
00000000
00000023
00000000
00000000
00000230
00000300
,
00002100
00000000
00003100
00010000
00001000
00010000
00100000
10000000
,
00010000
00000000
00000000
00000000
10000000
00000000
01000000
00000000
00010000
00000000
00000000
01000000
00000000
00000000
10000000
00000000
,
00010000
00000000
00000000
00000000
10000000
00000000
00100000
00000000
00010000
00000000
00000000
00100000
00000000
00000000
10000000
00000000
,
01000000
00000000
00100000
00001000
00000000
00010000
00000100
00000000
00001000
00000010
00000000
00010000
,
00001000
00000000
00000000
00010000
00000000
00000000
00001000
00010000
00002000
00000000
00000000
00000000
00013000
00000000
00000010
00001000
,
00000010
00000000
00000100
00000000
00000001
00000000
00000010
00000100
00000010
00000000
00000000
00000001
00000000
00000000
00001000
00000000
,
00000001
00000000
00000000
00000100
00000000
00000000
00001000
00000000
00010000
00000000
00100000
00000000
01000000
00000000
00010000
10000000
,
00010000
00000000
00000000
01000000
00000000
00000000
00100000
00000000
00010000
00000000
00000000
10000000
00000000
00000000
01000000
00000000
,
00020000
00000000
00000000
00000000
10030000
00000000
01000000
00100000
01000000
00000000
00100000
00000000
00001000
00000000
00010000
00001000
,
00010000
00000000
00000100
00000000
00001000
00000000
00000001
00000010
00000001
00000000
00001000
00000000
00000001
00000000
00000100
00000010
,
00000100
00000000
00000000
00000001
00000000
00000000
00000010
00000000
00001000
00000000
00000000
00010000
00000000
00000000
00001000
00000000
,
00011000
00000000
00000000
00000000
00010010
00000000
00000000
00000000
00011000
00000000
00000000
00001000
00000000
00000000
00100000
00000000
,
00101000
00000000
00000000
00010100
00000000
00000000
02002000
00000000
00000000
00000000
03003000
00000000
00010000
00001000
00010000
00001000
,
00020000
00000000
00000000
00000000
00031000
00000000
00100000
00000000
00010000
10000000
00010000
00000000
01000000
00000000
00100000
00000000
,
10000000
00000000
00000000
00100000
00000000
00000000
01000000
00000000
00001000
00000000
00010000
00001000
00000100
00000000
00000010
00000000
,
00001000
00000000
00000000
00000001
00000000
00000000
00000100
00000000
00000000
00001000
00000000
00000000
00010000
00000000
00001000
00000000
,
00100000
00010000
01000000
00001000
00010000
01000000
00010000
00001000
,
00200000
00000000
00000000
00000000
00000000
00000000
00000000
00000000
00301000
00000000
00010000
00001000
00010000
00000000
00000010
00000000
,
00001000
00000100
00001000
00000000
00000001
00000000
00001000
00000100
00001000
00000000
00000010
00000000
00000100
00000000
00000001
00000000
,
00001000
00001000
00000100
00000100
00010000
00010000
00001000
00001000
,
00100000
00010000
10000000
00010000
00100000
01000000
00100000
00010000
,
10000000
00000000
01000000
00100000
00000000
00000000
00001000
00000000
00010000
00000100
00000000
00000000
00000010
00000001
00000010
00000001
,
00000000
00002002
00000000
00000000
00000000
00000000
00003003
00000000
,
00000001
00000100
00000010
00010000
00001000
01000000
00100000
10000000
,
00010000
00100000
10000000
00100000
00010000
01000000
00100000
10000000
,
11000000
01010000
00022000
00000000
,
00000000
00000000
00000000
00000000
,
00000000
00000000
00033000
00001000
00011000
00000000
00000000
00000000
;

//--------------- dance-double - Fred-104 ----------------
#NOTEDATA:;
#STEPSTYPE:dance-double;
#DESCRIPTION:Fred-104;
#DIFFICULTY:Hard;
#METER:17;
#CREDIT:Fred-104;
#NOTES:
00000000
00000000
00000000
00000000
,
00000000
00000000
00000000
00000000
,
00000000
00000000
00000000
00000000
,
00000000
00000000
00000000
00000000
,
00000000
00000000
00000000
00000000
,
00011000
00000000
00010000
00001000
,
00000010
00000001
00001000
00000100
,
00000110
00000011
00001001
00000000
00000001
00000000
00000100
00000001
,
00000011
00000000
00000000
00001010
00000000
00000000
00000101
00000000
00000000
00000000
00000001
00000000
00000010
00000000
00000100
00000010
,
00001000
00000000
00010000
00000000
00100000
01000000
00010000
00000000
10000000
00000000
00100000
00000000
10000000
00000000
01000000
10000000
,
01000000
00000000
00100000
00000000
00001000
00010000
00001000
00000000
01000000
00000000
00001000
00000000
00010000
00000000
00001000
00000010
,
00000100
00000000
00001000
00000000
00000001
00000100
00000001
00000000
00000010
00000000
00000001
00000000
00001000
00000000
00000010
00000100
,
00000010
00000000
00001000
00000000
00000100
00000000
00000010
00000001
00000000
00001000
00000010
00000000
00010000
00000000
00001000
00000000
,
00100000
00000000
00001000
00000000
00010000
00000100
00001000
00000000
00000100
00000000
00000010
00000000
00000001
00000000
00001000
00000001
,
00000100
00000000
00000010
00000000
00001000
00000100
00010000
00000000
00001000
00000000
00100000
00010000
01000000
00000000
00100000
10000000
,
01000000
00000000
10000000
00000000
00010000
00100000
01000000
00000000
00100000
00000000
00001000
00010000
00001000
00000000
01000000
00001000
,
00010000
00000000
00001000
00000010
00000100
00000000
00001000
00000100
00000000
00000010
00000001
00001000
00000001
00000100
00000010
00000000
,
00000100
00000001
00000100
00000000
00000010
00001000
00000010
00000000
00010000
00001000
00010000
00000000
00000100
00001000
00000100
00000000
,
00010000
00001000
00100000
00010000
01000000
00100000
10000000
00000000
01000000
00100000
00010000
00100000
00001000
00010000
00001000
00000000
,
00021000
00000000
00030020
00000000
00010030
00012000
00000000
00203000
,
00000000
00000000
00301000
00000000
00010000
00000000
00001000
00000000
00000010
00000100
00001000
00000000
00000001
00000100
00000010
00001000
,
00000002
00000000
00000203
00000000
00001300
00021000
00000000
00230000
,
00000000
00000000
01300000
00000000
00010000
00000000
10000000
00000000
00100000
10000000
01000000
00000000
10000000
01000000
00100000
00010000
,
20000000
00000000
30200000
00000000
00310000
00011000
00000000
00001010
,
00000000
00000000
00000011
00000000
00000001
00000000
00001000
00000000
00000001
00000100
00000010
00001000
00000100
00000010
00000001
00001000
,
00000020
00000000
00000000
00000000
00000032
00000000
00000000
00000000
00000013
00000000
00000110
00000000
00000000
00000000
00000100
00000001
,
00001000
00000000
00000000
00010100
00000000
00000000
00022000
00000000
00000000
00000000
00033000
00000000
00010000
00001000
00010000
00001000
,
00020000
00000000
00000000
00000000
00000000
00000000
00000000
00000000
00000000
00000000
00031000
00100000
00010000
10000000
00010000
00000000
,
01000000
00100000
01000000
00010000
00100000
00001000
00020000
00000000
00000000
00000000
00031000
00010000
00000010
00001000
00000010
00010000
,
00001000
00010000
00000100
00001000
00000100
00000010
00000001
00000000
00001000
00000001
00000100
00000001
00000010
00000100
00000010
00000000
,
00001000
00010000
00100000
01000000
00010000
10000000
00100000
00000000
02000000
00000000
03100000
10000000
00100000
01000000
00001000
00010000
,
00002000
00000000
00000000
00000000
00000000
00000000
00000000
00000000
00000000
00000000
00103000
00001000
00010000
00000010
00001000
00000000
,
00000100
00000010
00000001
00001000
00000010
00000100
00000020
00000000
00000000
00001030
00000010
00000100
00000001
00000010
00000001
00000000
,
00001000
00000010
00000100
00000001
00001000
00000100
00000010
00000000
00000001
00000100
00000010
00001000
00000100
00010000
00001000
00000000
,
00100000
00010000
10000000
00010000
01000000
00100000
20000000
00000000
00000000
00000000
31000000
00010000
01000000
10000000
00100000
10000000
,
00200000
00000000
00000000
00000000
00000000
00000000
00000000
00000000
20300000
00000000
00000000
32000000
00000000
00000000
03020000
00000000
,
00000000
00000000
00000000
00000000
00000000
00000000
00000000
00000000
00031000
00000000
00010000
00001000
00000010
00000000
00000100
00001000
,
00000002
00000000
00000000
00000000
00000000
00000000
00000000
00000000
00000203
00000000
00000000
00000320
00000000
00000000
00002030
00000000
,
00000000
00000000
00000000
00000000
00000000
00000000
00000000
00000000
00003001
00000010
00000100
00001000
00000100
00010000
00001000
00010000
,
00000020
00000000
00000000
00000000
00000000
00000000
00000000
00000000
00020030
00000000
00000000
00032000
00000000
00000000
00023000
00000000
,
00000000
00000000
00000000
00000000
00000000
00000000
00000000
00000000
00032000
00000000
00000000
02003000
00000000
00000000
03020000
00000000
,
00130000
00001000
00010000
00001000
00100000
00010000
10000000
00100000
01000000
00010000
00100000
01000000
00100000
00010000
10000000
00000000
,
01000000
00000000
00100000
00000000
00001000
00000000
00010000
00000000
00000100
00000010
00000001
00000000
00001000
00000010
00000100
00000000
,
00000002
00000023
00002030
00023000
,
02030000
00000000
23000000
00000000
30100000
00010000
00002000
00000000
,
00003200
00000302
00000023
00002030
,
00023000
00000000
02030000
00000000
13000000
00010000
10010000
00000000
,
10000000
00000000
00000000
01000000
00000000
00000000
00100000
00000000
00101000
00000000
00000000
00000000
00001000
00010000
00000010
00010000
,
00001000
00000000
00000000
00000100
00000000
00000000
00000001
00000000
00000011
00000000
00000000
00000000
00001000
00000000
00000100
00000010
,
00000001
00000000
00000100
00000000
00000010
00000000
00001000
00000010
00001000
00000000
00000100
00010000
00001000
00000000
00010000
00000000
,
00011000
00000000
00000000
00000000
00000000
00000000
00000000
00000000
00000000
00010010
00000000
00000000
00000000
00000000
00000000
00000000
00000000
00000000
00011000
00000000
00000000
00000000
00000000
00000000
00001000
00000000
00000000
00100000
00000000
00000000
00010000
00000000
00000000
10000000
00000000
00000000
00010000
00000000
00000000
00000000
00100000
00000000
00000000
00000000
01000000
00000000
00000000
00000000
,
00200000
00000000
00000000
00000000
,
00000000
00000000
00000000
00000000
,
00300000
00000000
00000000
00000000
,
00000000
00000000
00000000
00000000
,
00001000
00000000
00001000
00000010
00000000
00000010
00000100
00000000
00000100
00000001
00000000
00000001
00000010
00000000
00000001
00001000
,
00000001
00000000
00000100
00000010
00000000
00000010
00001000
00000000
00001000
00000100
00000000
00000100
00010000
00001000
00010000
00001000
,
00010000
00000000
00001000
01000000
00000000
01000000
00010000
00000000
00010000
00100000
00000000
00100000
01000000
10000000
00100000
10000000
,
00010000
10000000
01000000
00100000
00010000
00000000
01000000
00001000
00000000
00001000
00000000
00000010
00001000
00000000
00000100
00000000
,
00010100
00010000
00011000
00001000
00101000
00011000
00000000
00010010
,
00000000
00000000
01001000
00000000
00001000
00000000
00010000
00000100
00001000
00000000
00000100
00000000
00000010
00000000
00000001
00000000
,
00000011
00000001
00000101
00000001
00001001
00001100
00000000
00010010
,
00000000
00000000
00001000
00010000
00001000
00000000
00100000
00010000
10000000
00000000
00010000
00100000
01000000
00100000
00010000
00000000
,
10000000
01000000
10000000
00000000
01000000
00100000
01000000
00000000
00100000
00010000
00100000
00000000
00001000
00010000
00001000
00000000
,
00010000
00000010
00001000
00000000
00000100
00000010
00000001
00000000
00001000
00000010
00000100
00000000
00000001
00001000
00000010
00000000
,
00001000
00000100
00000010
00000001
00000010
00000100
00001000
00000000
00000010
00010000
00001000
00100000
00001000
00010000
00000100
00000000
,
00010000
00001000
00100000
00010000
00000000
00000000
01000000
00010000
00100000
00010000
00000000
00000000
10000000
00000000
00000000
11000000
00000000
00000000
00010000
00000000
00000000
00110000
00000000
00000000
,
00000000
00000000
00000000
00000000
00000000
00000000
00000000
00000000
11000000
00000000
00000000
00100000
00000000
00000000
00001000
00000000
,
00022000
00000000
00000000
00033000
,
00010000
00000000
00001000
00000000
00000010
00000000
00000100
00001000
00000000
00000000
00010000
00000000
00100000
00000000
01000000
00000000
,
00010000
00000000
00001000
00010000
00000000
00000100
00000010
00000000
00000100
00000000
00001000
00000000
00000001
00001000
00000001
00000000
,
00000100
00000000
00000001
00000010
00000000
00000010
00001000
00000000
00000001
00000000
00001000
00000100
00000000
00000100
00000001
00000000
,
00001000
00000000
00000001
00000000
00000010
00000000
00000100
00000000
00001000
00000100
00010000
00001000
00100000
00010000
00100000
01000000
,
20000000
00000000
00000000
00000000
30100000
00000000
10000000
00010000
01000000
00000000
10000000
01000000
00000000
00100000
10000000
00000000
,
00200000
00000000
00000000
00000000
01300000
00000000
00001000
00010000
00001000
00000000
00000010
00000100
00000000
00001000
00000001
00000000
,
00001000
00000100
00000010
00000001
00000100
00001000
00010000
00001000
00000100
00000001
00000010
00000001
,
00000011
00000000
00000000
00001000
00000000
00000000
00000010
00010000
00002000
00000000
00000000
00000000
00013000
00000000
00001000
01000000
,
00001000
00000000
00100000
00000000
00010000
00000000
10000000
00010000
00100000
00000000
00010000
01000000
00000000
01000000
10000000
00000000
,
00010000
00000000
10000000
01000000
00000000
01000000
00010000
00000000
00100000
00000000
00001000
00000000
00010000
00000000
00001000
00000010
,
00000001
00000000
00001000
00000001
00000000
00000010
00000001
00000000
00000100
00000000
00000010
00001000
00000000
00000100
00001000
00000000
,
00001020
00000000
00000000
00000000
00010030
00000000
00001000
00010000
00001000
00000000
00100000
00000000
00010000
10000000
00010000
01000000
,
00100000
00000000
10000000
00000000
11000000
00000000
01000000
00100000
00010000
00000000
00100000
00000000
00101000
00000000
00001000
00010000
,
00000010
00000000
00000000
00000000
00000000
00000000
00001000
00000000
00000000
00000010
00000000
00000000
00000000
00000000
00000000
00000100
00000000
00000000
00000010
00000000
00000000
00000000
00000000
00000000
00001000
00000000
00000000
00000000
00000000
00000000
00000001
00000000
00000010
00000000
00000001
00000000
00000010
00000000
00000000
00000000
00000000
00000000
00000001
00000000
00000000
00000000
00000000
00000000
,
00000101
00000000
00000100
00000000
00000110
00000000
00000010
00001000
00000001
00000000
00000000
00000100
00000000
00000000
00001000
00000000
,
00010000
00000000
00000000
00100000
00000000
00000000
20020000
00000000
00000000
00000000
30030000
00000000
10000000
00010000
01000000
00010000
,
20000000
00000000
00000000
00000000
00000000
00000000
00000000
00000000
30010000
10000000
01000000
00000000
00100000
00001000
00010000
00001000
,
00000020
00000000
00000000
00000032
00000000
00000000
00001003
00000001
00000010
00000001
00001000
00000100
00001000
00000010
00010000
00000000
,
00001000
00100000
00010000
01000000
00010000
00100000
00001000
00000000
00010000
00000010
00001000
00000010
00001000
00000100
00010000
00000000
,
00000010
00001000
00000010
00001000
00000100
00010000
00001000
00100000
00010000
01000000
00010000
00100000
00001000
00010000
00000010
00010000
,
00002000
00000000
00000000
00000000
00000000
00000000
00000000
00000000
00000000
00000000
00013000
00001000
00010000
00000010
00001000
00000000
,
00000100
00000010
00000001
00000000
00001000
00000000
00000100
00000010
00000001
00000000
00001000
00000001
00000010
00000100
00001000
00000000
,
00000001
00000100
00000010
00000000
00001000
00000100
00010000
00000000
00001000
00010000
00001000
01000000
00001000
00010000
00001000
00000000
,
00100000
00010000
10000000
00000000
00100000
10000000
01000000
00000000
00100000
00010000
10000000
00000000
00100000
00000000
01000000
00000000
,
00010000
10000000
01000000
00100000
00000000
00000000
00001000
00010000
00000010
00001000
00000000
00000000
00000001
00001000
00000100
00000010
,
00000000
00000022
00000000
00000000
00000000
00000000
00000033
00000000
,
00000001
00000100
00000010
00000000
00001000
00000100
00010000
00000000
00001000
00010000
00001000
00000000
00010000
00000010
00001000
00000000
,
00000010
00010000
00001000
00010000
00000100
00010000
00001000
00100000
00010000
01000000
00010000
00100000
00001000
00010000
00000010
00001000
,
00000100
00000000
00000000
00000010
00000001
00000010
00000001
00000000
00000000
00001000
00000000
00000000
00002002
00000000
00000000
00000000
00000000
00000000
00000000
00000000
00000000
00000000
00000000
00000000
,
00000000
00000000
00000000
00000000
,
00000000
00000000
00003003
00000100
00001001
00000000
00000000
00000000
;
