#TITLE:Catastrophic Dance;
#ARTIST:the wandering bard feat. 志方あきこ;
#ARTISTTRANSLIT:the wandering bard feat. Akiko Shikata;
#BANNER:Catastrophic Dance.png;
#BACKGROUND:Catastrophic Dance-bg.png;
#CDTITLE:./CDTitles/RB Reflesia.png;
#MUSIC:Catastrophic Dance.ogg;
#SAMPLESTART:54.62;
#SAMPLELENGTH:15;
#BPMS:0=145;
#BGSTAGE:30;

//--------------- dance-single - Fred-104 ----------------
#NOTES:
     dance-single:
     Fred-104:
     Beginner:
     2:
     :
0000
0000
0000
0000
,
0000
0000
0000
0000
,
0000
0000
0000
0000
,
0000
0000
0000
0000
,
0000
0000
0000
0000
,
2000
0000
3000
0000
,
0002
0000
0003
0000
,
2000
0000
3000
0000
,
0002
0000
0003
0000
,
1000
0000
0000
0000
,
0001
0000
0000
0000
,
0100
0000
0000
0000
,
0001
0000
0000
0000
,
1000
0000
1000
0000
,
1000
0000
0000
0000
,
0001
0000
0001
0000
,
0001
0000
0000
0000
,
2000
0000
0000
0000
,
3000
0000
0000
0000
,
0002
0000
0000
0000
,
0003
0000
0000
0000
,
1000
0000
0010
0000
,
1000
0000
0000
0000
,
0001
0000
1000
0000
,
0001
0000
0000
0000
,
0100
0000
0001
0000
,
0100
0000
0000
0000
,
0001
0000
1000
0000
,
0001
0000
1000
0000
,
0001
0000
0000
0000
,
0010
0000
0000
0000
,
1000
0000
0000
0000
,
0100
0000
0000
0000
,
0002
0000
0003
0000
,
1000
0000
0010
0000
,
2000
0000
3000
0000
,
0001
0000
1000
0000
,
0002
0000
0003
0000
,
2000
0000
3000
0000
,
0001
0000
1000
0000
,
0001
0000
1000
0000
,
1001
0000
0000
0000
,
0000
0000
0000
0000
,
0000
0000
0000
0000
,
0000
0000
0000
0000
,
2000
0000
0000
0000
,
3000
0000
0000
0000
,
0002
0000
0000
0000
,
0003
0000
0000
0000
,
1000
0000
0000
0000
,
0001
0000
1000
0000
,
0001
0000
0000
0000
,
0100
0000
0010
0000
,
0100
0000
0000
0000
,
0001
0000
0100
0000
,
0001
0000
0001
0000
,
1000
0000
1000
0000
,
0001
0000
0000
0000
,
1000
0000
0000
0000
,
0001
0000
1000
0000
,
0001
0000
1000
0000
,
1001
0000
0000
0000
,
0000
0000
0000
0000
,
0000
0000
0000
0000
,
0000
0000
0000
0000
,
2000
0000
0000
3000
,
0002
0000
0000
0003
,
2000
0000
0000
3000
,
0002
0003
2000
3000
,
1001
0000
0000
0000
;

//--------------- dance-single - Fred-104 ----------------
#NOTES:
     dance-single:
     Fred-104:
     Easy:
     6:
     :
0000
0000
0000
0000
,
0000
0000
0000
0000
,
0000
0000
0000
0000
,
0000
0000
0000
0000
,
0000
0000
0000
0000
,
2000
0000
3020
0000
,
0230
0000
0302
0000
,
2003
0000
3200
0000
,
0320
0000
0032
0000
,
1003
0100
1000
0001
,
0100
0100
0001
0010
,
0001
1000
0001
0100
,
0010
0010
1000
0001
,
2000
0000
3020
0000
,
1030
0100
0010
0001
,
2000
0000
3002
0000
,
0103
0010
1000
0001
,
2002
0000
0000
0000
,
3003
0000
0000
0000
,
0220
0000
0000
0000
,
0330
0000
0000
1001
,
2000
0000
3010
1000
,
0200
0320
0032
2003
,
3002
0000
1003
1000
,
0001
1000
0001
0100
,
2000
0000
3010
0001
,
1000
0001
0100
0010
,
2000
3100
2000
3001
,
0100
0000
0010
0000
0100
0010
0100
0000
,
0110
0000
0100
0001
,
2000
0000
3002
0023
,
0230
0000
1300
0001
,
1000
0010
0100
0001
,
2000
0000
3200
0320
,
0032
0000
0203
0320
,
0230
0000
0302
0023
,
0032
0203
0302
0203
,
0320
0000
2030
3200
,
0320
0032
2003
3010
,
1010
0010
0001
0010
,
1100
0100
0001
0100
,
1000
0000
0000
1000
0000
0000
0000
0000
0000
0000
0000
0000
0000
0000
0000
0000
,
0000
0000
0000
0000
,
0000
0000
0000
0000
,
0000
0000
0000
0000
,
2000
0000
3020
0000
,
2030
3200
0320
0032
,
0203
0000
0302
0000
,
1003
0001
2002
3003
,
0001
0100
0001
0010
,
0001
0001
1000
0001
,
0100
0100
0010
0100
,
0001
1000
0002
0003
,
1000
0010
0100
0001
,
1000
0100
0010
0001
,
1000
0010
0100
0100
,
0001
1000
0002
0003
,
0200
0000
0320
0000
,
2030
3200
0320
0032
,
2003
0000
3002
0000
,
1003
0000
0000
0001
0000
0000
1000
0000
0000
0000
0000
0000
0010
0000
0000
0000
,
0110
0000
0000
0000
,
0000
0000
0000
0000
,
0000
0000
0000
0000
,
0000
0000
0000
0000
,
0002
0023
0032
0023
,
0230
2300
3200
2300
,
3002
0203
0302
0203
,
0310
0000
1000
0000
0001
0000
1000
0001
,
1001
0000
0000
0000
;

//--------------- dance-single - Fred-104 ----------------
#NOTES:
     dance-single:
     Fred-104:
     Medium:
     10:
     :
0000
0000
0000
0000
,
0000
0000
0000
0000
,
0000
0000
0000
0000
,
0000
0000
0000
0000
,
0000
0000
0000
0000
,
0002
0203
0302
0203
,
2300
3020
2030
3020
,
0032
0023
0032
0023
,
2030
3200
2300
3200
,
0301
0001
0100
0000
0010
0000
0100
0000
,
0001
1000
0001
0000
0100
0010
1000
0000
,
0100
0100
0010
0000
0100
0000
1000
0000
,
0001
0100
0001
0000
1000
0010
0100
0000
,
0002
0100
0010
0103
,
0002
2003
3020
0230
,
0310
0000
0000
0000
1000
0000
0000
0000
0001
0000
0000
0100
0000
0000
0010
0000
,
1000
0000
0000
0100
0000
0000
0010
0000
0001
0000
0100
0000
0010
0000
0100
0000
,
0001
0000
0000
0001
0000
0000
1000
0000
0000
1000
0000
0000
0010
0000
0100
0000
,
0000
0000
0001
0000
0010
0000
0001
0000
1000
0000
0000
0010
0000
0000
0100
0000
,
0010
0000
0000
0010
0000
0000
1000
0000
0000
1000
0000
0000
0001
0000
0100
0000
,
0000
0001
0010
0100
1000
0000
1100
0000
,
1000
0010
0100
0010
1000
0010
1000
0000
,
0001
0010
0001
0100
0001
0100
0001
0000
,
0100
0010
1000
0010
0100
0010
0100
0000
,
0001
0100
0001
0100
0001
1000
0001
0000
,
1000
0010
0100
0000
0010
1000
0100
0010
,
0001
0000
0100
0000
0001
0100
0010
1000
,
1002
0103
2001
3100
,
1002
0013
2001
3010
,
0002
0100
0000
0103
0001
0000
0010
0100
,
2000
0010
0000
3010
0200
0000
0302
0000
,
0023
0100
0000
0130
1000
0000
0010
0000
,
0100
0001
0100
0001
1000
0010
0100
0010
,
2000
0000
3002
2003
,
3020
1000
0001
0130
,
0002
0000
0203
0320
,
2030
3020
0032
0203
,
2300
0000
0010
0000
3010
0000
1000
0001
,
0200
0302
0023
0032
,
1003
0010
1000
0100
0010
0001
0100
0001
,
1000
0001
1000
0001
0100
0010
1000
0000
,
0001
0000
0000
1001
0000
0000
0000
0000
0000
0000
0000
0000
0000
0000
0000
0000
,
0000
0000
0000
0000
,
0000
0000
0000
0000
,
0000
0000
0000
0000
,
2000
0000
3020
0000
,
0230
0302
2003
3002
,
0023
0000
0000
0000
0000
0000
0000
0000
0031
0000
0000
0001
0000
0000
0001
0000
,
1000
0000
0000
0001
0000
0000
1000
0000
2002
0000
0000
0000
3003
0000
0000
0000
,
0001
0100
0001
0100
0001
0100
0010
0000
,
1000
0100
1000
0100
0010
0100
1000
0000
,
0010
1000
0010
1000
0100
1000
0001
0000
,
2000
3020
0230
0302
,
1003
0001
0100
0001
0010
0001
0100
0000
,
0001
0010
0100
0010
0001
1000
0010
0000
,
1000
0010
0100
0010
1000
0100
0010
0001
,
1000
0000
0100
0000
0001
0000
0100
0000
1000
0000
0010
0000
0100
0000
0001
1000
,
0002
0010
0100
0013
,
0200
1000
0001
1300
,
0001
0001
0010
0100
1000
1000
0010
0100
,
0001
0000
0000
0101
0000
0000
1000
0000
0000
1100
0000
0000
0001
0000
0100
0010
,
0100
0000
0000
0000
,
0000
0000
0000
0000
,
0000
0000
0000
0000
,
0000
0000
0000
1001
,
1000
0100
1000
0100
0010
0001
0010
0001
,
1000
0010
1000
0010
0100
0001
0100
0001
,
1000
0001
1000
0000
0100
0000
0010
0000
0001
1000
0001
0000
0100
0000
0010
0000
,
1000
0000
0100
1000
0100
0000
0010
0100
0010
0000
0001
0000
1000
0001
1000
0002
,
0003
0000
0000
0000
;

//--------------- dance-single - Fred-104 ----------------
#NOTES:
     dance-single:
     Fred-104:
     Hard:
     14:
     :
0000
0000
0000
0000
,
0000
0000
0000
0000
,
0000
0000
0000
0000
,
0000
0000
0000
0000
,
0000
0000
0000
0000
,
2001
3200
0320
0032
,
2003
3002
0203
0320
,
2030
3020
0032
0203
,
2300
3002
0203
0320
,
1030
1100
1000
0010
0100
0001
0010
0100
,
1000
0010
1000
0100
1000
0010
1000
0100
1000
0000
0001
0000
0100
0000
0010
0000
,
0100
0110
0100
0010
1000
0001
0100
0100
,
0001
0010
0001
1000
0001
0100
0001
0010
0001
0000
1000
0000
0020
0000
0000
0000
,
1030
0100
1000
0010
0100
0001
0010
0100
,
2000
0010
3002
0100
,
1003
0000
0010
0000
1000
0000
0100
0000
0010
0000
0000
0011
0000
0000
0001
0000
,
1000
0000
0000
1010
0000
0000
0010
0000
0100
0001
0100
0001
0010
0001
1000
0000
,
1001
0000
0000
1000
0000
0000
0001
0000
0000
0001
0000
0000
0100
0000
0010
0000
,
0000
0000
1000
0000
0010
0000
0100
0000
1000
0000
0000
0100
0000
0000
0001
0000
,
1000
0000
0000
1000
0000
0000
0001
0000
0000
0001
0000
0000
0010
0000
0100
0000
,
0000
0001
0100
1000
0001
0000
1001
0000
,
1000
0100
1000
0000
0010
0100
0010
0000
1000
0010
1000
0000
0001
0100
0001
0000
,
0100
0000
0001
0010
0100
0000
1000
0000
0010
0000
1000
0010
0100
0000
0001
0000
,
0010
0001
0010
0000
0001
1000
0001
0000
0100
0010
0100
0000
0010
1000
0010
0000
,
1000
0000
0100
1000
0001
0000
0100
0000
0001
0000
0010
0100
1000
0000
0001
0000
,
0100
0010
0100
0000
0010
1000
0010
0000
1000
0100
1000
0000
0001
1000
0001
1000
,
0001
0000
0100
0001
0010
0000
0100
0000
0010
0000
0001
1000
0010
0000
0100
0000
,
0101
0000
0000
0000
0001
0000
1000
0000
1100
0000
0000
1000
0010
0000
0100
0010
,
0100
0000
0001
0000
1000
0000
0001
0000
0100
0010
0100
0010
0100
0000
0001
1000
,
0002
0100
0000
0103
0001
1000
0010
0100
,
0020
1000
0000
1030
0100
1000
0001
0010
,
0200
1000
0000
1300
0001
0100
0010
0100
,
0001
0000
0010
0001
0010
0000
0001
1000
0001
1000
0001
1000
0001
0000
0100
0010
,
2000
0010
3002
0203
,
0320
1000
0100
1030
,
0002
1000
0010
2003
,
3002
0203
2300
3020
,
0032
0000
0100
0000
0010
0000
2003
3200
,
0320
0000
0032
0000
0203
2300
3100
0000
,
0101
0001
1000
0010
1100
1000
0010
0100
,
0001
0010
0001
0000
1000
0010
1000
0000
0001
1000
0001
1000
0001
0000
0100
0010
,
1000
0000
0000
1001
0000
0000
0000
0000
0000
0000
0000
0000
0000
0000
0000
0000
,
0000
0000
0000
0000
,
0000
0000
0000
0000
,
0000
0000
0000
0000
,
0002
0000
0023
0000
,
0032
0203
2300
3200
,
0320
0000
0000
0000
2030
0000
0000
0000
3200
0000
0000
0320
0000
0000
0032
0000
,
2003
0000
0000
3002
0000
0000
0103
0000
0110
0000
0000
0000
0000
0000
0000
0000
,
0010
1000
0010
0000
1000
0100
1000
0000
0001
0100
0001
0000
0100
0010
0100
0000
,
0001
0000
0010
0001
0010
0001
0010
0000
0001
1000
0001
1000
0001
0000
0100
0000
,
0010
1000
0010
0000
0100
0010
0100
0000
0001
0100
0001
0000
1000
0001
1000
0000
,
0001
0100
0001
0100
0001
0000
1000
0010
1000
0010
1000
0010
0100
0000
0001
0000
,
1000
0000
0010
1000
0010
0000
0100
0000
0001
0000
0010
0001
0010
0000
0100
0000
,
1000
0100
1000
0000
0001
0100
0001
0000
1000
0010
1000
0000
0001
0010
0001
0000
,
1001
0000
1000
0000
0100
0000
0000
0000
1001
0000
0001
0000
0100
0000
0001
0010
,
0001
0000
0100
0000
0010
0000
0100
0001
1000
0001
1000
0001
1000
0000
0001
1000
,
0020
1000
0100
1030
,
0002
0000
0023
0000
2030
0000
3200
0300
,
0011
0000
0001
0000
1000
0000
0010
0000
1000
0100
1000
0100
1000
0100
1000
0100
,
0010
0000
0000
0011
0000
0000
1001
0000
0000
1000
0010
0000
0100
0000
0001
1000
,
0001
0000
0000
0000
,
0000
0000
0000
0000
,
0000
0000
0000
0000
,
0000
0000
0000
1001
,
1000
0010
1000
0010
1000
0010
1000
0010
1000
0010
1000
0010
1000
0010
1000
0010
,
0100
0001
0100
0001
0100
0001
0100
0001
0100
0001
0100
0001
0100
0001
0100
0001
,
1000
0001
1000
0001
1000
0001
1000
0001
0100
0010
0100
0010
0100
0010
0100
0010
,
1000
0000
0001
0100
0001
0000
0100
0010
0100
0010
0100
0010
0100
0000
0001
2000
,
3000
0000
0000
0000
;

//--------------- dance-single - Fred-104 ----------------
#NOTES:
     dance-single:
     Fred-104:
     Challenge:
     18:
     :
0000
0000
0000
0000
,
0000
0000
0000
0000
,
0000
0000
0000
0000
,
0000
0000
0000
0000
,
0000
0000
0000
0000
,
2100
3020
0032
0203
,
2300
3200
0302
0023
,
2030
3100
0002
0013
2000
3100
0002
0013
,
2000
3010
0002
0103
2000
3010
0002
0103
,
1000
1000
0001
0001
1000
0100
0010
0001
0100
0001
0010
0001
1000
0001
0100
0001
,
0010
0100
1000
0010
0100
0001
0010
0001
1000
0001
0100
0010
1000
0100
0010
0000
,
0001
0001
1000
1000
0001
0100
0001
0100
0010
1000
0100
0010
0001
0100
0010
1000
,
0001
0010
0001
0100
0010
1000
0100
0010
0001
0000
0100
0010
1000
0001
0010
0100
,
1000
0000
0010
1000
0001
0000
1000
0010
0100
0000
1000
0100
0001
0000
1000
0010
,
2000
0000
0010
3000
0002
0000
0100
0003
2000
0000
0010
3000
0002
0000
0100
0003
,
1000
0100
0010
0000
0001
0100
0010
0000
1000
0100
0010
1000
0001
0100
0010
0001
,
1000
0000
0000
0100
0000
0000
1000
0000
0000
0010
0000
0000
0100
0000
0000
0001
0000
0000
1000
0000
0000
0100
0000
0000
0010
0000
0000
0001
0000
0000
1000
0000
0010
0000
0100
0000
0010
0000
0000
1000
0000
0000
0001
0000
0000
0100
0000
0000
,
0001
0000
0000
0010
0000
0100
1000
0000
0000
0010
0000
0010
0001
0000
0100
0000
,
0000
0000
1000
0000
0001
0000
0100
0000
0120
0000
0000
1000
0000
0000
0130
0000
,
1000
0000
0000
0100
0000
0010
1000
0000
0000
0010
0000
0010
0001
0000
1000
0000
,
0000
0000
0000
0000
0000
0000
0000
0000
0000
0000
0000
0000
0000
0000
0000
0000
0000
0000
0000
0000
0000
0000
0000
0000
0010
0000
0000
0000
0000
0000
0000
0000
0000
0000
0000
0000
0000
0000
0000
0000
0000
0000
0000
0000
0000
0000
0000
0000
0100
0000
0000
0000
0000
0000
0000
0000
0000
0000
0000
0000
0000
0000
0000
0000
0000
0000
0000
0000
0000
0000
0000
0000
1000
0000
0000
0000
0000
0000
0000
0000
0000
0000
0000
0000
0000
0000
0000
0000
0000
0000
0000
0000
0000
0000
0000
0000
0100
0000
0000
0000
0000
0000
0000
0000
0000
0000
0000
0000
0000
0000
0000
0000
0000
0000
0000
0000
0000
0000
0000
0000
0000
0000
0000
0000
0000
0000
0000
0000
0000
0000
0000
0000
0000
0000
0000
0000
0000
0000
0000
0000
0000
0000
0000
0000
0202
0303
0000
0000
0000
0000
0000
0000
0000
0000
0000
0000
0000
0000
0000
0000
0000
0000
0000
0000
0000
0000
0000
0000
0000
0000
0000
0000
0000
0000
0000
0000
0000
0000
0000
0000
0000
0000
0000
0000
0000
0000
0000
0000
0000
0000
0000
0000
,
0001
0010
1000
0010
0001
0100
0001
0010
1000
0010
0001
0100
0001
0010
0001
1000
,
0100
1000
0100
0010
0001
1000
0010
0100
1000
0100
0001
1000
0100
0010
0001
1000
,
0001
0010
0100
0001
0100
1000
0001
0100
0010
0001
0010
1000
0001
0100
0010
1000
,
0001
1000
0100
0010
0001
0100
0010
1000
0010
0100
1000
0100
0010
1000
0100
0010
,
0001
0100
0010
1000
0100
0010
0001
0100
0010
1000
0100
1000
0010
0100
0001
0100
,
0010
1000
0100
0010
0001
1000
0100
0010
0011
0000
0001
0000
1001
0000
1000
0000
,
1001
0000
0000
0000
1100
0000
0100
0000
0101
0000
0000
0100
1000
0000
0010
1000
,
0001
0000
0000
0100
0000
0000
1000
0000
0000
0100
0000
0000
0001
0000
0000
0010
0000
0000
1000
0000
0000
0010
0000
0000
0001
0000
0000
0100
0000
0000
1000
0000
0000
0100
0000
0000
0010
0000
0000
0000
0000
0000
1000
0000
0100
0000
0010
0000
,
0002
0000
0100
0000
0000
0000
0103
0000
0010
1000
0100
1000
0010
0100
0001
1000
,
0200
0000
0010
0000
0000
0000
0310
0000
0001
0100
0010
0100
0001
1000
0100
0010
,
0002
0000
1000
0000
0000
0000
1003
0000
0010
1000
0100
0010
0100
1000
0010
0100
,
0001
0000
1000
0001
0100
0000
0001
0100
0010
0001
0010
1000
0001
0100
0010
1000
,
0002
0100
2003
3020
,
0230
0000
0000
0000
0001
0000
0000
0000
0301
0010
1000
0000
0001
0100
1000
0000
,
1002
0100
0010
0203
,
0301
0010
1000
0010
0001
0000
1000
0010
0001
0010
1000
0000
0001
0100
1000
0100
,
0002
0000
0100
0000
1000
0000
0023
0032
,
2003
0000
3020
0000
0230
0302
2003
0000
,
3001
0100
0001
0100
0010
0001
0010
0001
1000
0100
1000
0100
0010
1000
0010
1000
,
0001
0000
0000
1000
0000
0000
0100
0000
0000
0010
0000
0000
0001
0000
0000
0010
0000
0000
0100
0000
0000
0010
0000
0000
0001
0000
0000
0100
0000
0000
0100
0000
0000
1000
0000
0000
0010
0000
0000
0000
0000
0000
0100
0000
0001
0000
1000
0000
,
0001
0000
0000
1001
0000
0000
0000
0000
0000
0000
0000
0000
0000
0000
0000
0000
,
0000
0000
0000
0000
,
0000
0000
0000
0000
,
0000
0000
0000
0000
,
0011
0020
0000
1030
0020
0000
0031
1000
,
0002
0100
1000
0013
,
0001
0010
0001
0100
0010
1000
0100
0010
0001
0100
0010
1000
0100
1000
0010
0100
,
0001
0000
0000
0010
0000
0000
0100
0000
0000
1000
0000
0000
0010
0000
0000
0100
0000
0000
0001
0000
0000
0010
0000
0000
0100
0000
0000
1000
0000
0000
0010
0000
0000
0100
0000
0000
0001
0000
0100
0000
0001
0000
0100
0000
0001
0000
0100
0000
,
0010
1000
0100
0010
0001
1000
0010
0100
0010
1000
0100
1000
0010
0100
0001
0010
,
0001
0100
0010
0100
0001
1000
0100
0010
0001
0100
0010
0001
0010
1000
0001
0100
,
0001
0010
0100
0010
0001
0100
0001
0010
0100
1000
0010
0100
0001
0010
0001
1000
,
0100
0000
0000
0000
1000
0000
0000
0000
0010
0000
0000
0000
0100
0000
0000
0000
0001
0000
0000
0000
1000
0000
0000
0000
0100
0000
0000
0000
0000
0000
0000
0000
0010
0000
0000
0000
0001
0000
0000
0000
1000
0000
0000
0000
0010
0000
0000
0000
0200
0300
0000
0000
0000
0000
0000
0000
0200
0300
0000
0000
0000
0000
0000
0000
,
1000
0010
1000
0100
0010
0001
1000
0001
0100
0010
0100
0001
1000
0001
0100
0010
,
1010
0000
1000
0010
0100
0000
0001
0100
0010
0000
1000
0100
0010
0001
1000
0000
,
1002
0000
0103
0100
1000
0000
0001
0000
2001
0000
3100
0100
0001
0000
1000
0001
,
0100
0000
0000
0001
0000
0000
1000
0000
0000
0001
0000
0000
0010
0000
0000
0010
0000
0000
1000
0000
0000
0001
0000
0000
0100
0000
0000
0000
0000
0000
0001
0000
0010
0000
0100
0000
1000
0000
0000
0010
0000
0000
0100
0000
0000
0001
0000
0000
,
1000
0100
0010
0001
0100
0010
1000
0010
0100
0001
0010
0100
0010
0001
1000
0001
,
1000
0100
1000
0100
0010
1000
0010
1000
0001
0100
0001
0100
0010
0001
0010
0001
,
1000
0000
1000
0000
0001
0000
0001
0000
0100
0010
1000
0010
0100
0001
1000
0100
,
1100
0000
0000
0000
0000
0000
0000
0000
0000
0101
0000
0000
0000
0000
0000
0000
0000
0000
1001
0000
0000
0000
0000
0000
0000
0000
0001
0000
0010
0000
0100
0000
1000
0000
0001
0000
1000
0000
0000
0010
0000
0000
0100
0000
0000
0001
0000
0000
,
1001
0000
0000
0000
,
0000
0000
0000
0000
,
0000
0000
0000
0000
,
0000
0000
0000
1001
,
1000
0100
0010
0001
1000
0100
0010
0001
1000
0010
0100
0001
1000
0010
0100
0001
,
1000
0001
0010
0100
1000
0001
0010
0100
1000
0001
0100
0010
1000
0001
0100
0010
,
1000
0100
1000
0100
1000
0100
0010
0001
0010
0001
0010
0001
1000
0001
1000
0001
1000
0001
0100
0010
0100
0010
0100
0010
,
1000
0100
0100
0001
1000
0000
0001
0100
0100
1000
0001
0000
1000
0100
0010
2002
,
3003
0000
0000
0000
;

//--------------- dance-double - Fred-104 ----------------
#NOTES:
     dance-double:
     Fred-104:
     Easy:
     6:
     :
00000000
00000000
00000000
00000000
,
00000000
00000000
00000000
00000000
,
00000000
00000000
00000000
00000000
,
00000000
00000000
00000000
00000000
,
00000000
00000000
00000000
00000000
,
00002000
00000000
00023000
00000000
,
00032000
00000000
00203000
00000000
,
00302000
00000000
00023000
00000000
,
00032000
00000000
02003000
00000000
,
03010000
10000000
00010000
00000000
,
01000000
00100000
10000000
01000000
,
00100000
00001000
00100000
00000000
,
00001000
00010000
00001000
00001000
,
00020000
00000000
00030020
00000000
,
00001030
00000100
00010000
00000010
,
00002000
00000000
00003002
00000000
,
00001003
00000100
00000010
00000001
,
00002002
00000000
00000000
00000000
,
00003003
00000000
00000000
00000000
,
00022000
00000000
00000000
00000000
,
00033000
00000000
00000000
10010000
,
00020000
00000000
00130000
00010000
,
20000000
30020000
02030000
03200000
,
20300000
00000000
30100000
01000000
,
00010000
00100000
00001000
00000010
,
00000200
00000000
00001300
00000001
,
00000100
00000010
00001000
00000001
,
00002000
00003001
00000200
00000310
,
00001000
00000000
00000100
00000000
00010000
00001000
00010000
00000000
,
00011000
00000000
00001000
01000000
,
00020000
00000000
00230000
00302000
,
00023000
00000000
00031000
00100000
,
00001000
00010000
01000000
10000000
,
00020000
00000000
20030000
30200000
,
02300000
00000000
03020000
00230000
,
00302000
00000000
02003000
03002000
,
00023000
00032000
00003020
00000230
,
00002300
00000000
00003002
00000203
,
00002300
00023000
00230000
10300000
,
10010000
10000000
01000000
00100000
,
00110000
00001000
00010000
00000010
,
00000100
00000000
00000000
00000100
00000000
00000000
00000000
00000000
00000000
00000000
00000000
00000000
00000000
00000000
00000000
00000000
,
00000000
00000000
00000000
00000000
,
00000000
00000000
00000000
00000000
,
00000000
00000000
00000000
00000000
,
00000001
00000010
00001000
00000000
,
00010000
00100000
10000000
00010000
,
02000000
00000000
03200000
00000000
,
10300000
01000000
02200000
03300000
,
00001000
00010000
00001000
00001000
,
01000000
00001000
00010000
00010000
,
00000100
00001000
00000010
00000010
,
00000100
00000001
00000200
00000300
,
00000001
00000010
00000100
00001000
,
00000010
00010000
00001000
00000100
,
00000010
00010000
00001000
00100000
,
01000000
10000000
00020000
00030000
,
20000000
00000000
32000000
00000000
,
03200000
00302000
00023000
00030200
,
00000320
00000000
00000032
00000000
,
00000103
00000000
00000000
00000100
00000000
00000000
00000100
00000000
00000000
00000000
00000000
00000000
00000010
00000000
00000000
00000000
,
00001001
00000000
00000000
00000000
,
00000000
00000000
00000000
00000000
,
00000000
00000000
00000000
00000000
,
00000000
00000000
00000000
00000000
,
00000002
00000203
00000320
00002030
,
00023000
02030000
03200000
20300000
,
30020000
20030000
32000000
03200000
,
00301000
00000000
00010000
00000000
00001000
00000000
00010000
00001000
,
00011000
00000000
00000000
00000000
;

//--------------- dance-double - Fred-104 ----------------
#NOTES:
     dance-double:
     Fred-104:
     Medium:
     10:
     :
00000000
00000000
00000000
00000000
,
00000000
00000000
00000000
00000000
,
00000000
00000000
00000000
00000000
,
00000000
00000000
00000000
00000000
,
00000000
00000000
00000000
00000000
,
00020000
02030000
23000000
30200000
,
00320000
00032000
00003020
00000032
,
00000203
00002300
00023000
02030000
,
23000000
30200000
00320000
00032000
,
00013000
00010000
00010000
00000000
00001000
00000000
01000000
00000000
,
00001000
00010000
00000100
00000000
00001000
00000001
00000100
00000000
,
00000010
00000010
00000010
00000000
00001000
00000000
00000001
00000000
,
00001000
00000001
00000100
00001000
00010000
01000000
10000000
00000000
,
00020000
01000000
00001000
01030000
,
00002000
00023000
00030200
00002300
,
00003010
00000000
00000000
00000000
00010000
00000000
00000000
00000000
00001000
00000000
00000000
00010000
00000000
00000000
00100000
00000000
,
01000000
00000000
00000000
00010000
00000000
00000000
10000000
00000000
01000000
00000000
00100000
00000000
00001000
00000000
00000000
00000000
,
00001000
00000000
00000000
00010000
00000000
00000000
00001000
00000000
00000000
00010000
00000000
00000000
00000010
00000000
00001000
00000000
,
00000000
00000000
00000001
00000000
00000100
00000000
00000010
00000000
00001000
00000000
00000000
00000001
00000000
00000000
00000010
00000000
,
00000100
00000000
00000000
00000100
00000000
00000000
00010000
00000000
00000000
00010000
00000000
00000000
00001000
00000000
01000000
00000000
,
00000000
00010000
10000000
01000000
00100000
00000000
00011000
00000000
,
00001000
00100000
00010000
01000000
00010000
00100000
00010000
00000000
,
01000000
00001000
00010000
00000100
00001000
00000010
00010000
00000000
,
00000010
00001000
00000100
00010000
00001000
00100000
01000000
00000000
,
00100000
00001000
00010000
00001000
01000000
00001000
00010000
00000000
,
00010000
00001000
00000010
00000000
00001000
00010000
00100000
10000000
,
00010000
00000000
10000000
00000000
01000000
00100000
00010000
00000000
,
00021000
00130000
00012000
00003010
,
00012000
01003000
00021000
00030010
,
00002000
00010000
00000000
00013000
00000010
00000000
00001000
00000001
,
00000020
00000001
00000000
00000031
00000200
00000000
00000320
00000000
,
00002030
00000100
00000000
00003100
00010000
00000000
00001000
00000000
,
00010000
00001000
01000000
00100000
00010000
00001000
01000000
00001000
,
00020000
00000000
02030000
03200000
,
02300000
10000000
00100000
13000000
,
02000000
00000000
03020000
00032000
,
00003020
00000032
00002003
00003020
,
00020030
00000000
00001000
00000000
00031000
00000000
00010000
00001000
,
00200000
00320000
20030000
30020000
,
10030000
01000000
00010000
00001000
00010000
00001000
00000100
00000001
,
00000010
00001000
00000010
00001000
00010000
00100000
10000000
00000000
,
00010000
00000000
00000000
10010000
00000000
00000000
00000000
00000000
00000000
00000000
00000000
00000000
00000000
00000000
00000000
00000000
,
00000000
00000000
00000000
00000000
,
00000000
00000000
00000000
00000000
,
00000000
00000000
00000000
00000000
,
00002000
00000000
00023000
00000000
,
00030020
00002030
00003200
00020300
,
00030020
00000000
00000000
00000000
00000000
00000000
00000000
00000000
00010030
00000000
00000000
00001000
00000000
00000000
00010000
00000000
,
00001000
00000000
00000000
01000000
00000000
00000000
00100000
00000000
02200000
00000000
00000000
00000000
03300000
00000000
00000000
00000000
,
10000000
01000000
10000000
01000000
00010000
00001000
00010000
00000000
,
00001000
00010000
00001000
00010000
01000000
00010000
01000000
00000000
,
10000000
01000000
00010000
00001000
00010000
00001000
00000100
00000000
,
00000002
00002003
00003020
00000230
,
00000301
00000010
00000001
00000010
00001000
00000010
00001000
00000000
,
00010000
00100000
00010000
00100000
10000000
00100000
10000000
00000000
,
00100000
00010000
00001000
00010000
00100000
10000000
00010000
10000000
,
01000000
00000000
00100000
00000000
00001000
00000000
00010000
00000000
00000100
00000000
00000010
00000000
00000001
00000000
00001000
00000001
,
00002000
00000010
00010000
00003010
,
00020000
00000100
01000000
00030100
,
00010000
00010000
00001000
00100000
00010000
00010000
10000000
01000000
,
00100000
00000000
00000000
00110000
00000000
00000000
00001000
00000000
00000000
00110000
00000000
00000000
01000000
00000000
00100000
10000000
,
00100000
00000000
00000000
00000000
,
00000000
00000000
00000000
00000000
,
00000000
00000000
00000000
00000000
,
00000000
00000000
00000000
00011000
,
10000000
00100000
00010000
00001000
00000100
00000010
00001000
00000001
,
00000010
00000100
00000010
00001000
00010000
01000000
00100000
00010000
,
10000000
01000000
10000000
00000000
00100000
00000000
01000000
00000000
00001000
00010000
00001000
00000000
00010000
00000000
00000100
00000000
,
00001000
00000000
00000001
00000010
00000001
00000000
00001000
00000010
00001000
00000000
00000001
00000000
00000100
00000010
00000100
00000020
,
00000030
00000000
00000000
00000000
;

//--------------- dance-double - Fred-104 ----------------
#NOTES:
     dance-double:
     Fred-104:
     Hard:
     14:
     :
00000000
00000000
00000000
00000000
,
00000000
00000000
00000000
00000000
,
00000000
00000000
00000000
00000000
,
00000000
00000000
00000000
00000000
,
00000000
00000000
00000000
00000000
,
00001002
00000023
00000230
00020300
,
00032000
00203000
02300000
23000000
,
30020000
20030000
32000000
03020000
,
00032000
00003020
00000230
00002300
,
00003001
00000011
00000001
00001000
00000010
00000100
00000001
00001000
,
00000100
00000010
00000100
00000000
00000010
00000001
00000010
00000000
00000001
00000000
00000100
00000000
00001000
00000000
00000000
00000000
,
00010000
00011000
00010000
00001000
00010000
01000000
10000000
00010000
,
01000000
00100000
01000000
00000000
00100000
10000000
00100000
10000000
01000000
00000000
00100000
00000000
00020000
00000000
00000000
00000000
,
01030000
00001000
00010000
00001000
00000010
00000100
00001000
00000001
,
00000200
00000010
00001000
00000301
,
00000100
00000000
00000001
00000000
00000010
00000000
00000001
00000000
00001000
00000000
00000000
00000010
00000000
00000000
00010000
00000000
,
00001000
00000000
00000000
00100000
00000000
00000000
01000000
00000000
10000000
00100000
10000000
00100000
01000000
00100000
01000000
00100000
,
10000000
00000000
00000000
01000000
00000000
00000000
00100000
00000000
00000000
00001000
00000000
00000000
00010000
00000000
00010000
00000000
,
00000000
00000000
00000010
00000000
00001000
00000000
00000100
00000000
00010000
00000000
00000000
00001000
00000000
00000000
00000100
00000000
,
00000001
00000000
00000000
00000010
00000000
00000000
00000100
00000000
00000000
00010000
00000000
00000000
00001000
00000000
00001000
00000000
,
00000000
00010000
00100000
10000000
01000000
00000000
01010000
00000000
,
00001000
00010000
00001000
00000000
00010000
00000100
00010000
00000000
00000100
00001000
00000100
00000000
00001000
00000010
00001000
00000000
,
00000001
00000000
00000100
00000010
00000100
00000000
00000001
00000000
00001000
00000000
00000100
00000010
00000100
00000000
00001000
00000000
,
00000001
00000100
00000001
00000000
00001000
00000100
00001000
00000000
00000010
00010000
00000010
00000000
00010000
00001000
00010000
00000000
,
00001000
00000000
00100000
00010000
00100000
00000000
00010000
00000000
10000000
00000000
00010000
01000000
00010000
00000000
01000000
00000000
,
00100000
10000000
00100000
00000000
10000000
01000000
10000000
00000000
00010000
01000000
00010000
00000000
10000000
00100000
01000000
00100000
,
10000000
00000000
01000000
00100000
00010000
00000000
01000000
00000000
00001000
00000000
00010000
01000000
10000000
00000000
00010000
00000000
,
10010000
00000000
00000000
00000000
10000000
00000000
01000000
00000000
01100000
00000000
00000000
00100000
00001000
00000000
00010000
00000100
,
00001000
00000000
00000010
00000000
00000100
00000000
00000001
00000000
00001000
00000100
00001000
00000010
00000100
00000000
00000001
00001000
,
00000200
00000010
00000000
00000310
00000001
00000100
00001000
00010000
,
00002000
01000000
00000000
01003000
00001000
00010000
00001000
00000010
,
00000200
00001000
00000000
00001300
00000001
00000010
00001000
00010000
,
01000000
00000000
00100000
00010000
10000000
00000000
00100000
01000000
00010000
00000000
00100000
00001000
00010000
00000000
00010000
00001000
,
00020000
00000010
00230000
00302000
,
00023000
00001000
01000000
00031000
,
00020000
00000100
01000000
00030010
,
00010000
00001000
00010000
00000010
00010000
00000000
00001000
00010000
00001000
00100000
00001000
00000000
00100000
00000000
00010000
00000000
,
02000000
00000000
00010000
00000000
10000000
00000000
03010000
00100000
,
00002000
00000000
00023000
00000000
00032000
00003200
00000320
00000000
,
00001030
00000001
00000100
00001000
00010000
00100000
01000000
00010000
,
10000000
00000000
01000000
00100000
00010000
00000000
00100000
00001000
00010000
00001000
00010000
00001000
00010000
00000000
00001000
00010000
,
00001000
00000000
00000000
00011000
00000000
00000000
00000000
00000000
00000000
00000000
00000000
00000000
00000000
00000000
00000000
00000000
,
00000000
00000000
00000000
00000000
,
00000000
00000000
00000000
00000000
,
00000000
00000000
00000000
00000000
,
00010000
00002000
00000000
00003010
00002000
00000000
00013000
00001000
,
00000020
00002030
00023000
00032000
,
02003000
00000000
00000000
00000000
03020000
00000000
00000000
00000000
20030000
00000000
00000000
32000000
00000000
00000000
03020000
00000000
,
00032000
00000000
00000000
00003020
00000000
00000000
00000031
00000000
00001001
00000000
00000000
00000000
00000000
00000000
00000000
00000000
,
00010000
00001000
00010000
00000000
00000010
00001000
00000010
00000000
00010000
00001000
00010000
00000000
00000100
00001000
00000100
00000000
,
00010000
00000000
00001000
00100000
00001000
00100000
00010000
00000000
00100000
00010000
10000000
00010000
10000000
00000000
00010000
00000000
,
01000000
00100000
01000000
00000000
00100000
10000000
00100000
00000000
10000000
01000000
10000000
00000000
00010000
01000000
00010000
00000000
,
00100000
00001000
00010000
00000010
00001000
00000100
00010000
00001000
,
00010000
00000000
00000100
00000010
00000100
00000000
00001000
00000000
00000001
00000000
00000100
00000010
00000100
00000000
00000010
00000000
,
00001000
00000000
00000100
00010000
00000100
00000000
00010000
00001000
00010000
00000000
00001000
01000000
00001000
00000000
00010000
00000000
,
00021000
00000000
00000000
00000000
00030010
00000000
00000000
00000000
00012000
00000000
00000000
00000000
00103000
00000000
00010000
10000000
,
00100000
00000000
10000000
00000000
01000000
00000000
00100000
00010000
00100000
00001000
00010000
00001000
00010000
00000000
00000010
00001000
,
00000020
00001000
00000001
00000130
,
00000001
00000010
00001000
00000000
00010000
00100000
01000000
00000000
,
00010000
00000000
10000000
00000000
01000000
00000000
00100000
00000000
00010000
10000000
00010000
10000000
00010000
10000000
00010000
10000000
,
00010000
00000000
00000000
11000000
00000000
00000000
01100000
00000000
00000000
00100000
00001000
00000000
00010000
00000000
00000010
00001000
,
00000001
00000000
00000000
00000000
,
00000000
00000000
00000000
00000000
,
00000000
00000000
00000000
00000000
,
00000000
00000000
00000000
00011000
,
00010000
00001000
00010000
00001000
00010000
00001000
00010000
00001000
00010000
00001000
00010000
00001000
00010000
00001000
00010000
00001000
,
00100000
00010000
00100000
00010000
00100000
00010000
00100000
00010000
00100000
00010000
00100000
00010000
00100000
00010000
00100000
00010000
,
10000000
00010000
10000000
00010000
10000000
00010000
10000000
00010000
00100000
01000000
00100000
01000000
00100000
01000000
00100000
01000000
,
10000000
00000000
00100000
01000000
00010000
00000000
00100000
00001000
00010000
00000000
00000010
00001000
00000001
00000000
00000010
00000200
,
00000300
00000000
00000000
00000000
;

//--------------- dance-double - Fred-104 ----------------
#NOTES:
     dance-double:
     Fred-104:
     Challenge:
     18:
     :
00000000
00000000
00000000
00000000
,
00000000
00000000
00000000
00000000
,
00000000
00000000
00000000
00000000
,
00000000
00000000
00000000
00000000
,
00000000
00000000
00000000
00000000
,
00012000
00000100
00100000
00000010
,
01000000
00000100
00010000
00003010
,
00021000
01000000
00000010
00130000
,
00012000
00000010
01000000
00003100
,
00010000
00010000
00001000
00001000
00010000
00000100
00001000
00000100
00000010
00000001
00001000
00000001
00000010
00000001
00001000
00000001
,
00000100
00000010
00001000
00000001
00000010
00000100
00000010
00001000
00010000
01000000
00100000
00010000
01000000
00100000
10000000
00000000
,
00010000
00010000
10000000
10000000
00010000
01000000
00100000
10000000
01000000
00100000
00010000
00100000
00001000
00010000
00001000
01000000
,
00001000
00010000
00000100
00001000
00000100
00000010
00000001
00000100
00001000
00000000
00000100
00000010
00001000
00000000
00000001
00000000
,
00001000
00000000
00000001
00000010
00000100
00000000
00001000
00000000
00000100
00000000
00010000
00000010
00001000
00000000
00000100
00000000
,
00020000
00001000
00001000
00030010
00020000
00001000
00001000
00130000
,
00001000
00010000
00000100
00000000
00001000
00000010
00000100
00000000
00000001
00000100
00001000
00000001
00000010
00001000
00000001
00000010
,
00000100
00000000
00000000
00000010
00000000
00000000
00000001
00000000
00000000
00001000
00000000
00000000
00000010
00000000
00000000
00000100
00000000
00000000
00001000
00000000
00000000
00010000
00000000
00000000
00100000
00000000
00000000
01000000
00000000
00000000
00100000
00000000
10000000
00000000
00010000
00000000
00100000
00000000
00000000
01000000
00000000
00000000
00100000
00000000
00000000
00010000
00000000
00000000
,
10000000
00000000
00000000
00100000
00000000
00010000
00100000
00000000
00000000
10000000
00000000
01000000
00010000
00000000
01000000
00000000
,
00000000
00000000
10000000
00000000
00100000
00000000
00010000
00000000
00002000
00000000
00000000
00010000
00000000
00000000
00013000
00000000
,
00001000
00000000
00000000
00000010
00000000
00000100
00001000
00000000
00000000
00000100
00000000
00001000
00000001
00000000
00000100
00000000
,
00000000
00000000
00000000
00000000
00000000
00000000
00000000
00000000
00000000
00000000
00000000
00000000
00000000
00000000
00000000
00000000
00000000
00000000
00000000
00000000
00000000
00000000
00000000
00000000
00001000
00000000
00000000
00000000
00000000
00000000
00000000
00000000
00000000
00000000
00000000
00000000
00000000
00000000
00000000
00000000
00000000
00000000
00000000
00000000
00000000
00000000
00000000
00000000
00010000
00000000
00000000
00000000
00000000
00000000
00000000
00000000
00000000
00000000
00000000
00000000
00000000
00000000
00000000
00000000
00000000
00000000
00000000
00000000
00000000
00000000
00000000
00000000
00100000
00000000
00000000
00000000
00000000
00000000
00000000
00000000
00000000
00000000
00000000
00000000
00000000
00000000
00000000
00000000
00000000
00000000
00000000
00000000
00000000
00000000
00000000
00000000
01000000
00000000
00000000
00000000
00000000
00000000
00000000
00000000
00000000
00000000
00000000
00000000
00000000
00000000
00000000
00000000
00000000
00000000
00000000
00000000
00000000
00000000
00000000
00000000
00000000
00000000
00000000
00000000
00000000
00000000
00000000
00000000
00000000
00000000
00000000
00000000
00000000
00000000
00000000
00000000
00000000
00000000
00000000
00000000
00000000
00000000
00000000
00000000
20200000
30300000
00000000
00000000
00000000
00000000
00000000
00000000
00000000
00000000
00000000
00000000
00000000
00000000
00000000
00000000
00000000
00000000
00000000
00000000
00000000
00000000
00000000
00000000
00000000
00000000
00000000
00000000
00000000
00000000
00000000
00000000
00000000
00000000
00000000
00000000
00000000
00000000
00000000
00000000
00000000
00000000
00000000
00000000
00000000
00000000
00000000
00000000
,
10000000
01000000
00100000
00010000
10000000
01000000
00100000
00010000
01000000
00001000
00010000
00001000
00100000
00001000
00010000
00000010
,
00001000
00000010
00000100
00000010
00001000
00000100
00000010
00000001
00000100
00001000
00000100
00000001
00000010
00000100
00000010
00000001
,
00000001
00000010
00000100
00000010
00000001
00001000
00000010
00001000
00000010
00010000
00001000
00100000
00001000
00010000
00000010
00001000
,
00000100
00010000
00001000
01000000
00010000
00100000
00001000
00010000
01000000
10000000
00010000
01000000
00100000
10000000
01000000
10000000
,
00010000
01000000
10000000
01000000
00010000
10000000
00010000
01000000
00100000
10000000
01000000
00100000
00010000
00100000
00001000
00010000
,
00001000
00000010
00000100
00001000
00000001
00000100
00001000
00000100
00000110
00000000
00000010
00000000
00001010
00000000
00001000
00000000
,
00001001
00000000
00000000
00000000
00011000
00000000
00001000
00000000
00011000
00000000
00000000
10000000
00010000
00000000
01000000
00100000
,
10000000
00000000
00000000
00100000
00000000
00000000
10000000
00000000
00000000
01000000
00000000
00000000
00100000
00000000
00000000
00010000
00000000
00000000
01000000
00000000
00000000
00010000
00000000
00000000
00100000
00000000
00000000
01000000
00000000
00000000
00100000
00000000
00000000
00001000
00000000
00000000
00010000
00000000
00000000
00000000
00000000
00000000
00000010
00000000
00001000
00000000
00000010
00000000
,
00000200
00000000
00000001
00000000
00000000
00000000
00000301
00000000
00000001
00000010
00000100
00001000
00000100
00010000
00001000
00000000
,
00020000
00000000
00001000
00000000
00000000
00000000
00031000
00000000
00001000
00010000
00000100
00001000
00000100
00010000
00001000
00000000
,
02000000
00000000
00100000
00000000
00000000
00000000
03100000
00000000
01000000
00100000
01000000
00010000
10000000
01000000
00100000
00010000
,
10000000
00000000
00100000
00010000
00001000
00000000
00000100
00000010
00001000
00000001
00000010
00000100
00010000
00000000
00010000
00001000
,
00020000
00000010
02030000
03000200
,
00020300
00000000
00000000
00000000
00030010
00000000
00000000
00000000
00100000
00001000
00010000
00000000
00000010
00001000
00000100
00000000
,
00020000
00000100
01000000
00032000
,
00013000
00001000
00000100
00000001
00001000
00000000
00000001
00000010
00001000
00010000
01000000
00000000
00100000
00010000
10000000
00100000
,
02000000
00000000
00000000
00000000
00001000
00000000
00000000
00000000
00010000
00000000
00000000
00000000
03002000
00000000
00023000
00030020
,
00002030
00000000
00003002
00000000
00000203
00000010
00000320
00000000
,
00001030
00000100
00000010
00000001
00001000
00000001
00000100
00001000
00010000
00001000
00010000
00100000
01000000
00010000
10000000
01000000
,
00100000
01000000
10000000
00100000
00010000
00001000
00000100
00000010
00001000
00000001
00000010
00000100
00001000
00000000
00000001
00000100
,
00001000
00000000
00000000
00011000
00000000
00000000
00000000
00000000
00000000
00000000
00000000
00000000
00000000
00000000
00000000
00000000
,
00000000
00000000
00000000
00000000
,
00000000
00000000
00000000
00000000
,
00000000
00000000
00000000
00000000
,
00001000
00200000
00000000
10300000
00200000
00000000
00301000
00010000
,
00000020
00002030
00003002
00002003
,
00003001
00000100
00001000
00010000
00100000
01000000
00010000
10000000
01000000
00100000
00010000
01000000
00100000
10000000
01000000
00100000
,
00001000
00000000
00000000
00010000
00000000
00000000
00001000
00000000
00000000
00000010
00000000
00000000
00000100
00000000
00000000
00001000
00000000
00000000
00000010
00000000
00000000
00010000
00000000
00000000
00001000
00000000
00000000
00010000
00000000
00000000
00000010
00000000
00000000
00001000
00000000
00000000
00000001
00000000
00000010
00000000
00000001
00000000
00000010
00000000
00000001
00000000
00000010
00000000
,
00000001
00000100
00000001
00000100
00000010
00000001
00000010
00000001
00001000
00000100
00001000
00000100
00000010
00001000
00000010
00001000
,
00000001
00000010
00000001
00000100
00000010
00001000
00000010
00010000
00001000
00010000
00000100
00001000
00000010
00001000
00000100
00010000
,
00001000
00100000
01000000
00100000
00010000
00100000
10000000
00100000
01000000
10000000
00010000
10000000
00100000
00010000
00100000
01000000
,
00010000
00100000
01000000
10000000
00010000
01000000
00100000
00000000
10000000
01000000
00100000
00001000
00010000
00000000
00001000
00000000
,
00010000
00000100
00001000
00000010
00001000
00000001
00000010
00000000
00000001
00000010
00000100
00000010
00000001
00001000
00000001
00000000
,
00001001
00000000
00000001
00000100
00001000
00000000
00000100
00000000
00000110
00000000
00001000
00000100
00000010
00000000
00000001
00000100
,
00000101
00000000
00000010
00000000
00001100
00000000
00000100
00000000
00011000
00000000
00010000
00000000
00001000
00000000
01000000
00010000
,
00100000
00000000
00000000
00001000
00000000
00000000
00010000
00000000
00000000
00010000
00000000
00000000
01000000
00000000
00000000
00001000
00000000
00000000
00010000
00000000
00000000
00010000
00000000
00000000
00100000
00000000
00000000
00000000
00000000
00000000
00001000
00000000
00010000
00000000
00000010
00000000
00010000
00000000
00000000
00000010
00000000
00000000
00001000
00000000
00000000
00000010
00000000
00000000
,
00000100
00000001
00001000
00000001
00000010
00000001
00001000
00000001
00000010
00000100
00001000
00000010
00000100
00001000
00010000
00000100
,
00001000
00010000
00100000
00001000
00010000
00100000
01000000
00010000
00100000
01000000
10000000
00010000
10000000
00100000
01000000
00001000
,
00010000
00000000
00010000
00000000
00000100
00000000
00000100
00000000
00001000
00000100
00000010
00000001
00000010
00000100
00001000
00000001
,
00000101
00000000
00000000
00000000
00000000
00000000
00000000
00000000
00000000
00001100
00000000
00000000
00000000
00000000
00000000
00000000
00000000
00000000
00000101
00000000
00000000
00000000
00000000
00000000
00000000
00000000
00000001
00000000
00000100
00000000
00000010
00000000
00001000
00000000
00000001
00000000
00001000
00000000
00000000
00000100
00000000
00000000
00000010
00000000
00000000
00000001
00000000
00000000
,
00001001
00000000
00000000
00000000
,
00000000
00000000
00000000
00000000
,
00000000
00000000
00000000
00000000
,
00000000
00000000
00000000
10010000
,
10000000
00100000
01000000
00100000
10000000
00010000
00100000
00001000
00010000
00001000
01000000
00010000
00100000
00001000
00010000
00000100
,
00001000
00000010
00010000
00001000
01000000
00010000
00100000
00001000
00010000
00000100
00010000
00000010
00001000
00000100
00000010
00000001
,
00001000
00000001
00001000
00000001
00000010
00000100
00000010
00000100
00001000
00000100
00010000
00001000
00010000
00001000
00100000
00010000
00100000
00010000
00100000
01000000
10000000
00010000
10000000
00010000
,
10000000
01000000
00010000
00001000
00000010
00000000
00000001
00000100
00001000
00010000
00100000
00000000
10000000
00010000
00001000
00000002
,
00000003
00000000
00000000
00000000
;
