#VERSION:0.83;
#TITLE:Castle on the Moon;
#ARTIST:青龍;
#ARTISTTRANSLIT:Seiryu;
#GENRE:DANCE SPEED;
#BANNER:Castle on the Moon.png;
#BACKGROUND:Castle on the Moon-bg.png;
#CDTITLE:./CDTitles/RB limelight.png;
#MUSIC:Castle on the Moon.ogg;
#SAMPLESTART:72.866;
#SAMPLELENGTH:15;
#BPMS:0=95.5,20=191;
#BGSTAGE:27;

//--------------- dance-single - Fred-104 ----------------
#NOTEDATA:;
#STEPSTYPE:dance-single;
#DESCRIPTION:Fred-104;
#DIFFICULTY:Beginner;
#METER:3;
#CREDIT:Fred-104;
#NOTES:
0000
0000
0000
0000
,
0000
0000
0000
0000
,
0000
0000
0000
0000
,
1000
0000
0001
0000
,
1000
0000
0002
0000
,
1003
0000
0000
0000
,
0001
0000
1000
0000
,
0001
0000
1000
0000
,
1001
0000
0000
0000
,
1000
0000
0000
0000
,
0010
0000
0000
0000
,
1000
0000
0000
0000
,
0001
0000
0001
0000
,
1000
0000
0000
0000
,
0010
0000
0000
0000
,
1000
0000
0000
0000
,
0001
0000
1000
0000
,
0001
0000
0000
0000
,
1000
0000
0000
0000
,
0010
0000
0000
0000
,
1000
0000
0001
0000
,
1000
0000
0000
0000
,
0100
0000
0000
0000
,
1000
0000
0001
0000
,
1000
0000
0001
0000
,
1001
0000
0000
0000
,
0000
0000
0000
0000
,
0000
0000
0000
0000
,
0000
0000
0000
0000
,
0001
0000
0001
0000
,
1000
0000
1000
0000
,
0010
0000
0010
0000
,
0100
0000
0100
0000
,
0001
0000
1000
0000
,
0001
0000
0000
0000
,
1000
0000
0010
0000
,
0100
0000
0000
0000
,
0010
0000
1000
0000
,
0001
0000
0001
0000
,
1000
0000
0001
0000
,
1000
0000
0001
0000
,
1001
0000
0000
0000
,
0000
0000
0000
0000
,
0000
0000
0000
0000
,
0000
0000
0000
0000
,
0001
0000
1000
0000
,
0001
0000
0100
0000
,
0001
0000
1000
0000
,
1001
0000
0000
0000
,
1000
0000
0001
0000
,
0100
0000
0010
0000
,
1000
0000
0001
0000
,
2002
0000
3003
0000
,
1000
0000
0010
0000
,
1000
0000
0001
0000
,
1000
0000
0100
0000
,
1000
0000
1000
0000
,
0001
0000
1000
0000
,
0010
0000
1000
0000
,
0001
0000
1000
0000
,
0001
0000
1000
0000
,
0001
0000
0000
0000
,
0000
0000
0000
0000
,
0001
0000
1000
0000
,
0001
0000
0100
0000
,
0001
0001
0001
0000
,
1000
1000
1000
0000
,
0001
0001
0001
0000
,
1000
1000
1000
1000
,
2002
0000
0000
0000
,
0000
0000
0000
0000
,
3003
0000
0000
0000
;

//--------------- dance-single - Fred-104 ----------------
#NOTEDATA:;
#STEPSTYPE:dance-single;
#DESCRIPTION:Fred-104;
#DIFFICULTY:Easy;
#METER:7;
#CREDIT:Fred-104;
#NOTES:
0000
0000
0000
0000
,
0000
0000
0000
0000
,
0000
0000
0000
0000
,
0001
0100
0010
0100
,
0001
1000
0002
0000
,
1003
0000
0010
0000
,
0001
0000
0100
0000
,
1000
0000
0001
0000
,
2002
0000
0000
3003
,
1000
0000
0010
0000
,
1000
0100
0010
0000
,
0001
0000
1000
0000
,
0001
0001
1000
1000
,
0001
0000
1000
0000
,
0010
1000
0100
0000
,
1000
0000
0010
0000
,
0100
0100
0010
0010
,
0100
0000
0001
0000
,
1000
0010
0100
0010
,
1000
0000
0100
0000
,
0010
0001
1000
0001
,
0010
0000
0001
0000
,
1000
0000
0010
0000
,
0100
0000
0001
0000
,
1000
0001
1000
0001
,
2001
0000
0000
0000
,
3020
0000
0000
0000
,
0230
0000
0000
0000
,
0302
0000
0000
0000
,
1003
1000
1000
0100
,
0001
0001
0001
0100
,
1000
0001
0100
0010
,
0200
0000
0010
0310
,
1000
0010
1000
0100
,
1000
0001
0100
0000
,
0001
0010
0100
1000
,
0010
0100
0001
0000
,
1000
0100
1000
0001
,
0100
0001
0010
0000
,
0100
1000
0010
0100
,
0001
0001
1000
1000
,
2002
0000
0000
0000
,
0000
0000
0000
0000
,
0000
0000
0000
0000
,
3003
0000
0000
0000
,
0001
0100
0001
0010
,
0100
1000
0010
1000
,
0001
0001
1000
1000
,
0001
0010
0100
1000
,
0001
0000
0001
0000
0100
0100
0100
0000
,
0010
0000
0010
0000
1000
1000
1000
0000
,
0001
0001
1000
1000
,
2002
0000
3003
0000
,
1000
0010
0100
0010
,
1000
0001
1001
0000
,
0001
0010
0100
1000
,
0001
0100
0101
0000
,
1000
0001
0100
0010
,
1000
0100
1100
0000
,
0001
0100
0010
1000
,
0100
0000
0010
0000
0001
1000
0001
0000
,
1001
0000
0000
0000
,
0000
0000
0100
0010
,
0100
0001
0100
0010
,
1000
0000
0100
0000
1000
0010
1000
0000
,
0010
0100
0010
1000
,
0100
0000
0010
0000
0001
0100
0001
0000
,
0100
0010
1000
0100
,
1000
0000
0000
0001
0000
0000
1000
0000
,
2002
0000
0000
0000
,
0000
0000
0000
0000
,
3003
0000
0000
0000
;

//--------------- dance-single - Fred-104 ----------------
#NOTEDATA:;
#STEPSTYPE:dance-single;
#DESCRIPTION:Fred-104;
#DIFFICULTY:Medium;
#METER:11;
#CREDIT:Fred-104;
#NOTES:
0000
0000
0000
0000
,
0000
0000
0000
0000
,
0000
0000
0000
0000
,
1000
0000
1000
0100
0000
0100
0010
0000
0010
0001
0000
0001
,
0100
0010
1000
0010
0000
0100
0001
1000
0001
0020
0000
0000
,
0031
0001
1000
1000
,
0010
0010
0100
0100
,
0001
0100
0001
0000
1000
0010
1000
0000
,
2002
0000
0000
3003
,
1000
0000
0001
0100
0001
0000
0010
0000
,
0100
0000
1000
0010
0100
0000
0010
0000
,
1000
0000
0100
0010
0001
0000
1000
0000
,
0001
1000
0001
1001
,
1000
0000
0001
0100
0010
0000
0100
0000
,
0001
0000
1000
0100
0010
0000
0001
0000
,
1000
0000
0010
0100
0001
0000
1000
0000
,
1001
0000
0110
0000
1000
0001
1000
0000
,
0001
0000
0100
0001
0010
0000
0100
0000
,
0010
0000
0001
1000
0010
0000
0100
0000
,
0010
1000
0010
0000
0100
0001
1000
0000
,
0001
1000
0100
0010
,
0001
0100
0001
0000
1000
0010
1000
0000
,
0001
0010
0001
0000
1000
0100
1000
0000
,
0001
0100
0010
0000
1000
0010
0100
0000
,
0001
0000
0100
0010
1000
0000
0010
0000
,
0210
0000
0000
0000
,
0302
0000
0000
0000
,
2003
0000
0000
0000
,
3020
0000
0000
0000
,
1030
0000
1000
0000
0010
1000
0001
0000
,
0100
0000
0100
0000
0001
1000
0010
0000
,
0100
0010
0100
0000
0001
1000
0001
0000
,
2002
0000
0000
3003
,
1000
0000
0000
0000
0100
0000
0000
0000
1000
0000
0000
0010
0000
0000
0100
0000
,
0010
0000
0000
0000
1000
0000
0000
0000
0001
0000
0000
0100
0000
0000
0010
0000
,
1000
0100
1000
0000
0100
0000
0001
0000
,
0100
0001
0100
0000
1000
0000
0010
0000
,
0100
0000
0001
0000
0100
0000
0000
0000
0001
0000
0000
0010
0000
0000
0001
0000
,
0100
0000
0010
0000
1000
0000
0000
0000
0100
0000
0000
0010
0000
0000
0001
0000
,
0010
0100
1000
0000
0010
1000
0001
0000
,
1000
0010
1000
0000
0001
0100
0001
0000
,
2002
0000
0000
0000
,
0000
0000
0000
0000
,
0000
0000
0000
0000
,
3003
0000
0000
0000
,
0001
0100
0001
0000
1000
0010
1000
0001
,
0100
0010
1000
0000
0100
1000
0010
0000
,
0100
0001
1000
0000
0001
1000
0001
0000
,
1000
0000
0010
0100
0000
0001
1000
0000
,
0001
0000
0001
0000
0100
0010
1000
0000
,
0100
0000
0100
0000
0010
0001
1000
0000
,
0001
0100
0001
1000
0100
0010
0001
0000
,
2002
0000
3003
0000
,
1000
0000
0010
1000
0100
0000
1000
0000
,
0001
0100
0001
0000
0010
0000
0100
0010
,
0001
0000
0100
0000
0010
1000
0001
0000
,
0100
0010
0100
0000
0001
0000
1000
0000
,
0001
0000
0010
0100
0010
0000
0001
0000
,
1000
0010
0100
0000
0010
1000
0001
0000
,
1000
0100
0010
0001
,
0100
0000
0001
0010
0001
1000
0001
0000
,
1001
0000
0000
0000
,
0000
0000
0110
1001
,
0001
0100
0001
0000
1000
0010
0100
0000
,
0010
1000
0100
0000
0010
0001
1000
0000
,
0001
0100
0010
1000
,
0001
0100
0001
0000
1000
0010
1000
0000
,
0001
1000
0010
1000
0001
1000
0100
0000
,
0010
0000
0100
1000
0001
1000
0001
0000
,
2002
0000
0000
0000
,
0000
0000
0000
0000
,
3003
0000
0000
0000
;

//--------------- dance-single - Fred-104 ----------------
#NOTEDATA:;
#STEPSTYPE:dance-single;
#DESCRIPTION:Fred-104;
#DIFFICULTY:Hard;
#METER:14;
#CREDIT:Fred-104;
#NOTES:
0000
0000
0000
0000
,
0000
0000
0000
0000
,
0000
0000
0000
0000
,
1000
0010
1000
0001
0100
0001
0010
0100
1000
0010
0000
0100
,
0001
0000
0000
0000
1000
0000
0000
0000
0001
0000
0000
0000
0010
0000
0000
0000
0100
0000
0000
0000
1000
0000
0000
0000
0001
0000
0100
0000
0001
0000
1000
0000
0010
0000
1000
0000
0001
0000
0000
1000
0000
0000
0001
0000
0000
1000
0000
0000
,
0001
0001
0100
0100
,
0010
0010
1000
1000
,
0100
0010
0001
1000
0010
0100
0001
1000
,
0002
0000
0000
0000
1003
0001
1001
0000
,
0001
1000
0001
0100
0010
1000
0100
1000
,
0010
0100
0001
1000
0100
0010
0001
0100
,
0010
0100
0001
1000
0010
1000
0100
1000
,
0001
0100
0110
0000
1000
0001
1001
0000
,
1000
0010
1000
0100
1000
0001
0100
0010
,
0100
0001
1000
0001
0010
0100
1000
0010
,
0100
0010
1000
0001
0010
0001
1000
0010
,
1010
0000
0101
0000
1000
0001
1001
0000
,
0001
0100
0001
0010
0100
1000
0001
1000
,
0010
0100
0010
1000
0001
1000
0100
0010
,
0001
0100
0010
0001
0010
0001
0010
1000
,
0001
0010
0100
1000
0001
0100
0110
0000
,
1000
0000
0100
0000
1000
0000
0010
0000
0100
0000
0001
0000
1000
0000
0001
0010
,
0001
0010
0100
1000
0010
0100
0001
1000
,
0100
1000
0100
1000
0001
0100
0010
0100
,
0001
0000
0100
0010
0100
0000
0001
0000
0100
0000
0010
0000
1010
0000
0000
0000
,
1002
0000
0000
0000
,
2003
0000
0000
0000
,
3020
0000
0000
0000
,
0230
0000
0000
0300
,
0101
0000
0000
0000
0101
0000
0000
0000
0100
0000
0010
0000
1000
0000
0010
0100
,
0010
0000
0000
0000
1010
0000
0000
0000
1000
0000
0100
0000
0010
0000
0001
1000
,
0001
0000
0100
0000
0010
0000
1000
0000
0001
0100
0001
0000
1000
0010
1000
0000
,
0002
0000
1000
0000
1003
0001
1001
0000
,
1000
0000
0010
0000
0010
0000
1000
0000
0010
0000
1000
0010
0000
1000
0010
0000
,
1000
0000
0100
0000
0100
0000
0010
0000
0001
0000
0100
0001
0000
0100
0001
0000
,
0010
0000
1000
0000
1000
0000
0010
0000
0001
0000
0100
0001
0000
0100
0001
0000
,
0100
0000
1000
0000
1000
0000
0100
0000
0001
0000
0100
0010
0000
0100
0001
0000
,
0010
0000
0100
0000
0100
0000
0010
0000
0001
0000
0100
0010
0000
0100
0010
0000
,
1000
0000
0100
0000
0100
0000
1000
0000
0001
0000
0010
0100
0000
0010
0100
0000
,
1000
0000
0010
0000
0010
0000
0001
0000
0010
0000
1000
0010
0000
1000
0100
0000
,
0010
0000
0001
0000
0001
0000
0010
0000
0100
0000
1000
0010
0000
0100
0001
0000
,
2002
0000
0000
0000
,
0000
0000
0000
0000
,
0000
0000
0000
0000
,
3003
0000
0000
0000
,
0001
0000
0100
0000
0001
0000
0010
0000
0100
0000
1000
0000
0010
0000
0100
0001
,
0100
0010
1000
0100
1000
0001
0100
0010
,
1000
0100
0010
0001
0100
0010
1000
0001
,
0010
1000
0001
0100
1000
0001
1001
0000
,
1000
0100
1000
0010
0100
0100
0101
0000
,
0001
0010
0100
1000
0010
0010
0110
0000
,
0100
0001
1000
0010
1000
1000
0001
0001
,
2000
0000
0000
0000
3001
1000
1001
0000
,
0001
0010
0100
1000
0001
0100
0010
1000
,
0100
0010
1000
0010
0001
0000
1000
0001
,
0010
0001
0100
0001
1000
0100
0010
0100
,
1000
0010
0100
0001
1000
0100
0010
0001
,
0100
0010
0100
0001
0010
0100
1000
0001
,
0100
1000
0100
0001
0010
0000
0100
1000
,
0100
0010
0100
1000
0001
0100
0010
1000
,
0001
0100
1000
0001
0010
1000
0001
0000
,
1001
0000
0000
0000
,
0000
0000
0110
1001
,
1000
0100
0010
0001
0100
0001
1000
0100
,
1000
0000
0010
0000
0100
0000
0001
0000
1000
0000
0100
0010
0100
0000
1000
0000
,
0001
0000
0100
0000
0001
0000
0010
0000
0100
0000
1000
0001
1000
0000
0010
0000
,
0100
0000
0001
0000
0100
0000
0010
0000
0100
0000
0001
0010
0001
0000
1000
0000
,
0001
0100
0010
0001
1000
0100
0010
1000
,
0001
0000
1000
0000
0001
0000
1000
0000
0001
1000
0001
1000
0001
0000
0000
0000
,
2002
0000
0000
0000
,
0000
0000
0000
0000
,
3003
0000
0000
0000
;

//--------------- dance-single - Fred-104† ----------------
#NOTEDATA:;
#STEPSTYPE:dance-single;
#DESCRIPTION:Fred-104†;
#DIFFICULTY:Challenge;
#METER:17;
#CREDIT:Fred-104†;
#NOTES:
0000
0000
0000
0000
,
0000
0000
0000
0000
,
0000
0000
0000
0000
,
1000
0000
0010
0000
0010
0000
0001
0000
0100
0000
0100
0000
1000
0000
0100
1000
0010
0000
0100
0000
0001
1000
0001
1000
,
0001
0000
0000
0000
0000
0000
0000
0000
0001
0000
0000
0000
0100
0000
0000
0000
1000
0000
0000
0000
0100
0000
0000
0000
0001
0000
0000
0000
0000
0000
0000
0000
0001
0000
0000
0000
0010
0000
0000
0000
1000
0000
0000
0000
0010
0000
0000
0000
0001
0000
0000
0000
0100
0000
0000
0000
0010
0000
0000
0000
1000
0000
0000
0000
0100
0000
0000
0000
0010
0000
0000
0000
0001
0000
0000
1000
0000
0000
0001
0000
0000
1000
0000
0000
0001
0000
0000
1000
0000
0000
0001
0000
0000
1000
0000
0000
,
0001
0000
0001
0000
0100
0100
0100
0000
,
0110
0000
0110
0000
1000
1000
1000
0000
,
0001
0100
0001
0000
1000
0010
1000
0000
0001
0010
0001
0100
0010
1000
0100
1000
,
0002
0000
1000
0000
1003
0001
1001
0000
,
0001
0100
0010
0000
1000
0000
0100
0000
0010
0100
1000
0000
0001
0000
1000
0000
,
0010
1000
0100
0000
1000
0000
0010
0000
0100
0001
0010
0000
0001
0000
1000
0000
,
0010
1000
0001
0000
0100
0000
0010
0000
1000
0100
0010
0000
0001
0000
0100
0000
,
0010
1000
0001
0000
0100
0001
1000
0000
1001
0000
0000
0000
0110
0000
0000
0000
,
1000
0001
0010
0000
0100
0000
0010
0000
0001
1000
0010
0000
0100
0000
0001
0000
,
1000
0100
0010
0000
0001
0000
1000
0000
0010
1000
0100
0000
1000
0000
0001
0000
,
0100
0001
0010
0000
0001
0000
0010
0000
0100
1000
0001
0000
0100
0000
0010
0000
,
1010
0000
0101
0000
1000
0001
1001
0000
,
0001
1000
0010
0000
1000
0000
0100
0000
0010
0001
0010
0000
0100
0000
1000
0000
,
0010
1000
0100
0000
1000
0000
0001
0000
0100
0010
0100
0000
0001
0000
1000
0000
,
0010
1000
0100
0000
1000
0000
0001
0000
0100
0001
0010
0000
0100
0000
1000
0000
,
0001
1000
0010
0000
1000
0001
0100
0000
0010
0000
1000
0000
1001
0000
0000
0000
,
0001
0100
0001
0000
0010
0100
0010
0000
0100
1000
0100
0000
1000
0000
0001
0100
,
0010
1000
0010
0000
1000
0100
1000
0000
0001
0100
0001
0000
1000
0000
0001
0000
,
0100
0010
0100
0000
0001
0010
0001
0000
1000
0010
1000
0000
0001
0100
0001
0000
,
1000
0100
1000
0100
0010
0001
0010
0001
1000
0010
0100
0001
1000
0100
0010
0001
,
2000
0000
3020
0000
,
0032
0000
0203
0000
,
2300
0000
3200
0000
,
0302
0000
0023
1030
,
1010
0000
0000
0000
0110
0000
0000
0000
1010
0000
1000
0000
0100
0000
0010
0001
,
1000
0000
1001
0000
0001
0100
0010
1000
,
0100
0000
0100
0000
0010
0000
0010
0000
0001
0010
0001
0010
0100
1000
0100
1000
,
0002
0000
1000
0000
1003
0001
1001
0000
,
0001
0000
0100
0000
0010
1000
0000
0001
0100
0000
0010
1000
0000
0100
0010
0000
,
0001
0000
1000
0000
0001
0010
0000
0100
1000
0000
0001
0100
0000
0001
0010
0000
,
0001
0000
0100
0000
0010
1000
0000
0100
1000
0000
0001
0100
0000
0010
1000
0000
,
0100
0000
0010
0000
0001
0100
0000
0010
1000
0000
0100
0010
0000
0100
1000
0000
,
0001
0000
1000
0000
0001
0010
0000
0100
0010
0000
0001
0100
0000
0010
0100
0001
,
1000
0000
0100
0000
0010
0001
0000
0100
0001
0000
0010
0100
0000
0010
0001
1000
,
0001
0010
0001
0100
0010
1000
0100
1000
,
0001
0100
0001
0100
0010
1000
0010
1000
0100
0010
0001
0100
0010
1000
0010
0100
,
0002
0000
0000
0000
,
0000
0000
0000
0000
,
0000
0000
0000
0000
,
0003
0000
0000
0000
,
1001
0000
1000
0000
0100
0000
0010
0000
0001
0000
0100
0000
0001
0000
0010
0100
,
0010
0001
1000
0001
0100
0010
1000
0010
,
0100
0001
1000
0100
0010
0001
0010
0100
,
1000
0010
1000
0001
0010
0001
1000
0100
1000
0001
0100
0001
1000
0000
0000
0000
,
1001
0000
0000
0000
1001
0000
0000
0000
1000
0000
0001
0000
0100
0000
0010
1000
,
0010
0000
0110
0000
1000
0001
0010
0100
,
1000
0010
1000
0010
0100
0001
0100
0001
1000
0100
0010
0001
0100
0010
0100
0001
,
2000
0000
0000
0000
3001
1000
1001
0000
,
1000
0010
0100
0000
0010
0000
1000
0000
0100
0010
0001
0000
1000
0000
0010
0000
,
0100
0001
0100
0010
0100
0000
0001
0000
1001
0000
0000
0000
0001
0000
0100
0000
,
0001
1000
0010
0000
0100
0000
0001
0000
1000
0100
0010
0000
0001
0000
1000
0000
,
0010
1000
0010
0100
0010
0000
1000
0000
0100
0010
0001
0010
0100
0000
1000
0000
,
0001
1000
0010
0000
0100
0000
0001
0000
1000
0100
0010
0000
0100
0000
1000
0000
,
0010
1000
0001
0100
0010
0000
1000
0000
0100
0010
0001
0100
0010
0000
1000
0000
,
0100
1000
0010
0000
0100
0001
0010
0000
0100
1000
0001
0000
0100
0010
1000
0000
,
0001
0010
0001
0010
0100
1000
0100
1000
0010
1000
0100
0010
0001
0100
0010
1000
,
0001
0000
0000
0000
,
0000
0000
0000
0000
1001
0000
0001
1000
,
0010
1000
0001
0100
0010
0000
1000
0000
0100
0010
0001
1000
0010
0000
0100
0000
,
0001
1000
0010
1000
0001
0000
0010
0000
0100
1000
0100
0010
0001
0000
1000
0000
,
0010
1000
0100
0010
0100
0000
1000
0000
0010
1000
0001
1000
0100
0000
0010
0000
,
0001
0010
0100
1000
0100
0010
0001
0000
1000
0010
0100
0001
0100
0010
1000
0000
,
0001
0010
0100
0010
0001
0010
0100
0000
1000
0010
0100
0010
1000
0010
0100
0000
,
0001
0010
0100
1000
0001
0100
0010
1000
0100
0010
0001
1000
0010
0000
0000
0000
,
2002
0000
0000
0000
,
0000
0000
0000
0000
,
3003
0000
0000
0000
;

//--------------- dance-double - Fred-104 ----------------
#NOTEDATA:;
#STEPSTYPE:dance-double;
#DESCRIPTION:Fred-104;
#DIFFICULTY:Easy;
#METER:7;
#CREDIT:Fred-104;
#NOTES:
00000000
00000000
00000000
00000000
,
00000000
00000000
00000000
00000000
,
00000000
00000000
00000000
00000000
,
00001000
00001000
00010000
00010000
,
00001000
00010000
00002000
00000000
,
00013000
00000000
00001000
00000000
,
00000100
00000000
00001000
00000000
,
00010000
00000000
00001000
00000000
,
00022000
00000000
00000000
00033000
,
00001000
00000000
00010000
00000000
,
01000000
00010000
00001000
00000000
,
00010000
00000000
00100000
00000000
,
00010000
00001000
00010000
00001000
,
00010000
00000000
01000000
00000000
,
10000000
00010000
10000000
00000000
,
00010000
00000000
10000000
00000000
,
01000000
01000000
00100000
00100000
,
01000000
00000000
10000000
00000000
,
00100000
00010000
00001000
00010000
,
01000000
00000000
00010000
00000000
,
00001000
00010000
00100000
00010000
,
00001000
00000000
00010000
00000000
,
00001000
00000000
00000010
00000000
,
00001000
00000000
00010000
00000000
,
00001000
00010000
00001000
00010000
,
00012000
00000000
00000000
00000000
,
00203000
00000000
00000000
00000000
,
00302000
00000000
00000000
00000000
,
00023000
00000000
00000000
00000000
,
00031000
00010000
00000010
00001000
,
00000001
00000100
00000001
00001000
,
00000100
00010000
00001000
00010000
,
00002000
00000000
00013000
00010000
,
00001000
00100000
00010000
10000000
,
00010000
10000000
00010000
00000000
,
00100000
00001000
00010000
00001000
,
00000010
00001000
00010000
00000000
,
00001000
01000000
00010000
01000000
,
00001000
00100000
00010000
00000000
,
10000000
01000000
00010000
00001000
,
00000010
00000100
00010000
00001000
,
00022000
00000000
00000000
00000000
,
00000000
00000000
00000000
00000000
,
00000000
00000000
00000000
00000000
,
00033000
00000000
00000000
00000000
,
00010000
00000100
00001000
00000100
,
00001000
00000100
00000010
00000001
,
00000100
00000100
00000010
00000010
,
00001000
00000001
00000100
00001000
,
00010000
00000000
00010000
00000000
00001000
00001000
00001000
00000000
,
00100000
00000000
00100000
00000000
00010000
00010000
00010000
00000000
,
01000000
01000000
00100000
00100000
,
20020000
00000000
30030000
00000000
,
00010000
10000000
01000000
00100000
,
00001000
00010000
00011000
00000000
,
00001000
01000000
00010000
00100000
,
00001000
00010000
00010010
00000000
,
00010000
00001000
00000010
00000100
,
00001000
00000001
00001001
00000000
,
00000010
00000100
00001000
00010000
,
00100000
00000000
01000000
00000000
00010000
10000000
00010000
00000000
,
10010000
00000000
00000000
00000000
,
00000000
00000000
00001000
00001000
,
00010000
00001000
00100000
00001000
,
00010000
00000000
00000010
00000000
00001000
00000100
00001000
00000000
,
00000010
00000100
00000001
00001000
,
00000100
00000000
00000010
00000000
00000001
00001000
00000001
00000000
,
00000100
00000001
00000100
00001000
,
00010000
00000000
00000000
00001000
00000000
00000000
00010000
00000000
,
00022000
00000000
00000000
00000000
,
00000000
00000000
00000000
00000000
,
00033000
00000000
00000000
00000000
;

//--------------- dance-double - Fred-104 ----------------
#NOTEDATA:;
#STEPSTYPE:dance-double;
#DESCRIPTION:Fred-104;
#DIFFICULTY:Medium;
#METER:11;
#CREDIT:Fred-104;
#NOTES:
00000000
00000000
00000000
00000000
,
00000000
00000000
00000000
00000000
,
00000000
00000000
00000000
00000000
,
00001000
00000000
00001000
01000000
00000000
01000000
00100000
00000000
00100000
10000000
00000000
10000000
,
01000000
00100000
00001000
00010000
00000000
00000100
00000010
00000001
00000100
00002000
00000000
00000000
,
00013000
00010000
00001000
00001000
,
00010000
00010000
01000000
01000000
,
10000000
00010000
00100000
00000000
01000000
10000000
00100000
00000000
,
20020000
00000000
00000000
30030000
,
00010000
00000000
01000000
00100000
01000000
00000000
00010000
00000000
,
10000000
00000000
01000000
00100000
01000000
00000000
00100000
00000000
,
00001000
00000000
00010000
00001000
00010000
00000000
00001000
00000000
,
00000100
00000001
00001000
00001001
,
00000001
00000000
00000100
00000001
00001000
00000000
00000001
00000000
,
00001000
00000000
00000010
00000100
00000001
00000000
00000010
00000000
,
00001000
00000000
00010000
01000000
00100000
00000000
00010000
00000000
,
11000000
00000000
10010000
00000000
00010000
00010000
00010000
00000000
,
10000000
01000000
00010000
00000100
,
00001000
00000001
00000100
00001000
,
00010000
00000100
00001000
00000000
00001000
00000010
00010000
00000000
,
00010000
00001000
00100000
00000000
00100000
00001000
01000000
00000000
,
00001000
00100000
00010000
00000000
00010000
01000000
00100000
00000000
,
00100000
10000000
00010000
00000000
00010000
00100000
00001000
00000000
,
00001000
00010000
00000010
00000000
00000010
00001000
00000001
00000000
,
00001000
00000000
00000100
00000001
00000000
00000100
00010000
00000000
,
00012000
00000000
00000000
00000000
,
00203000
00000000
00000000
00000000
,
00320000
00000000
00000000
00000000
,
20030000
00000000
00000000
00000000
,
31000000
00000000
00100000
00000000
00010000
10000000
01000000
00000000
,
00100000
00000000
00001000
00000000
00010000
00001000
00010000
00000000
,
00001000
00010000
00100000
00000000
00010000
00001000
00000010
00000000
,
00022000
00000000
00000000
00033000
,
00001000
00010000
00000010
00000000
00001000
00000000
00000100
00000000
,
00000100
00001000
00000001
00000000
00000010
00000000
00000100
00000000
,
00000010
00000001
00000100
00000000
00001000
00010000
00100000
00000000
,
10000000
00010000
01000000
00000000
00100000
00000000
10000000
00000000
,
00010000
00000000
10000000
00000000
00100000
00000000
00000000
00000000
01000000
00000000
00000000
01000000
00000000
00000000
01000000
00000000
,
00100000
00000000
10000000
00000000
01000000
00000000
00000000
00000000
00100000
00000000
00000000
00001000
00000000
00000000
00010000
00000000
,
00001000
00010000
00000010
00000000
00001000
00000100
00010000
00000000
,
00000010
00001000
00000001
00000000
00000010
00000100
00000010
00000000
,
00002002
00000000
00000000
00000000
,
00000000
00000000
00000000
00000000
,
00000000
00000000
00000000
00000000
,
00003003
00000000
00000000
00000000
,
00000010
00001000
00000100
00000000
00000010
00000001
00000100
00000000
,
00001000
00010000
01000000
00000000
00100000
00010000
10000000
00000000
,
00100000
10000000
00010000
00000000
01000000
10000000
01000000
00000000
,
00010000
00000000
01000000
00100000
00000000
10000000
10010000
00000000
,
10000000
00000000
10000000
00000000
01000000
00100000
00100000
00000000
,
00010000
00000000
00010000
00000000
00100000
00001000
00001000
00000000
,
00010000
00001000
00000100
00000001
00001000
00000100
00000010
00000000
,
00000220
00000000
00000330
00000000
,
00000001
00001000
00000100
00001000
,
00000001
00000100
00001000
00000100
00000010
00000000
00000001
00000010
,
00000100
00000010
00001000
00010000
,
01000000
00100000
10000000
00000000
01000000
00100000
00010000
00000000
,
10000000
00000000
00100000
00000000
00010000
00100000
10000000
00000000
,
00010000
00100000
10000000
00000000
00100000
00001000
00010000
00000000
,
00100000
01000000
00010000
00001000
,
00000010
00000000
00000100
00000001
00000010
00001000
00010000
00000000
,
00011000
00000000
00000000
00000000
,
00000000
00000000
00011000
01000000
,
00010000
00100000
01000000
00000000
10000000
00100000
01000000
00000000
,
00010000
10000000
01000000
00000000
00100000
00001000
00010000
00000000
,
00001000
00010000
01000000
00100000
,
00001000
00010000
00001000
00000000
00100000
00010000
01000000
00000000
,
00001000
00010000
00000100
00001000
00000001
00000100
00000010
00000000
,
00001000
00000000
00000100
00000001
00000100
00001000
00000010
00000000
,
00002002
00000000
00000000
00000000
,
00000000
00000000
00000000
00000000
,
00003003
00000000
00000000
00000000
;

//--------------- dance-double - Fred-104 ----------------
#NOTEDATA:;
#STEPSTYPE:dance-double;
#DESCRIPTION:Fred-104;
#DIFFICULTY:Hard;
#METER:15;
#CREDIT:Fred-104;
#NOTES:
00000000
00000000
00000000
00000000
,
00000000
00000000
00000000
00000000
,
00000000
00000000
00000000
00000000
,
01000000
00010000
00100000
10000000
00100000
00001000
01000000
10000000
01000000
00010000
00000000
10000000
,
00010000
00000000
00000000
00000000
00100000
00000000
00000000
00000000
01000000
00000000
00000000
00000000
00010000
00000000
00000000
00000000
00001000
00000000
00000000
00000000
00000010
00000000
00000000
00000000
00000100
00000000
00001000
00000000
00000010
00000000
00000100
00000000
00000010
00000000
00001000
00000000
00000001
00000000
00000000
00000010
00000000
00000000
00000100
00000000
00000000
00001000
00000000
00000000
,
00000001
00000100
00001000
00010000
,
00100000
10000000
00010000
10000000
,
01000000
00010000
00000100
00001000
00000001
00000100
00010000
01000000
,
00200000
00000000
00000000
00000000
10300000
00010000
10010000
00000000
,
10000000
00100000
00001000
00000010
00000100
00000001
00000010
00001000
,
00000010
00000100
00000010
00000001
00000100
00000010
00000100
00001000
,
00010000
00100000
10000000
00010000
00100000
01000000
00001000
00000100
,
00010000
00001000
00010000
00000000
00011000
00000000
10010000
00000000
,
10000000
00100000
00010000
00000010
00001000
00000100
00000010
00000001
,
00001000
00000010
00000100
00001000
00010000
00100000
01000000
00010000
,
00100000
01000000
00010000
00001000
00010000
01000000
10000000
01000000
,
01100000
00000000
00011000
00000000
00000010
00010000
00011000
00000000
,
00010000
00001000
00000100
00001000
00100000
00010000
00100000
00001000
,
00010000
00000100
00000010
00000001
00000100
00001000
00100000
00000000
,
00010000
00100000
01000000
10000000
00100000
00001000
00100000
01000000
,
00010000
00100000
10000000
00100000
00001000
00010000
00001000
00000000
,
00010000
00000000
00001000
00000000
00000010
00000000
00000100
00000000
00001000
00000000
00000010
00000000
00010000
00000000
00000100
00001000
,
00000100
00000010
00000001
00000100
00001000
00010000
00001000
00100000
,
01000000
00100000
00010000
10000000
00100000
00010000
00001000
00010000
,
01000000
00010000
00001000
00000010
00001000
00010000
00011000
00000000
,
00020010
00000000
00032000
00000000
,
00003200
00000000
00000302
00000000
,
00002003
00000000
00003002
00000000
,
00000203
00000000
00001300
00010000
,
00011000
00000000
00011000
00000000
00001000
00010000
01000000
10000000
,
10010000
00000000
10010000
00000000
00010000
00100000
10000000
00100000
,
00010000
00000000
01000000
00000000
10000000
00000000
01000000
00000000
00010000
10000000
00010000
10000000
00010000
10000000
00010000
10000000
,
00020000
00000000
10000000
00000000
10030000
00010000
01010000
00000000
,
00100000
00000000
01000000
00000000
00010000
00000000
00000100
00000000
00000010
00000000
00000100
00001000
00000000
00001000
00000001
00000000
,
00000010
00000000
00000100
00000000
00001000
00000000
00000100
00000000
00000010
00000000
00000001
00000100
00000000
00000001
00000100
00000000
,
00010000
00000000
01000000
00000000
00100000
00000000
10000000
00000000
01000000
00000000
00100000
10000000
00000000
00100000
01000000
00000000
,
10000000
10010000
00000000
00011000
00000000
00001010
00000000
00000010
,
00001000
00000000
00000100
00000000
00010000
00000000
01000000
00000000
00010000
00000000
00001000
00010000
00000000
00001000
00000100
00000000
,
00000001
00000000
00000010
00000000
00000100
00000000
00001000
00000000
00000100
00000000
00010000
00000100
00000000
00010000
00001000
00000000
,
00010000
00000000
01000000
00000000
10000000
00000000
00100000
00000000
00010000
00000000
00100000
01000000
00000000
00100000
00010000
00000000
,
00001000
00000000
00000100
00000000
00000001
00000000
00000010
00000000
00001000
00000000
00010000
00001000
00000000
00010000
01000000
00000000
,
20020000
00000000
00000000
00000000
,
00000000
00000000
00000000
00000000
,
00000000
00000000
00000000
00000000
,
30030000
00000000
00000000
00000000
,
00010000
01000000
10000000
01000000
00010000
10000000
01000000
00010000
,
00000100
00001000
00000010
00001000
00100000
00010000
00001000
00100000
,
00010000
00100000
00001000
00000010
00001000
00010000
00001000
00000100
,
00000001
00000000
00001000
00000100
00000010
00000001
00001001
00000000
,
00000001
00000010
00001000
00010000
01000000
10000000
00010000
00000000
,
10000000
00100000
00010000
00001000
00000100
00000001
00001000
00000000
,
00000001
00000000
00000100
00000000
00001000
00000000
00010000
00000000
00001000
00010000
00001000
00010000
00001000
01000000
00001000
01000000
,
00002000
00000000
00010000
00000000
00013000
00001000
00011000
00000000
,
00010000
00001000
00000100
00000001
00001000
00000001
00000010
00000100
,
00000010
00001000
00010000
00100000
01000000
00000000
00010000
10000000
,
01000000
00010000
01000000
10000000
00100000
00010000
00001000
00000100
,
00000001
00000010
00000100
00010000
00001000
00000010
00001000
00010000
,
00001000
01000000
00100000
00010000
00001000
01000000
00010000
00000100
,
00001000
00010000
01000000
00100000
00010000
01000000
00100000
00010000
,
00001000
00010000
01000000
00100000
00010000
01000000
00100000
00001000
,
00000100
00000010
00001000
00010000
00001000
01000000
00010000
00000000
,
00011000
00000000
00000000
00000000
,
00000000
00000000
00000000
00000000
01100000
00000000
00100000
00010000
,
10000000
00100000
00010000
00001000
00010000
01000000
10000000
00010000
,
01000000
00001000
00010000
01000000
00100000
00001000
00000010
00000100
,
00001000
00000001
00001000
00000100
00010000
00001000
00010000
00100000
,
01000000
00010000
10000000
01000000
00010000
00001000
00010000
00100000
,
10000000
01000000
00010000
00001000
00000010
00000100
00001000
00000001
,
00000100
00000000
00000010
00001000
00000010
00000000
00010000
00000000
00001000
00100000
00010000
10000000
00010000
00000000
01000000
00000000
,
20020000
00000000
00000000
00000000
,
00000000
00000000
00000000
00000000
,
30030000
00000000
00000000
00000000
;

//--------------- dance-double - Fred-104† ----------------
#NOTEDATA:;
#STEPSTYPE:dance-double;
#DESCRIPTION:Fred-104†;
#DIFFICULTY:Challenge;
#METER:17;
#CREDIT:Fred-104†;
#NOTES:
00000000
00000000
00000000
00000000
,
00000000
00000000
00000000
00000000
,
00000000
00000000
00000000
00000000
,
00000001
00000000
00000100
00000000
00001000
00000000
00000001
00000000
00000010
00000000
00001000
00000000
00000001
00000000
00000010
00000100
00000010
00000000
00000001
00000000
00001000
00000001
00000100
00000001
,
00001000
00000000
00000000
00000000
00000000
00000000
00000000
00000000
00000001
00000000
00000000
00000000
00000100
00000000
00000000
00000000
00000010
00000000
00000000
00000000
00000100
00000000
00000000
00000000
00001000
00000000
00000000
00000000
00000000
00000000
00000000
00000000
00010000
00000000
00000000
00000000
00100000
00000000
00000000
00000000
01000000
00000000
00000000
00000000
00100000
00000000
00000000
00000000
10000000
00000000
00000000
00000000
00010000
00000000
00000000
00000000
10000000
00000000
00000000
00000000
01000000
00000000
00000000
00000000
00010000
00000000
00000000
00000000
00001000
00000000
00000000
00000000
00010000
00000000
00000000
00001000
00000000
00000000
00010000
00000000
00000000
00001000
00000000
00000000
00010000
00000000
00000000
00001000
00000000
00000000
00010000
00000000
00000000
00001000
00000000
00000000
,
00010000
00000000
00001000
00000000
10000000
10000000
10000000
00000000
,
00001000
00000000
00010000
00000000
00000001
00000001
00000001
00000000
,
00001000
00000010
00001000
00000000
00000001
00000100
00000001
00000000
00001000
00000100
00000010
00000001
00001000
00000100
00000010
00000001
,
00002000
00000000
00000000
00000000
00003001
00001000
00001001
00000000
,
00000001
00000100
00000001
00000000
00000010
00000000
00000100
00000000
00001000
00000100
00001000
00000000
00000001
00000000
00000100
00000000
,
00000010
00001000
00000010
00000000
00010000
00000000
00001000
00000000
00100000
00001000
00100000
00000000
00001000
00000000
00010000
00000000
,
00100000
01000000
00100000
00000000
10000000
00000000
01000000
00000000
00100000
00010000
00100000
00000000
00010000
00000000
01000000
00000000
,
00001000
00010000
00001000
00000000
00100000
00010000
00100000
00000000
00110000
00000000
00000000
00000000
00101000
00000000
00000000
00000000
,
00001000
01000000
00001000
00000000
00010000
00000000
00100000
00000000
10000000
00010000
10000000
00000000
01000000
00000000
00010000
00000000
,
00001000
00010000
00000100
00000000
00001000
00000000
00000010
00000000
00000100
00000001
00001000
00000000
00000100
00000000
00000010
00000000
,
00000001
00000010
00000100
00000000
00010000
00000000
00001000
00000000
00000100
00000001
00001000
00000000
00000100
00000000
00000010
00000000
,
00000110
00000000
00011000
00000000
01000000
00100000
01100000
00000000
,
00010000
10000000
01000000
00000000
00100000
00000000
01000000
00000000
10000000
00100000
00010000
00000000
00100000
00000000
01000000
00000000
,
00010000
10000000
00010000
00000000
00100000
00000000
01000000
00000000
00010000
00001000
00000010
00000000
00000100
00000000
00010000
00000000
,
00001000
00010000
00000010
00000000
00001000
00000000
00000100
00000000
00000010
00000001
00001000
00000000
00000010
00000000
00000100
00000000
,
00000001
00000100
00001000
00000000
00000001
00000010
00001000
00000000
00000001
00000000
00001000
00000000
00001001
00000000
00000000
00000000
,
00000001
00000000
00000100
00000000
00001000
00000000
00010000
00000000
00000100
00000000
00000010
00000000
00000001
00000000
00001000
00000001
,
00001000
00000000
00000010
00000000
00010000
00000000
00001000
00000000
00100000
00010000
10000000
00000000
00100000
00000000
01000000
00010000
,
10000000
00000000
01000000
00100000
00001000
00000000
00010000
00000100
00001000
00000000
00000010
00000100
00000001
00000000
00001000
00000000
,
00000001
00000100
00000001
00001000
00000100
00010000
00001000
00100000
00010000
10000000
00100000
01000000
00010000
00000000
00000000
00000000
,
20010000
00000000
30200000
00000000
,
00320000
00000000
00032000
00000000
,
00003200
00000000
00000302
00000000
,
00002003
00000000
00003001
00000100
,
00000110
00000000
00000000
00000000
00000110
00000000
00000000
00000000
00010000
00000000
00001000
00000000
00100000
00000000
00010000
10000000
,
00010000
00000000
10010000
00000000
10000000
01000000
00100000
00010000
,
00100000
00000000
00100000
00000000
00001000
00000000
00001000
00000000
00010000
00000100
00001000
00000001
00000100
00000010
00001000
00000001
,
00000020
00000000
00000100
00000000
00000130
00001000
00001001
00000000
,
00000001
00000000
00000100
00000000
00000001
00000010
00000000
00000001
00000100
00000000
00000010
00001000
00000000
00000010
00000100
00000000
,
00000001
00000000
00000010
00000000
00000100
00010000
00000000
00001000
00000100
00000000
00000010
00001000
00000000
00000001
00000100
00000000
,
00000010
00000000
00000100
00000000
00001000
00010000
00000000
01000000
00100000
00000000
00010000
10000000
00000000
01000000
10000000
00000000
,
00100000
10000000
01000000
00010000
00001000
00000010
00000011
00000000
,
00000001
00000000
00000100
00000000
00000001
00000010
00000000
00000100
00001000
00000000
00000010
00001000
00000000
00000001
00000100
00000010
,
00000100
00000000
00001000
00000000
00010000
00000010
00000000
00010000
00001000
00000000
00100000
00010000
00000000
10000000
00100000
01000000
,
00100000
00010000
00001000
01000000
00010000
10000000
01000000
00100000
,
00010000
01000000
00001000
00010000
00000100
00001000
00000100
00000010
00000001
00001000
00000010
00001000
00000001
00000010
00000100
00010000
,
00002000
00000000
00000000
00000000
,
00000000
00000000
00000000
00000000
,
00000000
00000000
00000000
00000000
,
00003000
00000000
00000000
00000000
,
00001000
00000000
00010000
00000000
00100000
00000000
10000000
00000000
00100000
00000000
00010000
00000000
00001000
00000000
00010000
00000010
,
00010000
00001000
00000100
00001000
00010000
01000000
00010000
00001000
,
00010000
00001000
00000100
00000001
00001000
00000100
00000010
00000001
,
00001000
00000001
00000100
00000010
00000100
00000000
00001000
00010000
00100000
01000000
00100000
10000000
00010000
00000000
00000000
00000000
,
00010000
00000000
01000000
00000000
00100000
00000000
10000000
00000000
01000000
00000000
01000000
00000000
00100000
00000000
00100000
00001000
,
00010000
00001000
01000000
00001000
00010000
00010000
00000100
00000100
,
00001000
00000010
00001000
00000001
00000010
00000100
00001000
00000100
00010000
00001000
01000000
00010000
10000000
00010000
00100000
00001000
,
00020000
00000000
00000000
00000000
00031000
00010000
00011000
00000000
,
00001000
00100000
00010000
00000000
00100000
00000000
01000000
00000000
10000000
00010000
01000000
00000000
00100000
00000000
00010000
00000000
,
00001000
00010000
00001000
00010000
00001000
00000000
00010000
00000000
00010010
00000000
00000000
00000000
00001000
00000000
00000001
00000000
,
00000100
00000001
00000010
00000000
00000100
00000000
00001000
00000000
00000100
00000010
00000001
00000000
00001000
00000000
00000010
00000000
,
00000100
00000001
00000100
00000001
00001000
00000000
00000001
00000000
00000010
00000100
00000010
00001000
00010000
00000000
00001000
00000000
,
00100000
00010000
10000000
00000000
00100000
00000000
01000000
00000000
00010000
10000000
01000000
00000000
00010000
00000000
00001000
00000000
,
00010000
00000100
00001000
00000100
00000010
00000000
00000001
00000000
00000100
00000001
00001000
00000001
00000100
00000000
00000001
00000000
,
00000010
00000100
00000010
00000000
00000001
00000000
00001000
00000010
00000100
00000000
00000010
00000000
00001000
00000001
00001000
00000000
,
00000001
00000100
00000001
00001000
00000100
00000000
00010000
00001000
00100000
00010000
00100000
01000000
10000000
00000000
00010000
00000000
,
10010000
00000000
00000000
00000000
,
00000000
00000000
00000000
00000000
00011000
00000000
00010000
00001000
,
00000100
00000000
00000010
00001000
00000001
00000000
00001000
00000000
00000010
00000000
00000100
00000001
00000010
00000000
00000100
00000000
,
00010000
00001000
00100000
00001000
00010000
00000000
01000000
00000000
00001000
00010000
00001000
00100000
00001000
00000000
00010000
00000000
,
00000100
00000000
00001000
00000001
00000010
00000000
00000100
00000000
00000010
00000000
00000001
00001000
00000100
00000000
00010000
00000000
,
00001000
00010000
00000010
00010000
00001000
00000000
01000000
00000000
00001000
00010000
01000000
00100000
00010000
00000000
10000000
00000000
,
00010000
00100000
01000000
10000000
01000000
00100000
00010000
00000000
01000000
00001000
00010000
00001000
00100000
00001000
00010000
00000000
,
00001000
00100000
00010000
00100000
00001000
00010000
00000010
00001000
00000100
00000010
00000001
00001000
00000001
00000000
00000000
00000000
,
00000022
00000000
00000000
00000000
,
00000000
00000000
00000000
00000000
,
00000033
00000000
00000000
00000000
;
