#TITLE:CaptivAte~誓い~;
#ARTIST:A\/I;
#TITLETRANSLIT:CaptivAte~chikai~;
#GENRE:NOSTALISH REQUIEM;
#BANNER:CaptivAte~chikai~.png;
#BACKGROUND:CaptivAte~chikai~-bg.png;
#CDTITLE:./CDTitles/bm IIDX 14 GOLD.png;
#MUSIC:CaptivAte~chikai~.ogg;
#SAMPLESTART:109.502;
#SAMPLELENGTH:15;
#BPMS:0=160;
#BGSTAGE:22;

//--------------- dance-single - Fred-104 ----------------
#NOTES:
     dance-single:
     Fred-104:
     Beginner:
     3:
     :
0000
0000
0000
0000
,
0000
0000
0000
0000
,
0000
0000
0000
0000
,
0000
0000
0000
0000
,
0000
0000
0000
0000
,
1000
0000
0000
0000
,
0001
0000
0000
0000
,
0100
0000
0000
0000
,
0010
0000
0000
0000
,
0000
0000
0000
0000
,
1000
0000
0010
0000
,
2000
0000
3000
0000
,
0001
0000
1000
0000
,
0002
0000
0003
0000
,
1000
0000
0010
0000
,
2000
0000
3000
0000
,
0001
0000
1000
0000
,
0002
0000
0003
0000
,
1000
0000
0010
0000
,
1000
0000
0010
0000
,
1000
0000
0001
0000
,
1000
0000
0100
0000
,
0010
0000
0100
0000
,
0010
0000
0001
0000
,
1000
0000
0001
0000
,
2002
0000
3003
0000
,
1000
0000
0010
0000
,
1000
0000
0000
0000
,
0010
0000
1000
0000
,
0001
0000
0000
0000
,
1000
0000
0001
0000
,
0100
0000
0000
0000
,
0001
0000
0010
0000
,
0001
0000
0000
0000
,
1000
0000
0010
0000
,
0100
0000
0000
0000
,
0001
0000
1000
0000
,
0100
0000
0000
0000
,
1000
0000
0001
0000
,
1000
0000
0100
0000
,
1000
0000
0001
0000
,
2002
0000
3003
0000
,
1000
0000
0010
0000
,
1000
0000
0000
0000
,
0001
0000
0010
0000
,
0001
0000
0000
0000
,
1000
0000
0100
0000
,
0010
0000
0000
0000
,
0001
0000
0010
0000
,
0100
0000
0000
0000
,
1000
0000
0010
0000
,
1000
0000
0100
0000
,
1000
0000
0001
0000
,
1000
0000
0001
0000
,
0100
0000
0010
0000
,
0100
0000
0001
0000
,
1000
1000
1000
1000
,
1001
0000
0000
0000
,
0002
0000
0000
0000
,
0003
0000
0000
0000
,
0020
0000
0000
0000
,
0030
0000
0000
0000
,
0200
0000
0000
0000
,
0300
0000
0000
0000
,
2000
0000
0000
0000
,
3000
0000
0000
0000
,
1000
1000
1000
0000
,
0010
0000
1000
0000
,
0001
0000
1000
0000
,
0100
0000
1000
0000
,
0001
0001
0001
0000
,
0100
0000
0001
0000
,
0010
0000
0100
0000
,
1001
0000
0000
0000
,
1000
0000
0010
0000
,
1000
0000
0100
0000
,
0010
0000
0001
0000
,
1000
0000
0001
0000
,
1000
1000
1000
0000
,
0001
0001
0001
0000
,
1000
1000
1000
1000
,
1001
0000
0000
0000
,
2002
0000
0000
0000
,
3003
0000
0000
0000
;

//--------------- dance-single - Fred-104 ----------------
#NOTES:
     dance-single:
     Fred-104:
     Easy:
     8:
     :
0000
0000
0000
0000
,
0000
0000
0000
0000
,
0000
0000
0000
0000
,
0000
0000
0000
0000
,
0000
0000
0000
0000
,
1000
0000
0000
0000
,
0010
0000
0000
0000
,
1000
0000
0100
0000
,
0001
0000
0010
0000
,
1001
0000
0000
0000
,
2000
0000
3001
1000
,
0001
0000
0000
0100
0000
0000
0001
0000
0010
0000
0000
0000
0001
0000
0000
0000
,
2000
0000
3010
0100
,
0001
0000
0000
0010
0000
0000
0100
0000
1000
0000
0000
0000
0001
0000
0000
0000
,
0200
0000
0310
0100
,
0001
0000
0000
0010
0000
0000
0100
0000
1000
0000
0000
0000
0010
0000
0000
0000
,
0200
0000
0301
1000
,
0010
1000
0010
0000
0100
0001
0100
0000
,
1001
0001
1000
0000
,
0010
0000
0000
1000
0000
0000
0100
0000
1000
0000
0000
0000
0010
0000
0000
0000
,
0100
0001
0010
0000
,
0001
0000
0000
0010
0000
0000
0100
0000
1000
0000
0000
0000
0001
0000
0000
0000
,
0100
0010
0100
0000
,
0001
0000
0000
1000
0000
0000
0100
0000
1000
0000
0000
0000
0010
0000
0000
0000
,
0100
0000
0000
0000
0001
0000
0000
0000
0010
0000
0000
0001
0000
0000
1000
0000
,
2002
0000
3003
0000
,
0110
1001
0001
1000
,
0100
1000
0010
0000
1000
0000
0100
0000
,
0010
0000
0001
1000
,
0001
0100
0010
0000
0100
0000
0001
0000
,
1000
0000
0100
1000
,
0010
1000
0100
0000
0010
0000
0001
0000
,
1000
0000
0001
1000
,
0001
0010
0001
0000
1000
0010
1000
0000
,
0001
0100
0010
1000
,
0100
1000
0100
0000
0010
0000
0100
0000
,
1000
0010
0100
0010
,
1000
0010
1000
0000
0001
0000
0010
0000
,
0001
1000
0001
0100
,
0001
1000
0010
0000
1000
0000
0100
0000
,
0010
0001
0010
0000
0001
1000
0001
0000
,
1001
0110
2002
3003
,
1000
0000
0010
1000
0010
0000
0100
0000
,
0010
0000
1000
0100
0010
0000
0001
0000
,
0100
0000
0001
1000
0010
0000
0100
0000
,
0001
0010
0100
0000
0010
0000
0100
0000
,
1000
0000
0001
1000
0100
0000
1000
0000
,
0010
0000
1000
0010
0100
0000
0010
0000
,
2000
3000
0002
0003
,
1000
0010
0100
0000
0010
0100
0001
0000
,
1000
0000
0000
0000
0001
0000
0000
0000
0100
0000
0000
0100
0000
0000
0100
0000
,
0010
0000
0000
0000
1000
0000
0000
0000
0001
0000
0000
0001
0000
0000
0001
0000
,
0010
0001
1000
0000
,
0100
1000
0001
0000
,
1000
0000
0000
0000
0010
0000
0000
0000
1000
0000
0000
0100
0000
0000
1000
0000
,
0010
0100
0001
1000
,
0001
0010
0001
0000
1000
0010
1000
0000
,
2002
0000
3003
0000
,
0110
1001
0000
0001
,
0000
0100
0000
0010
,
0000
1000
0000
0100
,
0000
0001
0000
0010
,
1000
1000
0000
0001
,
0000
1000
0000
0100
,
0000
0010
0000
0001
,
0000
0000
1000
0000
0000
0000
0001
1000
,
0001
1001
0000
1000
,
0000
0010
0000
1000
,
0000
0100
0000
0010
,
0000
0000
0001
0000
0000
0000
1000
0001
,
1000
1001
0001
0100
,
0010
1000
0100
1000
,
0001
0100
0001
0000
1000
0010
1000
0000
,
1001
0000
0001
0000
,
0100
1000
0100
0001
,
0100
1000
0100
0001
,
0010
0100
0010
0000
0100
1000
0100
0000
,
0010
0100
0010
0000
0001
0010
0001
0000
,
0001
0100
1000
0100
,
0001
0010
1000
0010
,
0001
0100
0001
0000
1000
0100
1000
0000
,
1001
0000
0000
0000
0000
0000
0000
0000
0100
0000
0000
0100
0000
0000
0100
0000
,
0110
2002
0000
0000
,
3003
0000
0000
0000
;

//--------------- dance-single - Fred-104 ----------------
#NOTES:
     dance-single:
     Fred-104:
     Medium:
     11:
     :
0000
0000
0000
0000
,
0000
0000
0000
0000
,
0000
0000
0000
0000
,
0000
0000
0000
0000
,
0000
0000
0000
0000
,
1000
0000
0010
0000
,
0001
0000
0100
0000
,
1000
0000
0100
0000
,
0001
0000
0010
0000
,
1001
0000
0000
0000
,
2000
0010
3100
1100
,
0010
0000
0000
0001
0000
0000
0010
0000
0100
0000
0000
1000
0000
0000
0010
0000
,
0200
0000
0010
0000
0301
0000
0100
0100
,
0010
0000
0000
1000
0000
0000
0010
0000
0100
0000
0000
0001
0000
0000
1000
0000
,
0200
1000
0310
0011
,
0001
0000
0000
1000
0000
0000
0100
0000
0010
0000
0000
0100
0000
0000
1000
0000
,
0020
0000
0001
0000
0130
0000
0100
0001
,
1000
0010
0000
0000
0100
0000
0001
0000
1100
0000
0000
0000
1001
0000
0000
0000
,
0001
0010
0100
0000
1000
0010
0100
0000
,
0001
0010
1000
0000
0001
0100
1000
0000
,
0001
1000
0100
0000
0010
0001
1000
0000
,
0100
1000
0010
0000
0100
0001
0010
0000
,
0001
0100
1000
0000
0001
0010
1000
0000
,
0001
0010
1000
0000
0001
0100
1000
0000
,
0001
0100
0001
0100
0010
1000
0010
1000
,
0200
0000
0000
0000
0000
0000
0000
0000
0310
0000
0000
0010
0000
0000
0010
0000
,
0110
0000
1001
0000
0001
0010
0100
0010
,
0001
1000
0001
0100
0000
0010
1000
0100
,
2000
0000
0010
0000
3100
0000
1000
0100
,
1000
0010
0100
0001
0000
1000
0100
0010
,
0002
0010
0103
0001
,
1000
0001
0010
0001
0000
0100
0010
1000
,
0020
0100
1000
0130
,
0010
0001
0000
0000
1000
0000
0010
0000
0100
0010
0000
0000
1000
0000
0100
0000
,
0020
0000
0000
0000
0001
0000
0000
0000
1030
0000
0000
0010
0000
0000
0100
0000
,
0001
0000
0000
0010
0000
0000
0100
0000
1000
0000
0000
0010
0000
0000
0100
0000
,
0020
0000
0000
0000
1000
0000
0000
0000
0130
0000
0000
1000
0000
0000
0010
0000
,
1000
0100
0010
0200
0000
1300
0010
0100
,
0001
0000
0000
0000
1000
0000
0010
0000
0100
0000
0000
0010
0000
0000
1000
0000
,
0100
0000
0000
0010
0000
0000
0001
0000
0100
0000
0000
0010
0000
0000
0100
0000
,
0001
0010
0100
1000
0010
0100
0001
1000
,
1010
0101
2002
3003
,
0001
0010
0100
0020
0000
0031
0100
0010
,
0100
0001
0010
0100
0000
0100
1000
0010
,
0100
0000
0001
1000
0010
0000
1000
0001
,
0100
0010
1000
0100
0000
0100
1000
0001
,
0100
0001
0010
0100
0000
0010
0001
1000
,
0100
0010
0001
1000
0000
0100
0010
0001
,
1000
0010
0100
0001
1001
0000
0000
0000
,
0001
0100
0001
0000
1000
0010
1000
0000
,
0002
0000
0000
0000
0013
0000
0100
0000
1000
0000
0000
0010
0000
0000
1000
0000
,
0200
0000
0000
0000
1300
0000
0010
0000
0100
0000
0000
0010
0000
0000
1000
0000
,
0001
0100
0010
0100
0001
0000
1001
0000
,
1000
0000
0010
0000
1000
0000
0100
0000
0010
0000
0000
0100
0000
0000
1000
0000
,
0002
0000
0000
0000
0103
0000
0010
0000
0100
0000
0000
0001
0000
0000
0010
0000
,
0100
1000
0010
0100
0000
0010
1000
0001
,
1000
0100
0010
0001
0100
0010
1000
0001
,
2000
0000
0000
0000
0000
0000
0000
0000
0001
0000
0000
0001
0000
0000
3001
0000
,
1001
0120
0000
1000
,
0000
0001
0000
1030
,
0200
1000
0000
0001
,
0000
1000
0000
0301
,
2000
0000
3020
0000
,
0230
0000
0302
0000
,
0023
0000
0230
0000
,
2300
0000
0000
0000
3001
0000
1000
0001
,
1001
0120
1000
0031
,
0200
0001
0010
0301
,
2000
0100
0010
3100
,
0020
0000
0001
0000
1000
0000
0031
1000
,
1010
0201
1000
0301
,
0020
0031
2000
3100
,
1000
0010
0100
0001
1000
0100
0010
0001
,
1001
0000
0000
0000
0000
0000
0000
0000
0100
0000
0000
0100
0000
0000
0100
0000
,
1000
0000
0010
1000
0000
0010
1000
0000
0001
0000
0010
0001
0000
0001
0100
0000
,
0010
0000
1000
0010
0000
1000
0010
0000
0100
0000
0001
0010
0000
0010
0100
0000
,
2000
0000
0000
0100
0000
0000
3100
0000
0020
0000
0000
0001
0000
0000
0031
0000
,
0200
0000
0000
0010
0000
0000
0310
0000
2000
0000
0000
0001
0000
0000
3001
0000
,
0010
0000
0001
1000
0000
1000
0100
0000
1000
0000
0000
0001
0000
0000
1000
0000
,
0100
0000
0010
0001
0000
0010
0001
0000
0100
0000
0000
0010
0000
0000
1000
0000
,
0100
0000
1000
0001
0000
1000
0001
0000
0010
0100
0010
0000
0100
1000
0100
0000
,
2002
0000
0000
0000
0000
0000
3003
0000
1100
0000
0000
0101
0000
0000
1001
0000
,
0110
2002
0000
0000
,
3003
0000
0000
0000
;

//--------------- dance-single - Fred-104 ----------------
#NOTES:
     dance-single:
     Fred-104:
     Hard:
     15:
     :
0000
0000
0000
0000
,
0000
0000
0000
0000
,
0000
0000
0000
0000
,
0000
0000
0000
0000
,
0000
0000
0000
0000
,
0001
0000
1000
0000
0001
0000
1000
0000
0000
0000
0100
0000
,
0010
0000
0000
0000
0010
0000
0001
0000
0000
0000
0001
0000
,
1000
0000
0010
0000
0100
0000
0001
0000
0010
0000
0001
0000
,
0100
0000
0010
0000
1000
0000
0001
0000
0010
0000
0100
0000
,
1001
0000
0000
0000
,
1000
0000
0000
0010
0100
0000
0010
0000
1000
0000
0000
0100
0000
0000
0010
0001
,
0010
0000
0000
0001
0000
0000
0100
0000
0010
0000
0000
1000
0000
0000
0001
0000
,
1000
0010
0000
0000
1000
0000
0100
0000
0010
0000
0000
0100
0000
0000
1000
0001
,
1000
0000
0000
0010
0000
0000
0100
0000
0001
0000
0000
0010
0000
0000
0100
0000
,
0010
0001
0000
0000
0100
0000
0010
0000
0100
0000
0000
0001
0000
0000
0010
0100
,
1000
0000
0000
0010
0000
0000
0100
0000
0010
0000
0000
1000
0000
0000
0100
0000
,
0010
0100
0000
0000
1000
0000
0001
0000
0100
0000
0000
0001
0000
0000
0010
0000
,
0001
0100
0000
0010
1000
0000
0100
0000
0110
0000
0000
0000
0011
0000
0000
0000
,
0001
0000
0000
0000
0100
0000
0010
0000
1000
0000
0000
0100
0000
0000
0010
0001
,
0010
0000
0000
0001
0000
0000
0100
0010
1000
0000
0000
0100
0000
0000
0010
0001
,
1000
0010
0000
0010
0100
0000
0010
1000
0100
0000
0000
0010
0000
0000
0100
1000
,
0001
0000
0000
0010
0000
0000
0100
1000
0001
0000
0000
0100
0000
0000
0010
0100
,
0001
0010
0000
0010
0001
0000
0100
0001
0010
0000
0000
0100
0000
0000
1000
0001
,
0100
0000
0000
0010
0000
0000
1000
0100
0010
0000
0000
0100
0000
0000
1000
0010
,
0100
0001
0000
1000
0100
0000
0010
0001
1000
0000
0001
0010
0000
0001
0100
0010
,
0200
0000
0000
0000
0000
0000
0000
0000
0010
0000
0000
0010
0000
0000
0310
0000
,
0110
0000
0000
0000
1001
0000
0001
0000
0100
0000
0010
0000
0100
0000
0001
0010
,
0001
0000
1000
0000
0010
0000
0200
0000
0000
0000
0310
0000
1000
0000
0100
0010
,
0001
0010
0000
0010
0100
0000
1000
0000
0001
1000
0000
1000
0100
0000
0010
0100
,
1000
0000
0010
0000
1000
0000
0200
0000
0000
0000
0310
0000
0001
0000
1000
0001
,
0010
0100
0000
0100
0010
0000
0001
0000
1000
0000
0100
1000
0000
0001
0100
0001
,
0010
0000
0100
0000
1000
0000
0020
0000
0000
0000
0130
0000
0010
0000
1000
0001
,
1000
0100
0010
0001
0100
0010
0001
0010
,
0100
0001
0000
0000
1000
0000
0010
0000
1000
0000
0001
0100
0001
0000
1000
0000
,
0001
1000
0000
0010
1000
0000
0100
0000
0010
0001
0000
0100
0001
0000
0010
0001
,
1000
0000
0001
0100
0010
0000
0100
0000
0001
0000
0010
0000
0100
0000
1000
0010
,
1000
0100
0000
0010
0001
0000
1000
0000
0001
0100
0000
0010
0100
0000
0001
0010
,
0001
0000
0100
0000
1000
0000
0100
0000
0001
0000
0010
0100
1000
0000
0001
0000
,
1000
0100
0000
0100
1000
0000
0010
0000
0100
0001
0000
0010
0001
0000
0100
0001
,
1000
0001
0000
0010
0100
0000
1000
0000
0001
0000
0100
0000
0010
0000
0100
0000
,
0001
0100
0001
0100
0010
0100
0010
0000
1000
0100
1000
0100
0010
0100
0010
0000
,
0011
1100
2002
3003
,
1000
0100
0010
2000
0000
3001
0100
0010
,
0001
1000
0010
0100
0001
0010
0011
0000
,
1001
0000
0000
0000
1000
0000
0100
0000
0001
0000
0000
0000
0100
0000
1000
0010
,
0100
0001
0010
0200
0000
0301
0100
1000
,
0001
1000
0100
0020
0000
0031
0100
0010
,
0001
0000
0010
0000
1000
0000
0002
0000
0000
0000
0103
0000
0010
0000
1000
0010
,
0100
0001
0010
0001
1001
0000
0000
0000
,
1000
0010
0100
0001
0010
0001
1000
0100
,
1000
0000
0100
0000
1000
0000
0001
1000
0010
0000
0000
0100
0000
0000
0001
0000
,
0010
0000
0001
0000
1000
0000
0001
0010
0100
0000
0000
1000
0000
0000
0010
0000
,
0100
0000
0001
0000
0010
0000
0100
1000
0100
0000
0000
0000
1000
0000
0001
1000
,
0100
0000
1000
0000
0010
0000
0100
0000
0010
0000
0100
0001
0000
1000
0001
0000
,
1000
0000
0001
0000
0100
0000
0001
1000
0010
0000
0000
1000
0000
0000
0001
0000
,
1000
0100
0010
0002
0000
1003
0010
0100
,
0001
1000
0001
1000
0100
0010
0100
0010
0001
0100
0010
0100
0001
1000
0001
0100
,
0020
0000
0000
0000
0000
0000
0000
0000
0100
0000
0000
0100
0000
0000
0130
0000
,
1001
0120
0000
1000
,
0000
0001
0000
1030
,
0002
0100
0000
0010
,
0000
0100
0000
0103
,
2000
0000
0000
0000
3020
0000
0000
0000
0130
0000
0000
0001
0000
0000
0001
0000
,
0010
0000
0000
0100
0000
0000
0100
0000
1000
0000
0000
0001
0000
0000
0001
0000
,
1000
0000
0000
0100
0000
0000
0010
0000
0001
0000
0000
0000
0100
0000
0010
0000
,
1000
0000
0000
0010
0000
0000
1000
0000
0100
0000
0000
0010
0000
0000
0011
0000
,
0101
0000
0000
0000
1001
0000
0000
0000
1000
0000
0010
0100
0000
0010
0100
0000
,
0001
0000
1000
0010
0000
1000
0010
0000
0100
0000
0001
0010
0000
0001
0010
0000
,
0100
0000
1000
0010
0000
0100
0010
0000
1000
0010
0000
0100
0010
0000
1000
0000
,
0001
0000
0010
0100
0000
1000
0001
0000
0010
0100
0000
1000
0001
0000
0101
0000
,
0110
0000
0000
0000
1001
0000
0000
0000
1000
0000
0010
1000
0000
0010
0100
0000
,
0001
0000
0010
0001
0000
1000
0001
0000
0100
0000
0010
1000
0000
0001
0100
0000
,
0001
0010
0001
0010
0100
1000
0100
1000
0001
0100
0001
0100
0010
1000
0100
0010
,
0001
0000
0000
0000
0000
0000
0000
0000
1100
0000
0000
0011
0000
0000
1010
0000
,
0101
0000
0000
0000
1001
0000
0000
0000
1000
0000
0001
0010
0000
0100
1000
0000
,
0001
0000
0010
0100
0000
0010
0001
0000
1000
0000
0010
0100
0000
0001
0100
0000
,
0001
0000
0010
0001
0000
0100
0010
0000
1000
0000
0001
0010
0000
0100
1000
0000
,
0001
0000
1000
0010
0000
0100
0001
0000
1000
0000
0010
0100
0000
0010
1000
0000
,
0001
0000
0100
1000
0000
0100
0001
0000
1000
0000
0100
0001
0000
0100
1000
0000
,
0001
0000
0010
1000
0000
0010
0001
0000
1000
0000
0010
0001
0000
0010
1000
0000
,
0001
0010
0001
0010
0100
1000
0100
1000
0010
0100
0001
1000
0100
0010
0001
1000
,
0020
0000
0000
0000
0000
0000
0030
0000
1010
0000
0000
0011
0000
0000
0101
0000
,
1100
2002
0000
0000
,
3003
0000
0000
0000
;

//--------------- dance-double - Fred-104 ----------------
#NOTES:
     dance-double:
     Fred-104:
     Easy:
     8:
     :
00000000
00000000
00000000
00000000
,
00000000
00000000
00000000
00000000
,
00000000
00000000
00000000
00000000
,
00000000
00000000
00000000
00000000
,
00000000
00000000
00000000
00000000
,
00010000
00000000
00000000
00000000
,
01000000
00000000
00000000
00000000
,
00100000
00000000
01000000
00000000
,
00010000
00000000
10000000
00000000
,
10010000
00000000
00000000
00000000
,
00002000
00000000
00013000
00001000
,
00010000
00000000
00000000
00000100
00000000
00000000
00001000
00000000
00000100
00000000
00000000
00000000
00001000
00000000
00000000
00000000
,
00000200
00000000
00000310
00000001
,
00000010
00000000
00000000
00000001
00000000
00000000
00001000
00000000
00000010
00000000
00000000
00000000
00010000
00000000
00000000
00000000
,
00002000
00000000
00103000
00001000
,
00010000
00000000
00000000
00001000
00000000
00000000
00100000
00000000
00010000
00000000
00000000
00000000
01000000
00000000
00000000
00000000
,
00200000
00000000
01300000
00010000
,
00100000
00001000
00100000
00000000
00010000
10000000
00010000
00000000
,
10010000
10000000
01000000
00000000
,
00100000
00000000
00000000
00001000
00000000
00000000
00010000
00000000
00100000
00000000
00000000
00000000
10000000
00000000
00000000
00000000
,
01000000
00010000
00001000
00000000
,
00000100
00000000
00000000
00000001
00000000
00000000
00001000
00000000
00000001
00000000
00000000
00000000
00000100
00000000
00000000
00000000
,
00000010
00001000
00000100
00000000
,
00010000
00000000
00000000
00001000
00000000
00000000
00010000
00000000
00001000
00000000
00000000
00000000
00100000
00000000
00000000
00000000
,
01000000
00000000
00000000
00000000
00100000
00000000
00000000
00000000
00001000
00000000
00000000
00010000
00000000
00000000
00001000
00000000
,
00022000
00000000
00033000
00000000
,
01100000
10010000
00010000
10000000
,
00010000
00100000
00010000
00000000
01000000
00000000
00001000
00000000
,
00010000
00000000
00001000
00010000
,
00001000
00100000
00001000
00000000
00010000
00000000
00000010
00000000
,
00001000
00000000
00000010
00010000
,
00000100
00001000
00000100
00000000
00010000
00000000
00000100
00000000
,
00001000
00000000
00000010
00000100
,
00000001
00000010
00000001
00000000
00001000
00000100
00001000
00000000
,
00000001
00000100
00000010
00001000
,
00000100
00000010
00000100
00000000
00010000
00000000
00001000
00000000
,
00010000
01000000
00100000
00010000
,
10000000
00100000
10000000
00000000
00100000
00000000
00100000
00000000
,
01000000
00010000
10000000
01000000
,
00100000
00010000
00100000
00000000
00001000
00000000
00010000
00000000
,
00000010
00001000
00000010
00000000
00001000
00000100
00000010
00000000
,
00001001
00000110
00002002
00003003
,
00000001
00000000
00000100
00000010
00000100
00000000
00000001
00000000
,
00001000
00000000
00000100
00010000
00001000
00000000
00010000
00000000
,
00001000
00000000
00100000
00010000
00100000
00000000
00001000
00000000
,
00010000
00100000
01000000
00000000
00010000
00000000
10000000
00000000
,
00010000
00000000
10000000
01000000
00100000
00000000
00010000
00000000
,
01000000
00000000
00100000
01000000
00001000
00000000
00010000
00000000
,
00002000
00003000
00020000
00030000
,
00000100
00001000
00000010
00000000
00000100
00000001
00001000
00000000
,
00000010
00000000
00000000
00000000
00000100
00000000
00000000
00000000
00000001
00000000
00000000
00000001
00000000
00000000
00000010
00000000
,
00000001
00000000
00000000
00000000
00000100
00000000
00000000
00000000
00000010
00000000
00000000
00000010
00000000
00000000
00010000
00000000
,
00001000
00010000
00100000
00000000
,
10000000
01000000
00010000
00000000
,
00001000
00000000
00000000
00000000
00000100
00000000
00000000
00000000
00000001
00000000
00000000
00001000
00000000
00000000
00000001
00000000
,
00000001
00000100
00000010
00001000
,
00000100
00010000
00000100
00000000
00010000
00001000
00010000
00000000
,
00022000
00000000
00033000
00000000
,
01100000
10010000
00000000
10000000
,
00000000
01000000
00000000
00100000
,
00000000
00010000
00000000
00001000
,
00000000
00000100
00000000
00000010
,
00000001
00000001
00000000
00001000
,
00000000
00000010
00000000
00000100
,
00000000
00000001
00000000
00000010
,
00000000
00000000
00001000
00000000
00000000
00000000
00010000
00001000
,
00010000
00011000
00000000
00001000
,
00000000
00010000
00000000
01000000
,
00000000
00100000
00000000
00010000
,
00000000
00000000
10000000
00000000
00000000
00000000
01000000
00100000
,
01000000
01100000
00100000
10000000
,
01000000
00100000
00001000
00010000
,
00000100
00001000
00000100
00000000
00000010
00000001
00000010
00000000
,
00000110
00000000
00000001
00000000
,
00001000
00000010
00010000
00001000
,
00100000
00001000
00100000
00001000
,
00010000
00001000
00010000
00000000
00001000
01000000
00001000
00000000
,
00010000
00001000
00010000
00000000
00001000
00100000
00001000
00000000
,
00010000
00001000
00000100
00000001
,
00001000
00000100
00000010
00000001
,
00000100
00001000
00000100
00000000
00001000
00010000
00001000
00000000
,
00011000
00000000
00000000
00000000
00000000
00000000
00000000
00000000
00001000
00000000
00000000
00001000
00000000
00000000
00010000
00000000
,
00011000
00022000
00000000
00000000
,
00033000
00000000
00000000
00000000
;

//--------------- dance-double - Fred-104 ----------------
#NOTES:
     dance-double:
     Fred-104:
     Medium:
     11:
     :
00000000
00000000
00000000
00000000
,
00000000
00000000
00000000
00000000
,
00000000
00000000
00000000
00000000
,
00000000
00000000
00000000
00000000
,
00000000
00000000
00000000
00000000
,
00010000
00000000
00001000
00000000
,
00100000
00000000
00010000
00000000
,
10000000
00000000
00000000
00000000
01000000
00000000
00010000
00000000
00000000
00000000
00001000
00000000
,
00010000
00000000
00000000
00000000
00100000
00000000
00010000
00000000
00000000
00000000
00001000
00000000
,
00011000
00000000
00000000
00000000
,
00020000
10000000
00130000
10010000
,
10000000
00000000
00000000
00010000
00000000
00000000
10000000
00000000
01000000
00000000
00000000
00100000
00000000
00000000
00001000
00000000
,
00002000
00000000
00010000
00000000
00013000
00000000
00000010
00010000
,
00001000
00000000
00000000
00000100
00000000
00000000
00000010
00000000
00001000
00000000
00000000
00000001
00000000
00000000
00000010
00000000
,
00000200
00001000
00000310
00000011
,
00000001
00000000
00000000
00001000
00000000
00000000
00000001
00000000
00000100
00000000
00000000
00001000
00000000
00000000
00010000
00000000
,
00002000
00000000
00100000
00000000
00103000
00000000
00001000
00010000
,
01000000
00100000
00000000
00000000
00001000
00000000
00010000
00000000
00011000
00000000
00000000
00000000
00010010
00000000
00000000
00000000
,
00010000
00001000
00000000
00001000
00010000
00000100
00000000
00000100
,
00001000
00000001
00000000
00000001
00000010
00000100
00000010
00000000
,
00000001
00000010
00000000
00000010
00000100
00001000
00000000
00001000
,
00000100
00010000
00000000
00010000
00001000
00100000
00010000
00000000
,
10000000
00100000
00000000
00100000
01000000
00010000
00000000
00010000
,
10000000
01000000
00000000
01000000
00010000
00001000
00010000
00000000
,
00001000
00000010
00000001
00001000
00000010
00000100
00000001
00001000
,
00000200
00000000
00000000
00000000
00000000
00000000
00000000
00000000
00000010
00000000
00000000
00000010
00000000
00000000
00000310
00000000
,
00000110
00000000
00001001
00000000
00000001
00001000
00000010
00000100
,
00000010
00010000
00001000
00010000
00000000
00100000
01000000
00010000
,
20000000
00000000
01000000
00000000
31000000
00000000
00100000
00001000
,
00010000
00000010
00001000
00000010
00000000
00010000
00001000
00000100
,
00000020
00000000
00001000
00000000
00001030
00000000
00000001
00000010
,
00000100
00001000
00000001
00000100
00000000
00000100
00000010
00000000
,
00002000
00000010
00000100
00003010
,
00020000
00030010
00002000
00003100
,
00010000
00000000
00000000
00010000
00000000
00000000
00001000
00000000
00100000
00000000
00000000
00010000
00000000
00000000
10000000
00000000
,
00100000
00000000
00000000
01000000
00000000
00000000
00100000
00000000
10000000
00000000
00000000
01000000
00000000
00000000
00100000
00000000
,
00001000
00000000
00000000
00000000
00010000
00000000
00001000
00000000
00000100
00000000
00000000
00000001
00000000
00000000
00000010
00000000
,
00000100
00000000
00000000
00001000
00000000
00000000
00000100
00000000
00000001
00000000
00000000
00000100
00000000
00000000
00001000
00000000
,
00000001
00000000
00000000
00000000
00001000
00000000
00000100
00000000
00000010
00000000
00000000
00001000
00000000
00000000
00010000
00000000
,
00100000
00000000
00000000
10000000
00000000
00000000
00010000
00000000
01000000
00000000
00000000
00100000
00000000
00000000
01000000
00000000
,
00010000
00100000
01000000
00100000
00001000
00010000
00001000
00010000
,
00011000
00010010
00022000
00033000
,
00010000
00000100
00001000
00000001
00000000
00000100
00000010
00001000
,
00000001
00000010
00000100
00000010
00000000
00000001
00000010
00000100
,
00001000
00000000
00000001
00000100
00001000
00000000
00010000
01000000
,
10000000
00100000
01000000
00010000
00000000
10000000
01000000
00000000
,
10000000
00100000
01000000
00100000
00000000
10000000
01000000
00100000
,
00001000
00010000
00100000
01000000
00000000
00010000
10000000
00100000
,
01000000
00001000
00010000
00000100
00001000
00000000
00000000
00000000
,
00000001
00000010
00000100
00000000
00001000
00000010
00000100
00000000
,
00000010
00000000
00000000
00000000
00010000
00000000
00001000
00000000
00100000
00000000
00000000
00010000
00000000
00000000
00100000
00000000
,
01000000
00000000
00000000
00000000
10000000
00000000
01000000
00000000
00010000
00000000
00000000
01000000
00000000
00000000
10000000
00000000
,
00100000
01000000
00100000
10000000
01000000
00000000
00100000
00001000
,
00010000
00000000
00001000
00000000
01000000
00000000
00001000
00000000
00010000
00000000
00000000
00001000
00000000
00000000
00010000
00000000
,
00000100
00000000
00000000
00000000
00001000
00000000
00000100
00000000
00000010
00000000
00000000
00000001
00000000
00000000
00001000
00000000
,
00000100
00000000
00000000
00000000
00000010
00000000
00000001
00000000
00000100
00000000
00000000
00001000
00000000
00000000
00010000
00000000
,
00100000
00000000
01000000
00000000
00100000
10000000
01000000
00100000
,
00020000
00000000
00000000
00000000
00000000
00000000
00000000
00000000
00130000
00000000
00000000
00001000
00000000
00000000
00010000
00000000
,
00011000
00020100
00000000
00001000
,
00000000
00100000
00000000
00031000
,
00000020
00000100
00000000
00001000
,
00000000
00000100
00000000
00000031
,
00000200
00000000
00000320
00000000
,
00002030
00000000
00023000
00000000
,
00230000
00000000
02300000
00000000
,
23000000
00000000
00000000
00000000
30010000
00000000
01000000
00100000
,
01100000
10010000
10000000
01000000
,
00010000
00001000
00000010
00000001
,
00000100
00001000
00010000
00100000
,
10000000
00000000
01000000
00000000
00010000
00000000
00001000
00010000
,
00011000
00000000
00000000
00000000
00010010
00000000
00000000
00000000
00000010
00000000
00000000
00001000
00000000
00000000
00000010
00000000
,
00000100
00000000
00000000
00000001
00000000
00000000
00000010
00000000
00000001
00000000
00000000
00001000
00000000
00000000
00000010
00000000
,
00010000
00001000
00100000
00010000
01000000
00100000
01000000
00010000
,
10010000
00000000
00000000
00000000
00000000
00000000
00000000
00000000
10000000
00000000
00000000
10000000
00000000
00000000
10000000
00000000
,
00010000
00000000
01000000
00100000
00000000
01000000
00100000
00000000
10000000
00000000
00000000
01000000
00000000
00000000
00100000
00000000
,
00001000
00000000
00010000
00001000
00000000
00010000
00000100
00000000
00001000
00000000
00000000
00000010
00000000
00000000
00000100
00000000
,
00000001
00000000
00001000
00000001
00000000
00000010
00000001
00000000
00000100
00000000
00000000
00000010
00000000
00000000
00001000
00000000
,
00000001
00000000
00000010
00000100
00000000
00000010
00000100
00000000
00000010
00000000
00000000
00000001
00000000
00000000
00001000
00000000
,
00000010
00000000
00010000
00001000
00000000
00010000
00000100
00000000
00001000
00000000
00000000
00000010
00000000
00000000
00010000
00000000
,
00001000
00000000
00100000
00010000
00000000
10000000
00010000
00000000
01000000
00000000
00000000
00100000
00000000
00000000
10000000
00000000
,
01000000
00000000
00100000
00010000
00000000
00100000
00010000
00000000
00100000
00001000
00100000
00000000
00001000
00010000
00001000
00000000
,
00022000
00000000
00000000
00000000
00000000
00000000
00033000
00000000
00010010
00000000
00000000
00001010
00000000
00000000
00000101
00000000
,
00001100
00000220
00000000
00000000
,
00000330
00000000
00000000
00000000
;

//--------------- dance-double - Fred-104 ----------------
#NOTES:
     dance-double:
     Fred-104:
     Hard:
     15:
     :
00000000
00000000
00000000
00000000
,
00000000
00000000
00000000
00000000
,
00000000
00000000
00000000
00000000
,
00000000
00000000
00000000
00000000
,
00000000
00000000
00000000
00000000
,
00000001
00000000
00000010
00000000
00000001
00000000
00001000
00000000
00000000
00000000
00000010
00000000
,
00010000
00000000
00000000
00000000
00010000
00000000
00001000
00000000
00000000
00000000
00001000
00000000
,
00100000
00000000
00010000
00000000
10000000
00000000
01000000
00000000
10000000
00000000
00100000
00000000
,
10000000
00000000
01000000
00000000
00010000
00000000
00001000
00000000
00000010
00000000
00000001
00000000
,
00001001
00000000
00000000
00000000
,
00011000
00000000
00000000
00010000
00000000
00000000
00000100
00000000
00001000
00000000
00000000
00000010
00000000
00000000
00001000
00000001
,
00000010
00000000
00000000
00000100
00000000
00000000
00000010
00000000
00000001
00000000
00000000
00000100
00000000
00000000
00001000
00000000
,
00010000
00100000
00000000
00000000
01000000
00000000
00010000
00000000
10000000
00000000
00000000
01000000
00000000
00000000
10000000
00010000
,
10000000
00000000
00000000
01000000
00000000
00000000
00100000
00000000
00010000
00000000
00000000
01000000
00000000
00000000
00100000
00000000
,
01000000
00100000
00000000
00000000
10000000
00000000
01000000
00000000
00010000
00000000
00000000
00001000
00000000
00000000
00010000
00001000
,
00010000
00000000
00000000
00001000
00000000
00000000
00000010
00000000
00001000
00000000
00000000
00010000
00000000
00000000
00001000
00000000
,
00000010
00000001
00000000
00000000
00001000
00000000
00000001
00000000
00000100
00000000
00000000
00000010
00000000
00000000
00000100
00000000
,
00000001
00000010
00000000
00000100
00000010
00000000
00000001
00000000
00001001
00000000
00000000
00000000
00000110
00000000
00000000
00000000
,
00010000
00000000
00001000
00000000
00010000
00000000
00000100
00010000
00000100
00000000
00010000
00000000
00001000
00000000
01000000
00001000
,
01000000
00000000
00001000
00000000
00010000
00000000
00000100
00001000
00000100
00000000
00000010
00000000
00000001
00000000
00001000
00000001
,
00001000
00000000
00000010
00000000
00010000
00000000
00001000
00100000
00001000
00000000
00010000
00000000
00000010
00000000
00001000
00000010
,
00001000
00000000
00000100
00000000
00010000
00000000
00001000
00100000
00001000
00000000
00010000
00000000
00100000
00000000
01000000
00010000
,
10000000
00000000
01000000
10000000
01000000
00000000
00100000
00010000
00100000
00000000
00001000
00010000
00001000
00000000
00010000
00001000
,
00000100
00000000
00000010
00001000
00000000
00000001
00000010
00000000
00000001
00000000
00001000
00000010
00000000
00000100
00000001
00000000
,
00001000
00000010
00000000
00010000
00001000
00000000
00100000
00000000
00010000
00000000
01000000
00100000
00000000
00100000
10000000
00100000
,
02000000
00000000
00000000
00000000
00000000
00000000
00000000
00000000
03100000
00000000
00000000
01000000
00000000
00000000
00100000
00000000
,
01100000
00000000
00000000
00000000
10010000
00000000
00000000
00000000
10000000
00000000
01000000
00000000
00100000
00000000
00001000
00010000
,
00001000
00010000
00100000
10000000
01000000
00010000
00001000
00010000
,
00001000
00000000
00000000
00000000
00000010
00000000
00000001
00000000
00000010
00000000
00000100
00000000
00001000
00000000
00000010
00000100
,
00000001
00000010
00000100
00010000
00001000
00000100
00000010
00001000
,
00000001
00000000
00000000
00000000
00001000
00000000
00000010
00010000
00001000
00000000
00100000
00000000
00010000
00000000
01000000
00100000
,
01000000
00010000
00100000
02000000
00000000
13000000
00100000
01000000
,
00010000
00100000
01000000
00100000
00001000
00010000
00100000
01000000
,
00010000
00100000
00000000
00001000
00010000
00000000
00001000
00000000
00000100
00000000
00000010
00000000
00001010
00000000
00000000
00000000
,
00000001
00000010
00000000
00000010
00000100
00000000
00000010
00000000
00000001
00000000
00001000
00000001
00000000
00000001
00000100
00000010
,
00001000
00000000
00000010
00010000
00000000
00001000
00010000
00000000
00001000
00000000
00010000
00100000
00000000
01000000
00010000
00000000
,
10000000
00100000
00000000
00010000
00100000
00000000
01000000
00000000
00100000
00000000
10000000
01000000
00000000
00100000
00001000
00010000
,
00001000
00000000
00100000
00001000
00000000
00010000
00001000
00000000
00000010
00000000
00000100
00001000
00000000
00000001
00000100
00000000
,
00000001
00001000
00000000
00001000
00000100
00000000
00010000
00000000
00001000
00000000
00000100
00000001
00000000
00001000
00000100
00000010
,
00000001
00000000
00000010
00000100
00000000
00000010
00000001
00000000
00001000
00000000
00000010
00000100
00000000
00000010
00001000
00000000
,
00000001
00000100
00000001
00000000
00001000
00000010
00001000
00000000
00000100
00010000
00000100
00000000
00010000
00001000
00010000
00000000
,
00011000
01100000
20020000
30030000
,
00010000
00100000
01000000
20000000
00000000
30100000
01000000
00010000
,
10000000
01000000
00010000
00001000
00010000
00100000
10000000
00000000
,
10010000
00000000
00000000
00000000
10000000
00000000
01000000
00000000
00010000
00000000
00000000
00000000
00001000
00000000
00010000
00001000
,
00000100
00000000
00000001
00000000
00000100
00000000
00001000
00000000
00000100
00000000
00000001
00000010
00000001
00000000
00001000
00000000
,
00000001
00000010
00000100
00002000
00000000
00003010
00000100
00001000
,
00010000
00000000
00001000
00000000
01000000
00000000
00200000
00000000
00000000
00000000
10300000
00000000
00100000
00000000
01000000
00010000
,
10000000
01000000
00010000
00001000
00000010
00000000
00000000
00000000
,
00000001
00001000
00000001
00000100
00000010
00001000
00000100
00000010
,
00000001
00000000
00000000
00000000
00000100
00000000
00000001
00000010
00000100
00000000
00000010
00000001
00000000
00001000
00000001
00000000
,
00000100
00000000
00000000
00000000
00000010
00000000
00010000
00001000
00100000
00000000
00001000
00100000
00000000
00010000
01000000
00000000
,
00100000
00000000
10000000
00000000
01000000
00000000
00010000
01000000
00010000
00000000
00000000
00000000
01000000
00000000
10000000
00100000
,
10000000
00000000
00010000
00000000
00100000
00000000
00001000
00000000
00010000
00001000
00000000
00000010
00000100
00000000
00001000
00000000
,
00000001
00000000
00000000
00000000
00001000
00000010
00000100
00000001
00001000
00000000
00000001
00000010
00000000
00000010
00000100
00000000
,
00001000
00000010
00000001
00000020
00000000
00000130
00000001
00001000
,
00000001
00000100
00000001
00000100
00000010
00001000
00000010
00001000
00000100
00010000
00000100
00010000
00001000
00010000
00001000
00000000
,
00012000
00000000
00000000
00000000
00000000
00000000
00000000
00000000
01003000
00000000
00000000
00001000
00000000
00000000
00010000
00000000
,
00011000
00021000
00000000
00000010
,
00000000
00100000
00000000
00000010
,
00000000
01000000
00000000
00000100
,
00000000
00000000
01000000
00000000
00000000
00000000
00031000
00010000
,
00002000
00100000
00000000
00000010
,
00000000
00100000
00000000
00000100
,
00000000
01000000
00000000
00000100
,
00000000
00000000
01003000
00000000
00001000
00000000
00010000
00001000
,
00011000
00000000
00000000
00000000
01100000
00000000
00000000
00000000
00010000
00000000
00000000
10000000
00000000
00000000
00100000
00000000
,
10000000
00000000
00000000
00010000
00000000
00000000
01000000
00000000
00100000
00000000
00000000
10000000
00000000
00000000
00100000
00000000
,
01000000
00000000
00000000
00001000
00000000
00000000
00000100
00000000
00000001
00000000
00000000
00001000
00000000
00000000
00000100
00000000
,
00000010
00000000
00000000
00000001
00000000
00000000
00000100
00000000
00000010
00000000
00000000
00001000
00000000
00000000
00000001
00000000
,
00000101
00000000
00000000
00000000
00001010
00000000
00000000
00000000
00000001
00000000
00000000
00000010
00000000
00000000
00000100
00000000
,
00001000
00000000
00000000
00000100
00000000
00000000
00010000
00000000
00001000
00000000
00000000
01000000
00000000
00000000
00010000
00000000
,
00100000
00001000
00010000
00001000
00100000
00001000
00010000
00001000
00010000
00000100
00001000
00000100
00010000
00001000
00010000
00000000
,
00011000
00000000
00000000
00000000
00000000
00000000
00000000
00000000
00011000
00000000
00000000
00001010
00000000
00000000
00000011
00000000
,
00001001
00000000
00000000
00000000
00000110
00000000
00000000
00000000
00000001
00000000
00000100
00000010
00000000
00001000
00000010
00000000
,
00000100
00000000
00000001
00000010
00000000
00000100
00000010
00000000
00000001
00000000
00001000
00000010
00000000
00010000
00001000
00000000
,
00100000
00000000
00010000
10000000
00000000
00010000
01000000
00000000
00100000
00000000
10000000
01000000
00000000
00100000
01000000
00000000
,
10000000
00000000
00010000
01000000
00000000
00100000
01000000
00000000
00010000
00000000
00100000
00001000
00000000
00010000
00001000
00000000
,
00000010
00000000
00000100
00001000
00000000
00000100
00000010
00000000
00000001
00000000
00000100
00001000
00000000
00010000
00001000
00000000
,
00010000
00000000
01000000
00100000
00000000
00010000
00100000
00000000
01000000
00000000
10000000
00010000
00000000
01000000
00100000
00000000
,
10000000
00100000
10000000
00100000
01000000
00010000
00100000
00001000
00010000
00001000
00010000
00000100
00001000
00000001
00000010
00000100
,
00000020
00000000
00000000
00000000
00000000
00000000
00000030
00000000
00000011
00000000
00000000
00001010
00000000
00000000
00011000
00000000
,
01010000
22000000
00000000
00000000
,
33000000
00000000
00000000
00000000
;
