#VERSION:0.83;
#TITLE:CURUS;
#ARTIST:D-crew;
#GENRE:FLOW BEAT;
#BANNER:CURUS.png;
#BACKGROUND:CURUS-bg.png;
#CDTITLE:./CDTitles/pnm 12 Iroha.png;
#MUSIC:CURUS.ogg;
#SAMPLESTART:85.634;
#SAMPLELENGTH:15;
#BPMS:0=184,196=188;
#BGSTAGE:3;

//--------------- dance-single - Fred-104 ----------------
#NOTEDATA:;
#STEPSTYPE:dance-single;
#DESCRIPTION:Fred-104;
#DIFFICULTY:Beginner;
#METER:4;
#CREDIT:Fred-104;
#NOTES:
0000
0000
0000
0000
,
0000
0000
0000
0000
,
0000
0000
0000
0000
,
0000
0000
0000
0000
,
0000
0000
0000
0000
,
0000
0000
0000
0000
,
1000
0000
0000
0000
,
0001
0000
0000
0000
,
1000
0000
0000
0000
,
0001
0000
0000
0000
,
1000
0000
0000
0000
,
0010
0000
0010
0000
,
0100
0000
0000
0000
,
0001
0000
0001
0000
,
1000
0000
0000
0000
,
0001
0000
1000
0000
,
1000
0000
0000
0000
,
0001
0000
0001
0000
,
1000
0000
0000
0000
,
0001
0000
1000
0000
,
0001
0000
0000
0000
,
0100
0000
0100
0000
,
0010
0000
0000
0000
,
0100
0000
0100
0000
,
0100
0000
0000
0000
,
0001
0000
1000
0000
,
0002
0000
0003
0000
,
2000
0000
3000
0000
,
0020
0000
0030
0000
,
0200
0000
0300
0000
,
0002
0000
0003
0000
,
2000
0000
3000
0000
,
0001
0000
0001
0000
,
1000
0000
1000
0000
,
0001
0000
0001
0000
,
1000
0000
0100
0000
,
1000
0000
1000
0000
,
0001
0000
1000
0000
,
0001
0000
0001
0000
,
1000
0000
1000
0000
,
0001
0000
1000
0000
,
0002
0000
0003
0000
,
2002
0000
3003
0000
,
2000
0000
3000
0000
,
0020
0000
0030
0000
,
0200
0000
0300
0000
,
0002
0000
0003
0000
,
2000
0000
3000
0000
,
0002
0000
0003
0000
,
1000
0000
0000
0000
,
1000
0000
0000
0000
,
0100
0000
0000
0000
,
0010
0000
0000
0000
,
0001
0000
0000
0000
,
1000
0000
1000
0000
,
0001
0000
0001
0000
,
0100
0000
0100
0000
,
0010
0000
0010
0000
,
2000
0000
0000
0000
,
3000
0000
0000
0000
,
0002
0000
0000
0000
,
0003
0000
0000
0000
,
1000
0000
0010
0000
,
1000
0000
0001
0000
,
0001
0000
0010
0000
,
0001
0000
0001
0000
,
1000
0000
0000
0000
,
0100
0000
1000
0000
,
0001
0000
0000
0000
,
1000
0000
0001
0000
,
0001
0000
0001
0000
,
1000
0000
1000
0000
,
0100
0000
0010
0000
,
0001
0000
1000
0000
,
0001
0000
1000
0000
,
0010
0000
0010
0000
,
0100
0000
0100
0000
,
0001
0000
1000
0000
,
0000
0001
0000
0001
,
0000
1000
0000
1000
,
0000
1000
0000
1000
,
0000
1000
0000
0000
,
1000
0000
0001
0000
,
1000
0000
0010
0000
,
0100
0000
0010
0000
,
1000
0000
0001
0000
,
1000
0000
0001
0000
,
0010
0000
0010
0000
,
0100
0000
0100
0000
,
2002
0000
0000
0000
0000
0000
0000
3003
;

//--------------- dance-single - Fred-104 ----------------
#NOTEDATA:;
#STEPSTYPE:dance-single;
#DESCRIPTION:Fred-104;
#DIFFICULTY:Easy;
#METER:8;
#CREDIT:Fred-104;
#NOTES:
0000
0000
0000
0000
,
0000
0000
0000
0000
,
0000
0000
0000
0000
,
0000
0000
0000
0000
,
0000
0000
0000
0000
,
0000
0000
0000
0000
,
1000
0000
0000
0010
0000
0000
1000
0000
,
0001
0000
0000
0100
0000
0000
0010
0000
,
0100
0000
0000
0100
0000
0000
0010
0000
,
1000
0001
1000
1000
,
0100
1000
0100
1000
,
0002
0000
0203
0000
,
0301
0001
0010
0001
,
1000
0010
0100
0100
,
0001
1000
0100
1000
,
0100
0010
0001
1000
,
0010
1000
0010
0100
,
0001
1000
2002
3003
,
1000
1000
0100
0010
,
0002
0000
2003
0000
,
3010
0010
1000
0001
,
1000
0001
0100
0010
,
1000
0001
1000
0001
,
0020
0000
0032
0000
,
1003
0010
1000
0001
,
0100
0100
0220
0330
,
2000
0000
3002
0000
,
1003
0010
0100
0001
,
0200
0000
0320
0000
,
0130
0001
1000
0001
,
1000
1000
0001
1000
,
0100
1000
0001
0010
,
0002
0000
2003
0000
,
3020
0000
0230
0000
,
0301
0000
1001
0000
,
1000
1000
0100
0010
,
0100
0000
0110
0000
,
0010
0010
0001
1000
,
0001
0000
0101
0000
,
0100
0100
0010
1000
,
0001
0000
1000
0000
,
0002
0000
2000
3003
,
1000
0000
0000
1000
0000
0000
1000
0000
,
0001
0000
0000
0001
0000
0000
0001
0000
,
0100
0000
0000
0100
0000
0000
0100
0000
,
0010
0000
0000
0010
0000
0000
0010
0000
,
1000
0000
0000
0100
0000
0000
0010
0000
,
0001
0000
0000
0100
0000
0000
0010
0000
,
1000
0000
0000
0001
0000
0000
1000
0000
,
0001
0001
1000
0010
,
0200
0000
0320
0000
,
1030
1000
0010
0100
,
0002
0000
2003
0000
,
3010
0010
1000
0001
,
1000
0100
0001
0010
,
1000
0100
0001
0010
,
1000
0001
0001
0100
,
0020
0000
0230
0000
,
0301
0001
0001
0001
,
0100
0100
0100
0100
,
1000
1000
1000
1000
,
0010
0010
0010
0010
,
0001
0001
0100
0100
,
0010
0010
1000
1000
,
0001
0100
1000
0100
,
0001
1000
0001
1001
,
2000
0000
3020
0000
,
0130
0100
0001
1000
,
0010
0100
0100
0010
,
1000
0001
1000
0001
,
1000
0100
0100
0100
,
1000
0010
0100
0001
,
1000
1000
0100
0010
,
0001
0000
1000
0000
0001
1000
0001
0000
,
1000
0100
0001
0000
,
0100
1000
0010
0000
,
0001
0010
1000
0000
,
0001
0100
0020
0000
,
1030
1010
0000
0011
,
0000
1010
0000
0011
,
0000
1001
0000
1000
,
0100
0000
0010
0000
0001
0010
0001
0000
,
1000
0000
0000
0010
0000
0000
0100
0000
,
0000
0001
0000
0000
0010
0000
0100
0000
,
0010
0000
0000
0001
0000
0000
1000
0000
,
0000
0001
0000
0000
0010
0000
0100
0000
,
0010
0000
0000
0001
0000
0000
1000
0000
,
0000
0010
0000
0000
0100
0000
0010
0000
,
1000
0000
0000
0001
0000
0000
0010
0000
,
0100
0000
1000
0000
0001
0000
1000
0001
;

//--------------- dance-single - Fred-104 ----------------
#NOTEDATA:;
#STEPSTYPE:dance-single;
#DESCRIPTION:Fred-104;
#DIFFICULTY:Medium;
#METER:11;
#CREDIT:Fred-104;
#NOTES:
0000
0000
0000
0000
,
0000
0000
0000
0000
,
0000
0000
0000
0000
,
0000
0000
0000
0000
,
0000
0000
0000
0000
,
0000
0000
0000
0000
,
1000
0000
0001
1000
0000
0010
0000
1000
,
0001
0000
0010
0010
0000
0100
0000
1000
,
0001
0000
1000
0010
0000
0100
0000
0100
,
0001
0000
0010
0000
0010
0100
1000
0001
,
1000
0000
0010
0000
0100
0010
0000
0010
,
1000
0100
1000
0000
0010
0100
0001
0000
,
1000
0000
0100
0000
0010
0001
0000
1000
,
0001
0100
0010
0000
1000
0100
0010
0000
,
0100
0000
1000
0000
0010
0100
0000
0100
,
0001
0010
0100
0000
1000
0001
0100
0000
,
0010
0000
1000
0000
0001
0001
0000
1000
,
0010
0100
0001
0000
1000
0100
0010
0000
,
0001
0000
1000
0000
0010
1000
0020
0000
,
1030
0100
0020
0000
0031
1000
0002
0000
,
0103
0000
0110
0000
0100
0001
0200
0000
,
0301
1000
0020
0000
1030
0100
0020
0000
,
0031
0000
1001
0000
0001
1000
0002
0000
,
1003
0010
0200
0000
0301
0100
0020
0000
,
1030
1100
1000
0001
,
0100
0010
0100
0010
0100
0000
0001
0000
,
2000
0000
0000
0000
3020
0000
0000
0130
,
0000
0100
0001
1000
0001
0000
0010
0000
,
0200
0000
0000
0000
0320
0000
0000
0031
,
0000
0100
0001
1000
0100
1000
0100
0000
,
0020
0000
0031
1000
,
0010
0110
0100
1001
,
0001
0100
0001
0000
1000
0100
1000
0000
,
0001
0100
0001
0100
0010
1000
0001
0000
,
2000
0000
0000
0000
3020
0000
0000
0130
,
0000
0001
0100
0000
0001
1000
0100
0000
,
0020
0000
0000
0000
0230
0000
0000
1300
,
0000
0001
0100
0010
0100
0010
0100
0000
,
0002
0000
0000
0000
2003
0000
0000
3010
,
0000
0010
0100
0000
0010
0000
1000
0001
,
2000
3000
1100
0100
,
0010
0001
1000
1000
0001
0100
0001
0000
,
1000
0000
0000
1010
0000
0000
0010
0000
,
0100
0000
0000
0101
0000
0000
0001
0000
,
0010
0000
0000
0011
0000
0000
0001
0000
,
1000
0000
0000
1001
0000
0000
0001
0000
,
0100
0000
0010
0100
0000
0000
0110
0000
,
0001
0000
1000
0001
0000
0000
1001
0000
,
0001
0000
1000
0100
0000
0000
1100
0000
,
0001
0100
0010
0000
1000
0001
1000
0000
,
0002
0000
0023
0000
,
0130
1000
0010
0000
1000
0001
0100
0000
,
0020
0000
0230
0000
,
0301
1000
0001
0010
0100
0010
0100
0000
,
2100
3010
0102
0013
,
1200
0310
0201
0310
,
1000
0100
1000
0000
0010
0100
0001
0000
,
0200
0000
0000
0010
0310
0000
0100
0000
,
0010
0010
0010
0010
,
1000
1000
1000
1000
,
0001
0001
0001
0001
,
0100
0100
0100
0100
,
0010
1000
0010
0000
1000
0100
1000
0000
,
0001
0100
0001
0000
0010
1000
0010
0000
,
0001
0100
0010
0000
1000
0100
0010
0000
,
0001
0100
0001
0000
1000
0100
0010
0000
,
1001
0000
1000
0100
0010
0100
0010
0000
,
0001
0000
1000
0001
0100
0001
1000
0000
,
0001
0000
1000
0100
0010
0100
0010
0000
,
0002
0103
2000
3100
,
0001
0100
0001
0100
0001
0100
0001
0000
,
1000
0100
1000
0100
1000
0100
1000
0000
,
0001
0010
0001
0010
0001
0010
0001
0000
,
1000
0010
0100
0001
0010
0100
1000
0010
,
0100
0100
0010
1000
,
0001
0001
1000
0100
,
0010
0100
0001
0100
,
2000
0000
0002
3003
,
1000
1010
0001
0011
,
1000
1100
0001
0101
,
1000
0000
0010
0100
0000
0010
1000
0000
,
0001
0010
0100
0010
0100
0010
0100
1000
,
0001
0000
1000
0100
0000
0100
0010
0000
,
0010
0001
0000
0001
0100
0000
0010
0000
,
1000
0000
0001
0010
0000
0010
0100
0000
,
0100
1000
0000
1000
0010
0000
0100
0000
,
0001
0000
1000
0100
0000
1000
0010
0000
,
0100
0010
0000
0010
1000
0010
1000
0000
,
0001
0000
0100
0010
1000
0000
0001
0000
,
1000
0100
1000
0010
0100
0001
1000
0100
;

//--------------- dance-single - Fred-104 ----------------
#NOTEDATA:;
#STEPSTYPE:dance-single;
#DESCRIPTION:Fred-104;
#DIFFICULTY:Hard;
#METER:15;
#CREDIT:Fred-104;
#NOTES:
0000
0000
0000
0000
,
0000
0000
0000
0000
,
0000
0000
0000
0000
,
0000
0000
0000
0000
,
0000
0000
0000
0000
,
0000
0000
0000
0000
,
1000
0000
0010
1010
0000
1001
0000
0001
,
0100
0000
0010
0110
0000
1010
0000
1000
,
0001
0000
0010
0011
0000
0110
0000
0100
,
1000
0000
0001
1000
1010
0010
0100
0001
,
1000
0100
1000
0010
0100
0001
1000
0010
,
0001
0010
0100
1000
0100
0001
1000
0000
,
0001
0010
0100
1000
0001
0100
0010
0001
,
1000
0100
0001
0010
0100
1000
0001
1000
,
0100
0010
0100
0001
0100
1000
0001
0100
,
1000
0000
0100
0000
0010
0000
1000
0000
0001
0000
1000
0010
1000
0000
0001
0000
,
0010
0000
0100
0000
1000
0000
0001
0000
0100
0000
0101
0000
0000
0000
0001
1000
,
0001
0000
0010
0000
0100
1000
0001
0100
0010
0000
0100
0000
0001
0000
1000
0000
,
1100
0000
0101
0000
0110
0100
0001
1000
,
0002
0100
0103
0020
1000
1030
0001
1000
,
1001
0000
0110
0000
1010
1000
0100
0010
,
0001
0010
0001
0000
1000
0000
0010
0000
0110
0000
0100
0000
0001
0000
1000
0000
,
1100
0000
0011
0000
0110
1000
0001
1000
,
0001
0000
0010
0000
0100
0000
1000
0000
0001
0000
0100
0010
0100
0000
0001
0000
,
0101
1100
0011
1001
,
1000
0000
0100
0000
0010
0001
0010
0001
0010
0000
0001
0000
1000
0000
0010
0000
,
0200
0000
0310
1000
0200
0000
0310
0001
,
1000
0010
0100
0001
0011
0001
1001
0000
,
0001
0000
1000
0100
0002
0000
0103
1000
,
0010
0100
0010
0000
1000
0000
0100
0000
0110
0000
0010
0000
0001
0000
1000
0000
,
1002
0000
0103
0010
2000
0000
3100
0010
,
0001
0000
0100
0000
0001
0000
1000
0000
0010
0000
0100
0010
0100
0000
0001
0000
,
1001
1000
0100
0000
1001
0001
0100
0000
,
0010
0000
1000
0000
0010
0100
0010
0000
1000
0000
0001
0000
0010
0000
0100
0000
,
2000
0000
3010
1000
0200
0000
0310
0011
,
0001
1000
0010
0100
0120
0000
1030
0000
,
0002
0000
1003
0100
0020
0000
0031
0101
,
0100
0010
0100
0000
0010
0000
1000
0000
0001
0000
0200
0000
1300
0000
0200
0000
,
0302
0000
0013
0100
2000
0000
3001
0100
,
0110
0000
0010
0000
1000
0000
0001
0000
0010
0000
0100
0010
0001
0000
1000
0000
,
1200
0000
0010
0000
0310
0000
0001
1000
,
0010
0000
0100
0000
0010
0100
0010
0100
0010
0000
1000
0000
0001
0000
0001
0000
,
1000
0000
0010
0100
0000
0000
1001
0000
,
0001
0000
1000
0100
0000
0000
0110
0000
,
0001
0000
1000
0010
0000
0000
1100
0000
,
0010
0000
1000
0001
0000
0000
0101
0000
,
0100
0000
0001
1000
0000
0000
1001
0000
,
0001
0000
1000
0100
0000
0000
0011
0000
,
0001
0000
0100
0010
0000
0000
1010
0000
,
1000
0100
0010
0001
1000
0010
0100
0001
,
2000
0000
3020
0000
,
0130
0000
0001
1000
0001
0000
0010
0000
0100
0000
1000
0000
0010
0000
0010
0000
,
0200
0000
0302
0000
,
1003
0100
1000
0100
1000
0100
0010
0000
0001
0000
0100
0000
0110
0000
0000
0000
,
1100
0100
0010
0000
0101
0100
0010
0000
,
1010
0010
0100
0000
0011
0010
0100
0000
,
1000
0000
0001
0000
0100
0000
0010
0000
1000
0000
0100
0000
1000
0010
1000
0000
,
0002
0000
0000
0000
0000
0000
1003
0000
0001
0000
0000
0000
0100
0000
0010
0100
,
0010
0010
0010
0010
,
1000
1000
1000
1000
,
0001
0001
0001
0001
,
0100
0100
0100
0100
,
0001
0100
0001
0010
0001
0100
0010
1000
,
0100
1000
0010
1000
0100
0010
0001
1000
,
2100
3010
0102
0013
,
1100
0100
0010
0101
0100
0010
0110
0000
,
1001
0000
1000
0100
0010
1000
0010
0001
,
1000
0100
0010
0001
0010
1000
0001
0100
,
1000
0001
0100
0010
0100
1000
0100
0010
,
1000
0001
0010
0100
0001
0100
0010
0000
,
0001
0100
0010
0001
1000
0100
0010
1000
,
0001
0010
1000
0001
0100
0010
0001
1000
,
0001
0000
0100
0000
0110
0000
0110
0000
0010
0000
1000
0001
1000
0000
0100
0000
,
1000
0000
0010
0000
0100
0000
0001
0000
1000
0100
0010
0100
1000
0100
0010
0100
,
2000
0000
0000
3001
1000
0000
1010
0000
,
0100
0010
1000
0001
0010
0000
0110
0000
,
0200
0000
1300
0010
0100
0000
1001
1000
,
0010
0100
0010
0100
0002
0000
2003
0000
,
3001
0010
0110
0000
1000
0010
0110
0000
,
0001
0100
0110
0000
1000
0100
0110
0000
,
1000
0010
0001
0010
0000
0100
0001
0000
,
1000
0000
0100
0000
0010
0000
1000
0000
0001
0000
0100
0000
0010
0000
0001
1000
,
0002
0000
0103
0020
0000
1030
0020
0000
,
0031
0020
0000
0130
0020
0000
2030
0000
,
3002
0000
1003
0200
0000
0310
0200
0000
,
0301
0200
0000
1300
0200
0000
0320
0000
,
0031
0100
0100
1000
0010
0010
0001
0010
,
0100
0000
0010
0000
0001
0000
1000
0000
0010
0000
0100
0010
0100
0000
0001
0000
,
1000
0000
0010
1000
1001
0000
0110
0000
,
0001
0000
0100
0000
0010
1000
0010
1000
0100
0000
1000
0000
0001
0000
1001
0000
;

//--------------- dance-double - Fred-104 ----------------
#NOTEDATA:;
#STEPSTYPE:dance-double;
#DESCRIPTION:Fred-104;
#DIFFICULTY:Easy;
#METER:7;
#CREDIT:Fred-104;
#NOTES:
00000000
00000000
00000000
00000000
,
00000000
00000000
00000000
00000000
,
00000000
00000000
00000000
00000000
,
00000000
00000000
00000000
00000000
,
00000000
00000000
00000000
00000000
,
00000000
00000000
00000000
00000000
,
00000001
00000000
00000100
00001000
,
00010000
00000000
00100000
01000000
,
00010000
00000000
10000000
01000000
,
00010000
00000000
00010000
00001000
,
00020000
00000000
00032000
00000000
,
00003010
00000100
00001000
00000001
,
00000200
00000000
00000320
00000000
,
00000130
00000100
00000010
00001000
,
00000002
00000000
00000023
00000000
,
00001030
00010000
00100000
01000000
,
00200000
00000000
20300000
00000000
,
30010000
00010000
00100000
01000000
,
20000000
00000000
32000000
00000000
,
03100000
01000000
10000000
00100000
,
02000000
00000000
03200000
00000000
,
00301000
00010000
00001000
00000100
,
00000020
00000000
00000230
00000000
,
00000301
00001000
00000100
00000010
,
00000002
00000000
00002003
00000000
,
00003001
00001000
00000010
00000100
,
00000110
00000000
00001001
00000000
,
00000001
00000100
00001000
00000000
,
00011000
00000000
01010000
00000000
,
00010000
01000000
10000000
00000000
,
01100000
00000000
10010000
00000000
,
20000000
30200000
00320000
00032000
,
00023000
00000000
00030020
00000000
,
00000130
00000100
00001001
00000000
,
00000002
00000000
00002003
00000000
,
00003010
00010000
00001000
00010000
,
00200000
00000000
02300000
00000000
,
03010000
10000000
01000000
00100000
,
00002000
00000000
00023000
00000000
,
00031000
00000100
00000010
00010000
,
00001000
00000000
00000010
00000000
,
00000002
00000000
00002000
00003003
,
00001000
00000000
00000000
00000010
00000000
00000000
00010000
00000000
,
00001000
00000000
00000000
00100000
00000000
00000000
00010000
00000000
,
10000000
00000000
00000000
00010000
00000000
00000000
01000000
00000000
,
00001000
00000000
00000000
00010000
00000000
00000000
00000100
00000000
,
00001000
00000000
00000000
00000001
00000000
00000000
00001000
00000000
,
00000100
00000000
00000000
00010000
00000000
00000000
00001000
00000000
,
01000000
00000000
00000000
00001000
00000000
00000000
00010000
00000000
,
00000100
00001000
00000010
00001000
,
00000002
00000000
00000000
00000000
,
00001003
00000010
00001000
00000001
,
00000020
00000000
00000000
00000000
,
00001030
00010000
00001000
00010000
,
01000000
00100000
00010000
00100000
,
01000000
10000000
00100000
00010000
,
00001000
00000100
00000001
00001000
,
00000002
00000000
00000023
00000000
,
00000130
00000100
00010000
00010000
,
00001000
00001000
01000000
01000000
,
00010000
00010000
00100000
00100000
,
01000000
01000000
10000000
10000000
,
00010000
10000000
00100000
00010000
,
00001000
00000100
00000001
00001000
,
00000001
00000100
00000010
00000100
,
00001000
00010000
00011000
00000000
,
00002000
00000000
00023000
00000000
,
00230000
00000000
01300000
00010000
,
20000000
00000000
32000000
00000000
,
03200000
00000000
00301000
00010000
,
00000100
00010000
00000100
00010000
,
00001000
00010000
00000010
00001000
,
00000010
00001000
00000001
00000100
,
00001000
00010000
00001000
00010000
,
00001000
00000000
00010000
00000000
,
01000000
00100000
00010000
00000000
,
10000000
00000000
01000000
00000000
,
00100000
00001000
00010000
00000000
,
00001000
00010000
00001000
00010000
,
00001000
01000000
00001000
01000000
,
00010000
10000000
01000000
00010000
,
00001000
00000010
00000100
00001000
,
00000001
00000000
00000000
00000100
00000000
00000000
00000010
00000000
,
00000000
00001000
00000000
00000000
00000100
00000000
00000100
00000000
,
00010000
00000000
00000000
00001000
00000000
00000000
00100000
00000000
,
00000000
01000000
00000000
00000000
00100000
00000000
00100000
00000000
,
00010000
00000000
00000000
10000000
00000000
00000000
00100000
00000000
,
00000000
01000000
00000000
00000000
00001000
00000000
00001000
00000000
,
00010000
00000010
00001000
00001000
,
00000001
00000000
00000010
00000000
00000100
00000000
00000000
00001001
;

//--------------- dance-double - Fred-104 ----------------
#NOTEDATA:;
#STEPSTYPE:dance-double;
#DESCRIPTION:Fred-104;
#DIFFICULTY:Medium;
#METER:11;
#CREDIT:Fred-104;
#NOTES:
00000000
00000000
00000000
00000000
,
00000000
00000000
00000000
00000000
,
00000000
00000000
00000000
00000000
,
00000000
00000000
00000000
00000000
,
00000000
00000000
00000000
00000000
,
00000000
00000000
00000000
00000000
,
00001000
00000000
00100000
00010000
00000000
10000000
00000000
00100000
,
10000000
00000000
01000000
00100000
00000000
00001000
00000000
00010000
,
00001000
00000000
00000010
00000100
00000000
00000010
00000000
00000001
,
00001000
00000000
00000001
00000000
00001000
00000001
00001000
00000100
,
00000010
00000000
00000100
00000000
00001000
00000001
00000000
00000100
,
00000001
00000000
00000100
00000000
00000010
00001000
00000001
00000000
,
00001000
00000000
00000100
00000000
00010000
00001000
00000000
00010000
,
00000010
00000000
00010000
00000000
00001000
00100000
00010000
00000000
,
01000000
00000000
00001000
00000000
00010000
00000100
00000000
00001000
,
00000001
00000000
00000010
00000000
00000100
00001000
00000100
00000000
,
00010000
00000000
00001000
00000000
00010000
00100000
00000000
01000000
,
00100000
00000000
10000000
00000000
01000000
00100000
01000000
00000000
,
00100000
00001000
00010000
00001000
,
00010000
00001000
00000020
00000000
00001030
00010000
00200000
00000000
,
00310000
00001000
00010000
00000100
,
00010000
00001000
00000200
00000000
00001300
00010000
02000000
00000000
,
03010000
00001000
00010000
00000100
,
00001000
00000100
00000020
00000000
00000031
00000100
00000020
00000000
,
00001030
00000110
00000001
00001000
,
00000001
00000100
00001000
00010000
00001000
00000000
00010000
00000000
,
00002000
00000000
00000000
00000000
00023000
00000000
00000000
00130000
,
00000000
01000000
00010000
10000000
01000000
00000000
00100000
00000000
,
02000000
00000000
00000000
00000000
03020000
00000000
00000000
00031000
,
00000000
00000010
00000100
00000010
00000001
00001000
00000010
00000000
,
00000200
00000000
00000301
00001000
,
00000001
00000011
00001000
00001010
,
00001000
00000001
00000010
00000000
00000001
00001000
00000010
00000000
,
00010000
00001000
00010000
00000010
00010000
00001000
00010000
00000000
,
00002000
00000000
00000000
00000000
00203000
00000000
00000000
00310000
,
00000000
10000000
01000000
00000000
10000000
00000000
00100000
00000000
,
02000000
00000000
00000000
00000000
03002000
00000000
00000000
00013000
,
00000000
00000100
00001000
00000001
00001000
00000001
00000100
00000000
,
00000020
00000000
00000000
00000000
00002030
00000000
00000000
00003001
,
00000000
00000010
00001000
00000000
00010000
00000000
00001000
00010000
,
00002000
00003000
00011000
00010000
,
01000000
00100000
00010000
10000000
00100000
01000000
00010000
00000000
,
10000000
00000000
00000000
01000000
00000000
00000000
11000000
00000000
,
00100000
00000000
00000000
00001000
00000000
00000000
00011000
00000000
,
00010000
00000000
00000000
00000100
00000000
00000000
00000110
00000000
,
00000001
00000000
00000000
00000100
00000000
00000000
00000110
00000000
,
00000010
00000000
00010000
00001000
00000000
00000000
00100000
00000000
,
00010000
00000000
01000000
00001000
00000000
00000000
00010000
00000000
,
00000100
00001000
00000001
00001000
,
00000001
00000010
00001000
00000000
00010000
01000000
10000000
00000000
,
00020000
00000000
02030000
00000000
,
03100000
10000000
01000000
00000000
00100000
00001000
00010000
00000000
,
00002000
00000000
00003020
00000000
,
00000130
00001000
00000100
00001000
00000001
00000100
00000010
00000000
,
00000102
00000013
00002100
00013000
,
00201000
00310000
10200000
01300000
,
00100000
10000000
00010000
00000000
00100000
00001000
00010000
00000000
,
00002000
00000000
00000000
00010000
00013000
00000000
00001000
00000000
,
00010000
00010000
00001000
00001000
,
00000100
00000100
00000001
00000001
,
00000010
00000010
00001000
00001000
,
00010000
00010000
00001000
00001000
,
00010000
00000010
00001000
00000000
00000100
00000010
00000001
00000000
,
00001000
00000001
00000100
00000000
00000010
00001000
00000001
00000000
,
00001000
00000100
00010000
00000000
00001000
00010000
01000000
00000000
,
00100000
00010000
10000000
00000000
01000000
00100000
01000000
00000000
,
10010000
00000000
10000000
00100000
01000000
00010000
00100000
00000000
,
00001000
00000000
00010000
00000010
00001000
00000001
00001000
00000000
,
00000100
00000000
00000010
00000100
00000001
00000100
00001000
00000000
,
00000200
00000301
00000200
00001300
,
00000001
00001000
00000010
00001000
00000100
00010000
00001000
00000000
,
00010000
00001000
00100000
00010000
10000000
00010000
10000000
00000000
,
00100000
01000000
00100000
01000000
00100000
10000000
00010000
00000000
,
00100000
00010000
00001000
00000100
00000010
00000001
00000100
00001000
,
00010000
00000100
00001000
00000010
,
00000100
00000001
00000100
00000010
,
00000100
00001000
00010000
00100000
,
02000000
00000000
00200000
03300000
,
10000000
11000000
00010000
00110000
,
00001000
00011000
00010000
00010010
,
00010000
00000000
00000100
00001000
00000000
00000001
00001000
00000000
,
00000001
00000100
00000001
00000100
00000001
00001000
00000100
00000010
,
00000001
00000000
00000100
00000010
00000000
00001000
00000100
00000000
,
00010000
00000010
00000000
00010000
00001000
00000000
00100000
00000000
,
00010000
00000000
10000000
00100000
00000000
01000000
00010000
00000000
,
00100000
00001000
00000000
00010000
00000010
00000000
00001000
00000000
,
00000001
00000000
00001000
00000100
00000000
00001000
00000100
00000000
,
00000001
00000100
00000000
00000001
00000100
00001000
00000001
00000000
,
00001000
00000000
00000001
00000010
00001000
00000000
00010000
00000000
,
01000000
00100000
00010000
10000000
00100000
01000000
00001000
00010000
;

//--------------- dance-double - Fred-104 ----------------
#NOTEDATA:;
#STEPSTYPE:dance-double;
#DESCRIPTION:Fred-104;
#DIFFICULTY:Hard;
#METER:15;
#CREDIT:Fred-104;
#NOTES:
00000000
00000000
00000000
00000000
,
00000000
00000000
00000000
00000000
,
00000000
00000000
00000000
00000000
,
00000000
00000000
00000000
00000000
,
00000000
00000000
00000000
00000000
,
00000000
00000000
00000000
00000000
,
00010000
00000000
00001000
00010000
00001000
00000000
00000100
00000000
,
00000010
00000000
00001000
00000001
00000010
00000000
00000001
00000000
,
00001000
00000000
00000100
00000010
00000001
00000000
00000100
00000000
,
00001000
00000000
00010000
00001000
00010000
01000000
10000000
00010000
,
01000000
00100000
10000000
00100000
10000000
00100000
00010000
00001000
,
00010000
00001000
00000010
00000001
00001000
00000001
00000100
00000000
,
00000010
00001000
00000001
00001000
00000001
00001000
00000100
00000010
,
00000100
00001000
00000001
00000100
00001000
00010000
00001000
00000000
,
00010000
01000000
00100000
00010000
01000000
00100000
10000000
01000000
,
00100000
00000000
00010000
00000000
10000000
00000000
00100000
00000000
00010000
00000000
00001000
00010000
00001000
00000000
00010000
00000000
,
00100000
00000000
01000000
00000000
00010000
00000000
10000000
00000000
01000000
00000000
01100000
00000000
00000000
00000000
00100000
00010000
,
00100000
00000000
00001000
00000000
00010000
00001000
00010000
00001000
00010000
00000000
00000100
00000000
00001000
00000000
00000010
00000000
,
00000110
00000000
00000101
00000000
00001100
00000100
00000010
00000001
,
00002000
00000010
00003010
00000002
00000010
00000013
00001000
00000000
,
00001001
00000000
00001100
00000000
00000110
00000010
00000001
00001000
,
00000010
00010000
00001000
00000000
00010000
00000000
00001000
00000000
00011000
00000000
00001000
00000000
00100000
00000000
00010000
00000000
,
10010000
00000000
11000000
00000000
01100000
00010000
10000000
01000000
,
00100000
00000000
00001000
00000000
00010000
00000000
00001000
00000000
00000100
00000000
00000010
00000100
00000010
00000000
00001000
00000000
,
00001001
00001100
00010100
00011000
,
00001000
00000000
00010000
00000000
01000000
00100000
01000000
00100000
00010000
00000000
01000000
00000000
00001000
00000000
00010000
00000000
,
00002000
00000000
00003010
00001000
00020000
00000000
00130000
00010000
,
00001000
00010000
00000100
00010000
00011000
00000000
01010000
00000000
,
00002000
00000000
00013000
00001000
00000200
00000000
00001300
00010000
,
00001000
00010000
00001000
00000000
00010000
00000000
00100000
00000000
01000000
00000000
00001000
00000000
00000100
00000000
00000010
00000000
,
00020000
00000000
00031000
00000010
00000200
00000000
00010300
00001000
,
00000010
00000000
00000001
00000000
00001000
00000000
00000001
00000000
00000100
00000000
00001000
00010000
00001000
00000000
00010000
00000000
,
00011000
00001000
00100000
00000000
10010000
00010000
10000000
00000000
,
01000000
00000000
00100000
00000000
00001000
00010000
00001000
00000000
00010000
00000000
00000010
00000000
00001000
00000000
00000010
00000000
,
00020000
00000000
00031000
00000100
00000020
00000000
00001030
00001100
,
00000000
00000110
00000010
00000001
00002001
00000000
00003001
00000000
,
00000200
00000000
00000310
00010000
00002000
00000000
00013000
00011000
,
00000000
00011000
00010000
00001000
00200000
00310000
20000000
30010000
,
02000000
00000000
03100000
10000000
02000000
00000000
03100000
00110000
,
00000000
00000000
00001000
00000000
00010000
00000000
00000010
00000000
00010000
00000000
00001000
00010000
00001000
00000000
00010000
00000000
,
00020010
00000000
00001000
00000000
00031000
00000000
00010000
00000100
,
00001000
00000000
00000100
00000000
00000010
00000100
00000010
00000100
00000010
00000000
00000001
00000000
00001000
00000000
00000001
00000000
,
00000100
00000000
00000010
00001000
00000000
00000000
00011000
00000000
,
01000000
00000000
00001000
00010000
00000000
00000000
00011000
00000000
,
00000010
00000000
00001000
00000100
00000000
00000000
00011000
00000000
,
00001000
00000000
01000000
00001000
00000000
00000000
00011000
00000000
,
00000010
00000000
00001000
00000001
00000000
00000000
00000110
00000000
,
00010000
00000000
00001000
00100000
00000000
00000000
01100000
00000000
,
00010000
00000000
10000000
01000000
00000000
00000000
00011000
00000000
,
00010000
00001000
00000100
00000001
00000010
00001000
00010000
00001000
,
00010000
01000000
00100000
00010000
,
10000000
00000000
00100000
01000000
00100000
00000000
00010000
00000000
00001000
00000000
00000100
00000000
00000010
00000000
00001000
00000000
,
00000001
00000010
00001000
00010000
,
00001000
00010000
00001000
00010000
00001000
00010000
00001000
00000000
00010000
00000000
00001000
00000000
00011000
00000000
00000000
00000000
,
00001000
00010000
00100000
00000000
00010000
00001000
00000010
00000000
,
00001000
00010000
01000000
00000000
00010000
00001000
00000100
00000000
,
00001000
00000000
00010000
00000000
00001000
00000000
00100000
00000000
00010000
00000000
01000000
00000000
00001000
00010000
00001000
00000000
,
00000200
00000000
00000000
00000000
00000000
00000000
00000310
00000000
00001000
00000000
00000000
00000000
00001000
00000000
00000001
00001000
,
00000001
00000001
00000010
00000010
,
00001000
00001000
00010000
00010000
,
01000000
01000000
10000000
10000000
,
00010000
00010000
01000000
01000000
,
00001000
00010000
00001000
00010000
00000100
00001000
00000100
00000010
,
00000001
00000100
00000010
00000100
00001000
00010000
00001000
00000000
,
00021000
00130000
00012000
00003010
,
00010000
00000010
00001000
00000001
00000100
00000010
00000110
00000000
,
00001001
00000000
00000001
00000100
00001000
00000100
00000001
00001000
,
00000010
00001000
00000100
00010000
00001000
01000000
00010000
00100000
,
00001000
00010000
01000000
10000000
00010000
01000000
00100000
00001000
,
00000010
00000100
00000001
00001000
00000100
00000010
00000001
00000000
,
00000001
00001000
00000010
00001000
00000001
00000100
00001000
00010000
,
00100000
00010000
00001000
00010000
01000000
00100000
00010000
00001000
,
00000100
00000000
00000010
00000000
00000001
00000000
00000100
00000000
00001000
00000000
00010000
00001000
00010000
00000000
00100000
00000000
,
01000000
00000000
00010000
00000000
10000000
00000000
01000000
00000000
00100000
00010000
00100000
00001000
00010000
00000010
00001000
00000010
,
00001000
00000001
00001000
00001100
,
00001000
00000001
00000100
00001000
00010000
00000000
00011000
00000000
,
00010000
00000000
00000100
00000000
00001000
00000000
00001001
00000001
,
00000100
00000010
00001000
00000010
00020000
00000000
00032000
00000000
,
00013000
00001000
00101000
00000000
00001000
00010000
00010010
00000000
,
00010000
00001000
01001000
00000000
00001000
00010000
00010100
00000000
,
00010000
00000100
00000010
00000001
00001000
00000010
00000100
00000000
,
00000001
00000000
00000100
00000000
00000010
00000000
00000001
00000000
00000010
00000000
00001000
00000000
00000100
00000000
00000010
00000001
,
00001000
00000000
00000001
00000010
00000000
00000010
00001000
00000000
,
00001000
00010000
00000000
00010000
00001000
00000000
00011000
00000000
,
00001000
00000000
00001000
00010000
00000000
00010000
01000000
00000000
,
01000000
00100000
00000000
00100000
00010000
00000000
10010000
00000000
,
10000000
00100000
00010000
00001000
00000100
00000010
00001000
00000001
,
00000010
00000000
00000100
00000000
00001000
00000000
00000001
00000000
00001000
00000000
00000010
00000100
00000010
00000000
00000000
00000000
,
00010000
00000000
00001000
00010000
00010010
00000000
01001000
00000000
,
00010000
00000000
00000100
00000000
00010000
00001000
00010000
00001000
00100000
00000000
00010000
00000000
10000000
00000000
10100000
00000000
;
