
//----- song ID: cuec0 -----//
#TITLE:CUE CUE RESCUE;
#ARTIST:TORIENA;
#GENRE:EMERGENCY CORE;
#BANNER:CUE CUE RESCUE.png;
#BACKGROUND:CUE CUE RESCUE-bg.png;
#CDTITLE:./CDTitles/bm IIDX 30 RESIDENT.png;
#MUSIC:CUE CUE RESCUE.ogg;
#SAMPLESTART:67.5;
#SAMPLELENGTH:15;
#BPMS:0=160;

//--------------- dance-single - Fred-104 ----------------
#NOTES:
     dance-single:
     Fred-104:
     Beginner:
     2:
     :
0000
0000
0000
0000
,
0000
0000
0000
0000
,
0000
0000
0000
0000
,
0000
0000
0000
0000
,
0000
0000
0000
0000
,
1000
0000
0000
0000
,
0001
0000
0000
0000
,
1000
0000
0100
0000
,
1000
0000
1000
0000
,
0002
0000
0000
0000
,
0003
0000
0000
0000
,
2000
0000
0000
0000
,
3000
0000
0000
0000
,
0002
0000
0000
0000
,
0003
0000
0000
0000
,
2000
0000
0000
0000
,
3000
0000
0000
0000
,
0001
0000
0000
0000
,
1000
0000
0000
0000
,
0001
0000
0000
0000
,
0002
0000
0003
0000
,
1000
0000
0000
0000
,
0001
0000
0000
0000
,
0010
0000
0000
0000
,
0100
0000
0000
0000
,
1000
0000
0000
0000
,
0001
0000
0000
0000
,
0100
0000
0000
0000
,
0001
0000
0000
0000
,
1000
0000
0000
0000
,
0001
0000
0000
0000
,
0100
0000
0000
0000
,
0010
0000
0000
0000
,
0100
0000
0000
0000
,
0001
0000
0000
0000
,
1000
0000
0000
0000
,
0001
0000
0000
0000
,
2000
0000
0000
0000
,
3000
0000
0000
0000
,
0002
0000
0000
0000
,
0003
0000
0000
0000
,
2000
0000
0000
0000
,
3000
0000
0000
0000
,
0002
0000
0000
0000
,
0003
0000
0000
0000
,
1000
0000
0000
0000
,
0001
0000
0000
0000
,
0010
0000
0000
0000
,
0100
0000
0100
0000
,
0100
0000
0000
0000
,
1000
0000
0000
0000
,
0010
0000
0000
0000
,
1000
0000
1000
0000
,
1000
0000
0000
0000
,
0100
0000
0000
0000
,
0001
0000
0000
0000
,
0010
0000
0000
0000
,
1000
0000
0000
0000
,
0001
0000
0000
0000
,
0010
0000
0010
0000
,
0001
0000
0001
0000
,
0002
0000
0000
0000
,
0003
0000
0000
0000
,
2000
0000
0000
0000
,
3000
0000
0000
0000
,
0002
0000
0000
0000
,
0003
0000
0000
0000
,
2000
0000
0000
0000
,
3000
0000
0000
0000
,
1001
0000
0000
0000
;

//--------------- dance-single - Fred-104 ----------------
#NOTES:
     dance-single:
     Fred-104:
     Easy:
     9:
     :
0000
0000
0000
0000
,
0000
0000
0000
0000
,
0000
0000
0000
0000
,
0000
0000
0000
0000
,
0000
0000
0000
0000
,
1000
1000
0100
0100
,
0010
0010
0001
0001
,
0100
0100
0010
0010
,
0100
0000
0001
1000
0001
0000
1001
0000
,
2000
0000
3020
0000
,
0130
0001
2000
3000
,
0002
0000
0023
0000
,
0130
0010
0001
1001
,
2000
0100
0000
3100
,
0002
0100
0000
0103
,
2000
0100
0000
3100
,
0010
0001
1000
1001
,
0001
0000
0010
0000
,
1000
0100
0001
0000
,
1000
0000
0010
0000
,
0001
0100
1000
1001
,
0001
0010
0100
1000
,
0001
0100
0001
0000
0010
0000
0100
0000
,
0010
0001
1000
0010
,
0100
0001
0100
0000
0010
0000
1000
0000
,
0100
0010
0100
1000
,
0010
0100
0010
0000
1000
0000
0001
0000
,
0010
0100
1000
0001
,
0100
0000
0010
0100
0010
0000
1001
0000
,
1000
0100
1000
0000
0000
0000
0001
0000
,
0100
0010
0100
0000
0000
0000
0010
0000
,
1000
0001
1000
0000
0000
0000
0001
0000
,
0010
0100
0010
0000
0100
0000
1000
0000
,
0001
0000
0000
0001
0000
0000
0100
0000
0000
0100
0000
0000
0100
0000
0000
0000
,
0010
1000
0010
0100
,
0001
1000
0001
0000
0001
0000
0010
0000
,
0100
1000
0100
0000
1000
0000
0001
0000
,
1001
1001
1001
1001
,
1000
0100
0010
0000
,
0110
0110
0110
0110
,
0010
0001
1000
0000
,
1001
1001
1001
1001
,
0001
1000
0010
0000
,
0110
0110
0110
0110
,
0100
0001
2002
3003
,
1000
0100
0001
0100
,
1000
0100
1000
0000
0001
0100
0001
0000
,
1000
0010
0001
0010
,
1000
0010
1000
0000
0001
0010
0001
0000
,
0100
0010
1000
0001
,
0010
0100
0010
0000
0100
1000
0100
0000
,
1000
0010
0100
0001
,
1000
0000
0001
1000
0001
0000
1001
0000
,
0001
0010
1000
0010
,
0001
1000
0001
0000
0100
0010
0100
0000
,
0010
1000
0001
0010
,
0100
1000
0100
0000
0010
0001
0010
0000
,
0001
0100
1000
0100
,
0001
1000
0001
0000
0100
0010
0100
0000
,
0001
1000
0100
0010
,
0001
1000
2002
3003
,
1001
1001
1001
1001
,
1000
0100
0010
0000
,
0110
0110
0110
0110
,
0010
0001
1000
0000
,
1001
1001
1001
1001
,
0001
1000
0010
0000
,
0110
0110
0110
0110
,
0100
0000
0001
0000
1000
0001
1000
0000
,
1001
0000
0000
0000
;

//--------------- dance-single - Fred-104 ----------------
#NOTES:
     dance-single:
     Fred-104:
     Medium:
     12:
     :
0000
0000
0000
0000
,
0000
0000
0000
0000
,
0000
0000
0000
0000
,
0000
0000
0000
0000
,
0000
0000
0000
0000
,
0001
0100
0001
0000
1000
0100
1000
0000
,
0010
0100
0010
0000
1000
0010
1000
0000
,
0001
0010
0001
0000
1000
0010
1000
0000
,
0001
0000
0010
0010
0100
0100
1000
0001
,
1000
0010
0000
0010
0100
0010
1000
0001
,
0010
0100
1000
0010
0200
0000
0301
1000
,
0100
0100
0100
0010
0001
1000
0010
0100
,
0010
0100
0010
1000
0001
0000
1001
0000
,
0002
0010
0000
0013
,
0200
1000
0000
1300
,
0020
0100
0000
0130
,
0001
1000
0100
0110
,
0001
0010
1000
0001
,
0100
1000
0100
0010
,
0001
1000
0010
0001
,
1000
0000
0100
0001
1000
0000
1001
0000
,
0001
0100
0001
0000
1000
0100
1000
0000
,
0010
1000
0100
1000
0001
1000
0100
0000
,
0010
0100
0010
0000
0001
1000
0010
0000
,
0100
0001
1000
0100
0010
0100
1000
0000
,
0010
1000
0001
0000
0010
0100
1000
0000
,
0001
1000
0100
1000
0001
0100
0010
0000
,
0100
0001
1000
0000
0001
0010
0100
0000
,
1000
0000
0000
1000
0001
0000
0100
0000
0010
0000
0100
0000
0020
0000
0000
0000
,
1030
0010
1000
0010
0100
0010
1000
0000
,
0001
0010
0001
0010
0100
1000
0100
0000
,
1000
0001
0100
0001
1000
0001
0010
0000
,
0100
1000
0010
1000
0001
1000
0100
0010
,
0001
0000
0000
0010
0000
0000
0110
0000
0000
1000
0000
0000
0002
0000
2003
0000
,
3100
1000
0001
1000
0010
1000
0001
0000
,
0100
0010
1000
0010
0100
0010
1000
0000
,
0001
0010
0100
1000
0001
0100
0010
0000
,
1010
1010
0101
0101
,
1000
0100
0010
0001
1000
0100
0010
0000
,
0011
0011
1100
1100
,
0001
0100
0010
1000
0001
0010
0100
1000
,
1100
1100
0011
0011
,
1000
0100
0010
0001
1000
0010
0100
0000
,
0101
0101
1010
1010
,
0001
0000
0010
0000
0100
0000
0000
0100
1000
0000
0000
0000
1001
0000
0000
0000
,
0001
0100
1000
0000
0001
0010
1000
0000
,
0001
0010
0100
1000
0010
1000
0100
0000
,
1000
0010
0001
0000
1000
0100
0001
0000
,
1000
0000
0100
0000
0010
0000
0001
0000
1000
0000
0001
1000
0001
0000
0000
0000
,
0100
0010
1000
0000
0100
0010
0001
0000
,
0010
0001
1000
0010
0100
0010
1000
0000
,
0001
0100
1000
0000
0001
0010
1000
0000
,
0001
0000
0010
0000
0100
0000
1000
0000
0001
0000
0100
0010
0100
0000
0000
0000
,
0001
1000
0001
1000
0100
1000
0001
0000
,
0100
0001
0100
0001
1000
0001
0010
0000
,
0100
1000
0010
1000
0100
1000
0001
0000
,
0100
0000
0010
0000
1000
0000
0001
0000
0010
0000
0100
1000
0100
0000
0000
0000
,
1000
0100
0001
0100
1000
0100
0010
0001
,
1000
0010
0001
0010
1000
0001
0010
0100
,
1000
0010
0100
1000
0001
0010
0100
0001
,
0010
0001
0010
0100
1000
0001
1000
0100
,
1100
0101
1100
0101
,
1000
0100
0010
0001
1000
0001
0100
0010
,
1010
0011
1010
0011
,
1000
0100
0001
0100
0010
0001
1000
0010
,
0110
1001
0110
1001
,
0001
0100
1000
0001
0010
1000
0001
0010
,
0110
1100
0011
1001
,
0001
0100
1000
0001
0010
1000
0001
1000
,
1001
0000
0000
0000
;

//--------------- dance-single - Fred-104 ----------------
#NOTES:
     dance-single:
     Fred-104:
     Hard:
     15:
     :
0000
0000
0000
0000
,
0000
0000
0000
0000
,
0000
0000
0000
0000
,
0000
0000
0000
0000
,
0000
0000
0000
0000
,
1000
0100
0010
0001
,
0100
0001
1000
0000
0100
0010
0001
0000
,
0001
1000
0001
0010
0100
1000
0010
1000
,
0001
0000
1000
0000
0200
0300
0200
0300
0001
0000
0001
1000
0010
1000
0010
1000
,
0001
0010
0100
0001
0100
1000
0001
0100
,
1000
0100
0010
1000
0200
0000
0310
0001
,
1000
0000
0100
0010
0100
0000
1000
0000
0001
0000
0100
0000
0010
0000
0001
0000
,
1000
0100
0010
1000
0001
0000
1001
0000
,
2000
0100
0000
0100
,
0000
0001
0000
0001
,
3002
0010
0000
0010
,
0000
1000
0103
1001
,
1000
0000
0100
0000
0010
0001
0010
0000
,
0001
0000
1000
0000
0010
1000
0001
0000
,
0010
0100
1000
0000
0010
0100
0001
0000
,
1000
0100
0010
0001
0011
0000
1001
0000
,
0001
0010
0100
0000
1000
0000
0001
0100
0010
0000
1000
0000
0100
0000
0010
0000
,
0001
1000
0010
0000
0100
0000
0010
1000
0001
0000
0010
0000
0100
0000
1000
0000
,
0010
1000
0100
0000
0010
0000
0001
1000
0010
0000
0100
0000
0010
0000
1000
0000
,
0100
0010
0001
0000
0100
0000
0010
1000
0001
0000
1000
0000
1001
0000
0000
0000
,
0001
1000
0100
0000
0010
0000
0100
1000
0100
1000
0100
0000
0010
0000
0001
1000
,
0010
1000
0001
0000
0010
0000
0100
0010
0100
0010
0001
0000
1000
0000
0010
0100
,
0001
0100
0010
0000
1000
0000
0001
1000
0001
1000
0001
0000
0010
0000
0100
1000
,
0001
0000
0000
0001
1000
0000
0010
0000
0210
0000
0302
0000
2000
0000
3003
0000
,
1000
0010
0100
0000
0001
0000
1000
0100
1000
0100
0010
0000
0001
0000
1000
0001
,
0100
0001
1000
0000
0001
0000
0010
0100
0010
0100
1000
0000
0001
0000
0100
0010
,
1000
0010
0100
0000
0001
0000
1000
0100
1000
0100
0010
0000
0001
0000
1000
0001
,
0100
0010
1000
0000
0001
0000
0010
0000
0110
0000
0100
0000
1100
0000
1000
0001
,
1000
0100
0000
0100
0010
0000
0011
0000
0000
1010
0000
0000
0002
0000
2003
0000
,
3001
1000
0100
0000
0010
0000
0100
1000
0001
1000
0100
0000
0010
0000
0001
1000
,
0010
0100
0010
0000
1000
0000
0001
0010
0100
1000
0100
0000
1000
0000
0001
0100
,
0010
1000
0010
0000
0100
0000
0010
1000
0001
0010
0100
0000
0110
0000
0000
0000
,
1100
0000
0000
0000
0101
0000
0000
0000
1100
0000
0000
0000
0101
0000
0000
0001
,
1000
0100
0001
0100
1000
0100
0010
0001
,
0011
0000
0000
0000
1010
0000
0000
0000
0011
0000
0000
0000
1010
0000
0000
1000
,
0001
0000
0100
0000
1000
0000
0100
0000
0001
0000
1000
0000
0100
0010
0001
0010
,
0001
0000
0000
0000
0101
0000
0000
0000
1100
0000
0000
0000
0101
0000
0000
1000
,
0100
0001
0100
0010
0001
0010
0100
1000
,
1010
0000
0000
0000
0011
0000
0000
0000
0101
0000
0000
0000
1100
0000
0000
0001
,
1000
0000
0000
0000
0100
0000
0000
0000
0010
0000
0000
0001
0000
0000
1000
0000
0001
0000
0000
0000
0000
0000
0000
0000
1001
0000
0000
0000
0000
0000
0000
0000
,
0001
0000
0100
0010
0100
0000
0001
0000
1000
0000
0100
0010
0100
0000
1000
0000
,
0001
0000
0100
0001
0100
0000
0010
1000
0010
0000
1000
0100
1000
0000
0001
0000
,
0010
0000
0100
1000
0100
0000
1000
0010
1000
0000
0001
0100
0001
0000
1000
0000
,
0001
0000
0000
0000
0000
0000
0010
0000
0000
0100
0000
0000
0010
0000
0000
0000
0000
0000
0001
0000
0000
1000
0000
0000
0001
0000
0000
0000
0000
0000
1000
0000
0010
0000
1000
0000
0010
0000
0000
0000
0000
0000
0100
0000
0000
0000
0000
0000
,
0001
0000
1000
0100
1000
0000
0010
0100
0010
0000
1000
0001
1000
0000
0001
0000
,
0010
0000
0100
1000
0100
0000
0010
0001
0010
0000
0001
1000
0001
0000
0100
0000
,
0010
0000
1000
0100
1000
0000
0001
0100
0001
0000
1000
0010
1000
0000
0001
0000
,
0010
0000
0000
0000
0000
0000
0200
0000
0000
0000
0000
0000
1300
0000
0000
0100
0000
0000
0010
0000
0000
0001
0000
0000
1000
0000
0000
0000
0000
0000
0001
0000
1000
0000
0001
0000
2000
0000
0000
0000
0000
0000
3000
0000
0000
0000
0000
0000
,
0001
0000
0100
0001
1000
0000
0100
0010
0001
0000
1000
0001
1000
0000
0010
0000
,
0100
0000
0001
1000
0100
0000
0010
0100
1000
0000
0001
0100
0001
0000
1000
0000
,
0100
0000
0010
0100
1000
0000
0001
0100
0010
0000
0100
0001
0100
0000
0010
0000
,
1000
0000
0000
0000
0000
0000
0001
0000
0000
0010
0000
0000
0100
0000
0000
0000
0000
0000
1000
0000
0000
0100
0000
0000
0010
0000
0000
0000
0000
0000
0001
0000
1000
0000
0001
0000
2000
0000
0000
0000
0000
0000
3020
0000
0000
0000
0000
0000
,
0130
0000
0001
1000
0100
0000
0010
0001
1000
0000
0010
0100
0001
0000
1000
0000
,
0001
0000
0010
0100
1000
0000
0010
0100
0001
0000
0100
0010
1000
0000
0001
0000
,
0010
0000
0100
0010
0001
0000
0100
0010
1000
0000
0010
1000
0001
0000
0010
0000
,
0100
0000
2000
0000
3001
0100
0001
1000
0100
0000
0010
0000
0011
0000
0000
0000
,
1100
0000
0000
0000
0101
0000
0000
0000
0011
0000
0000
0000
1010
0000
0000
0001
,
1000
0010
0100
1000
0001
0010
0100
0001
,
0101
0000
0000
0000
1100
0000
0000
0000
1010
0000
0000
0000
0011
0000
0000
1000
,
0001
0000
0100
0000
0010
0000
0001
0000
1000
0000
0100
0000
0001
1000
0001
1000
,
0100
0000
0000
0000
1100
0000
0000
0000
0101
0000
0000
0000
1001
0000
0000
1000
,
0010
0001
1000
0100
0010
1000
0001
0010
,
0110
0000
0000
0000
1100
0000
0000
0000
0101
0000
0000
0000
1001
0000
0000
1000
,
0001
0000
0000
0000
0000
0000
0020
0000
0000
0000
0000
0000
0130
0000
0000
1000
0000
0000
0001
0000
0000
0100
0000
0000
0010
0000
0000
0000
0000
0000
1000
0000
0001
0000
1000
0000
0001
0000
0000
0000
0000
0000
1000
0000
0000
0000
0000
0000
,
1001
0000
0000
0000
;

//--------------- dance-single - Fred-104† ----------------
#NOTES:
     dance-single:
     Fred-104†:
     Challenge:
     17:
     :
0000
0000
0000
0000
,
0000
0000
0000
0000
,
0000
0000
0000
0000
,
0000
0000
0000
0000
,
0000
0000
0000
0000
,
1000
0100
0010
0000
0001
1000
0010
0000
0100
0001
1000
0000
0001
0010
0100
0000
,
1000
0001
0010
0000
0100
0010
0001
0000
1000
0010
0100
0000
0001
1000
0100
0000
,
0010
0001
1000
0000
0010
1000
0001
0000
0010
0100
1000
0000
0001
1000
0010
0000
,
1000
0000
0001
0000
0020
0000
0230
0000
1300
0000
0001
0100
0010
1000
0100
0010
,
0001
1000
0010
0001
1000
0100
0010
0100
,
0001
1000
0100
0001
0200
0000
0310
0001
,
1000
0000
0001
0010
0100
0000
1000
0000
0010
0000
0100
0000
1000
0000
0001
0000
,
0010
0000
0100
0000
0001
0010
0100
1000
0002
0000
0000
0000
0003
0000
0000
0000
,
1000
0100
1000
0100
0001
0100
0001
0100
,
1000
0010
1000
0010
0001
0010
0001
0010
,
1000
0100
0001
0100
1000
0010
0001
0010
,
1000
0100
0010
0001
0100
0010
1001
0000
,
0001
0100
1000
0100
0001
0100
1000
0100
,
0010
0001
0010
1000
0010
0001
0010
1000
,
0001
0010
0100
1000
0010
0100
0001
1000
,
0100
0010
0001
1000
0100
0010
0001
1000
0001
0000
0000
0000
1001
0000
1000
0000
,
0001
1000
0010
0000
0100
0000
0001
1000
0100
0010
0001
0000
1000
0000
0010
0100
,
0001
0100
0010
0000
1000
0000
0001
0010
0100
1000
0001
0000
0100
0000
0010
1000
,
0001
0010
0100
0000
0010
0000
0001
1000
0100
1000
0001
0000
0100
0000
0010
1000
,
0001
0010
0100
0000
0010
0000
0001
1000
0010
1000
0001
0000
0110
0000
1000
0000
,
0001
0010
0100
0000
1000
0000
0001
1000
0100
1000
0001
0000
0100
0000
0010
1000
,
0001
0010
0100
0000
0010
0000
0001
1000
0010
1000
0001
0000
1000
0000
0100
0010
,
0001
1000
0010
0000
0100
0000
0001
1000
0100
0010
0001
0000
1000
0000
0001
1000
,
0010
0100
0010
1000
0001
0000
0010
0000
0110
0000
1100
0000
2000
0000
0000
0000
,
3001
1000
0010
1000
0001
0000
0010
0100
1000
0001
0100
0010
1000
0000
0001
0100
,
0001
1000
0100
0010
0100
0000
1000
0001
0100
0010
1000
0001
0010
0000
0100
0010
,
0001
1000
0100
0010
0001
0000
1000
0010
0100
0001
1000
0010
0100
0000
0001
1000
,
0100
1000
0001
0010
0100
0000
1000
0000
1001
0000
0001
0000
0101
0000
0100
0000
,
0010
1000
0000
0001
0010
0000
1100
0000
0000
0101
0000
0000
2000
0000
3200
0000
,
0310
0001
1000
0010
0100
0000
0010
1000
0001
1000
0100
0010
0001
0000
1000
0100
,
0010
0100
1000
0001
0100
0000
0010
1000
0001
0010
0100
0010
0001
0000
1000
0001
,
0100
0001
1000
0001
0010
0000
0100
1000
0100
0010
0001
0000
1001
0000
0000
0001
,
0101
0000
0000
0000
1100
0000
0000
0000
1010
0000
0000
0000
0011
0000
0000
1000
,
0100
0001
1000
0010
0001
0010
0100
1000
,
1010
0000
0000
0000
0011
0000
0000
0000
0101
0000
0000
0000
1100
0000
0000
0001
,
1000
0000
0010
0000
0001
0000
1000
0000
0100
0000
0010
0000
1000
0100
0010
0001
,
0011
0000
0000
0000
1010
0000
0000
0000
0101
0000
0000
0000
1100
0000
0000
0001
,
0100
0010
0001
1000
0100
0001
1000
0100
,
1100
0000
0000
0000
0101
0000
0000
0000
1010
0000
0000
0000
0011
0000
0000
1000
,
0010
0000
0000
0000
0010
0000
0000
0000
0100
0000
0000
0100
0000
0000
0100
0000
0100
0000
0000
0000
0000
0000
0000
0000
1001
0000
0000
0000
0000
0000
0000
0000
,
1000
0001
0100
0001
1000
0001
0010
0100
1000
0000
0001
0000
0100
0000
0010
0000
,
1000
0001
0010
0001
1000
0010
0100
0010
1000
0000
0001
0000
0010
0000
0100
0000
,
1000
0001
0100
0010
1000
0010
0100
0001
1000
0000
0001
0000
0010
0000
0100
0000
,
1000
0000
0000
0100
0000
0000
0010
0000
0000
0001
0000
0000
1000
0000
0000
0010
0000
0000
0100
0000
0000
0001
0000
0000
1000
0000
0000
0000
0000
0000
0001
0000
0010
0000
0001
0000
0010
0000
0000
0000
0000
0000
0100
0000
0000
0000
0000
0000
,
1000
0001
0010
0001
1000
0010
0100
0001
1000
0000
0100
0000
0010
0000
0001
0000
,
0100
0001
1000
0001
0010
0100
1000
0100
0010
0000
0001
0000
1000
0000
0010
0000
,
0100
0001
1000
0001
0100
0010
1000
0100
0010
0000
0100
0000
1000
0000
0001
0000
,
0100
0000
0000
0000
0000
0000
0001
0000
0000
1000
0000
0000
0100
0000
0000
0010
0000
0000
0001
0000
0000
1000
0000
0000
0010
0000
0000
0000
0000
0000
0100
0000
0001
0000
0100
0000
0002
0000
0000
0000
0000
0000
0000
0000
0000
0000
0000
0000
,
1003
0001
0010
0100
1000
0001
0100
0010
1000
0001
0010
0100
0010
0000
0001
0000
,
1000
0001
0010
0100
1000
0100
0010
0001
1000
0010
0100
0010
1000
0000
0001
0000
,
0010
0100
1000
0001
0100
0010
1000
0001
0010
0100
0010
0001
1000
0000
0010
0000
,
0100
0000
0000
0001
0000
0000
1000
0000
0000
0001
0000
0000
0010
0000
0000
0100
0000
0000
1000
0000
0000
0001
0000
0000
0100
0000
0000
0000
0000
0000
0010
0000
1000
0000
0010
0000
2000
0000
0000
0000
0000
0000
3002
0000
0000
0000
0000
0000
,
0013
0100
1000
0001
0100
0010
0100
0001
1000
0100
1000
0001
0100
0010
1000
0000
,
0001
1000
0100
1000
0001
0100
0010
1000
0010
0100
0001
1000
0100
0010
0001
0000
,
1000
0001
0100
0001
1000
0100
0010
0100
1000
0010
0100
0010
1000
0001
0010
0100
,
1000
0000
0010
0100
0001
0010
0100
1000
0001
0000
0100
0000
0110
0000
1010
0000
,
1100
0000
0000
0000
0101
0000
0000
0000
0011
0000
0000
0000
1010
0000
0000
0001
,
1000
0100
0001
1000
0010
0100
1000
0001
,
0011
0000
0000
0000
1010
0000
0000
0000
1100
0000
0000
0000
0101
0000
0000
1000
,
0100
0000
0010
0000
1000
0000
0001
0000
0100
0000
1000
0000
0001
0100
0010
1000
,
1010
0000
0000
0000
0101
0000
0000
0000
1100
0000
0000
0000
0011
0000
0000
1000
,
0100
0001
1000
0010
0001
1000
0100
0010
,
0011
0000
0000
0000
1010
0000
0000
0000
0101
0000
0000
0000
1100
0000
0000
0001
,
1000
0000
0000
0000
0000
0000
0200
0000
0000
0000
0000
0000
0310
0000
0000
0001
0000
0000
1000
0000
0000
0010
0000
0000
0100
0000
0000
0000
0000
0000
0001
0000
1000
0000
0100
0000
0010
0000
0000
0000
0000
0000
0001
0000
0000
0000
0000
0000
,
1001
0000
0000
0000
;

//--------------- dance-double - Fred-104 ----------------
#NOTES:
     dance-double:
     Fred-104:
     Easy:
     9:
     :
00000000
00000000
00000000
00000000
,
00000000
00000000
00000000
00000000
,
00000000
00000000
00000000
00000000
,
00000000
00000000
00000000
00000000
,
00000000
00000000
00000000
00000000
,
00001000
00001000
00010000
00010000
,
00100000
00100000
10000000
10000000
,
01000000
01000000
00010000
00010000
,
00001000
00000000
00010000
00001000
00010000
00000000
00011000
00000000
,
00020000
00000000
00032000
00000000
,
00003100
00000001
00002000
00003000
,
00000020
00000000
00000230
00000000
,
00001300
00010000
00001000
00011000
,
00020000
00000010
00000000
00030010
,
00002000
00000010
00000000
00003010
,
00020000
00001000
00000000
00031000
,
00010000
00100000
10000000
10010000
,
10000000
00000000
01000000
00000000
,
00010000
00000000
00001000
00000010
,
00000001
00000000
00000100
00000000
,
00001000
00010000
01000000
10010000
,
10000000
01000000
00100000
00001000
,
00010000
00001000
00010000
00000000
00000010
00000000
00010000
00000000
,
00001000
00010000
00000100
00000010
,
00000001
00001000
00000001
00000000
00000100
00000000
00001000
00000000
,
00010000
00001000
00010000
01000000
,
00100000
00010000
00100000
00000000
01000000
00000000
00100000
00000000
,
00001000
00010000
00001000
01000000
,
00010000
00000000
10000000
00010000
10000000
00000000
10010000
00000000
,
10000000
01000000
10000000
00000000
00000000
00000000
00100000
00000000
,
00010000
00001000
00010000
00000000
00000000
00000000
00001000
00000000
,
00000100
00000001
00000100
00000000
00000000
00000000
00000001
00000000
,
00001000
00000010
00001000
00000000
00000010
00000000
00010000
00000000
,
00001000
00000000
00000000
00001000
00000000
00000000
00010000
00000000
00000000
00010000
00000000
00000000
00001000
00000000
00000000
00000000
,
00010000
00001000
00000100
00000001
,
00000010
00000100
00000010
00000000
00000100
00000000
00010000
00000000
,
00001000
00000000
00010000
00001000
00010000
00000000
00001000
00000000
,
00011000
00011000
00011000
00011000
,
00010000
00001000
00000010
00000000
,
00000011
00000011
00000011
00000011
,
00000001
00000100
00001000
00000000
,
00011000
00011000
00011000
00011000
,
00010000
00100000
10000000
00000000
,
01100000
01100000
01100000
01100000
,
00010000
10000000
20020000
30030000
,
10000000
01000000
00010000
01000000
,
10000000
01000000
10000000
00000000
00010000
00100000
00010000
00000000
,
00100000
00001000
00010000
00000010
,
00001000
00000100
00001000
00000000
00000100
00000001
00000100
00000000
,
00001000
00000001
00000010
00000100
,
00010000
00001000
00010000
00000000
00000010
00001000
00000010
00000000
,
00010000
00001000
00100000
00001000
,
00010000
00000000
00001000
00010000
00001000
00000000
00011000
00000000
,
00001000
00000000
00010000
00000000
00100000
10000000
00100000
00000000
,
10000000
00000000
01000000
00000000
00100000
00010000
00100000
00000000
,
00001000
00000000
00010000
00000000
00000010
00001000
00000010
00000000
,
00000100
00000000
00000001
00000000
00000010
00000100
00000010
00000000
,
00000001
00000100
00001000
00010000
,
01000000
00100000
01000000
00000000
10000000
00010000
10000000
00000000
,
00100000
00010000
00001000
00000100
,
00000001
00000010
00000220
00000330
,
00011000
00011000
00011000
00011000
,
00001000
01000000
00010000
00000000
,
01100000
01100000
01100000
01100000
,
10000000
01000000
00100000
00000000
,
00011000
00011000
00011000
00011000
,
00010000
00000010
00001000
00000000
,
00001001
00001001
00001001
00001001
,
00000001
00000000
00000100
00000000
00001000
00010000
00001000
00000000
,
00011000
00000000
00000000
00000000
;

//--------------- dance-double - Fred-104 ----------------
#NOTES:
     dance-double:
     Fred-104:
     Medium:
     12:
     :
00000000
00000000
00000000
00000000
,
00000000
00000000
00000000
00000000
,
00000000
00000000
00000000
00000000
,
00000000
00000000
00000000
00000000
,
00000000
00000000
00000000
00000000
,
00010000
00001000
00000100
00000001
,
00001000
00000100
00000010
00000001
,
00000100
00001000
00010000
00000000
00100000
01000000
00010000
00000000
,
10000000
00000000
00010000
00010000
00100000
00001000
00010000
00000010
,
00001000
00000001
00000000
00000001
00000010
00000100
00001000
00000001
,
00000100
00001000
00010000
00001000
00020000
00000000
01030000
00100000
,
00000000
00100000
00010000
10000000
00100000
00010000
00001000
00000100
,
00000001
00001000
00000100
00010000
00001000
00000000
00011000
00000000
,
00001000
00010000
00100000
10000000
,
01000000
00010000
00001000
00010000
,
00001000
00000100
00000001
00000010
,
00000100
00010000
00001000
00011000
,
00001000
00010000
00001000
00010000
,
00100000
10000000
00100000
10000000
,
01000000
00010000
00001000
00000100
,
00000001
00000000
00001000
00000100
00010000
00000000
00011000
00000000
,
00001000
00010000
00100000
00000000
01000000
00100000
10000000
00000000
,
00010000
00100000
01000000
00000000
00100000
00001000
00010000
00000000
,
00001000
00000010
00000001
00000000
00000010
00000100
00001000
00000000
,
00000010
00000100
00001000
00000000
00010000
00100000
01000000
00000000
,
00100000
10000000
00010000
00000000
10000000
01000000
00100000
00000000
,
00001000
00010000
00001000
01000000
00001000
00010000
00000100
00000000
,
00001000
00000100
00000010
00000000
00000001
00000100
00000010
00000000
,
00001000
00000000
00000000
00001000
00000001
00000000
00000100
00000000
00001000
00000000
00000000
00000000
00011000
00000000
00000000
00000000
,
00010000
00001000
00000010
00000000
00000001
00000010
00000100
00000000
,
00001000
00000100
00010000
00000100
00001000
00000010
00000100
00000000
,
00000001
00000010
00000100
00000000
00010000
00001000
01000000
00000000
,
00001000
01000000
00010000
00100000
01000000
10000000
01000000
00100000
,
00001000
00000000
00000000
00010000
00000000
00000000
00011000
00000000
00000000
00000010
00000000
00000000
00020000
00000000
00032000
00000000
,
00013000
00001000
01000000
00010000
10000000
01000000
00100000
00000000
,
00001000
00010000
00000100
00000010
00000100
00001000
00000100
00000000
,
00000010
00000001
00000100
00001000
00010000
00001000
00010000
00000000
,
00011000
00101000
00010010
00011000
,
00001000
00010000
00100000
10000000
00010000
00100000
01000000
00000000
,
11000000
01010000
11000000
01100000
,
10000000
00100000
00010000
00001000
00000010
00000001
00000010
00000100
,
00001100
00000101
00001010
00000011
,
00000001
00000100
00000010
00000100
00001000
00010000
00100000
10000000
,
10100000
00110000
00011000
00010010
,
00010000
00000000
00001000
00000000
00000100
00000000
00000000
00000100
00000001
00000000
00000000
00000000
00001001
00000000
00000000
00000000
,
00000001
00000100
00001000
00010000
,
00001000
00000100
00001000
00010000
01000000
10000000
00010000
00100000
,
01000000
10000000
00100000
00010000
,
00001000
00010000
00100000
00010000
00001000
00000010
00000001
00001000
,
00000001
00000000
00000100
00000000
00000010
00000100
00001000
00000000
,
00010000
00100000
01000000
00100000
10000000
00010000
00100000
01000000
,
10000000
00000000
00100000
00000000
00010000
00001000
00010000
00000000
,
00001000
00000000
00000100
00000000
00000001
00000000
00001000
00000000
00000100
00000000
00000010
00000001
00000010
00000000
00000000
00000000
,
00000001
00000010
00000001
00000010
00001000
00010000
00001000
00010000
,
00100000
10000000
00100000
10000000
01000000
00100000
01000000
00100000
,
00001000
00010000
00001000
00010000
00000100
00000010
00000100
00000010
,
00000001
00000100
00001000
00010000
00001000
00010000
00011000
00000000
,
00001000
00010000
00001000
00010000
01000000
00100000
01000000
00100000
,
10000000
01000000
00010000
00001000
00000100
00000001
00001000
00000100
,
00000010
00000001
00001000
00000001
00000010
00001000
00010000
00100000
,
10000000
00010000
00100000
01000000
00100000
00001000
00011000
00000000
,
00010100
00001100
00000101
00001001
,
00000001
00000010
00000100
00001000
00000100
00010000
00001000
01000000
,
01001000
00011000
00101000
00110000
,
00001000
00010000
00100000
10000000
00010000
00100000
01000000
10000000
,
11000000
01010000
10100000
00110000
,
10000000
00100000
01000000
00100000
00010000
00001000
00010000
00000100
,
00000110
00000011
00001100
00001001
,
00000001
00000100
00000010
00000100
00001000
00010000
00001000
00000000
,
00011000
00000000
00000000
00000000
;

//--------------- dance-double - Fred-104 ----------------
#NOTES:
     dance-double:
     Fred-104:
     Hard:
     15:
     :
00000000
00000000
00000000
00000000
,
00000000
00000000
00000000
00000000
,
00000000
00000000
00000000
00000000
,
00000000
00000000
00000000
00000000
,
00000000
00000000
00000000
00000000
,
10000000
00010000
10000000
00010000
,
00100000
01000000
10000000
00000000
00100000
00010000
00001000
00000000
,
00010000
00001000
00000100
00000001
00001000
00000100
00001000
00000000
,
00001000
00000000
00000001
00000000
00000200
00000300
00000200
00000300
00010000
00000000
00001000
00010000
00000100
00010000
00001000
00000000
,
00010000
00001000
00000010
00000001
00001000
00000010
00000100
00001000
,
00010000
00100000
01000000
00010000
20000000
00000000
31000000
00100000
,
00001000
00000000
00010000
00000010
00010000
00000000
00001000
00000000
00010000
00000000
01000000
00000000
10000000
00000000
00010000
00000000
,
01000000
00100000
00010000
00001000
00010000
00000000
00010100
00000000
,
00011000
00000000
00001000
00000000
00000010
00000001
00001000
00000000
,
00000010
00000000
00000100
00000000
00001000
00010000
01000000
00000000
,
00100000
00000000
00010000
00000000
10000000
01000000
00010000
00000000
,
00001000
00000100
00000001
00000000
00001000
00000000
00000110
00000000
,
00000001
00000100
00000001
00000000
00000100
00001000
00000100
00000000
,
00001000
00010000
00001000
00000000
00010000
01000000
00010000
00000000
,
01000000
10000000
01000000
00000000
10000000
00010000
10000000
00000000
,
00100000
00010000
00001000
00010000
00011000
00000000
00000110
00000000
,
00000001
00000010
00000100
00000000
00001000
00000000
00000100
00000000
00010000
00001000
00010000
00000000
00001000
00000000
01000000
00000000
,
00010000
10000000
01000000
00000000
00100000
00000000
00001000
00000000
00010000
00000010
00010000
00000000
00001000
00000000
00010000
00000000
,
00000100
00001000
00000001
00000000
00000010
00000000
00000100
00000000
00010000
00001000
00010000
00000000
00000100
00000000
00010000
00000000
,
00001000
01000000
00001000
00000000
00010000
00000000
01000000
00000000
10000000
00000000
01000000
00000000
01100000
00000000
00000000
00000000
,
00001000
00010000
00001000
00000000
00010000
00000000
00000010
00001000
00000010
00000000
00000100
00000000
00000001
00000000
00000010
00000100
,
00000010
00000000
00000001
00000000
00000100
00000000
00001000
00010000
00001000
00000000
00010000
00000000
01000000
00000000
10000000
00010000
,
10000000
00000000
00010000
00000000
00100000
00000000
01000000
00100000
01000000
00000000
00100000
00000000
00001000
00000000
00010000
00000010
,
00010000
00000000
00000000
00000010
00001000
00000000
00000001
00000000
00000120
00000000
00000230
00000000
00002300
00000000
00000000
00000000
,
00003001
00000100
00000001
00000000
00001000
00000000
00000100
00010000
00000100
00010000
00001000
00000000
01000000
00000000
00010000
10000000
,
00010000
10000000
01000000
00000000
00100000
00000000
00001000
00010000
00001000
00010000
00001000
00000000
00000100
00000000
00000010
00001000
,
00000001
00001000
00000100
00000000
00000010
00000000
00000001
00001000
00000010
00001000
00000001
00000000
00000010
00000000
00000100
00001000
,
00000100
00010000
00001000
00000000
01000000
00000000
00001000
00010000
00001000
00100000
00010000
00000000
10010000
00000000
10000000
01000000
,
00100000
00001000
00000000
00001000
00010000
00000000
00011000
00000000
00000000
00010010
00000000
00000000
00000002
00000000
00002003
00000000
,
00003100
00000010
00000001
00000000
00001000
00000000
00000010
00010000
00001000
00010000
00000010
00000000
00010000
00000000
00001000
01000000
,
00010000
10000000
01000000
00000000
00100000
00000000
00001000
00010000
00001000
01000000
00001000
00000000
00010000
00000000
00000100
00001000
,
00000100
00000010
00000001
00000000
00001000
00000000
00000010
00000100
00000001
00001000
00000001
00000000
00001001
00000000
00000000
00000000
,
00000101
00000000
00000000
00000000
00001010
00000000
00000000
00000000
01010000
00000000
00000000
00000000
10100000
00000000
00000000
00010000
,
10000000
01000000
00100000
00001000
00010000
00000100
00000010
00000001
,
00000011
00000000
00000000
00000000
00001100
00000000
00000000
00000000
00110000
00000000
00000000
00000000
11000000
00000000
00000000
00010000
,
10000000
00000000
00100000
00000000
00010000
00000000
00001000
00000000
00010000
00000000
01000000
00000000
00100000
00010000
00100000
00010000
,
10000000
00000000
00000000
00000000
01100000
00000000
00000000
00000000
00011000
00000000
00000000
00000000
00000110
00000000
00000000
00000001
,
00001000
00000010
00000100
00001000
00010000
00100000
10000000
01000000
,
01100000
00000000
00000000
00000000
00011000
00000000
00000000
00000000
00000110
00000000
00000000
00000000
00001001
00000000
00000000
00000001
,
00000100
00000000
00000000
00000000
00001000
00000000
00000000
00000000
00010000
00000000
00000000
00001000
00000000
00000000
00010000
00000000
00001000
00000000
00000000
00000000
00000000
00000000
00000000
00000000
00011000
00000000
00000000
00000000
00000000
00000000
00000000
00000000
,
00001000
00000000
00100000
00001000
00100000
00000000
00010000
10000000
00010000
00000000
01000000
00000000
00100000
00000000
10000000
00000000
,
00010000
00000000
01000000
00010000
01000000
00000000
00001000
00010000
00001000
00000000
00000100
00000000
00000001
00000000
00001000
00000000
,
00000100
00000000
00000010
00000001
00000010
00000000
00000100
00001000
00000100
00000000
00010000
00000000
00001000
00000000
01000000
00000000
,
00010000
00000000
00000000
00000000
00000000
00000000
10000000
00000000
00000000
01000000
00000000
00000000
10000000
00000000
00000000
00000000
00000000
00000000
00010000
00000000
00000000
01000000
00000000
00000000
00010000
00000000
00000000
00000000
00000000
00000000
10000000
00000000
01000000
00000000
10000000
00000000
01000000
00000000
00000000
00000000
00000000
00000000
00100000
00000000
00000000
00000000
00000000
00000000
,
00001000
00000000
00010000
00000010
00010000
00000000
00000010
00001000
00000010
00000000
00010000
00000000
00001000
00000000
00000010
00000000
,
00000001
00000000
00000010
00000100
00000010
00000000
00001000
00010000
00001000
00000000
00010000
00000000
00100000
00000000
01000000
00000000
,
00010000
00000000
10000000
00100000
10000000
00000000
00010000
00100000
00010000
00000000
10000000
00000000
01000000
00000000
00010000
00000000
,
00000100
00000000
00000000
00000000
00000000
00000000
00002000
00000000
00000000
00000000
00000000
00000000
00003001
00000000
00000000
00000100
00000000
00000000
00000001
00000000
00000000
00000100
00000000
00000000
00000010
00000000
00000000
00000000
00000000
00000000
00001000
00000000
00000001
00000000
00001000
00000000
00000002
00000000
00000000
00000000
00000000
00000000
00000003
00000000
00000000
00000000
00000000
00000000
,
00000010
00000000
00000001
00001000
00000010
00000000
00010000
00001000
00100000
00000000
00001000
00010000
00000100
00000000
00001000
00000000
,
00000100
00000000
00000010
00000001
00001000
00000000
00000010
00000100
00001000
00000000
00010000
00100000
01000000
00000000
00010000
00000000
,
10000000
00000000
00010000
00100000
01000000
00000000
00100000
00001000
00010000
00000000
00001000
01000000
00010000
00000000
10000000
00000000
,
01000000
00000000
00000000
00000000
00000000
00000000
00100000
00000000
00000000
00001000
00000000
00000000
00010000
00000000
00000000
00000000
00000000
00000000
00000010
00000000
00000000
00010000
00000000
00000000
00001000
00000000
00000000
00000000
00000000
00000000
00010000
00000000
00001000
00000000
00010000
00000000
00002000
00000000
00000000
00000000
00000000
00000000
00023000
00000000
00000000
00000000
00000000
00000000
,
00030100
00000000
00010000
00000100
00001000
00000000
00000100
00000010
00000001
00000000
00001000
00000010
00000100
00000000
00000010
00000000
,
00001000
00000000
00000001
00000010
00000100
00000000
00001000
00000100
00010000
00000000
00001000
01000000
00010000
00000000
00100000
00000000
,
01000000
00000000
00100000
00010000
10000000
00000000
00100000
00010000
00001000
00000000
00000100
00000010
00001000
00000000
00000001
00000000
,
00000010
00000000
00000200
00000000
00010300
00001000
00010000
00001000
00010000
00000000
00001000
00000000
00011000
00000000
00000000
00000000
,
00101000
00000000
00000000
00000000
00010010
00000000
00000000
00000000
01001000
00000000
00000000
00000000
00010100
00000000
00000000
00010000
,
00001000
00000100
00000001
00001000
00000100
00000010
00001000
00010000
,
00011000
00000000
00000000
00000000
01001000
00000000
00000000
00000000
00010100
00000000
00000000
00000000
00101000
00000000
00000000
00000010
,
00010000
00000000
00001000
00000000
00010000
00000000
00100000
00000000
10000000
00000000
01000000
00000000
00100000
00010000
00100000
00001000
,
00010000
00000000
00000000
00000000
00011000
00000000
00000000
00000000
00000110
00000000
00000000
00000000
00001001
00000000
00000000
00000001
,
00000100
00001000
00010000
01000000
10000000
00100000
00010000
00001000
,
00011000
00000000
00000000
00000000
00001010
00000000
00000000
00000000
00000011
00000000
00000000
00000000
00001001
00000000
00000000
00000001
,
00000010
00000000
00000000
00000000
00000000
00000000
00000200
00000000
00000000
00000000
00000000
00000000
00010300
00000000
00000000
00001000
00000000
00000000
00010000
00000000
00000000
00001000
00000000
00000000
00010000
00000000
00000000
00000000
00000000
00000000
00001000
00000000
01000000
00000000
00001000
00000000
01000000
00000000
00000000
00000000
00000000
00000000
00010000
00000000
00000000
00000000
00000000
00000000
,
10010000
00000000
00000000
00000000
;

//--------------- dance-double - Fred-104† ----------------
#NOTES:
     dance-double:
     Fred-104†:
     Challenge:
     17:
     :
00000000
00000000
00000000
00000000
,
00000000
00000000
00000000
00000000
,
00000000
00000000
00000000
00000000
,
00000000
00000000
00000000
00000000
,
00000000
00000000
00000000
00000000
,
00010000
00000010
00001000
00000000
00000001
00000010
00000100
00000000
00010000
00001000
00100000
00000000
00010000
10000000
00100000
00000000
,
01000000
00010000
10000000
00000000
01000000
00100000
00001000
00000000
00010000
00000100
00001000
00000000
00000100
00010000
00001000
00000000
,
00010000
00001000
00100000
00000000
00010000
10000000
00100000
00000000
00010000
00001000
00000100
00000000
00000010
00001000
00000001
00000000
,
00000010
00000000
00000100
00000000
00020000
00000000
00032000
00000000
01003000
00000000
01000000
00001000
01000000
00001000
00010000
00000000
,
00001000
00010000
00100000
01000000
00010000
10000000
01000000
00001000
,
00000100
00010000
00001000
00000100
00000002
00000000
00000013
00000100
,
00001000
00000000
00000001
00000100
00001000
00000000
00010000
00000000
00100000
00000000
01000000
00000000
00010000
00000000
10000000
00000000
,
01000000
00000000
00100000
00000000
00001000
00010000
00001000
00010000
00002000
00000000
00000000
00000000
00003000
00000000
00000000
00000000
,
00010000
00001000
00000100
00000000
00000001
00000100
00001000
00000000
,
00010000
00100000
10000000
00000000
00100000
00010000
00001000
00000000
,
00010000
00001000
00000010
00000000
00000001
00000010
00001000
00000000
,
00010000
01000000
10000000
00000000
01000000
00010000
00001000
00000000
,
00010000
00001000
00010000
00001000
00000010
00000100
00000010
00000100
,
00000010
00000001
00000100
00001000
00010000
00100000
10000000
00010000
,
00100000
01000000
10000000
00100000
00010000
00001000
00010000
00000100
,
00000010
00000001
00001000
00000010
00001000
00000001
00000010
00000100
00010000
00000000
00000000
00000000
00011000
00000000
00001000
00000000
,
00010000
00000010
00010000
00000000
00001000
00000000
00100000
00010000
10000000
00010000
00100000
00000000
01000000
00000000
10000000
00010000
,
00100000
00001000
00010000
00000000
00000010
00000000
00001000
00000001
00000010
00000100
00000010
00000000
00000001
00000000
00001000
00000001
,
00000100
00000001
00001000
00000000
00000010
00000000
00010000
00001000
00100000
00001000
00010000
00000000
00001000
00000000
00010000
00100000
,
01000000
00100000
10000000
00000000
00010000
00000000
10000000
01000000
00100000
00001000
00010000
00000000
00011000
00000000
00001000
00000000
,
00010000
00000100
00001000
00000000
00000001
00000000
00001000
00000100
00000010
00000001
00001000
00000000
00000010
00000000
00000100
00001000
,
00010000
00001000
00010000
00000000
00100000
00000000
01000000
00010000
10000000
01000000
00100000
00000000
00001000
00000000
00010000
00000100
,
00001000
00000100
00000010
00000000
00000001
00000000
00001000
00000010
00010000
00001000
00100000
00000000
00001000
00000000
00010000
00000100
,
00001000
00000001
00000100
00000010
00000100
00000000
00001000
00000000
00011000
00000000
01001000
00000000
00020000
00000000
00000000
00000000
,
10030000
01000000
10000000
00010000
01000000
00000000
00001000
00010000
00000100
00010000
00001000
01000000
00001000
00000000
00010000
00000100
,
00001000
00000100
00000010
00000001
00001000
00000000
00000001
00000100
00000010
00001000
00000010
00000100
00000001
00000000
00001000
00000100
,
00000010
00000001
00000010
00000100
00001000
00000000
00000001
00001000
00000100
00010000
00001000
00010000
00100000
00000000
01000000
00010000
,
10000000
00010000
00100000
01000000
00100000
00000000
00001000
00000000
00011000
00000000
00010000
00000000
00010010
00000000
00000010
00000000
,
00001000
00000100
00000000
00000010
00000001
00000000
00000101
00000000
00000000
00001100
00000000
00000000
00002000
00000000
00023000
00000000
,
00031000
00100000
00010000
01000000
00100000
00000000
10000000
00010000
00100000
01000000
00100000
00001000
00010000
00000000
00000100
00001000
,
00000010
00001000
00000100
00000010
00000001
00000000
00000100
00000010
00001000
00000001
00000010
00000100
00010000
00000000
00001000
01000000
,
00010000
01000000
00001000
00010000
00001000
00000000
00100000
00010000
10000000
00100000
01000000
00010000
01010000
00000000
00000000
10000000
,
10010000
00000000
00000000
00000000
00011000
00000000
00000000
00000000
00001001
00000000
00000000
00000000
00011000
00000000
00000000
00001000
,
00010000
00100000
10000000
01000000
00001000
00000100
00010000
00001000
,
00011000
00000000
00000000
00000000
10010000
00000000
00000000
00000000
00011000
00000000
00000000
00000000
00001001
00000000
00000000
00001000
,
00000100
00000000
00000010
00000000
00000001
00000000
00000100
00000000
00001000
00000000
00010000
00000000
00100000
10000000
01000000
00100000
,
00110000
00000000
00000000
00000000
00001010
00000000
00000000
00000000
01010000
00000000
00000000
00000000
00001100
00000000
00000000
00010000
,
00001000
00010000
00000100
00000010
00000001
00000100
00000010
00001000
,
00001010
00000000
00000000
00000000
00110000
00000000
00000000
00000000
00001100
00000000
00000000
00000000
01010000
00000000
00000000
00001000
,
01000000
00000000
00000000
00000000
00010000
00000000
00000000
00000000
10000000
00000000
00000000
10000000
00000000
00000000
10000000
00000000
10000000
00000000
00000000
00000000
00000000
00000000
00000000
00000000
10010000
00000000
00000000
00000000
00000000
00000000
00000000
00000000
,
10000000
01000000
10000000
00010000
01000000
00001000
00010000
00001000
00100000
00000000
00001000
00000000
00000010
00000000
00000100
00000000
,
00001000
00000001
00000100
00000001
00001000
00000001
00000010
00000100
00010000
00000000
00001000
00000000
00010000
00000000
00100000
00000000
,
10000000
00010000
00100000
01000000
00100000
00010000
00100000
00001000
00010000
00000000
00001000
00000000
00000100
00000000
00000001
00000000
,
00001000
00000000
00000000
00000100
00000000
00000000
00000010
00000000
00000000
00000001
00000000
00000000
00000010
00000000
00000000
00000100
00000000
00000000
00001000
00000000
00000000
00000001
00000000
00000000
00000100
00000000
00000000
00000000
00000000
00000000
00000010
00000000
00001000
00000000
00000010
00000000
00001000
00000000
00000000
00000000
00000000
00000000
00000001
00000000
00000000
00000000
00000000
00000000
,
00000010
00000100
00001000
00000001
00000010
00000100
00010000
00001000
00100000
00000000
00010000
00000000
10000000
00000000
00010000
00000000
,
00100000
01000000
10000000
01000000
00100000
00001000
00010000
00000100
00000010
00000000
00000001
00000000
00001000
00000000
00000010
00000000
,
00010000
00001000
01000000
00001000
00010000
00000100
00001000
00000001
00000100
00000000
00000010
00000000
00001000
00000000
00000001
00000000
,
00000010
00000000
00000000
00000000
00000000
00000000
00000100
00000000
00000000
00010000
00000000
00000000
00001000
00000000
00000000
00100000
00000000
00000000
00010000
00000000
00000000
01000000
00000000
00000000
00100000
00000000
00000000
00000000
00000000
00000000
10000000
00000000
00010000
00000000
10000000
00000000
00020000
00000000
00000000
00000000
00000000
00000000
00000000
00000000
00000000
00000000
00000000
00000000
,
00130000
01000000
10000000
00010000
01000000
00001000
00010000
00000100
00010000
00001000
00100000
00010000
01000000
00000000
00001000
00000000
,
00010000
00000100
00001000
00000100
00000010
00000001
00001000
00000010
00000100
00000001
00000100
00000010
00001000
00000000
00000001
00000000
,
00001000
00000001
00000100
00000001
00000010
00000100
00001000
00000100
00010000
00001000
01000000
00001000
00010000
00000000
00000100
00000000
,
00001000
00000000
00000000
00000100
00000000
00000000
00000010
00000000
00000000
00000001
00000000
00000000
00000010
00000000
00000000
00000100
00000000
00000000
00001000
00000000
00000000
00000010
00000000
00000000
00000100
00000000
00000000
00000000
00000000
00000000
00000001
00000000
00001000
00000000
00000001
00000000
00002000
00000000
00000000
00000000
00000000
00000000
00003200
00000000
00000000
00000000
00000000
00000000
,
00010300
00000100
00001000
00000100
00010000
00001000
01000000
00010000
01000000
00001000
00010000
00000100
00001000
00000000
00000100
00000000
,
00000010
00000001
00001000
00000010
00000100
00000001
00000010
00000100
00010000
00001000
00100000
01000000
00100000
00000000
00010000
00000000
,
10000000
00010000
00100000
01000000
00100000
00001000
00010000
00000100
00010000
00000100
00001000
00000100
00000010
00000001
00001000
00000010
,
00000100
00000000
00000001
00000010
00000100
00001000
00000010
00000100
00000001
00000000
00000100
00000000
00000110
00000000
00000000
00000000
,
00001001
00000000
00000000
00000000
00011000
00000000
00000000
00000000
10010000
00000000
00000000
00000000
00011000
00000000
00000000
00010000
,
00001000
00000100
00000010
00001000
00010000
01000000
00100000
10000000
,
10010000
00000000
00000000
00000000
00011000
00000000
00000000
00000000
00001001
00000000
00000000
00000000
00011000
00000000
00000000
00001000
,
00010000
00000000
00100000
00000000
10000000
00000000
00010000
00000000
00100000
00000000
01000000
00000000
00100000
00010000
10000000
00100000
,
10100000
00000000
00000000
00000000
00011000
00000000
00000000
00000000
00000101
00000000
00000000
00000000
00001001
00000000
00000000
00001000
,
00000100
00000010
00000001
00000100
00001000
00010000
00100000
10000000
,
11000000
00000000
00000000
00000000
00011000
00000000
00000000
00000000
00000011
00000000
00000000
00000000
00001001
00000000
00000000
00010000
,
00001000
00000000
00000000
00000000
00000000
00000000
02000000
00000000
00000000
00000000
00000000
00000000
03010000
00000000
00000000
10000000
00000000
00000000
01000000
00000000
00000000
00100000
00000000
00000000
00001000
00000000
00000000
00000000
00000000
00000000
00010000
00000000
00000010
00000000
00010000
00000000
00000010
00000000
00000000
00000000
00000000
00000000
00001000
00000000
00000000
00000000
00000000
00000000
,
00001001
00000000
00000000
00000000
;
