#VERSION:0.83;
#TITLE:CODE\:2;
#ARTIST:HEXA;
#BANNER:CODE 2.png;
#BACKGROUND:CODE 2-bg.png;
#CDTITLE:./CDTitles/RB VOLZZA.png;
#MUSIC:CODE 2.ogg;
#SAMPLESTART:82.064;
#SAMPLELENGTH:15;
#DISPLAYBPM:155;
#BPMS:0=155,16=310,20=155,50=310,52=155,208=310,212=155;
#STOPS:16=0.097,16.5=0.097,17=0.097,17.5=0.048,17.75=0.048,18=0.097,18.5=0.097,19=0.097,19.5=0.096,50=0.097,50.5=0.097,51=0.096,51.5=0.097,208=0.097,208.5=0.097,209=0.097,209.5=0.048,209.75=0.048,210=0.097,210.5=0.097,211=0.096,211.5=0.097;
#BGSTAGE:29;

//--------------- dance-single - Fred-104 ----------------
#NOTEDATA:;
#STEPSTYPE:dance-single;
#DESCRIPTION:Fred-104;
#DIFFICULTY:Beginner;
#METER:4;
#CREDIT:Fred-104;
#NOTES:
0000
0000
0000
0000
,
0000
0000
0000
0000
,
0000
0000
0000
0000
,
0000
0000
0000
0000
,
2000
0000
0000
0000
,
3000
1000
0000
0010
,
0000
1000
0000
1000
,
0000
0001
0000
0001
,
0000
0001
0000
0001
,
0000
0100
0000
0100
,
0000
0001
0000
0100
,
0000
0001
0000
1000
,
1000
0000
0000
0000
,
0000
0010
0000
1000
,
0000
0010
0000
0010
,
0000
1000
0000
0001
,
0000
0100
0000
0100
,
0000
0001
0000
0001
,
0000
0100
0000
0001
,
0000
1000
0000
1000
,
0000
0001
0000
1000
,
1001
0000
0000
1000
,
0000
0000
0001
0000
,
0100
0000
0000
0010
,
0000
0000
0100
0000
,
0010
0000
0000
0100
,
0000
0000
0010
0000
,
1000
0000
0000
0001
,
0001
0001
0001
0001
,
1000
0000
0010
0000
,
1000
0000
0001
0000
,
1000
0000
1000
0000
,
0010
0000
0100
0100
,
0100
0000
0001
0000
,
1000
0000
0001
0000
,
0100
0000
0010
0000
,
1001
0000
0000
0000
,
2000
0000
0000
3000
,
0002
0000
0000
0003
,
2000
0000
0000
3000
,
0002
0000
0000
0003
,
1000
0000
1000
0000
,
0010
0000
0010
0000
,
0001
0000
0001
0000
,
0100
0000
0100
0000
,
1000
0000
1000
0000
,
0001
0000
0001
0000
,
0100
0000
0100
0000
,
0010
0000
0010
0000
,
1000
0000
1000
0000
,
0001
0000
0001
0000
,
0100
0000
0100
0000
,
0200
0000
0000
0000
,
0300
0010
0000
0010
,
0000
1000
0000
0001
,
0000
1000
0000
0010
,
0000
1000
0000
0001
,
0001
0001
0000
0100
,
0000
0001
0000
0100
,
0000
0100
0000
0010
,
0000
0010
0000
0010
,
0010
0010
0000
1000
,
0000
1000
0000
0001
,
0000
1000
0000
0001
,
0000
0100
0000
0100
,
0100
0100
0000
0001
,
0000
1000
0000
0001
,
1000
1000
1000
1000
,
1001
0000
0110
0000
,
1001
0000
0000
0001
,
0000
0000
1000
0000
,
0100
0000
0000
0010
,
0000
0000
0100
0000
,
0010
0000
0000
0100
,
0000
0000
0010
0000
,
0001
0000
0000
1000
,
1000
1000
1000
1000
,
1001
0000
0000
0000
;

//--------------- dance-single - Fred-104 ----------------
#NOTEDATA:;
#STEPSTYPE:dance-single;
#DESCRIPTION:Fred-104;
#DIFFICULTY:Easy;
#METER:9;
#CREDIT:Fred-104;
#NOTES:
0000
0000
0000
0000
,
0000
0000
0000
0000
,
0000
0000
0000
0000
,
0000
0000
0000
0000
,
0002
0000
0203
0000
0302
2003
3002
0000
,
1003
0100
1000
0001
,
0100
0000
0100
0000
0010
0100
0010
0000
,
1000
0100
0100
1000
,
0001
0000
0010
0000
0100
1000
0001
0000
,
1001
0100
0100
0010
,
0001
0000
1000
0000
0010
1000
0100
0000
,
1000
0001
0100
0010
,
0100
0000
0001
0000
0100
0010
2000
0000
,
3001
0000
0100
0000
0001
1000
0100
0000
,
1000
0000
0100
0000
0010
0100
0010
0000
,
0001
0000
1000
0000
0001
0100
0010
0000
,
1000
0000
0010
0000
0100
0010
0100
0000
,
1001
0000
0100
0000
0010
0001
0010
0000
,
0001
0000
0100
0000
0010
1000
0001
0000
,
1000
0000
0100
0000
0010
0100
1000
0000
,
0001
0000
0100
0000
0010
0100
0010
0000
,
1000
0000
0000
1000
0000
0000
0001
0000
0000
0001
0000
0000
0100
0000
0000
0100
,
0000
0000
0010
0000
0000
0010
0000
0000
0100
0000
0000
0000
0000
0000
0000
0000
,
0001
0000
0000
0001
0000
0000
1000
0000
0000
1000
0000
0000
0010
0000
0000
0010
,
0000
0000
0100
0000
0000
0100
0000
0000
0001
0000
0000
0000
1000
0000
0000
0000
,
0010
0000
0000
0010
0000
0000
1000
0000
0000
1000
0000
0000
0100
0000
0000
0100
,
0000
0000
1000
0000
0000
0001
0000
0000
0001
0000
0000
0000
0000
0000
0000
0000
,
0100
0000
0000
0100
0000
0000
0010
0000
0000
0010
0000
0000
1000
0000
0000
0000
,
0002
0000
2003
0000
3010
0100
0010
0000
,
2000
3010
0002
0013
,
2000
3100
0002
0103
,
0020
1030
0020
0130
,
0002
0103
2000
3100
,
1100
0100
0010
0001
,
0101
0100
0010
1000
,
1001
0000
0100
0000
0010
0100
0010
0000
,
0000
0000
0001
0000
0000
1000
0000
0000
0010
0000
0000
0100
0000
0000
0100
0000
,
0020
0000
0000
0030
,
2000
0000
0000
3000
,
0002
0000
0000
0003
,
0200
0000
0000
0300
,
0002
0003
0020
0030
,
0200
0300
2000
3000
,
0001
0010
0100
0100
,
1000
0010
0100
0001
,
1000
0100
0001
0100
,
1000
0010
0100
0001
,
1000
0000
0100
0000
0010
0100
0001
0000
,
0100
0000
0010
0000
1000
0001
1000
0000
,
0001
0000
0010
0000
0100
0010
0100
0000
,
1000
0000
0001
0000
0100
0001
1000
0000
,
0010
0000
1000
0000
0001
0010
0100
0000
,
2000
0000
3020
0000
0230
0302
2003
0000
,
3001
0000
0010
0000
0001
1000
0001
0000
,
0100
0000
0010
0000
1000
0010
0100
0000
,
0001
0000
1000
0000
0100
0010
0001
0000
,
1000
0000
0001
0000
1000
0100
1000
0000
,
1001
0000
0100
0000
0010
0100
0010
0000
,
0001
0000
1000
0000
0001
1000
0100
0000
,
1000
0000
0010
0000
0100
0010
0100
0000
,
0001
1000
0010
0010
,
0110
0000
0100
0000
0001
1000
0010
0000
,
0100
0000
0010
0000
1000
0010
0100
0000
,
0010
0000
0010
0000
1000
0001
0100
0000
,
0010
0000
0100
0000
0010
0100
0010
0000
,
0110
0000
1000
0000
0001
0100
0010
0000
,
1000
0000
0100
0000
0010
0001
1000
0000
,
0001
0100
0001
0000
1000
0100
1000
0000
,
2002
3003
0220
0330
,
0001
0000
0000
0001
0000
0000
1000
0000
0000
1000
0000
0000
0100
0000
0000
0100
,
0000
0000
0010
0000
0000
0010
0000
0000
0100
0000
0000
0000
0000
0000
0000
0000
,
1000
0000
0000
1000
0000
0000
0001
0000
0000
0001
0000
0000
0010
0000
0000
0010
,
0000
0000
0100
0000
0000
0100
0000
0000
1000
0000
0000
0000
0001
0000
0000
0000
,
0010
0000
0000
0010
0000
0000
0001
0000
0000
0001
0000
0000
0100
0000
0000
0100
,
0000
0000
0001
0000
0000
1000
0000
0000
1000
0000
0000
0000
0000
0000
0000
0000
,
0100
0000
0000
0100
0000
0000
0010
0000
0000
0010
0000
0000
0001
0000
0000
0000
,
2000
0000
3002
0000
0013
0100
0010
0000
,
0110
0000
0000
0000
;

//--------------- dance-single - Fred-104 ----------------
#NOTEDATA:;
#STEPSTYPE:dance-single;
#DESCRIPTION:Fred-104;
#DIFFICULTY:Medium;
#METER:12;
#CREDIT:Fred-104;
#NOTES:
0000
0000
0000
0000
,
0000
0000
0000
0000
,
0000
0000
0000
0000
,
0000
0000
0000
0000
,
0020
0030
0000
0000
2000
3000
0000
0000
0200
0300
0000
0000
2000
3000
0000
0000
0020
0030
0000
0000
0200
0300
0000
0000
0002
0003
0000
0000
2000
3000
0000
0000
,
0001
0000
0101
0000
0100
0010
1000
0000
,
0010
1000
0100
1000
0001
0100
0010
0000
,
0100
0000
1010
0000
0100
0001
1000
0000
,
0001
0010
0100
1000
0001
0100
1000
0000
,
0010
0000
1001
0000
0100
0010
1000
0000
,
0001
0010
0100
1000
0010
0100
0001
0000
,
1000
0000
1100
0000
0010
0100
0001
0000
,
1000
0000
0000
0000
0100
0000
0000
0000
0010
0000
0000
0000
0001
0000
0000
0000
2000
3000
0000
0000
0020
0030
0000
0000
0200
0300
0000
0000
0002
0003
0000
0000
,
1000
0000
1001
0000
0100
0010
1000
0000
,
0001
0100
0010
1000
0001
0100
1000
0000
,
0100
0000
0101
0000
0001
0010
0100
0000
,
1000
0010
0100
0010
0001
0010
1000
0000
,
0001
0000
0110
0000
1000
0100
0010
0000
,
0001
1000
0100
0010
0001
0100
1000
0000
,
0100
0001
1000
0010
0100
0001
1000
0001
,
1000
0100
0010
0000
0001
1000
0010
0000
,
1000
0000
0000
1100
0000
0000
0100
0000
0000
0110
0000
0000
0010
0000
0000
0011
,
0000
0000
0001
0000
0000
1001
0000
0000
0110
0000
0000
0000
0000
0000
0000
0000
,
1000
0000
0000
1010
0000
0000
0010
0000
0000
0011
0000
0000
0001
0000
0000
0101
,
0000
0000
0100
0000
0000
1100
0000
0000
1000
0000
0010
0000
1000
0000
0001
0000
,
1000
0000
0000
1001
0000
0000
0001
0000
0000
0101
0000
0000
0100
0000
0000
0110
,
0000
0000
0010
0000
0000
1010
0000
0000
1001
0000
0000
0000
0000
0000
0000
0000
,
0011
0000
0000
0010
0000
0000
0110
0000
0000
0100
0000
0000
1100
0000
0000
1000
,
0001
0000
0000
0001
0100
0000
0000
0100
0010
0000
0100
0000
0010
0000
0010
0000
,
1000
0100
0010
0000
0001
0100
0010
0000
,
1000
0001
0100
0000
0001
1000
0100
0000
,
0010
0001
1000
0000
0001
0010
1000
0000
,
0010
0000
0001
0000
1000
0000
0000
0000
0010
0000
0000
0100
0000
0000
0010
0000
,
1000
0100
0010
0000
1000
0100
0010
0000
,
0001
0100
1000
0000
0001
0100
1000
0000
,
0001
0010
0100
0000
1000
0010
0100
0001
,
1000
0000
0100
0000
0000
0110
0000
0000
0010
0000
0000
0011
0000
0000
0001
0000
,
2000
0000
0000
0000
,
3020
0000
0000
0000
,
0230
0000
0000
0000
,
0302
0000
0000
0000
,
1003
0100
0000
0010
,
0001
1000
0000
0001
,
0100
1000
0000
0100
,
0010
0100
0000
0001
,
1000
0000
0100
0000
1000
0001
0100
0000
,
0010
0000
1000
0000
0100
0010
0001
0000
,
1000
0000
0001
0000
0010
0100
0010
0000
,
0001
0000
1000
0000
0001
0100
0001
0000
,
1000
0000
0100
0000
0010
0100
1000
0000
,
0001
0000
0100
0000
1000
0100
0010
0000
,
0100
0000
0001
0000
0100
1000
0010
0000
,
0200
0300
0000
0000
0002
0003
0000
0000
2000
3000
0000
0000
0200
0300
0000
0000
0020
0030
0000
0000
0200
0300
0000
0000
2000
3000
0000
0000
0002
0003
0000
0000
,
1000
0100
1000
0010
0100
0001
1000
0000
,
0001
0010
0100
1000
0010
0100
0001
0000
,
1000
0100
1000
0100
0001
0100
1000
0000
,
0001
0100
0010
1000
0010
0100
0110
0000
,
0001
1000
0100
1000
0100
0010
0001
0000
,
1000
0010
0100
0010
0001
0010
0100
0000
,
0010
1000
0010
0100
0001
1000
0001
0000
,
0001
1000
0001
1000
0010
0100
0010
0100
,
0001
1000
0100
0010
0001
1000
0010
0000
,
1000
0100
1000
0010
0100
0010
1000
0000
,
0001
0100
1000
0001
0010
1000
0001
0000
,
0100
0010
1000
0001
0010
0100
0010
0000
,
0001
1000
0010
0100
0010
1000
0001
0000
,
1000
0100
0010
0001
1000
0010
0100
0000
,
0001
0010
0100
1000
0010
0100
0001
1000
,
2002
3003
0220
0330
,
0001
0000
0000
0101
0000
0000
0100
0000
0000
0110
0000
0000
0010
0000
0000
1010
,
0000
0000
1000
0000
0000
1001
0000
0000
0110
0000
0000
0000
0000
0000
0000
0000
,
0001
0000
0000
0011
0000
0000
0010
0000
0000
1010
0000
0000
1000
0000
0000
1100
,
0000
0000
0100
0000
0000
0101
0000
0000
0001
0000
0010
0000
0001
0000
1000
0000
,
0001
0000
0000
1001
0000
0000
1000
0000
0000
1100
0000
0000
0100
0000
0000
0110
,
0000
0000
0010
0000
0000
0011
0000
0000
1001
0000
0000
0000
0000
0000
0000
0000
,
1010
0000
0000
0010
0000
0000
0110
0000
0000
0100
0000
0000
0101
0000
0000
0001
,
1000
0000
0010
0000
0100
0000
0010
0000
1000
0000
0001
0100
0001
0000
1000
0000
,
1001
0000
0000
0000
;

//--------------- dance-single - Fred-104 ----------------
#NOTEDATA:;
#STEPSTYPE:dance-single;
#DESCRIPTION:Fred-104;
#DIFFICULTY:Hard;
#METER:15;
#CREDIT:Fred-104;
#NOTES:
0000
0000
0000
0000
,
0000
0000
0000
0000
,
0000
0000
0000
0000
,
0000
0000
0000
0000
,
2000
3000
0000
0000
0000
0000
0000
0000
0020
0030
0000
0000
0000
0000
0000
0000
0200
0300
0000
0000
0000
0000
0000
0000
0002
0003
0000
0000
2000
3000
0000
0000
0002
0003
0000
0000
0000
0000
0000
0000
0020
0030
0000
0000
0000
0000
0000
0000
0200
0300
0000
0000
0000
0000
0000
0000
2000
3000
0000
0000
0000
0000
0000
0000
,
1001
0000
0000
0000
1000
0010
0000
0000
1000
0000
0100
0000
0010
0100
0000
0000
,
0010
0000
0001
0000
1000
0001
0000
0000
0100
0000
0010
0000
1000
0100
0000
0000
,
0101
0000
0000
0000
0001
0100
0000
0000
0010
0000
0100
0000
0010
1000
0000
0000
,
0010
0000
0001
0000
0010
0100
0000
0000
1000
0000
0001
0100
0001
0100
0001
0000
,
1001
0000
0000
0000
1000
0100
0000
0000
0100
0000
0010
0000
0001
1000
0000
0000
,
0010
0000
1000
0000
0100
0010
0000
0000
0001
0000
1000
0000
0100
1000
0000
0000
,
1010
0000
0000
0000
0010
0100
0000
0000
0010
0000
0001
0000
1000
0001
0000
0000
,
1000
0000
0000
0000
0000
0000
0000
0000
0010
0000
0000
0000
1000
0000
0000
0000
0001
0000
0000
0000
1000
0000
0000
0000
0100
0000
0000
0000
0000
0000
0000
0000
0002
0003
0000
0000
0000
0000
0000
0000
0200
0300
0000
0000
0000
0000
0000
0000
2000
3000
0000
0000
0000
0000
0000
0000
0020
0030
0000
0000
0000
0000
0000
0000
,
0001
0000
0100
0000
0010
0100
0000
0000
0010
0000
1000
0000
0100
0010
0000
0000
,
0001
0000
1000
0000
0100
1000
0000
0000
0010
0000
1000
0000
0100
0010
0000
0000
,
0001
0000
0100
0000
1000
0100
0000
0000
0001
0000
0100
0000
1000
0100
0000
0000
,
0010
0000
0001
0000
1000
0010
0000
0000
0100
0000
0001
1000
0001
1000
0100
0000
,
0001
0000
0010
0000
0001
1000
0000
0100
1000
0000
0001
0000
1000
0100
0000
0010
,
0001
0000
1000
0000
0001
0100
0000
0100
1000
0000
0100
0000
0020
0000
0000
0000
,
0031
0000
1000
0000
0001
0010
0000
0010
0100
0000
0010
0000
0010
0000
0010
0000
,
1000
0000
0010
0000
1000
0001
0100
0000
0010
0000
1000
0000
0001
1000
0001
0000
,
1001
0000
0000
1100
0000
0000
1001
0000
0000
0101
0000
0000
1001
0000
0000
1010
,
0000
0000
1001
0000
0000
0011
0000
0000
1001
0000
0000
0000
0000
0000
0000
0000
,
1100
0000
0000
0110
0000
0000
0011
0000
0000
0110
0000
0000
1100
0000
0000
1010
,
0000
0000
0110
0000
0000
0101
0000
0000
1001
0000
0100
0000
0010
0000
0001
0000
,
0101
0000
0000
1001
0000
0000
1100
0000
0000
1001
0000
0000
0011
0000
0000
1001
,
0000
0000
1010
0000
0000
1001
0000
0000
0110
0000
0000
0000
0000
0000
0001
1000
,
0100
0000
0000
1100
0000
0000
0101
0000
0000
1010
0000
0000
0011
0000
0000
1000
,
0100
0000
0000
0001
0100
0000
0000
1000
0100
0000
0010
0000
0001
0000
1000
0000
,
0002
0013
0200
1300
0020
1030
0200
1300
,
0002
0103
2000
3100
0002
0013
2000
3010
,
0200
0310
2000
3001
0020
0130
2000
3001
,
0200
0000
1300
0000
0200
0000
0301
0000
0011
0000
0000
1010
0000
0000
0011
0000
,
0002
0103
2000
3100
0020
0031
2000
3010
,
0200
0301
0200
1300
0020
0130
0020
0031
,
1000
0000
0010
0000
0100
0000
0001
0000
1000
0100
0010
0001
0100
0010
1000
0100
,
0010
0000
0011
0000
0000
1010
0000
0000
0101
0000
0000
1100
0000
0000
0110
0000
,
2001
0100
0000
3100
,
0002
0100
0000
0103
,
2000
0010
0000
3010
,
0002
0010
0000
0013
,
2000
0100
0000
3010
,
0002
0100
0000
1003
,
0200
0010
0000
0310
,
0001
1000
0010
0100
,
0001
0010
0100
0000
1000
0010
0001
0000
,
1000
0100
0010
0000
1000
0001
0100
0000
,
1000
0100
0001
0000
0100
0010
1000
0000
,
0001
0010
0100
0000
1000
0010
0100
0001
,
1100
0100
0010
0000
0101
0100
0010
0000
,
1010
1000
0100
0010
0011
0001
1000
0010
,
0110
1000
0100
0000
0110
0001
0100
0000
,
0020
0030
0000
0000
0000
0000
0000
0000
0200
0300
0000
0000
0000
0000
0000
0000
0020
0030
0000
0000
0000
0000
0000
0000
2000
3000
0000
0000
0002
0003
0000
0000
2000
3000
0000
0000
0000
0000
0000
0000
0200
0300
0000
0000
0000
0000
0000
0000
0002
0003
0000
0000
0000
0000
0000
0000
0020
0030
0000
0000
0000
0000
0000
0000
,
1000
0000
0010
1000
0000
0100
1000
0000
0001
0000
1000
0100
0000
1000
0100
0000
,
0010
0000
0001
1000
0000
0010
0100
0000
0001
0000
1000
0100
1000
0100
1000
0000
,
0001
0000
1000
0100
0000
0010
0001
0000
1000
0000
0001
0100
0000
1000
0100
0000
,
0001
0000
1000
0100
0000
0010
0100
0000
0001
0000
0100
0010
0100
0010
0100
0000
,
0001
0000
1000
0010
0000
0100
0010
0000
1000
0000
0001
0010
0000
0010
0100
0000
,
0001
0000
1000
0010
0000
0100
0010
0000
1000
0000
0001
1000
0100
1000
0010
0000
,
1000
0000
0100
0010
0000
0001
0010
0000
1000
0000
0001
0100
0000
0010
0100
0000
,
0001
0001
0100
0100
0010
0010
1000
1000
,
0001
0000
1000
0010
0100
0000
0001
0000
1000
0000
0100
0010
0001
0000
1000
0000
,
0001
0000
0010
0100
1000
0000
0001
0000
0100
0010
1000
0010
0100
0001
1000
0000
,
0001
0000
0100
0001
0010
0000
0100
0000
0010
0000
1000
0010
0100
0000
0001
0000
,
0100
0000
0010
1000
0001
0000
0100
0000
0001
0010
0100
1000
0100
0010
0001
0000
,
1000
0000
0100
1000
0001
0000
0100
0000
0010
0000
1000
0010
0100
0000
0001
0000
,
1000
0000
0010
1000
0001
0000
0100
0000
0010
1000
0100
1000
0001
0100
0001
0000
,
1000
1000
0010
0010
0100
0100
0001
0001
,
2002
3003
0220
0330
,
1001
0000
0000
0101
0000
0000
1001
0000
0000
1100
0000
0000
1001
0000
0000
0011
,
0000
0000
1001
0000
0000
1010
0000
0000
1001
0000
0000
0000
0000
0000
0000
0000
,
0101
0000
0000
0110
0000
0000
1010
0000
0000
0110
0000
0000
0101
0000
0000
0011
,
0000
0000
0110
0000
0000
1100
0000
0000
1001
0000
0100
0000
0010
0000
1000
0000
,
1100
0000
0000
1001
0000
0000
0101
0000
0000
1001
0000
0000
1010
0000
0000
1001
,
0000
0000
0011
0000
0000
1001
0000
0000
0110
0000
0000
0000
0000
0000
1000
0001
,
0100
0000
0000
0101
0000
0000
1100
0000
0000
0011
0000
0000
1010
0000
0000
0001
,
0100
0000
0010
0000
0100
0000
0010
0000
1000
0000
0001
1000
0001
0000
0100
0010
,
1000
0000
0000
0000
;

//--------------- dance-single - Fred-104 ----------------
#NOTEDATA:;
#STEPSTYPE:dance-single;
#DESCRIPTION:Fred-104;
#DIFFICULTY:Challenge;
#METER:17;
#CREDIT:Fred-104;
#NOTES:
0000
0000
0000
0000
,
0000
0000
0000
0000
,
0000
0000
0000
0000
,
0000
0000
0000
0000
,
0002
0003
0000
0000
0000
0000
0000
0000
2000
3000
0000
0000
0000
0000
0000
0000
0200
0300
0000
0000
0000
0000
0000
0000
0002
0003
0000
0000
0200
0300
0000
0000
2000
3000
0000
0000
0000
0000
0000
0000
0020
0030
0000
0000
0000
0000
0000
0000
0220
0330
0000
0000
0000
0000
0000
0000
MMMM
0000
0000
0000
0000
0000
0000
0000
,
0101
0000
0100
0000
0010
1000
0001
0000
1000
0000
0100
0000
0010
0001
0100
0000
,
0010
0000
1000
0000
0100
1000
0001
0000
1000
0000
0100
0000
0010
0001
1000
0000
,
1100
0000
0100
0000
1000
0001
0100
0000
0010
0000
0100
0000
0001
1000
0100
0000
,
0010
0000
0100
0000
1000
0010
0100
0000
0001
0000
0100
0100
0001
1000
0100
0000
,
0110
0000
0010
0000
0001
1000
0010
0000
0100
0000
0010
0000
1000
0010
0100
0000
,
0001
0000
1000
0000
0100
0010
0001
0000
1000
0000
0001
0000
1000
0010
0100
0000
,
1001
0000
0010
0000
1000
0010
0001
0000
0100
0000
0001
0000
1000
0100
0001
0000
,
0100
0000
0000
0000
0000
0000
0000
0000
0010
0000
0000
0000
0000
0000
0000
0000
1000
0000
0000
0000
0000
0000
0000
0000
0001
0000
0000
0000
0010
0000
0000
0000
0200
0300
0000
0000
0000
0000
0000
0000
2000
3000
0000
0000
0000
0000
0000
0000
2002
3003
0000
0000
0000
0000
0000
0000
MMMM
0000
0000
0000
0000
0000
0000
0000
,
1010
0000
0010
0000
0100
0001
1000
0000
0100
0000
0010
0000
0001
0100
1000
0000
,
0100
0000
0010
0000
0100
0001
1000
0000
0010
1000
0100
0000
0010
0001
1000
0000
,
1100
0000
0100
0000
0010
0100
1000
0000
0001
0000
1000
0000
0100
0010
0001
0000
,
1000
0001
0100
0000
1000
0100
0010
0000
0100
0001
0100
0010
0001
1000
0001
0000
,
1001
0000
0100
0000
0010
0001
0010
0000
0100
0000
1000
0000
0001
1000
0100
0000
,
0010
0000
1000
0000
0010
0100
0010
0000
0001
1000
0001
0000
1000
0001
0100
0000
,
0110
0000
1000
0000
0010
0100
0001
0000
0110
0000
0001
0000
0010
0100
1000
0000
,
1010
MMMM
0101
MMMM
,
1100
0000
0000
0101
0000
0000
1010
0000
0000
0011
0000
0000
1010
0000
0000
0101
,
0000
0000
1100
0000
0000
0110
0000
0000
1001
0000
0000
0000
MMMM
0000
0000
0000
,
1010
0000
0000
0011
0000
0000
1010
0000
0000
0101
0000
0000
1100
0000
0000
0101
,
0000
0000
0110
0000
0000
0011
0000
0000
1001
0000
0100
0000
0010
0000
0001
0000
,
0101
0000
0000
1100
0000
0000
0101
0000
0000
1010
0000
0000
0011
0000
0000
1010
,
0000
0000
0110
0000
0000
0101
0000
0000
1001
0000
0000
0000
MMMM
0000
0100
0010
,
0110
0000
0000
0011
0000
0000
1010
0000
0000
0101
0000
0000
1100
0000
0000
0100
,
0100
0000
0000
0001
0100
0000
0000
1000
0100
0000
0010
0000
0001
0000
1000
0000
,
0001
0100
0001
0100
0010
0000
1000
0000
0100
0010
0100
0010
0001
0000
1000
0000
,
0001
1000
0001
1000
0100
0000
1000
0000
0010
1000
0010
1000
0100
0000
0010
0000
,
0001
1000
0100
1000
0001
0000
0100
0000
0010
1000
0100
0010
0001
0000
1000
0000
,
0010
1000
0100
0010
0100
0000
0001
0000
1100
0000
0000
0101
0000
0000
1001
0000
,
0001
0010
0100
0000
0010
0001
1000
0000
0010
1000
0100
0000
1000
0001
0100
0000
,
0001
1000
0010
0000
1000
0010
0100
0000
0001
0010
1000
0000
0010
0001
0100
0000
,
0001
1000
0001
0000
1000
0010
0100
0000
0001
0100
1000
0100
0001
0100
0010
1000
,
0001
0000
0101
0000
0000
1100
0000
0000
0011
0000
0000
1010
0000
0000
0110
0000
,
1001
0100
MMMM
0100
,
MMMM
0100
MMMM
0100
,
1001
0100
MMMM
0100
,
MMMM
0100
MMMM
0100
,
1001
0010
MMMM
0010
,
MMMM
0010
MMMM
0010
,
1001
0010
MMMM
0010
,
MMMM
0010
MMMM
0010
,
1000
0010
0100
0000
0001
1000
0100
0000
,
0010
0001
1000
0010
0100
0001
1000
0000
,
0001
0010
0100
0000
0001
0010
0100
0000
,
0001
0100
0010
0001
0100
0010
0001
0000
,
1000
0010
0100
0000
1000
0010
0100
0000
,
1000
0100
0010
1000
0100
0010
1000
0000
,
0001
0010
1000
0000
0001
0100
1000
0000
,
0002
0003
0000
0000
0000
0000
0000
0000
0200
0300
0000
0000
0000
0000
0000
0000
0020
0030
0000
0000
0000
0000
0000
0000
2000
3000
0000
0000
0002
0003
0000
0000
0020
0030
0000
0000
0000
0000
0000
0000
0200
0300
0000
0000
0000
0000
0000
0000
2200
3300
0000
0000
0000
0000
0000
0000
MMMM
0000
0000
0000
0000
0000
0000
0000
,
1001
0000
0001
1000
0001
0100
0010
0000
1000
0000
0001
0010
0100
1000
0100
0000
,
0010
0000
0001
1000
0100
1000
0001
0000
1000
0000
0010
1000
0100
1000
0010
1000
,
0100
0000
0010
0001
1000
0010
0100
0000
0001
0000
0100
1000
0100
0010
0100
0000
,
0001
0000
1000
0100
0010
0001
0010
0000
0001
0000
0100
0100
0010
1000
0001
0010
,
0100
0000
0010
0001
1000
0100
0010
0000
0001
0000
1000
0001
0100
0010
1000
0000
,
0100
0000
0001
0100
1000
0100
0010
0000
0100
0000
0001
0100
0010
1000
0010
0100
,
0001
0000
0010
0001
0010
0100
0010
0000
1000
0000
0010
1000
0001
0010
0100
0000
,
0001
0011
0010
0110
0100
1100
1000
1001
,
1000
0000
0010
0100
1000
0100
0010
0000
0100
1000
0001
0100
0010
0000
1000
0000
,
0001
0000
0010
0100
1000
0001
0010
0000
0100
0010
0001
1000
0001
1000
0100
0000
,
0010
0000
0100
1000
0001
0100
0010
0000
1000
0010
0001
0010
0100
0000
0010
0000
,
1000
0000
0001
0100
1000
0010
0100
0000
0001
1000
0100
0010
0001
1000
0100
0010
,
0001
0000
1000
0100
0100
0001
1000
0000
1000
0010
0010
0001
1000
0000
0001
0000
,
1000
0000
0001
0100
0100
1000
0001
0000
0100
0100
1000
0001
0100
0010
1000
0001
,
0010
0000
0100
1000
0010
0000
0100
0001
0010
0000
0100
1000
0010
0000
1000
0001
,
1001
MMMM
MMMM
0000
0110
MMMM
MMMM
0000
,
0101
0000
0000
1100
0000
0000
0011
0000
0000
1010
0000
0000
0011
0000
0000
1100
,
0000
0000
0101
0000
0000
0110
0000
0000
1001
0000
0000
0000
MMMM
0000
0000
0000
,
0011
0000
0000
1010
0000
0000
0011
0000
0000
1100
0000
0000
0101
0000
0000
1100
,
0000
0000
0110
0000
0000
1010
0000
0000
1001
0000
0100
0000
0010
0000
1000
0000
,
1100
0000
0000
0101
0000
0000
1100
0000
0000
0011
0000
0000
1010
0000
0000
0011
,
0000
0000
0110
0000
0000
1100
0000
0000
1001
0000
0000
0000
MMMM
0000
0100
0010
,
0110
0000
0000
1010
0000
0000
0011
0000
0000
1100
0000
0000
0101
0000
0000
0100
,
0010
0000
0000
0000
0000
0000
1000
0000
0000
0000
0000
0000
0100
0000
0000
0000
0000
0000
0010
0000
0000
0000
0000
0000
1001
0000
0000
0000
0000
0000
1000
0000
0001
0000
0100
0000
0010
0000
0000
0000
0000
0000
0001
0000
0000
1000
0000
0000
,
1001
0000
0000
0000
;

//--------------- dance-double - Fred-104 ----------------
#NOTEDATA:;
#STEPSTYPE:dance-double;
#DESCRIPTION:Fred-104;
#DIFFICULTY:Easy;
#METER:9;
#CREDIT:Fred-104;
#NOTES:
00000000
00000000
00000000
00000000
,
00000000
00000000
00000000
00000000
,
00000000
00000000
00000000
00000000
,
00000000
00000000
00000000
00000000
,
20000000
30020000
00230000
00302000
,
00013000
00000000
00001000
00000000
00000100
00000010
00000100
00000000
,
00000010
00000001
00001000
00000010
,
00000100
00000000
00000100
00000000
00000001
00001000
00000100
00000000
,
00000010
00000000
00000001
00000000
00000100
00000010
00000100
00000000
,
00000001
00000000
00000100
00000000
00001000
00010000
00001000
00000000
,
00010000
00000000
00001000
00000000
00010000
00100000
10000000
00000000
,
00100000
00000000
00001000
00000000
00010000
00000100
00001000
00000000
,
00000010
00001000
00000020
00000230
,
00000301
00000000
00000100
00000000
00001000
00010000
00001000
00000000
,
00010000
00000000
00001000
00000000
01000000
00001000
01000000
00000000
,
00001000
00000000
00010000
00000000
00100000
01000000
00100000
00000000
,
00010000
00000000
10000000
00000000
00100000
10000000
00100000
00000000
,
01000000
00000000
00100000
00000000
10000000
01000000
10000000
00000000
,
01000000
00000000
00010000
00000000
00001000
00010000
00001000
00000000
,
00000100
00000010
00001000
00010000
,
00022000
00033000
20020000
30030000
,
10000000
00000000
00000000
10000000
00000000
00000000
00100000
00000000
00000000
00100000
00000000
00000000
01000000
00000000
00000000
01000000
,
00000000
00000000
00010000
00000000
00000000
00001000
00000000
00000000
00011000
00000000
00000000
00000000
00000000
00000000
00000000
00000000
,
00001000
00000000
00000000
00001000
00000000
00000000
00000010
00000000
00000000
00000010
00000000
00000000
00000100
00000000
00000000
00000100
,
00000000
00000000
00000001
00000000
00000000
00000001
00000000
00000000
00000010
00000000
00000000
00000000
00000100
00000000
00000000
00000000
,
00010000
00000000
00000000
00010000
00000000
00000000
00001000
00000000
00000000
00001000
00000000
00000000
00100000
00000000
00000000
00100000
,
00000000
00000000
00010000
00000000
00000000
00010000
00000000
00000000
10010000
00000000
00000000
00000000
00000000
00000000
00000000
00000000
,
10000000
00000000
00000000
01000000
00000000
00000000
00100000
00000000
00000000
00001000
00000000
00000000
00010000
00000000
00000000
00000000
,
00000200
00000000
00002300
00000000
00003001
00000100
00000001
00000000
,
00001000
00000010
00000100
00000000
00000001
00000000
00000010
00000000
,
00000100
00000010
00000100
00000000
00010000
00000000
00001000
00000000
,
00100000
00010000
00100000
00000000
00010000
00000000
10000000
00000000
,
00010000
00000000
01000000
00000000
10000000
00000000
00000000
00000000
00010000
00000000
00000000
01000000
00000000
00000000
01000000
00000000
,
00100000
10000000
01000000
00000000
00100000
00000000
00001000
00000000
,
00010000
00000100
00001000
00000000
00000001
00000000
00000100
00000000
,
00000001
00000010
00000001
00000000
00001000
00000010
00001000
00000000
,
00000000
00000000
00000001
00000000
00000000
00000100
00000000
00000000
00001000
00000000
00000000
00010000
00000000
00000000
00001000
00000000
,
00021000
00000000
00000000
00000000
,
00032000
00000000
00000000
00000000
,
00203000
00000000
00000000
00000000
,
02300000
00000000
00000000
00000000
,
23000000
00000000
30200000
00000000
,
00320000
00000000
00032000
00000000
,
00003020
00000000
00000032
00000000
,
00002003
00000000
00003002
00000000
,
00000103
00000001
00000100
00000100
,
00001000
00000010
00010000
00010000
,
00001000
00100000
01000000
01000000
,
00100000
00010000
10000000
10000000
,
00010000
00000000
10000000
00000000
01000000
00100000
01000000
00000000
,
00100000
00000000
00001000
00000000
00010000
00000100
00010000
00000000
,
00000010
00000000
00001000
00000000
00000001
00000100
00000010
00000000
,
00000200
00000320
00002030
00003200
,
00010300
00000000
00001000
00000000
00100000
00010000
10000000
00000000
,
00100000
00000000
10000000
00000000
01000000
00100000
00010000
00000000
,
10000000
00000000
00100000
00000000
01000000
00001000
00010000
00000000
,
00000100
00000000
00001000
00000000
00000100
00000010
00000001
00000000
,
00001000
00000000
00000001
00000000
00000100
00000010
00001000
00000000
,
00000001
00000000
00000010
00000000
00000100
00010000
00001000
00000000
,
00100000
00000000
00010000
00000000
10000000
00100000
01000000
00000000
,
00010000
01000000
00010000
00000000
10000000
01000000
10000000
00000000
,
01000000
00000000
00100000
00000000
00010000
01000000
00100000
00000000
,
00001000
00010000
00001000
00000000
00010000
00000100
00001000
00000000
,
00000001
00000000
00001000
00000000
00000100
00000010
00000100
00000000
,
00001000
00000001
00000100
00000000
00000010
00001000
00000001
00000000
,
00000010
00000000
00000100
00000000
00010000
00001000
00010000
00000000
,
00001000
00000000
00100000
00000000
00010000
10000000
01000000
00000000
,
00100000
00010000
00100000
00000000
00001000
00010000
00001000
00000000
,
00022000
00033000
00002002
00003003
,
00000001
00000000
00000000
00000001
00000000
00000000
00000010
00000000
00000000
00000010
00000000
00000000
00000100
00000000
00000000
00000100
,
00000000
00000000
00001000
00000000
00000000
00010000
00000000
00000000
00011000
00000000
00000000
00000000
00000000
00000000
00000000
00000000
,
00010000
00000000
00000000
00010000
00000000
00000000
00100000
00000000
00000000
00100000
00000000
00000000
01000000
00000000
00000000
01000000
,
00000000
00000000
10000000
00000000
00000000
10000000
00000000
00000000
00100000
00000000
00000000
00000000
01000000
00000000
00000000
00000000
,
00001000
00000000
00000000
00001000
00000000
00000000
00010000
00000000
00000000
00010000
00000000
00000000
00000010
00000000
00000000
00000010
,
00000000
00000000
00001000
00000000
00000000
00001000
00000000
00000000
00001001
00000000
00000000
00000000
00000000
00000000
00000000
00000000
,
00000001
00000000
00000000
00000100
00000000
00000000
00000010
00000000
00000000
00010000
00000000
00000000
00001000
00000000
00000000
00000000
,
01000000
00100000
10000000
00000000
00010000
10000000
01000000
00000000
,
10010000
00000000
00000000
00000000
;

//--------------- dance-double - Fred-104 ----------------
#NOTEDATA:;
#STEPSTYPE:dance-double;
#DESCRIPTION:Fred-104;
#DIFFICULTY:Medium;
#METER:13;
#CREDIT:Fred-104;
#NOTES:
00000000
00000000
00000000
00000000
,
00000000
00000000
00000000
00000000
,
00000000
00000000
00000000
00000000
,
00000000
00000000
00000000
00000000
,
00000002
00000003
00000000
00000000
00002000
00003000
00000000
00000000
00000020
00000030
00000000
00000000
00002000
00003000
00000000
00000000
00000200
00000300
00000000
00000000
00020000
00030000
00000000
00000000
00002000
00003000
00000000
00000000
00020000
00030000
00000000
00000000
,
00001000
00100000
00010000
00100000
01000000
10000000
00010000
01000000
,
10000000
01000000
00010000
10000000
01000000
00100000
01000000
00000000
,
00010000
01000000
00010000
00001000
00010000
00001000
00000100
00000001
,
00001000
00000100
00000010
00000001
00000100
00000100
00000100
00000000
,
00000001
00000100
00000010
00000100
00000001
00000100
00001000
00000100
,
00001000
00010000
00001000
00010000
01000000
10000000
00010000
00000000
,
01000000
00100000
10000000
00100000
01000000
00010000
10000000
00000000
,
00010000
00000000
00000000
00000000
10000000
00000000
00000000
00000000
00100000
00000000
00000000
00000000
01000000
00000000
00000000
00000000
20000000
30000000
00000000
00000000
02000000
03000000
00000000
00000000
00200000
00300000
00000000
00000000
00002000
00003000
00000000
00000000
,
00010000
00000000
00011000
00000000
00001000
00000100
00000010
00000000
,
00000101
00000000
00001100
00000000
00000010
00000100
00000001
00000000
,
00001001
00000000
00000101
00000000
00000100
00000010
00001000
00000000
,
00000100
00010000
00001000
00010000
00001000
00001000
00010000
00000000
,
00101000
00000000
00011000
00000000
00001000
00010000
00100000
00000000
,
10100000
00000000
00110000
00000000
10000000
01000000
00100000
00000000
,
00001000
00010000
00000010
00001000
00000001
00000100
00000010
00001000
,
00002200
00003300
00000202
00000303
,
00000011
00000000
00000000
00000010
00000000
00000000
00000110
00000000
00000000
00000100
00000000
00000000
00010100
00000000
00000000
00010000
,
00000000
00000000
00011000
00000000
00000000
00001000
00000000
00000000
01001000
00000000
00000000
00000000
00000000
00000000
00000000
00000000
,
00110000
00000000
00000000
00100000
00000000
00000000
10100000
00000000
00000000
10000000
00000000
00000000
11000000
00000000
00000000
01000000
,
00000000
00000000
01100000
00000000
00000000
00100000
00000000
00000000
00001000
00000000
00010000
00000000
00000010
00000000
00001000
00000000
,
00000001
00000000
00000000
00000101
00000000
00000000
00000100
00000000
00000000
00001100
00000000
00000000
00001000
00000000
00000000
00011000
,
00000000
00000000
00010000
00000000
00000000
00110000
00000000
00000000
10010000
00000000
00000000
00000000
00000000
00000000
00000000
00000000
,
10100000
00000000
00000000
00100000
00000000
00000000
00110000
00000000
00000000
00010000
00000000
00000000
00011000
00000000
00000000
00001000
,
00010000
00000000
00000000
00010000
00001000
00000000
00000000
00001000
00000100
00000000
00000010
00000000
00000001
00000000
00001000
00000000
,
00000001
00000100
00001000
00000000
00000001
00000100
00001000
00000000
,
00010000
00001000
00010000
00000000
00001000
00010000
00100000
00000000
,
00010000
00100000
10000000
00000000
00010000
00100000
10000000
00000000
,
10000000
00000000
01000000
00000000
00100000
00000000
00000000
00000000
00010000
00000000
00000000
00001000
00000000
00000000
00010000
00000000
,
00001000
00000100
00000010
00000000
00000001
00001000
00000010
00000000
,
00000100
00000001
00001000
00000000
00000010
00000100
00001000
00000000
,
00000001
00000010
00001000
00000010
00001000
00010000
00100000
10000000
,
00100000
00000000
00100000
00000000
00000000
10000000
00000000
00000000
01000000
00000000
00000000
01100000
00000000
00000000
00100000
00000000
,
00002000
00010000
00000000
00010000
,
00000000
00010000
00000000
00013000
,
00002000
00000010
00000000
00000010
,
00000000
00000010
00000000
00003010
,
00020000
01000000
00000000
01000000
,
00000000
01000000
00000000
01030000
,
00020000
00000100
00000000
00000100
,
00000000
00000100
00000000
00030100
,
00001000
00000000
00000001
00000000
00000010
00000100
00000010
00000000
,
00000001
00000000
00001000
00000000
00000010
00010000
00001000
00000000
,
00010000
00000000
00000100
00000000
00010000
00001000
00100000
00000000
,
00010000
00000000
00100000
00000000
01000000
10000000
00010000
00000000
,
10000000
00000000
01000000
00000000
00100000
00001000
00010000
00000000
,
00000100
00000000
00001000
00000000
00000001
00000100
00001000
00000000
,
00000100
00000000
00000001
00000000
00001000
00000100
00000010
00000000
,
00000200
00000300
00000000
00000000
00002000
00003000
00000000
00000000
00000020
00000030
00000000
00000000
00000200
00000300
00000000
00000000
00000002
00000003
00000000
00000000
00000200
00000300
00000000
00000000
00002000
00003000
00000000
00000000
00020000
00030000
00000000
00000000
,
01000000
00000000
01100000
00000000
00100000
10000000
00100000
00100000
,
10000000
01000000
00100000
00010000
00100000
00001000
00010000
00000000
,
00001000
00000000
00001100
00000000
00001000
00000100
00000001
00000100
,
00000010
00000010
00001000
00000001
00000010
00000100
00001000
00000000
,
00000100
00000000
00010100
00000000
00010000
00001000
00100000
00100000
,
00010000
00100000
10000000
00100000
00010000
10000000
01000000
00000000
,
00100000
00000000
00110000
00000000
10000000
00100000
01000000
00010000
,
00100000
00100000
00001000
00001000
00010000
00010000
00000010
00000010
,
00001000
00000100
00000010
00000001
00001000
00000010
00000100
00000001
,
00000100
00000001
00000100
00001000
00010000
00001000
00010000
00000000
,
00001000
00010000
00100000
10000000
00010000
00100000
01000000
10000000
,
00010000
01000000
00010000
00100000
00001000
00100000
00010000
00000000
,
01000000
00010000
00100000
00001000
01000000
00010000
00100000
00001000
,
00010000
00000100
00001000
00000010
00010000
00000100
00001000
00000000
,
00000001
00000100
00001000
00000100
00001000
00010000
01000000
10000000
,
20020000
30030000
02200000
03300000
,
10100000
00000000
00000000
00100000
00000000
00000000
01100000
00000000
00000000
01000000
00000000
00000000
01001000
00000000
00000000
00001000
,
00000000
00000000
00011000
00000000
00000000
00010000
00000000
00000000
00010100
00000000
00000000
00000000
00000000
00000000
00000000
00000000
,
00001010
00000000
00000000
00000010
00000000
00000000
00000011
00000000
00000000
00000001
00000000
00000000
00000101
00000000
00000000
00000100
,
00000000
00000000
00000110
00000000
00000000
00000010
00000000
00000000
00010000
00000000
00001000
00000000
00100000
00000000
00010000
00000000
,
10000000
00000000
00000000
11000000
00000000
00000000
01000000
00000000
00000000
01010000
00000000
00000000
00010000
00000000
00000000
00011000
,
00000000
00000000
00001000
00000000
00000000
00001010
00000000
00000000
00001001
00000000
00000000
00000000
00000000
00000000
00000000
00000000
,
00000011
00000000
00000000
00000010
00000000
00000000
00001010
00000000
00000000
00001000
00000000
00000000
00011000
00000000
00000000
00010000
,
00001000
00000000
00100000
00000000
00001000
00000000
00010000
00000000
00000010
00000000
00001000
00000010
00001000
00000000
00000001
00000000
,
00001001
00000000
00000000
00000000
;

//--------------- dance-double - Fred-104 ----------------
#NOTEDATA:;
#STEPSTYPE:dance-double;
#DESCRIPTION:Fred-104;
#DIFFICULTY:Hard;
#METER:15;
#CREDIT:Fred-104;
#NOTES:
00000000
00000000
00000000
00000000
,
00000000
00000000
00000000
00000000
,
00000000
00000000
00000000
00000000
,
00000000
00000000
00000000
00000000
,
00020000
00030000
00000000
00000000
00000000
00000000
00000000
00000000
02000000
03000000
00000000
00000000
00000000
00000000
00000000
00000000
00200000
00300000
00000000
00000000
00000000
00000000
00000000
00000000
20000000
30000000
00000000
00000000
00020000
00030000
00000000
00000000
20000000
30000000
00000000
00000000
00000000
00000000
00000000
00000000
02000000
03000000
00000000
00000000
00000000
00000000
00000000
00000000
00020000
00030000
00000000
00000000
00000000
00000000
00000000
00000000
00002000
00003000
00000000
00000000
00000000
00000000
00000000
00000000
,
00000010
00000100
00000010
00001000
00001000
00000100
00000010
00000001
,
00000001
00000100
00001000
00010000
00010000
00100000
10000000
00000000
,
00010000
01000000
10000000
10000000
00010000
01000000
00100000
00100000
,
10000000
01000000
00010000
00010000
00001000
00000010
00000001
00000000
,
00001000
00000001
00000100
00000100
00000010
00001000
00000001
00000001
,
00000010
00001000
00010000
00010000
00100000
10000000
00010000
00000000
,
01000000
01000000
00100000
10000000
01000000
00010000
00001000
00001000
,
00000100
00000000
00000000
00000000
00000000
00000000
00000000
00000000
00000010
00000000
00000000
00000000
00000000
00000000
00000000
00000000
00001000
00000000
00000000
00000000
00000000
00000000
00000000
00000000
00000001
00000000
00000000
00000000
00000100
00000000
00000000
00000000
00000002
00000003
00000000
00000000
00000000
00000000
00000000
00000000
00000020
00000030
00000000
00000000
00000000
00000000
00000000
00000000
00002000
00003000
00000000
00000000
00000000
00000000
00000000
00000000
00020000
00030000
00000000
00000000
00000000
00000000
00000000
00000000
,
01000000
00000000
10000000
00000000
00100000
10000000
00000000
00000000
00100000
00000000
01000000
00000000
00100000
00010000
00000000
00000000
,
00001000
00000000
00010000
00000000
00001000
00000010
00000000
00000000
00000100
00000000
00000001
00000000
00000100
00000000
00000010
00000000
,
00000010
00000000
00001000
00000000
00000001
00000010
00000000
00000000
00000100
00000000
00000010
00000000
00000001
00001000
00000000
00000000
,
00000010
00000000
00010000
00000000
00001000
00100000
00000000
00000000
00010000
00000000
01000000
00000000
00100000
00000000
00100000
00000000
,
10000000
00000000
01000000
00000000
00100000
01000000
00000000
00000000
00100000
00000000
00010000
00000000
00001000
01000000
00000000
00000000
,
00001000
00000000
00010000
00000000
00000100
00010000
00000000
00000000
00000100
00000000
00001000
00000000
00000001
00000000
00001000
00000000
,
00000100
00000000
00000010
00000000
00000001
00001000
00000000
00000000
00000001
00000000
00000100
00000000
00000010
00001000
00000000
00000000
,
00020200
00030300
02020000
03030000
,
10100000
00000000
00000000
01100000
00000000
00000000
01010000
00000000
00000000
00110000
00000000
00000000
00101000
00000000
00000000
00011000
,
00000000
00000000
00010010
00000000
00000000
00001010
00000000
00000000
00000110
00000000
00000000
00000000
00000000
00000000
00000000
00000000
,
00000101
00000000
00000000
00001100
00000000
00000000
00011000
00000000
00000000
01010000
00000000
00000000
00011000
00000000
00000000
00010100
,
00000000
00000000
00011000
00000000
00000000
01001000
00000000
00000000
00001000
00000000
00010000
00000000
01000000
00000000
10000000
00000000
,
10100000
00000000
00000000
01100000
00000000
00000000
01010000
00000000
00000000
00110000
00000000
00000000
00101000
00000000
00000000
00011000
,
00000000
00000000
00010010
00000000
00000000
00001010
00000000
00000000
00001001
00000000
00000000
00000000
00000000
00000000
00000010
00000100
,
00000010
00000000
00000000
00000011
00000000
00000000
00001010
00000000
00000000
00011000
00000000
00000000
00001010
00000000
00000000
00000001
,
00000100
00000000
00000000
00000100
00001000
00000000
00000000
00001000
00010000
00000000
00100000
00000000
10000000
00000000
00010000
00000000
,
02000000
03100000
20000000
30100000
02000000
03010000
00200000
00301000
,
00020000
00130000
00020000
00031000
00020000
00030100
00000020
00000031
,
00002000
00003001
00000020
00001030
00020000
01030000
20000000
30010000
,
02000000
00000000
03100000
00000000
20000000
00000000
30100000
00000000
00110000
00000000
00000000
00011000
00000000
00000000
00011000
00000000
,
00020000
00030100
00002000
00003001
00000200
00001300
00000200
00000301
,
00000020
00001030
00020000
00130000
20000000
30100000
00002000
00013000
,
00000020
00000000
00001030
00000000
00000002
00000000
00000103
00000000
00000001
00000100
00000001
00000100
00000010
00001000
00000100
00010000
,
00001000
00000000
00011000
00000000
00000000
01001000
00000000
00000000
00010100
00000000
00000000
00101000
00000000
00000000
00010010
00000000
,
00012000
00100000
00000000
00000010
,
00000000
00100000
00000000
00003010
,
00021000
01000000
00000000
00000100
,
00000000
01000000
00000000
00030100
,
00020000
01000000
00000100
01030000
,
00002000
00100000
00000010
00103000
,
00002000
01000000
00000100
01003000
,
00020000
00000010
00100000
00030010
,
00010000
00001000
00000010
00000000
00000001
00001000
00000010
00000000
,
00000100
00000001
00001000
00000000
00000010
00010000
00001000
00000000
,
00100000
00010000
00100000
00000000
01000000
10000000
00010000
00000000
,
01000000
00100000
10000000
00000000
01000000
00100000
00001000
00000000
,
00010000
00000100
00001000
00000000
00000001
00000100
00001000
00000000
,
00000100
00000001
00000010
00000000
00001000
00010000
01000000
00000000
,
00010000
00001000
00000100
00000000
00010000
00001000
00010000
00000000
,
02000000
03000000
00000000
00000000
00000000
00000000
00000000
00000000
00200000
00300000
00000000
00000000
00000000
00000000
00000000
00000000
20000000
30000000
00000000
00000000
00000000
00000000
00000000
00000000
02000000
03000000
00000000
00000000
20000000
30000000
00000000
00000000
02000000
03000000
00000000
00000000
00000000
00000000
00000000
00000000
00020000
00030000
00000000
00000000
00000000
00000000
00000000
00000000
00002000
00003000
00000000
00000000
00000000
00000000
00000000
00000000
00000200
00000300
00000000
00000000
00000000
00000000
00000000
00000000
,
00000010
00000000
00000001
00001000
00000000
00000010
00000100
00000000
00000001
00000000
00001000
00000010
00000000
00010000
00001000
00000000
,
00100000
00000000
00010000
10000000
00000000
00100000
01000000
00000000
00010000
00000000
10000000
01000000
10000000
01000000
10000000
00000000
,
00100000
00000000
01000000
00010000
00000000
10000000
01000000
00000000
00100000
00000000
00001000
00010000
00000000
00001000
00100000
00000000
,
00001000
00000000
00010000
00000010
00000000
00001000
00000010
00000000
00001000
00000000
00000001
00000100
00000001
00000100
00000010
00000000
,
00001000
00000000
00000001
00000010
00000000
00000100
00000010
00000000
00000001
00000000
00001000
00000100
00000000
00000010
00000100
00000000
,
00010000
00000000
00001000
00100000
00000000
00001000
00010000
00000000
00001000
00000000
00100000
00010000
00100000
00010000
00100000
00000000
,
00001000
00000000
00100000
00010000
00000000
10000000
00010000
00000000
01000000
00000000
00100000
10000000
00000000
00100000
01000000
00000000
,
00010000
00010000
10000000
10000000
00100000
00100000
01000000
01000000
,
00010000
00000000
10000000
00100000
01000000
00000000
00010000
00000000
00100000
00000000
00001000
00010000
00001000
00000000
00100000
00000000
,
00001000
00000000
00010000
00000010
00001000
00000000
00000001
00000000
00001000
00000100
00001000
00000000
00001000
00000100
00001000
00000000
,
00000001
00000000
00000100
00000010
00001000
00000000
00000001
00000000
00000010
00000000
00000100
00000010
00000001
00000000
00001000
00000000
,
00000010
00000000
00010000
00001000
00100000
00000000
00010000
00000000
10000000
00100000
01000000
00000000
01000000
00100000
10000000
00000000
,
00010000
00000000
10000000
01000000
00100000
00000000
01000000
00000000
00010000
00000000
01000000
00100000
00001000
00000000
00010000
00000000
,
00000100
00000000
00001000
00000100
00000010
00000000
00000001
00000000
00001000
00000010
00000100
00000000
00000100
00000001
00000010
00000000
,
00000010
00000010
00001000
00001000
00010000
00010000
00100000
00100000
,
02200000
03300000
00022000
00033000
,
00000011
00000000
00000000
00000110
00000000
00000000
00001100
00000000
00000000
00001010
00000000
00000000
00010010
00000000
00000000
00011000
,
00000000
00000000
00101000
00000000
00000000
00110000
00000000
00000000
01100000
00000000
00000000
00000000
00000000
00000000
00000000
00000000
,
11000000
00000000
00000000
01010000
00000000
00000000
00011000
00000000
00000000
00001100
00000000
00000000
00011000
00000000
00000000
01001000
,
00000000
00000000
00011000
00000000
00000000
00010100
00000000
00000000
00010000
00000000
00001000
00000000
00000100
00000000
00000001
00000000
,
00000011
00000000
00000000
00000110
00000000
00000000
00001100
00000000
00000000
00001010
00000000
00000000
00010010
00000000
00000000
00011000
,
00000000
00000000
00101000
00000000
00000000
00110000
00000000
00000000
10010000
00000000
00000000
00000000
00000000
00000000
00100000
01000000
,
00100000
00000000
00000000
10100000
00000000
00000000
00110000
00000000
00000000
00011000
00000000
00000000
00110000
00000000
00000000
10000000
,
01000000
00000000
00100000
00000000
00001000
00000000
00010000
00000000
00000010
00000000
00001000
00000001
00000100
00000000
00000010
00000100
,
00000010
00000000
00000000
00000000
;

//--------------- dance-double - Fred-104 ----------------
#NOTEDATA:;
#STEPSTYPE:dance-double;
#DESCRIPTION:Fred-104;
#DIFFICULTY:Challenge;
#METER:17;
#CREDIT:Fred-104;
#NOTES:
00000000
00000000
00000000
00000000
,
00000000
00000000
00000000
00000000
,
00000000
00000000
00000000
00000000
,
00000000
00000000
00000000
00000000
,
MMMM2000
00003000
00000000
00000000
00000000
00000000
00000000
00000000
0002MMMM
00030000
00000000
00000000
00000000
00000000
00000000
00000000
0020MMMM
00300000
00000000
00000000
00000000
00000000
00000000
00000000
0200MMMM
03000000
00000000
00000000
2000MMMM
30000000
00000000
00000000
0200MMMM
03000000
00000000
00000000
00000000
00000000
00000000
00000000
0002MMMM
00030000
00000000
00000000
00000000
00000000
00000000
00000000
MMMM2000
00003000
00000000
00000000
00000000
00000000
00000000
00000000
MMMM0200
00000300
00000000
00000000
00000000
00000000
00000000
00000000
,
00000010
00000000
00000001
00000000
00001000
00000010
00000100
00000000
00000001
00000000
00000100
00000000
00001000
00010000
00001000
00000000
,
00010000
00000000
00100000
00000000
10000000
00100000
01000000
00000000
00100000
00000000
00010000
10000000
00010000
00000000
01000000
00000000
,
00100000
00000000
10000000
00000000
00100000
10000000
01000000
00000000
00100000
00000000
00001000
00000000
00010000
00000010
00001000
00000000
,
00000010
00000000
00001000
00000000
00000001
00000010
00000100
00000000
00001000
00000000
00000001
00001000
00000001
00000100
00000010
00000000
,
00001000
00000000
00000100
00000000
00000010
00000001
00001000
00000000
00000010
00000000
00010000
00000000
00001000
01000000
00010000
00000000
,
00100000
00000000
01000000
00000000
10000000
00010000
01000000
00000000
00100000
00000000
01000000
00010000
00100000
00000000
00001000
00000000
,
00010000
00000000
00001000
00000000
01000000
00001000
00010000
00000000
00000100
00000000
00001000
00000000
00000001
00000100
00000010
00000000
,
00010000
00000000
00000000
00000000
00000000
00000000
00000000
00000000
00001000
00000000
00000000
00000000
00000000
00000000
00000000
00000000
00000100
00000000
00000000
00000000
00000000
00000000
00000000
00000000
00000010
00000000
00000000
00000000
00000100
00000000
00000000
00000000
MMMM0020
00000030
00000000
00000000
00000000
00000000
00000000
00000000
0002MMMM
00030000
00000000
00000000
00000000
00000000
00000000
00000000
MMMM2000
00003000
00000000
00000000
00000000
00000000
00000000
00000000
0200MMMM
03000000
00000000
00000000
00000000
00000000
00000000
00000000
,
00010000
00000000
10000000
00000000
00100000
10000000
01000000
00000000
01100000
00000000
00100000
00000000
00001000
00010000
00000100
00000000
,
00001000
00000000
00000100
00000000
00000010
00000001
00001000
00000000
00000001
00000100
00001000
00000000
00001000
00000100
00000001
00000000
,
00001000
00000000
00000010
00000000
00000100
00000001
00000010
00000000
00000110
00000000
00000100
00000000
00010000
00001000
01000000
00000000
,
00100000
10000000
01000000
00000000
00100000
00010000
01000000
00000000
00100000
10000000
00100000
01000000
00010000
00100000
01000000
00000000
,
00001000
00000000
00100000
00000000
00001000
00010000
00000010
00000000
00010000
00000000
00001000
00000000
00000100
00000001
00001000
00000000
,
00000001
00000100
00000010
00000000
00001000
00000001
00000010
00000000
00000100
00001000
00000100
00000000
00010000
00000000
00001000
00000000
,
00011000
00100000
01000000
00010000
10010000
01000000
00100000
00001000
,
00011000
MMMMMMMM
01010000
MMMMMMMM
,
11000000
00000000
00000000
01010000
00000000
00000000
00011000
00000000
00000000
00001100
00000000
00000000
00000101
00000000
00000000
00001100
,
00000000
00000000
00011000
00000000
00000000
01010000
00000000
00000000
11000000
00000000
00000000
00000000
MMMMMMMM
00000000
00000000
00000000
,
10100000
00000000
00000000
00110000
00000000
00000000
00011000
00000000
00000000
00001010
00000000
00000000
00000011
00000000
00000000
00001010
,
00000000
00000000
00011000
00000000
00000000
00110000
00000000
00000000
10100000
00000000
00100000
00000000
01000000
00000000
00010000
00000000
,
00110000
00000000
00000000
01010000
00000000
00000000
00011000
00000000
00000000
00001100
00000000
00000000
00001010
00000000
00000000
00010010
,
00000000
00000000
00010100
00000000
00000000
01001000
00000000
00000000
00011000
00000000
00000000
00000000
MMMMMMMM
00000000
00001000
00000100
,
00001100
00000000
00000000
00000101
00000000
00000000
00001100
00000000
00000000
00011000
00000000
00000000
00110000
00000000
00000000
10000000
,
00100000
00000000
00000000
00010000
00001000
00000000
00000000
00010000
00100000
00000000
10000000
00000000
00100000
00000000
01000000
00000000
,
00010000
10000000
01000000
00000000
00100000
00010000
00100000
00000000
01000000
00001000
00010000
00000000
00000100
00001000
00000001
00000000
,
00001000
00000100
00000010
00000000
00000001
00001000
00000010
00000000
00010000
00001000
00010000
00000000
00000010
00001000
00000100
00000000
,
00010000
00000010
00000100
00000000
00000010
00001000
00000001
00000000
00000100
00000010
00001000
00000000
00000001
00000100
00001000
00000000
,
00010000
01000000
10000000
00000000
00010000
01000000
00100000
00000000
10100000
00000000
00000000
01010000
00000000
00000000
11000000
00000000
,
00100000
10000000
01000000
00100000
00010000
00000000
01000000
00000000
00001000
00010000
00000010
00001000
00000010
00000000
00000100
00000000
,
00000001
00000100
00001000
00000100
00000001
00000000
00000100
00000000
00000010
00001000
00000100
00010000
00000100
00000000
00010000
00000000
,
00001000
00100000
00010000
00000000
10000000
00100000
01000000
00000000
00010000
00100000
01000000
10000000
00100000
01000000
00001000
00010000
,
00001000
00000000
00101000
00000000
00000000
00010010
00000000
00000000
01001000
00000000
00000000
00010100
00000000
00000000
00011000
00000000
,
00011000
01000000
MMMMMMMM
10000000
,
00100000
00010000
MMMMMMMM
00001000
,
00000010
00000001
MMMMMMMM
00000100
,
00001000
00010000
MMMMMMMM
00100000
,
10000000
01000000
MMMMMMMM
00010000
,
00001000
00000010
MMMMMMMM
00000001
,
00000100
00001000
MMMMMMMM
00010000
,
00100000
10000000
MMMMMMMM
01000000
,
00010000
00000000
00000000
00010000
01000000
00000000
00000000
01000000
10000000
00000000
00000000
10000000
00100000
00000000
00000000
00100000
,
01000000
00000000
00000000
01000000
00010000
00000000
00000000
00010000
00001000
00000000
00000000
00001000
00000100
00000000
00000000
00000100
,
00000010
00000000
00000000
00000010
00000001
00000000
00000000
00000001
00000100
00000000
00000000
00000100
00001000
00000000
00000000
00001000
,
01000000
00000000
00000000
01000000
10000000
00000000
00000000
10000000
00100000
00000000
00000000
00100000
01000000
00000000
00000000
01000000
,
00010000
10000000
01000000
00000000
00100000
00001000
00010000
00010000
,
00001000
00000100
00000001
00000000
00001000
00000010
00000001
00000010
,
00001000
00010000
00001000
00000000
00001000
00010000
00000100
00001000
,
MMMM0020
00000030
00000000
00000000
00000000
00000000
00000000
00000000
MMMM0200
00000300
00000000
00000000
00000000
00000000
00000000
00000000
MMMM0002
00000003
00000000
00000000
00000000
00000000
00000000
00000000
MMMM0020
00000030
00000000
00000000
MMMM0200
00000300
00000000
00000000
MMMM2000
00003000
00000000
00000000
00000000
00000000
00000000
00000000
0002MMMM
00030000
00000000
00000000
00000000
00000000
00000000
00000000
MMMM2000
00003000
00000000
00000000
00000000
00000000
00000000
00000000
0002MMMM
00030000
00000000
00000000
00000000
00000000
00000000
00000000
,
00001000
00000000
00100000
00010000
00000000
00100000
01000000
00000000
00100000
00000000
10000000
01000000
00000000
01000000
00010000
00000000
,
00100000
00000000
00001000
00010000
00000000
00000010
00001000
00000000
00000001
00000000
00001000
00000100
00000010
00000001
00001000
00000010
,
00010000
00000000
00000100
00010000
00000000
00000010
00010000
00000000
00001000
00000000
01000000
00001000
00000000
00100000
00001000
00000000
,
00010000
00000000
00001000
00010000
00000000
00010000
00100000
00000000
01000000
00000000
00010000
01000000
00100000
10000000
00010000
01000000
,
01000000
00000000
00100000
10000000
00000000
01000000
00100000
00000000
00001000
00000000
00010000
00001000
00000000
00000100
00000010
00000000
,
00001000
00000000
00000001
00000010
00000000
00000100
00000010
00000000
00000001
00000000
00001000
00000100
00000010
00000100
00001000
00000001
,
00000100
00000000
00000010
00000001
00000010
00000100
00000010
00000000
00001000
00000000
00000100
00010000
00001000
00010000
00100000
00000000
,
01000000
11000000
00100000
00110000
00001000
00101000
00010000
00010010
,
00001000
00000000
00000100
00000010
00000001
00001000
00000010
00000000
00000100
00000001
00001000
00000100
00000010
00000000
00000100
00000000
,
00000001
00000000
00000100
00000010
00001000
00000100
00010000
00000000
00001000
00100000
00001000
00010000
00001000
00100000
00010000
00000000
,
01000000
00000000
00100000
10000000
00010000
00100000
01000000
00000000
00100000
00000000
00010000
10000000
01000000
10000000
00100000
00000000
,
10000000
00000000
01000000
00100000
00010000
00100000
00001000
00000000
00010000
00000010
00001000
00000010
00001000
00000010
00000100
00000001
,
00001000
00000000
00000001
00000010
00000100
00001000
00000010
00000000
00000100
00000001
00001000
00000100
00000010
00000000
00010000
00000000
,
00001000
00000000
00100000
00001000
00010000
00010000
00100000
00000000
00100000
00001000
00100000
00010000
01000000
00100000
10000000
00010000
,
00010000
00000000
10000000
01000000
00010000
00000000
00010000
00001000
00010000
00000000
00001000
00000010
00000001
00000000
00001000
00000000
,
00001001
MMMMMMMM
MMMMMMMM
00000000
00011000
MMMMMMMM
MMMMMMMM
00000000
,
00000101
00000000
00000000
00001100
00000000
00000000
00011000
00000000
00000000
01010000
00000000
00000000
11000000
00000000
00000000
01010000
,
00000000
00000000
00011000
00000000
00000000
00001100
00000000
00000000
00000101
00000000
00000000
00000000
MMMMMMMM
00000000
00000000
00000000
,
00000011
00000000
00000000
00001010
00000000
00000000
00011000
00000000
00000000
00110000
00000000
00000000
10100000
00000000
00000000
00110000
,
00000000
00000000
00011000
00000000
00000000
00001010
00000000
00000000
00000011
00000000
00000010
00000000
00000100
00000000
00001000
00000000
,
00001010
00000000
00000000
00001100
00000000
00000000
00011000
00000000
00000000
01010000
00000000
00000000
00110000
00000000
00000000
00101000
,
00000000
00000000
01001000
00000000
00000000
00010100
00000000
00000000
00011000
00000000
00000000
00000000
MMMMMMMM
00000000
00010000
01000000
,
01010000
00000000
00000000
11000000
00000000
00000000
01010000
00000000
00000000
00011000
00000000
00000000
00001010
00000000
00000000
00000001
,
00000010
00000000
00000000
00000000
00000000
00000000
00000100
00000000
00000000
00000000
00000000
00000000
00000001
00000000
00000000
00000000
00000000
00000000
00001000
00000000
00000000
00000000
00000000
00000000
MMMM0100
00000000
00000000
00000000
00000000
00000000
00010000
00000000
00001000
00000000
00100000
00000000
00010000
00000000
00000000
00000000
00000000
00000000
01000000
00000000
00000000
00100000
00000000
00000000
,
01100000
00000000
00000000
00000000
;
