#TITLE:CODE\:1;
#ARTIST:HEXA;
#GENRE:TECHNO;
#BANNER:CODE 1.png;
#BACKGROUND:CODE 1-bg.png;
#CDTITLE:./CDTitles/RB VOLZZA.png;
#MUSIC:CODE 1.ogg;
#SAMPLESTART:21.517;
#SAMPLELENGTH:15;
#BPMS:0=145;
#STAGE:27;

//--------------- dance-single - Fred-104 ----------------
#NOTES:
     dance-single:
     Fred-104:
     Beginner:
     2:
     :
0000
0000
0000
0000
,
0000
0000
0000
0000
,
0000
0000
0000
0000
,
0000
0000
0000
0000
,
0000
0000
0000
0000
,
1000
0000
0000
0000
,
1000
0000
0000
0000
,
0001
0000
0000
0000
,
0001
0000
0000
0000
,
0100
0000
0000
0000
,
0100
0000
0000
0000
,
0010
0000
0000
0000
,
0010
0000
0010
0010
,
0010
0000
0000
0000
,
1000
0000
0000
0000
,
0001
0000
0000
0000
,
1000
0000
0000
0000
,
0001
0000
0000
0000
,
0100
0000
0000
0000
,
0001
0000
0000
0000
,
1000
0000
0001
0000
,
1001
0000
0000
0000
,
0100
0000
0000
0000
,
0100
0000
0000
0000
,
0010
0000
0000
0000
,
0010
0000
0000
0000
,
0001
0000
0000
0000
,
1000
0000
1000
0000
,
1000
0000
1000
0000
,
1001
0000
0000
0000
,
0000
0000
0000
0000
,
0000
0000
0000
0000
,
0000
0000
0000
0000
,
0100
0000
0000
0000
,
0010
0000
0000
0000
,
0010
0000
0000
0000
,
0001
0000
1000
0000
,
1000
0000
0000
0000
,
0100
0000
0000
0000
,
1000
0000
0000
0000
,
1000
0000
0000
0000
,
0001
0000
0000
0000
,
1000
0000
0000
0000
,
0001
0000
0100
0000
,
0100
0000
0100
0100
,
0100
0000
0010
0000
,
0010
0000
0010
0000
,
1000
0000
1000
0000
,
0001
0000
1000
0000
,
0001
0000
0001
0000
,
1000
0000
0001
0000
,
0100
0000
0100
0000
,
0100
0000
0200
0300
,
0001
0000
0000
1000
,
1000
0000
0000
0010
,
0010
0000
0000
0100
,
0100
0000
0002
0003
,
0001
0000
0100
0000
,
0001
0000
0001
0000
,
1000
0000
0100
0000
,
1000
0000
0010
0000
,
1000
0000
0000
0000
,
0001
0000
0000
0000
,
0100
0000
0000
0000
,
0010
0000
0000
0000
,
1000
0000
0000
0000
,
0001
0000
0000
0000
,
1000
0000
0000
0000
,
0001
0001
0001
0001
,
1001
0000
0000
0000
;

//--------------- dance-single - Fred-104 ----------------
#NOTES:
     dance-single:
     Fred-104:
     Easy:
     7:
     :
0000
0000
0000
0000
,
0000
0000
0000
0000
,
0000
0000
0000
0000
,
0000
0000
0000
0000
,
0000
0000
0000
0000
,
1000
1000
0010
0100
,
0001
0001
0020
0030
,
0100
0100
0010
1000
,
0001
0000
0100
0000
0010
0100
0010
0100
,
0010
1000
1000
0100
,
1000
0001
0200
0300
,
0010
1000
1000
0001
,
1000
0010
0200
0320
,
1030
0100
1000
0001
,
0100
0001
0010
0010
,
0100
0010
0010
0001
,
1000
0001
2002
3003
,
0100
0100
0010
0001
,
1000
0010
1000
0100
,
0100
1000
0001
0100
,
0020
0000
0230
0000
,
0301
0010
0001
0001
,
1000
0100
0100
1000
,
0001
0100
0100
0010
,
1000
0001
1000
1000
,
1001
0100
0100
0000
,
1001
0010
0010
0000
,
1001
0000
0110
0000
,
2000
3002
0203
0320
,
2030
0000
0000
3000
,
0200
0000
0000
0300
,
0002
0000
0000
0003
,
0020
0000
0000
0030
,
1000
0000
0100
0000
,
0010
0000
0001
0000
,
0100
0000
0010
0000
,
1000
0000
0001
0000
,
0100
0100
0000
0010
,
0010
0001
0000
0001
,
0100
0001
0000
0100
,
0010
0010
0000
0100
,
1000
0100
0100
0001
,
1000
0010
0010
0100
,
0001
0010
0100
1000
,
0001
0100
0020
2030
,
3001
0010
0001
1000
,
0100
0100
1000
0010
,
0100
0001
1000
0010
,
1000
0000
0100
0000
1000
0001
1000
0001
,
1000
0100
0100
0010
,
0100
1000
0001
1000
,
0100
0010
0001
0010
,
0100
0000
1000
0000
0002
0000
2003
3000
,
0001
0000
0010
0000
0001
0100
0001
0000
,
1000
0000
0010
0000
1000
0100
1000
0000
,
0001
0000
0100
0000
0010
0100
0010
0000
,
1000
0000
0000
0000
0001
0000
0000
0000
0100
0000
0000
0100
0000
0000
0100
0000
,
0010
0000
1000
0000
0001
0100
0001
0000
,
1001
0000
0100
0000
0100
0010
0100
0000
,
0110
0100
0110
0010
,
1000
0010
1000
0000
0001
0010
0001
0000
,
1000
0100
1000
1000
,
0010
1000
0001
0000
,
0100
0100
0010
1000
,
0001
0010
1001
0000
,
0200
0300
0020
0030
,
2000
3000
0002
0003
,
2000
3000
0002
0003
,
0100
0000
0010
0000
0100
0010
0100
0000
,
1001
0000
0000
0000
;

//--------------- dance-single - Fred-104 ----------------
#NOTES:
     dance-single:
     Fred-104:
     Medium:
     10:
     :
0000
0000
0000
0000
,
0000
0000
0000
0000
,
0000
0000
0000
0000
,
0000
0000
0000
0000
,
0000
0000
0000
0000
,
1000
0000
0000
1000
0000
0000
0100
0000
0010
0000
0000
0010
0000
0000
0001
0000
,
0100
0000
0000
0010
0000
0000
0100
0000
0001
0000
0000
1000
0000
0000
0001
0000
,
0010
0000
0000
0010
0000
0000
0001
0000
1000
0000
0000
1000
0000
0000
0010
0000
,
0100
0000
0000
0100
0000
0000
0001
0000
1000
0000
0001
0000
1000
0000
0001
0000
,
0100
0000
0000
0100
0000
0000
0010
0000
1000
0000
0000
1000
0000
0000
0001
0000
,
0010
0000
0000
0010
0000
0000
0100
0000
0010
0000
0000
0010
0000
0000
0001
0000
,
1000
0000
0000
0100
0000
0000
1000
0000
0001
0000
0000
0100
0000
0000
0010
0000
,
1000
0100
0010
0001
2000
3020
0230
0302
,
1003
0000
0000
0100
0000
0000
0010
0000
0001
0000
0000
0010
0000
0000
0100
0000
,
0010
0000
0000
1000
0000
0000
0010
0000
0100
0000
0000
0001
0000
0000
1000
0000
,
0100
0000
0000
0001
0000
0000
0100
0000
1000
0000
0000
0010
0000
0000
0100
0000
,
0001
0000
0000
0010
0000
0000
1000
0000
0010
0000
0001
0000
1000
0000
0010
0000
,
0100
0000
0000
0001
0000
0000
0100
0000
0010
0000
0000
1000
0000
0000
0100
0000
,
0010
0000
0000
0100
0000
0000
1000
0000
0001
0000
0000
0100
0000
0000
1000
0000
,
0100
0000
0000
0001
0000
0000
0100
0000
0010
0000
0000
1000
0000
0000
0001
0000
,
2002
0000
0000
3003
0100
0010
1000
0001
,
1000
0000
0000
0100
0000
0000
0100
0000
0010
0000
0000
0001
0000
0000
1000
0000
,
0001
0000
0000
0010
0000
0000
0100
0000
1000
0000
0000
0100
0000
0000
0001
0000
,
1000
0000
0000
0100
0000
0000
0010
0000
1000
0000
0000
0001
0000
0000
0100
0000
,
0010
0000
0000
0001
0000
0000
1000
0000
0001
0000
0100
0000
0010
0000
0010
0000
,
1000
0000
0000
0100
0000
0000
0100
0000
0010
0000
0001
0000
1000
0000
0010
0000
,
0100
0000
0000
0100
0000
0000
0001
0000
1000
0000
0001
0000
0010
0000
0100
0000
,
1000
0000
0000
1100
0000
0000
0010
0000
0001
0000
0000
0101
0000
0000
0010
0000
,
2000
3100
0002
0103
1000
0010
0100
0001
,
2000
0000
0000
0000
,
3002
0000
0000
0000
,
0023
0000
0000
0000
,
0230
0000
0000
0000
,
1300
0000
0000
0010
0000
0000
0000
0000
0100
0000
0000
0001
0000
0000
0000
0000
,
0100
0000
0000
0010
0000
0000
0000
0000
0100
0000
0000
1000
0000
0000
0000
0000
,
0001
0000
0000
0010
0000
0000
0000
0000
0100
0000
0000
0010
0000
0000
0000
0000
,
0001
0000
0000
1000
0000
0000
0000
0000
0010
0000
0000
0100
0000
0000
0000
0000
,
0001
0000
0000
0010
0000
0000
0010
0000
0100
0000
0000
1000
0000
0000
1000
0000
,
0010
0000
0000
1000
0000
0000
0100
0000
0010
0000
0000
0001
0000
0000
0100
0000
,
0001
0000
0000
0010
0000
0000
0100
0000
1000
0000
0000
0010
0000
0000
0100
0000
,
0001
0000
0000
1000
0000
0000
0100
0000
0001
0000
0000
0100
0000
0000
1000
0000
,
0010
0000
0000
1000
0000
0000
0100
0000
0010
0000
0100
0000
0010
0000
0000
0000
,
0001
0000
0000
1000
0000
0000
0100
0000
1000
0000
0010
0000
0100
0000
0000
0000
,
0001
0000
0000
0100
0000
0000
1000
0000
0001
0000
0000
0010
0000
0000
1000
0000
,
0001
0100
0010
1000
0002
0023
0230
2300
,
3001
0100
0001
1000
0100
0010
0001
0000
,
1000
0100
1000
0010
0100
0010
0001
0000
,
0010
1000
0001
0100
0010
1000
0001
0000
,
1000
0000
0000
1000
0001
0000
0000
0001
0100
0000
0010
0000
0100
0000
0010
0000
,
1000
0010
1000
0100
0010
0001
1000
0000
,
0001
0010
0100
0010
0001
1000
0010
0000
,
0100
0001
1000
0100
0001
0100
0010
0010
,
0100
0000
0000
0100
0010
0000
0000
0010
1000
0000
0000
1000
0002
0000
0003
0000
,
1000
0100
1000
0010
0010
1000
0100
0000
,
0010
0010
0001
1000
0001
0100
0010
0000
,
0100
0100
0001
1000
0100
0010
0001
0000
,
1000
0000
1000
0000
0010
0000
0100
0000
0001
0000
0000
1000
0000
0000
0001
0000
,
0100
0000
0000
0010
0000
0000
0001
0000
1000
0000
0100
0000
0010
0000
0100
0000
,
1000
0000
0000
0010
0000
0000
0100
0000
0001
0000
0100
0000
0010
0000
0100
0000
,
0001
0000
0000
0010
0000
0000
1000
0000
0010
0000
0001
0000
1000
0000
0010
0000
,
0100
0010
0100
0010
1000
0001
1000
0001
,
1000
0000
0000
0100
0000
0000
0100
0000
0010
0000
0000
0001
0000
0000
1000
0000
,
0010
0000
0000
0100
0000
0000
0001
0000
1000
0000
0000
0100
0000
0000
0010
0000
,
0100
0000
0000
0001
0000
0000
1000
0000
0001
0000
0000
0010
0000
0000
0100
0000
,
1000
0000
0000
0001
0000
0000
0100
0000
0010
0000
0000
1000
0000
0000
0001
0000
,
1001
0000
0100
0010
,
0011
0000
0100
0010
,
1010
0000
0100
0010
,
0002
0103
2000
3100
0001
0010
0100
1000
,
1001
0000
0000
0000
;

//--------------- dance-single - Fred-104 ----------------
#NOTES:
     dance-single:
     Fred-104:
     Hard:
     14:
     :
0000
0000
0000
0000
,
0000
0000
0000
0000
,
0000
0000
0000
0000
,
0000
0000
0000
0000
,
0000
0000
0000
0000
,
0001
0000
0000
0001
0100
0000
0010
0000
1000
0000
0000
1000
0010
0000
0100
0000
,
0010
0000
0000
0010
1000
0000
0100
0000
0010
0000
0000
0010
0001
0000
1000
0000
,
0001
0000
0000
0001
0100
0000
1000
0000
0100
0000
0000
0100
0001
0000
1000
0000
,
0001
0000
0000
0001
0010
0000
1000
0000
0010
0000
0010
0000
0100
0000
0100
0000
,
0001
0000
0000
0100
0010
0000
1000
0000
0100
0000
0000
0010
0100
0000
1000
0000
,
0001
0000
0000
1000
0100
0000
0100
0000
0001
0000
0000
1000
0100
0000
0100
0000
,
0001
0000
0000
0100
1000
0000
1000
0000
0001
0000
0000
0100
0010
0000
1000
0000
,
0001
0000
0001
0000
1000
0000
0010
0100
0002
0003
0200
0300
2000
3000
0200
0300
,
0001
0000
0000
0001
0100
0000
0010
1000
0010
0000
0000
1000
0100
0000
0010
0100
,
0010
0000
0000
0010
0001
0000
1000
0001
0100
0000
0000
0100
0010
0000
1000
0100
,
0010
0000
0000
0010
1000
0000
0010
0001
0010
0000
0000
0100
0010
0000
1000
0001
,
0100
0000
0000
0100
1000
0000
0100
0001
0100
0000
0010
0100
0000
0100
0010
0000
,
0001
0000
0100
0001
0000
1000
0100
0000
0010
0000
0100
0010
0000
0010
0100
0000
,
0001
0000
1000
0010
0000
0100
0010
0000
1000
0000
0001
0100
0000
0100
0001
0000
,
1000
0000
0001
0010
0000
0100
1000
0000
0001
0000
0100
0010
0000
0010
1000
0000
,
2002
0000
0000
0000
0000
0000
3003
0000
0100
0010
0100
0010
0100
0000
0100
0000
,
0001
0000
0100
0001
0100
0000
0010
1000
0010
0000
1000
0100
1000
0000
0100
0000
,
0010
0000
0100
0010
0100
0000
0001
0010
0001
0000
1000
0010
1000
0000
0001
0000
,
0100
0000
0001
1000
0001
0000
1000
0100
1000
0000
0001
0010
0001
0000
0100
0000
,
0010
0000
0100
0010
0100
0000
0010
1000
0001
0000
0100
0000
0110
0000
0010
0000
,
1000
0000
0010
1000
0000
0001
1000
0000
0100
0000
0010
0001
1000
0000
1100
0000
,
0100
0000
0010
0100
0000
1000
0001
0000
0100
0000
0010
0000
0011
0000
0001
1000
,
0001
0000
0000
0101
0000
0000
0101
0000
0010
0000
0000
1010
0000
0000
1000
0001
,
0200
0310
2000
3000
0200
0310
0002
0003
2000
3001
0200
0300
0001
0000
2000
3100
,
0020
0000
0000
0000
,
0032
0000
0000
0000
,
2003
0000
0000
0000
,
3200
0000
0000
0300
,
0010
0000
0000
0001
0000
0000
0000
0000
0000
0000
0000
0100
0000
0000
0010
0000
,
0001
0000
0000
0100
0000
0000
0000
0000
0000
0000
0000
1000
0000
0000
0100
0000
,
0010
0000
0000
0100
0000
0000
0000
0000
0000
0000
0000
0010
0000
0000
0001
0000
,
0100
0000
0000
0010
0000
0000
0000
0000
0000
0000
0000
1000
0000
0000
0001
0000
,
1000
0000
0000
1000
0000
0000
0100
0000
0010
0000
0000
0010
0000
0000
0001
0000
,
0100
0000
0000
0010
0000
0000
0010
0000
1000
0000
0000
0100
0000
0000
0100
0000
,
1000
0000
0000
0100
0000
0000
0010
0000
1000
0000
0000
0100
0000
0000
0010
0000
,
0001
0000
0000
0100
0000
0000
0010
0000
0001
0000
0000
0100
0000
0000
0010
0000
,
1000
0000
0010
1000
0000
0001
0100
0000
0010
0000
0000
0100
0000
0000
0100
0000
,
0001
0000
1000
0100
0000
0001
0100
0000
1000
0000
0000
0010
0000
0000
0010
0000
,
0100
0000
0001
0100
0000
0010
0100
0000
1000
0000
0100
0010
0000
0100
0001
0000
,
1000
0000
0010
0100
0000
0100
0010
0000
2000
3000
0020
0030
0200
0300
0002
0003
,
1000
0000
0000
1000
0100
0000
0000
0100
0010
0000
0000
0010
0001
0000
0001
0100
,
0001
0000
0000
0001
0100
0000
0000
0100
1000
0000
0000
1000
0100
0000
0100
0001
,
0010
0000
0000
0010
0100
0000
0000
0100
1000
0000
0000
1000
0010
0000
0010
0001
,
1000
0000
0000
1000
0001
0000
0000
0001
0100
0000
0100
0000
0010
0000
0010
0000
,
1000
0000
0000
1000
0100
0000
0000
0100
0001
0000
0000
0001
1000
0000
0001
0100
,
0001
0000
0000
0001
0100
0000
0000
0100
1000
0000
0000
1000
0001
0000
0100
0010
,
0100
0000
0000
0100
0010
0000
0000
0010
1000
0000
0000
1000
0001
0000
1000
0001
,
0100
0000
0000
1000
0100
0000
0000
0001
0100
0000
0000
1000
0020
0000
0030
0000
,
1000
0000
0001
0100
0010
1000
0000
0000
0010
0000
0100
0010
0000
0100
0010
0000
,
1000
0000
0010
1000
0100
1000
0000
0000
0001
0000
0100
0010
0000
0100
0001
0000
,
1000
0000
0001
0100
0001
0010
0000
0000
0100
0000
0010
1000
0000
0010
0001
0000
,
1000
0000
0100
1000
0100
0010
0000
0000
1010
0000
0000
0011
0000
0000
1001
0000
,
0100
0000
0001
0100
0001
0100
0000
0010
1000
0000
0001
1000
0000
0100
1000
0000
,
0010
0000
1000
0100
0010
0100
0000
0010
0100
0000
0001
1000
0000
0001
0010
0000
,
0001
0100
1000
0010
0100
0001
1000
0010
,
0100
0010
0100
0000
0001
1000
0001
0000
1000
0100
0010
0001
0010
0100
1000
0000
,
0001
0000
0000
0100
0000
0000
0010
0000
1000
0000
0100
0010
0000
0001
0010
0000
,
1000
0000
0000
0010
0000
0000
0100
0000
0001
0000
0100
1000
0000
0100
0010
0000
,
0100
0000
0000
0001
0000
0000
1000
0000
0001
0000
1000
0001
0000
0100
0010
0000
,
1000
0000
0000
0100
0000
0000
0001
0000
1000
0000
0100
0010
0000
0100
1000
0000
,
0001
0000
0000
0010
0000
0000
0000
0000
0000
0000
0000
0100
0000
0000
0010
0000
,
1000
0000
0000
0100
0000
0000
0000
0000
0000
0000
0000
0001
0000
0000
0010
0000
,
0100
0000
0000
0010
0000
0000
0000
0000
0000
0000
0000
0001
0000
0000
0100
0000
,
0010
1000
0200
0000
0310
0001
0200
0000
0310
1000
0001
0100
0010
1000
0001
0000
,
1001
0000
0000
0000
;

//--------------- dance-single - Fred-104 ----------------
#NOTES:
     dance-single:
     Fred-104:
     Challenge:
     16:
     :
0000
0000
0000
0000
,
0000
0000
0000
0000
,
0000
0000
0000
0000
,
0000
0000
0000
0000
,
0000
0000
0000
0000
1000
0001
1001
MMMM
,
1000
0000
0010
1000
0000
0100
1000
0000
0001
0000
0100
0010
0000
0100
0001
0000
,
1000
0000
0001
0100
0000
1000
0100
0000
0001
0000
1000
0100
0000
0010
0100
0000
,
1000
0000
0001
0010
0000
0100
0010
0000
0001
0000
1000
0010
0000
0100
0010
0000
,
1000
0000
0010
0100
0000
0010
1000
0000
1010
0000
1010
0000
0101
0000
0101
0000
,
0001
0000
1000
0100
0000
1000
0001
0000
0100
0000
0010
1000
0000
0010
0100
0000
,
0010
0000
0001
0010
0000
1000
0010
0000
0001
0000
0100
0010
0000
0010
1000
0000
,
0001
0000
0100
0010
0000
0001
1000
0000
0100
0000
0010
1000
0000
0001
1000
0000
,
0001
0000
1000
0000
0010
0000
0100
0010
0200
0300
0020
0030
1001
0000
MMMM
0000
,
1000
0000
0010
1000
0000
0100
1000
0000
0001
0000
1000
0100
0000
0010
0100
0000
,
1000
0000
0001
0100
0000
0010
0100
0000
0001
0000
0010
0100
1000
0000
0010
0100
,
0001
0000
1000
0010
0000
0100
0010
0000
1000
0000
0001
0100
0000
1000
0100
0000
,
0010
0000
0100
0001
0000
1000
0001
0000
0010
0000
0100
1000
0100
1000
0001
0000
,
0100
0000
0010
1000
0000
0010
0100
0000
0001
0000
0010
0100
0000
1000
0001
0000
,
0100
0000
0001
0100
0000
0001
0010
0000
0100
0000
1000
0001
0000
1000
0100
0010
,
0001
0000
0100
0010
0000
1000
0010
0000
0100
0000
0001
0010
0000
0100
1000
0000
,
2002
0000
0000
0000
0000
0000
3003
0000
1000
0100
0010
0001
0010
0100
1000
0000
,
0001
0000
0100
0001
1000
0000
0100
1000
0001
0000
1000
0100
0010
0000
0001
1000
,
0010
0000
0100
0001
1000
0000
0001
0010
0100
0000
0010
0001
1000
0000
0010
1000
,
0100
0000
0001
0100
1000
0000
0010
1000
0100
0000
0001
0100
1000
0000
0010
1000
,
0100
0000
0010
0001
1000
0000
0001
0100
0010
0000
0100
0010
1000
0001
0010
0000
,
0100
1000
0100
0010
0000
0001
1000
0000
0010
0000
0100
0001
0010
0000
0110
0000
,
0100
1000
0001
0100
0000
0100
0010
0000
1000
0000
0010
1000
0100
0000
0110
0000
,
0010
0001
1000
0001
0000
0100
0010
0000
1000
0100
0010
0100
0000
0001
0100
0000
,
1000
0000
0010
0000
0100
0000
0001
0000
0000
0000
0000
0000
0010
0000
0100
0000
1000
0000
0001
0000
0000
0000
0000
0000
1000
0000
0000
0100
0000
0000
0010
0000
0000
0001
0000
0000
0010
0000
0000
0100
0000
0000
1000
0000
0000
0001
0000
0000
,
0200
0000
0000
0000
,
0320
0000
0000
0000
,
0031
MMMM
0100
MMMM
,
1000
MMMM
0010
MMMM
,
0001
0000
0000
0010
0000
0000
MMMM
0000
1000
0000
0000
0010
0000
0000
MMMM
0000
,
0001
0000
0000
0100
0000
0000
MMMM
0000
1000
0000
0000
0100
0000
0000
MMMM
0000
,
0001
0000
0000
0010
0000
0000
MMMM
0000
1000
0000
0000
0100
0000
0000
MMMM
0000
,
0001
0000
0000
0100
0000
0000
MMMM
0000
1000
0000
0000
0010
0000
0000
MMMM
0000
,
0001
0000
0100
0010
0000
1000
0100
0000
0010
0000
0001
1000
0000
0001
0100
0000
,
0010
0000
1000
0100
0000
0010
0100
0000
0001
0000
0100
0010
0000
0100
1000
0000
,
0001
0000
1000
0100
0000
0001
0100
0000
1000
0000
0100
0001
0000
0100
0010
0000
,
1000
0000
0010
0001
0000
0010
1000
0000
0010
0000
0001
0010
0000
0100
1000
0000
,
0001
0100
0001
0100
0000
0010
0100
0000
1000
0100
1000
0100
0000
0010
0100
0000
,
0001
0010
0100
1000
0000
0010
0100
0000
0001
1000
0100
0010
0000
0001
0100
0000
,
0010
1000
0100
1000
0010
0100
0001
0010
0100
1000
0001
0100
0010
0100
0001
1000
,
0001
0000
0100
0000
0010
0000
1000
0001
0200
0300
0020
0030
0110
0000
MMMM
0000
,
1000
0000
1000
0100
0010
0000
0010
0001
1000
0000
1000
0001
0100
0000
0100
0010
,
1000
0000
1000
0100
0001
0000
0001
0100
1000
0000
1000
0100
0010
0000
0010
0001
,
1000
0000
1000
0001
0010
0000
0010
0100
0010
0000
0010
0001
1000
0000
1000
0001
,
1000
0000
1000
0010
0001
0000
0001
0010
1000
0000
1010
0000
0010
0000
0110
0000
,
0200
0000
0010
0001
0300
0000
0010
1000
0200
0000
1000
0001
0300
0000
0010
1000
,
0002
0000
1000
0100
0003
0000
0100
1000
0020
0000
0100
0001
0030
0000
0100
1000
,
0002
0000
1000
0100
0003
0000
0100
1000
0020
0000
0100
0001
0030
0000
0100
1000
,
0001
0000
0000
0100
0100
0000
0000
0010
0010
0000
0000
0100
0100
0000
MMMM
0000
,
0001
0010
0001
1000
0001
0010
0000
0010
0100
0000
0100
1000
0000
1000
0001
0000
,
1000
0100
0010
0100
1000
0100
0000
0100
0010
0000
0010
0001
0000
0001
1000
0000
,
0001
0100
0010
0100
0001
0100
0000
0100
0010
0000
0010
1000
0000
1000
0001
0000
,
1000
0010
0100
0010
1000
0001
0000
0001
0101
0000
0000
1100
0000
0000
0101
0000
,
0100
0010
1000
0100
0010
0001
0000
1000
0010
0100
0001
1000
0000
0100
0010
0000
,
0001
0010
0100
1000
0100
0010
0000
0001
1000
0100
1000
0001
0000
0100
0010
0000
,
1100
0010
0001
0100
0101
0010
1000
0100
,
0010
0001
0100
0010
1000
0100
0010
0001
0100
0010
1000
0100
0010
0001
0100
0010
,
1000
0000
0000
1000
0100
0000
0000
0100
0001
0000
0000
0001
1000
0000
0000
1000
,
0010
0000
0000
0010
0001
0000
0000
0001
0100
0000
0000
0100
0010
0000
0000
0010
,
1000
0000
0000
0100
0010
0000
0000
0001
0100
0000
0000
0010
1000
0000
0000
0001
,
0100
0000
0000
1000
0100
0000
0000
0001
0100
0000
0000
0010
1000
0000
0001
0000
,
2001
0000
0000
3100
0000
0000
MMMM
0000
0020
0000
0000
0031
0000
0000
MMMM
0000
,
2000
0000
0000
3100
0000
0000
MMMM
0000
0002
0000
0000
0103
0000
0000
MMMM
0000
,
0020
0000
0000
0130
0000
0000
MMMM
0000
0200
0000
0000
1300
0000
0000
MMMM
0000
,
1000
0000
0100
0000
1000
0000
0100
0000
0000
0010
0000
0000
0001
0000
0100
0000
0010
0000
1000
0000
0000
0010
0000
0000
0100
0000
0000
0001
0000
0000
0010
0000
0000
0100
0000
0000
1000
0000
0000
0010
0000
0000
0100
0000
0000
0001
0000
0000
,
1000
0000
0000
0000
;

//--------------- dance-double - Fred-104 ----------------
#NOTES:
     dance-double:
     Fred-104:
     Easy:
     6:
     :
00000000
00000000
00000000
00000000
,
00000000
00000000
00000000
00000000
,
00000000
00000000
00000000
00000000
,
00000000
00000000
00000000
00000000
,
00000000
00000000
00000000
00000000
,
00000100
00000010
00000001
00000000
,
00000100
00000100
00000020
00000030
,
00010000
00001000
00100000
00000000
,
00010000
00000000
01000000
00000000
00100000
01000000
00100000
00000000
,
10000000
01000000
00100000
00000000
,
00010000
00100000
00002000
00003000
,
00010000
00000010
00001000
00000000
,
00000100
00000010
00000002
00002003
,
00003010
00000100
00000001
00000000
,
00000100
00001000
00010000
00000000
,
01000000
10000000
00010000
00000000
,
01000000
00100000
02200000
03300000
,
00100000
10000000
01000000
00000000
,
00100000
00001000
00010000
00000000
,
00001000
00000100
00000001
00000000
,
00000200
00000000
00000320
00000000
,
00001030
00000100
00000010
00000001
,
00000001
00000100
00000010
00000100
,
00000001
00000100
00001000
00000000
,
00001000
00010000
00100000
01000000
,
01100000
10000000
10000000
00000000
,
01100000
00010000
00010000
00000000
,
10010000
00000000
10010000
00000000
,
02000000
03200000
00320000
00032000
,
00003200
00000000
00000000
00000000
,
00000302
00000000
00000000
00000000
,
00002003
00000000
00000000
00000000
,
00003020
00000000
00000000
00000000
,
00000130
00000000
00000001
00000000
,
00000100
00000000
00000010
00000000
,
00001000
00000000
00000100
00000000
,
00010000
00000000
00001000
00000000
,
00100000
00010000
00000000
01000000
,
01000000
10000000
00000000
01000000
,
00100000
00010000
00000000
00001000
,
00010000
00001000
00000000
00000100
,
00000010
00000001
00000010
00000000
,
00000001
00000100
00001000
00000000
,
00010000
01000000
10000000
00000000
,
01000000
00100000
00002000
00023000
,
00031000
00010000
00001000
00000100
,
00000010
00000001
00000100
00000000
,
00000001
00001000
00000001
00000100
,
00001000
00000000
00010000
00000000
00001000
00010000
00001000
00010000
,
00001000
00010000
00100000
10000000
,
00010000
01000000
10000000
00000000
,
00100000
10000000
01000000
00100000
,
00001000
00000000
00010000
00000000
00002000
00000000
00023000
00030000
,
00001000
00010000
00001000
00000100
,
00000010
00000000
00000001
00000000
00000100
00000001
00000100
00000000
,
00000010
00000000
00001000
00000000
00000100
00010000
00000100
00000000
,
00010000
00000000
00000000
00000000
00001000
00000000
00000000
00000000
00100000
00000000
00000000
00100000
00000000
00000000
00100000
00000000
,
00010000
00000000
00100000
00000000
01000000
10000000
01000000
00000000
,
00100000
00000000
00001000
00000000
00010000
00001000
00010000
00000000
,
00011000
00000000
00000110
00000000
,
00000001
00000100
00000001
00000000
00001000
00000100
00001000
00000000
,
00000001
00000001
00000100
00001000
,
00010000
00001000
00010000
00000000
,
00001000
00010000
01000000
10000000
,
00010000
10000000
00100000
00000000
,
20000000
30000000
02000000
03000000
,
00020000
00030000
00002000
00003000
,
00000200
00000300
00000002
00000003
,
00001000
00000000
00000001
00000000
00000100
00000010
00000100
00000000
,
00000110
00000000
00000000
00000000
;

//--------------- dance-double - Fred-104 ----------------
#NOTES:
     dance-double:
     Fred-104:
     Medium:
     10:
     :
00000000
00000000
00000000
00000000
,
00000000
00000000
00000000
00000000
,
00000000
00000000
00000000
00000000
,
00000000
00000000
00000000
00000000
,
00000000
00000000
00000000
00000000
,
00001000
00000000
00000000
00010000
00000000
00000000
00010000
00000000
01000000
00000000
00000000
01000000
00000000
00000000
00100000
00000000
,
10000000
00000000
00000000
01000000
00000000
00000000
01000000
00000000
00100000
00000000
00000000
00001000
00000000
00000000
00001000
00000000
,
00010000
00000000
00000000
00001000
00000000
00000000
00001000
00000000
00000100
00000000
00000000
00000010
00000000
00000000
00000010
00000000
,
00000001
00000000
00000000
00000100
00000000
00000000
00000010
00000000
00001000
00000000
00000001
00000000
00001000
00000000
00000001
00000000
,
00000100
00000000
00000000
00000010
00000000
00000000
00001000
00000000
00000100
00000000
00000000
00010000
00000000
00000000
00010000
00000000
,
00001000
00000000
00000000
00100000
00000000
00000000
00100000
00000000
01000000
00000000
00000000
00100000
00000000
00000000
00100000
00000000
,
10000000
00000000
00000000
01000000
00000000
00000000
01000000
00000000
00100000
00000000
00000000
00001000
00000000
00000000
00010000
00000000
,
00001000
00010000
00001000
00000000
00020000
00032000
00003200
00000000
,
00000310
00000000
00000000
00000001
00000000
00000000
00001000
00000000
00000010
00000000
00000000
00000100
00000000
00000000
00000010
00000000
,
00001000
00000000
00000000
00000100
00000000
00000000
00010000
00000000
00001000
00000000
00000000
00100000
00000000
00000000
01000000
00000000
,
00100000
00000000
00000000
00001000
00000000
00000000
00010000
00000000
00001000
00000000
00000000
00000100
00000000
00000000
00000010
00000000
,
00001000
00000000
00000000
00010000
00000000
00000000
01000000
00000000
00100000
00000000
01000000
00000000
00100000
00000000
10000000
00000000
,
00100000
00000000
00000000
01000000
00000000
00000000
00010000
00000000
00100000
00000000
00000000
00001000
00000000
00000000
01000000
00000000
,
00001000
00000000
00000000
00100000
00000000
00000000
00010000
00000000
01000000
00000000
00000000
00001000
00000000
00000000
00100000
00000000
,
00010000
00000000
00000000
01000000
00000000
00000000
00001000
00000000
00010000
00000000
00000000
00000010
00000000
00000000
00001000
00000000
,
00002002
00000000
00000000
00003003
00000100
00000010
00000100
00000010
,
00001000
00000000
00000000
00000010
00000000
00000000
00010000
00000000
00000100
00000000
00000000
00001000
00000000
00000000
00000010
00000000
,
00010000
00000000
00000000
00000100
00000000
00000000
00001000
00000000
00000010
00000000
00000000
00010000
00000000
00000000
00001000
00000000
,
00100000
00000000
00000000
00010000
00000000
00000000
01000000
00000000
00001000
00000000
00000000
00100000
00000000
00000000
00010000
00000000
,
01000000
00000000
00000000
00001000
00000000
00000000
00100000
00000000
00010000
00000000
01000000
00000000
00100000
00000000
00100000
00000000
,
10000000
00000000
00000000
01000000
00000000
00000000
00100000
00000000
01000000
00000000
00000000
00100000
00000000
00000000
00010000
00000000
,
00001000
00000000
00000000
00010000
00000000
00000000
00001000
00000000
00010000
00000000
00000000
00000100
00000000
00000000
00010000
00000000
,
00001000
00000000
00000000
00011000
00000000
00000000
00010000
00000000
00001000
00000000
00000000
00011000
00000000
00000000
00010000
00000000
,
00200000
10300000
00200000
00310000
10000000
01000000
00100000
00001000
,
00020000
00000000
00000000
00000000
,
00032000
00000000
00000000
00000000
,
00003020
00000000
00000000
00000000
,
00000032
00000000
00000000
00000000
,
00000103
00000000
00000000
00000100
00000000
00000000
00000000
00000000
00000001
00000000
00000000
00000001
00000000
00000000
00000000
00000000
,
00000100
00000000
00000000
00000100
00000000
00000000
00000000
00000000
00001000
00000000
00000000
00001000
00000000
00000000
00000000
00000000
,
00010000
00000000
00000000
00010000
00000000
00000000
00000000
00000000
01000000
00000000
00000000
01000000
00000000
00000000
00000000
00000000
,
10000000
00000000
00000000
10000000
00000000
00000000
00000000
00000000
01000000
00000000
00000000
01000000
00000000
00000000
00000000
00000000
,
10000000
00000000
00000000
00100000
00000000
00000000
01000000
00000000
00100000
00000000
00000000
01000000
00000000
00000000
00010000
00000000
,
00100000
00000000
00000000
00001000
00000000
00000000
00010000
00000000
00001000
00000000
00000000
00000010
00000000
00000000
00001000
00000000
,
00010000
00000000
00000000
00100000
00000000
00000000
01000000
00000000
00100000
00000000
00000000
00010000
00000000
00000000
00001000
00000000
,
00000100
00000000
00000000
00000010
00000000
00000000
00010000
00000000
00001000
00000000
00000000
00100000
00000000
00000000
00010000
00000000
,
01000000
00000000
00000000
10000000
00000000
00000000
01000000
00000000
00100000
00000000
00000000
01000000
00000000
00000000
00010000
00000000
,
00100000
00000000
00000000
00010000
00000000
00000000
00001000
00000000
00000100
00000000
00000000
00000001
00000000
00000000
00001000
00000000
,
00000001
00000010
00000100
00000000
00010000
00001000
00010000
00000000
,
00001000
00100000
01000000
00000000
02000000
03200000
20300000
32000000
,
03100000
01000000
00100000
10000000
00100000
10000000
01000000
00000000
,
00010000
01000000
00010000
01000000
00010000
00001000
00010000
00000000
,
00001000
00000100
00001000
00000100
00000001
00001000
00000010
00000000
,
00000100
00000000
00000000
00000100
00000010
00000000
00000000
00000010
00001000
00000000
00000001
00000000
00000100
00000000
00001000
00000000
,
00010000
00001000
00010000
01000000
00100000
10000000
00100000
00000000
,
10000000
00100000
10000000
00100000
00010000
00001000
00010000
00000000
,
00001000
00010000
00001000
00000100
00000001
00000100
00000010
00000010
,
00001000
00000000
00000000
00001000
00000001
00000000
00000000
00000001
00001000
00000000
00000000
00001000
00020000
00000000
00030000
00000000
,
00001000
00000000
00100000
00000000
00010000
00000000
01000000
00000000
00100000
00000000
00000000
10000000
00000000
00000000
01000000
00000000
,
00100000
00000000
01000000
00000000
10000000
00000000
00100000
00000000
01000000
00000000
00000000
00010000
00000000
00000000
00001000
00000000
,
00010000
00000000
00001000
00000000
00010000
00000000
00001000
00000000
00000100
00000000
00000000
00000010
00000000
00000000
00000100
00000000
,
00000010
00000000
00001000
00000000
00000100
00000000
00000010
00000000
00000001
00000000
00000000
00001000
00000000
00000000
00000001
00000000
,
00000100
00000000
00000000
00000010
00000000
00000000
00001000
00000000
00000100
00000000
00010000
00000000
00001000
00000000
00010000
00000000
,
00001000
00000000
00000000
01000000
00000000
00000000
00010000
00000000
00100000
00000000
00001000
00000000
00010000
00000000
00100000
00000000
,
01000000
00000000
00000000
10000000
00000000
00000000
00100000
00000000
01000000
00000000
00010000
00000000
10000000
00000000
01000000
00000000
,
00100000
00001000
00010000
00001000
00010000
00000010
00001000
00000000
,
00010000
00000000
00000000
00100000
00000000
00000000
00010000
00000000
00001000
00000000
00000000
00000010
00000000
00000000
00001000
00000000
,
00010000
00000000
00000000
01000000
00000000
00000000
00010000
00000000
00001000
00000000
00000000
00000100
00000000
00000000
00001000
00000000
,
00010000
00000000
00000000
01000000
00000000
00000000
10000000
00000000
01000000
00000000
00000000
00010000
00000000
00000000
00001000
00000000
,
00000010
00000000
00000000
00000001
00000000
00000000
00001000
00000000
00000010
00000000
00000000
00000100
00000000
00000000
00000001
00000000
,
00001001
00000000
00001000
00010000
,
00011000
00000000
00010000
10000000
,
10010000
00000000
01000000
00100000
,
20000000
31000000
00020000
00031000
00000100
00000001
00001000
00000010
,
00000110
00000000
00000000
00000000
;

//--------------- dance-double - Fred-104 ----------------
#NOTES:
     dance-double:
     Fred-104:
     Hard:
     14:
     :
00000000
00000000
00000000
00000000
,
00000000
00000000
00000000
00000000
,
00000000
00000000
00000000
00000000
,
00000000
00000000
00000000
00000000
,
00000000
00000000
00000000
00000000
,
00100000
00000000
00000000
00100000
10000000
00000000
00010000
00000000
10000000
00000000
00000000
10000000
01000000
00000000
00100000
00000000
,
00001000
00000000
00000000
00001000
00010000
00000000
00000100
00000000
00001000
00000000
00000000
00001000
00000010
00000000
00000100
00000000
,
00000001
00000000
00000000
00000001
00000010
00000000
00000100
00000000
00000010
00000000
00000000
00000010
00000001
00000000
00001000
00000000
,
00000010
00000000
00000000
00000010
00000100
00000000
00000001
00000000
00001000
00000000
00001000
00000000
00010000
00000000
00010000
00000000
,
00001000
00000000
00100000
00001000
00000000
00000000
00100000
00000000
00010000
00000000
01000000
00100000
00000000
00000000
10000000
00000000
,
01000000
00000000
00100000
01000000
00000000
00000000
10000000
00000000
00010000
00000000
01000000
00100000
00000000
00000000
01000000
00000000
,
00010000
00000000
00001000
00010000
00000000
00000000
00000100
00000000
00001000
00000000
00000010
00000100
00000000
00000000
00000010
00000000
,
00001000
00000000
00000010
00000000
00000100
00000000
00000001
00000010
00000200
00000300
00002000
00003000
00020000
00030000
00002000
00003000
,
00010000
00000000
01000000
00010000
00000000
01000000
00100000
00000000
10000000
00000000
00000000
01000000
00000000
00000000
00100000
00000000
,
00001000
00000000
00010000
00001000
00000000
00100000
00001000
00000000
00010000
00000000
00000000
00100000
00000000
00000000
00001000
00000000
,
00010000
00000000
00001000
01000000
00000000
00010000
00100000
00000000
00001000
00000000
00000000
01000000
00000000
00000000
00100000
00000000
,
00010000
00000000
10000000
01000000
00000000
00100000
01000000
00000000
00010000
00000000
00010000
00000000
10000000
00000000
10000000
00000000
,
01000000
00000000
00100000
01000000
00000000
00100000
00010000
00000000
00001000
00000000
00000000
00010000
00001000
00000000
00000100
00000000
,
00000010
00000000
00000100
00001000
00000000
00000001
00000100
00000000
00000010
00000000
00000000
00000100
00000010
00000000
00001000
00000000
,
00000001
00000000
00000010
00000100
00000000
00000010
00000001
00000000
00001000
00000000
00000000
00000010
00000100
00000000
00000001
00000000
,
00002002
00000000
00000000
00000000
00000000
00000000
00003003
00000000
00000001
00001000
00000001
00001000
00000001
00000000
00000100
00000000
,
00000010
00000000
00001000
00000010
00001000
00000000
00000001
00000000
00000010
00000000
00000100
00000010
00000100
00000000
00010000
00000000
,
00001000
00000000
01000000
00001000
01000000
00000000
00010000
00000000
00100000
00000000
00001000
00010000
00001000
00000000
01000000
00000000
,
00010000
00000000
01000000
00100000
01000000
00000000
00010000
00000000
10000000
00000000
01000000
00100000
01000000
00000000
00010000
00000000
,
00001000
00000000
00100000
00001000
00100000
00000000
00001000
00010000
00001000
00000000
00010000
00000000
00000010
00000000
00001000
00000000
,
00000010
00000000
00000100
00000001
00000000
00001000
00000100
00000000
00000010
00000000
00000001
00000100
00000001
00000000
00000100
00000000
,
00000010
00000000
00001000
00000100
00000000
00010000
00000100
00000000
00010000
00000000
00001000
00000000
01000000
00000000
00010000
10000000
,
00010000
00000000
00000000
11000000
00000000
00000000
00100000
00000000
00010000
00000000
00000000
00101000
00000000
00000000
00010000
00000000
,
00001000
00010000
00002000
00003000
00000010
00001000
00000020
00000030
00000100
00000001
00000200
00000300
00000010
00000000
00002000
00003001
,
00000200
00000000
00000000
00000000
,
00020300
00000000
00000000
00000000
,
02030000
00000000
00000000
00000000
,
03200000
00000000
00000000
00000000
,
10300000
00000000
00000000
01000000
00000000
00000000
00000000
00000000
00100000
00000000
00000000
00010000
00000000
00000000
00000000
00000000
,
01000000
00000000
00000000
00001000
00000000
00000000
00000000
00000000
00010000
00000000
00000000
00000010
00000000
00000000
00000000
00000000
,
00001000
00000000
00000000
00000100
00000000
00000000
00000000
00000000
00000001
00000000
00000000
00000100
00000000
00000000
00000000
00000000
,
00000010
00000000
00000000
00000100
00000000
00000000
00000000
00000000
00001000
00000000
00000000
00000100
00000000
00000000
00000000
00000000
,
00010000
00000000
00000000
00001000
00000000
00000000
00100000
00000000
00010000
00000000
01000000
00100000
00000000
10000000
00100000
00000000
,
10000000
00000000
00000000
01000000
00000000
00000000
00100000
00000000
00001000
00000000
00010000
00001000
00000000
00010000
00001000
00000000
,
00000100
00000000
00000000
00000001
00000000
00000000
00001000
00000000
00000010
00000000
00000100
00000001
00000000
00001000
00000100
00000000
,
00000010
00000000
00000000
00000001
00000000
00000000
00000100
00000000
00001000
00000000
00010000
00001000
00000000
00010000
00001000
00000000
,
00100000
00000000
00010000
10000000
00000000
01000000
10000000
00000000
00100000
00000000
10000000
01000000
00000000
00100000
01000000
00000000
,
00100000
00000000
00001000
00010000
00000000
00001000
00100000
00000000
00001000
00000000
00010000
00000010
00000000
00001000
00000010
00000000
,
00001000
00000000
00000001
00000100
00000000
00000100
00000010
00000000
00001000
00000000
00000100
00000010
00000000
00000010
00000001
00000000
,
00001000
00000000
00000001
00000100
00000000
00000010
00001000
00000000
00000200
00000300
00020000
00030000
00002000
00003000
00200000
00300000
,
00010000
00000000
00000000
00010000
10000000
00000000
00000000
10000000
01000000
00000000
00000000
01000000
00100000
00000000
00000000
00100000
,
00001000
00000000
00000000
00001000
00000010
00000000
00000000
00000010
00000001
00000000
00000000
00000001
00001000
00000000
00000000
00001000
,
00000001
00000000
00000000
00000001
00000100
00000000
00000000
00000100
00001000
00000000
00000000
00001000
00100000
00000000
00000000
00100000
,
01000000
00000000
00000000
01000000
10000000
00000000
00000000
10000000
00010000
00000000
00010000
00000000
00001000
00000000
00001000
00000000
,
00010000
00000000
00000000
00010000
00001000
00000000
00000000
00001000
00000100
00000000
00000010
00000100
00000010
00000000
00000001
00000000
,
00001000
00000000
00000000
00001000
00000010
00000000
00000000
00000010
00000100
00000000
00000001
00000100
00000010
00000000
00001000
00000000
,
00000100
00000000
00000000
00000100
00010000
00000000
00000000
00010000
01000000
00000000
00100000
10000000
00010000
00000000
10000000
01000000
,
00100000
00000000
00000000
00010000
00100000
00000000
00000000
10000000
00100000
00000000
00000000
00010000
00002000
00000000
00003000
00000000
,
00010000
00000000
00000100
00001000
00000100
00010000
00000000
00000000
00000010
00000000
00000000
00001000
00000000
00000000
00000100
00000000
,
00000010
00000000
00000001
00001000
00000001
00000100
00000000
00000000
00000010
00000000
00000000
00000100
00000000
00000000
00000010
00000000
,
00001000
00000000
00000001
00000100
00000001
00001000
00000000
00000000
00000010
00000000
00000000
00010000
00000000
00000000
00001000
00000000
,
00100000
00000000
00010000
00100000
01000000
00100000
00000000
00000000
01010000
00000000
00000000
11000000
00000000
00000000
01010000
00000000
,
00100000
00000000
10000000
01000000
10000000
01000000
00000000
01000000
00100000
00000000
00010000
00100000
00000000
01000000
00100000
00000000
,
00001000
00000000
00010000
00001000
00010000
00000010
00000000
00000010
00001000
00000000
00000001
00000100
00000000
00000010
00001000
00000000
,
00000001
00000000
00000100
00000010
00001000
00000010
00000000
00000100
00000010
00000000
00001000
00000001
00000000
00000010
00000100
00000000
,
00010000
00001000
00010000
00000000
00001000
00100000
00001000
00000000
00100000
00010000
10000000
00100000
01000000
00000000
00010000
00000000
,
10000000
00000000
00000000
01000000
00000000
00000000
00010000
00000000
00001000
00000000
00000000
00000100
00000000
00000000
00000001
00000000
,
00001000
00000000
00000000
00000001
00000000
00000000
00000010
00000000
00001000
00000000
00000000
00010000
00000000
00000000
00100000
00000000
,
10000000
00000000
00000000
00100000
00000000
00000000
00010000
00000000
10000000
00000000
00000000
01000000
00000000
00000000
00010000
00000000
,
00001000
00000000
00000000
00000100
00000000
00000000
00000001
00000000
00001000
00000000
00000000
00000010
00000000
00000000
00000100
00000000
,
00000101
00000000
00000000
00000010
00000000
00000000
00000000
00000000
00000000
00000000
00000000
00001000
00000000
00000000
00000100
00000000
,
00010100
00000000
00000000
00010000
00000000
00000000
00000000
00000000
00000000
00000000
00000000
00001000
00000000
00000000
00100000
00000000
,
00110000
00000000
00000000
00010000
00000000
00000000
00000000
00000000
00000000
00000000
00000000
10000000
00000000
00000000
01000000
00000000
,
00100000
00010000
10000000
00000000
01000000
00100000
00010000
00000000
00001000
00010000
00000010
00000000
00001000
00000001
00000100
00000000
,
00000110
00000000
00000000
00000000
;

//--------------- dance-double - Fred-104 ----------------
#NOTES:
     dance-double:
     Fred-104:
     Challenge:
     16:
     :
00000000
00000000
00000000
00000000
,
00000000
00000000
00000000
00000000
,
00000000
00000000
00000000
00000000
,
00000000
00000000
00000000
00000000
,
00000000
00000000
00000000
00000000
MMMM0100
MMMM1000
0001MMMM
0100MMMM
,
00100000
00000000
10000000
01000000
00000000
00100000
01000000
00000000
00100000
00000000
00010000
10000000
00000000
01000000
10000000
00000000
,
01000000
00000000
00100000
00010000
00000000
01000000
00010000
00000000
00100000
00000000
00001000
00010000
00000000
00000010
00001000
00000000
,
00000100
00000000
00000001
00000100
00000000
00001000
00000100
00000000
00000010
00000000
00000001
00001000
00000000
00000010
00000100
00000000
,
00000001
00000000
00000100
00000010
00000000
00001000
00000100
00000000
00001100
00000000
00010100
00000000
00011000
00000000
01001000
00000000
,
00010000
00000000
00100000
01000000
00000000
10000000
00100000
00000000
10000000
00000000
00100000
10000000
00000000
00100000
00010000
00000000
,
01000000
00000000
00010000
00100000
00000000
01000000
00100000
00000000
00001000
00000000
00010000
00000010
00000000
00001000
00000010
00000000
,
00001000
00000000
00000100
00000001
00000000
00000100
00001000
00000000
00000010
00000000
00000100
00000001
00000000
00001000
00000100
00000000
,
00000010
00000000
00000001
00000000
00001000
00000000
00000010
00001000
MMMM0100
00000000
0001MMMM
00000000
MMMM1000
00000000
0010MMMM
00000000
,
00010000
00000000
10000000
01000000
00000000
10000000
01000000
00000000
00100000
00000000
00010000
01000000
00000000
00100000
01000000
00000000
,
00010000
00000000
00100000
00001000
00000000
00010000
00001000
00000000
01000000
00000000
00001000
00010000
00000000
00000010
00001000
00000000
,
00000100
00000000
00000010
00000001
00000000
00000010
00001000
00000000
00000010
00000000
00000100
00000001
00000000
00000100
00000010
00000000
,
00001000
00000000
00000001
00000010
00000000
00000100
00010000
00000000
00001000
00000000
00010000
00000100
00001000
00000100
00010000
00000000
,
00001000
00000000
00010000
00001000
00000000
01000000
00001000
00000000
00010000
00000000
00001000
00100000
00000000
00010000
00100000
00000000
,
01000000
00000000
10000000
00010000
00000000
01000000
00100000
00000000
10000000
00000000
01000000
00100000
00000000
00010000
01000000
00000000
,
10000000
00000000
01000000
00010000
00000000
00100000
01000000
00000000
10000000
00000000
00100000
00010000
00000000
00010000
00001000
00000000
,
00022000
00000000
00000000
00000000
00000000
00000000
00033000
00000000
00010000
00001000
00010000
00001000
00010000
00001000
00010000
00000000
,
00000010
00000000
00001000
00000010
00000100
00000000
00000001
00000010
00000100
00000000
00000010
00000001
00000000
00001000
00000001
00000000
,
00000100
00000000
00000010
00001000
00000100
00000000
00000010
00000001
00001000
00000000
00000010
00010000
00000000
00001000
01000000
00000000
,
00010000
00000000
00100000
01000000
10000000
00000000
00010000
10000000
01000000
00000000
00100000
00001000
00000000
00010000
00000100
00000000
,
00001000
00000000
00000010
00001000
00000001
00000000
00000100
00000010
00001000
00000000
00000001
00000100
00000000
00000100
00001000
00000000
,
00010000
00001000
00100000
00001000
00000000
00010000
00001000
00000000
00100000
00000000
00010000
10000000
01000000
00000000
00100000
00000000
,
00010000
01000000
10000000
01000000
00000000
00100000
01000000
00000000
00010000
00000000
00100000
00001000
00010000
00000000
00000010
00000000
,
00001000
00000100
00000010
00000100
00000000
00000001
00000100
00000000
00001000
00000100
00000010
00000001
00000000
00000100
00000010
00000000
,
00001000
00000001
00000100
00000000
00000010
00001000
00000100
00000000
00010000
00001000
00100000
00010000
10000000
00100000
01000000
00010000
,
20000000
0000MMMM
0000MMMM
0000MMMM
,
30020000
0000MMMM
0000MMMM
0000MMMM
,
00032000
MMMM0000
MMMM0000
MMMM0000
,
00003002
MMMM0000
MMMM0000
MMMM0003
,
00001000
00000000
00000000
00000100
00000000
00000000
MMMMMMMM
00000000
00000001
00000000
00000000
00000100
00000000
00000000
MMMMMMMM
00000000
,
00000001
00000000
00000000
00000010
00000000
00000000
MMMMMMMM
00000000
00001000
00000000
00000000
00010000
00000000
00000000
MMMMMMMM
00000000
,
00100000
00000000
00000000
10000000
00000000
00000000
MMMMMMMM
00000000
01000000
00000000
00000000
00100000
00000000
00000000
MMMMMMMM
00000000
,
00001000
00000000
00000000
00010000
00000000
00000000
MMMMMMMM
00000000
00000100
00000000
00000000
00000010
00000000
00000000
MMMMMMMM
00000000
,
00000001
00000000
00001000
00000100
00000000
00000010
00000001
00000000
00001000
00000000
00000010
00000100
00000000
00000010
00001000
00000000
,
00000100
00000000
00010000
00001000
00000000
00010000
00000010
00000000
00010000
00000000
00001000
01000000
00000000
00001000
00010000
00000000
,
00001000
00000000
00010000
00100000
00000000
10000000
00100000
00000000
00010000
00000000
00001000
00010000
00000000
00001000
00100000
00000000
,
00010000
00000000
01000000
10000000
00000000
01000000
00010000
00000000
00001000
00000000
00100000
00001000
00000000
00010000
00000100
00000000
,
00001000
00000100
00001000
00000100
00000000
00000010
00000100
00000000
00000001
00000000
00001000
00000100
00000000
00000010
00000001
00000000
,
00000100
00000010
00001000
00000010
00000000
00010000
00001000
00000000
00100000
00000000
00001000
00010000
00000000
00001000
00100000
00000000
,
00010000
01000000
00010000
01000000
00100000
10000000
00100000
10000000
01000000
00100000
00010000
00100000
00001000
00010000
00000010
00001000
,
00000010
00000000
00001000
00000000
00000001
00000000
00000100
00000010
MMMM1000
00000000
MMMM1000
00000000
0001MMMM
00000000
0001MMMM
00000000
,
00001000
00000000
00100000
00010000
10000000
00000000
00100000
01000000
00010000
00000000
10000000
01000000
00010000
00000000
01000000
10000000
,
00100000
00000000
01000000
00010000
00100000
00000000
00001000
00010000
00000010
00000000
00001000
00000100
00000001
00000000
00000100
00001000
,
00000010
00000000
00000100
00000001
00000010
00000000
00000100
00001000
00000001
00000000
00000100
00000010
00001000
00000000
00000100
00010000
,
00001000
00000000
00100000
00010000
10000000
00000000
00100000
01000000
00010000
00000000
10010000
00000000
01000000
00000000
01100000
00000000
,
00200000
00000000
00010000
10000000
00300000
00000000
10000000
01000000
00200000
00000000
00010000
01000000
00300000
00000000
01000000
00001000
,
00020000
00000000
00000100
00001000
00030000
00000000
00010000
00000010
00002000
00000000
00000010
00010000
00003000
00000000
00000010
00001000
,
00000200
00000000
00000010
00000001
00000300
00000000
00000010
00001000
00000002
00000000
00001000
00000100
00000003
00000000
00000100
00001000
,
00000001
00000000
00000000
00000001
00001000
00000000
00000000
00001000
00010000
00000000
00000000
00010000
10000000
00000000
MMMMMMMM
00000000
,
10000000
00100000
01000000
00100000
10000000
01000000
00000000
01000000
00100000
00000000
00100000
00001000
00000000
00001000
00000010
00000000
,
00000100
00000001
00001000
00000001
00000100
00000010
00000000
00000010
00001000
00000000
00001000
00000001
00000000
00000001
00000100
00000000
,
00000100
00000010
00001000
00000010
00001000
00000100
00000000
00000100
00010000
00000000
00010000
01000000
00000000
01000000
00100000
00000000
,
10000000
01000000
00100000
01000000
10000000
00100000
00000000
00100000
01000000
00000000
00000000
01010000
00000000
00000000
00011000
00000000
,
00001000
00000100
00000010
00000001
00001000
00000010
00000000
00000010
00000100
00000001
00001000
00000100
00000000
00010000
00001000
00000000
,
00100000
00001000
00010000
00001000
01000000
00010000
00000000
00010000
00100000
01000000
10000000
01000000
00000000
00100000
01000000
00000000
,
10010000
01000000
00100000
00001000
00011000
00010000
00000100
00000010
,
00000001
00000100
00000010
00001000
00000100
00010000
00001000
00100000
00010000
01000000
00100000
10000000
01000000
00100000
00010000
10000000
,
00100000
00000000
00000000
00100000
10000000
00000000
00000000
10000000
01000000
00000000
00000000
01000000
00010000
00000000
00000000
00010000
,
00000100
00000000
00000000
00000100
00000001
00000000
00000000
00000001
00001000
00000000
00000000
00001000
00000010
00000000
00000000
00000010
,
00001000
00000000
00000000
00001000
00100000
00000000
00000000
00100000
01000000
00000000
00000000
01000000
10000000
00000000
00000000
10000000
,
00010000
00000000
00000000
00010000
00001000
00000000
00000000
00001000
00000100
00000000
00000000
00000100
00000001
00000000
00001000
00000000
,
00000002
00000000
00000000
00000103
00000000
00000000
MMMMMMMM
00000000
00002000
00000000
00000000
00013000
00000000
00000000
MMMMMMMM
00000000
,
02000000
00000000
00000000
13000000
00000000
00000000
MMMMMMMM
00000000
20000000
00000000
00000000
30100000
00000000
00000000
MMMMMMMM
00000000
,
00020000
00000000
00000000
00031000
00000000
00000000
MMMMMMMM
00000000
00000020
00000000
00000000
00000031
00000000
00000000
MMMMMMMM
00000000
,
00000001
00000000
00000100
00000000
00000001
00000000
00000100
00000000
00000000
00000010
00000000
00000000
00001000
00000000
00000100
00000000
00010000
00000000
00001000
00000000
00000000
00100000
00000000
00000000
00010000
00000000
00000000
10000000
00000000
00000000
00100000
00000000
00000000
01000000
00000000
00000000
00010000
00000000
00000000
00100000
00000000
00000000
00010000
00000000
00000000
00001000
00000000
00000000
,
00010000
00000000
00000000
00000000
;
