#TITLE:CLAMARE;
#ARTIST:MAX MAXIMIZER;
#BANNER:CLAMARE.png;
#BACKGROUND:CLAMARE-bg.png;
#CDTITLE:./CDTitles/RB colette -All Seasons-.png;
#MUSIC:CLAMARE.ogg;
#SAMPLESTART:84.105;
#SAMPLELENGTH:15;
#BPMS:0=112,52=224,117=448,229=112,231=448,247=56,261=112,263=336,265.625=280,267.8125=168,269.125=112,270=448,399=224,429=448,447=896,471=112;
#STOPS:52=1.875,270=0.67,446=0.804;
#TIMESIGNATURES:0=4=4,48=5=4,53=4=4,229=2=4,231=4=4,423=6=4,429=4=4,441=6=4,447=4=4,471=3=4,480=4=4;
#BGSTAGE:31;

//--------------- dance-single - Fred-104 ----------------
#NOTES:
     dance-single:
     Fred-104:
     Beginner:
     9:
     :
0000
0000
0000
0000
,
2000
3000
0020
0030
,
0002
0003
0200
0300
,
2000
3000
0002
0003
,
2000
3000
0010
0010
,
2000
3000
0200
0300
,
0002
0003
0020
0030
,
2000
3000
0002
0003
,
0200
0300
0020
0130
,
0110
0000
1001
0100
,
0110
0000
1001
0010
,
0110
0100
0110
0010
,
1001
0000
1001
0000
0001
1000
0001
1000
,
1001
0000
0000
0000
2000
3000
0000
0000
1000
0000
0000
0000
0100
0000
0000
0000
,
0010
0001
0001
1000
,
0001
0100
0100
0010
,
0100
0002
0000
0000
,
0000
0103
0100
0010
,
1000
0001
0010
0100
,
0100
1001
0000
0000
,
0000
2000
0000
0000
,
0000
3100
0100
0010
,
0001
0100
0100
0010
,
1000
1001
0000
0110
,
0000
0002
0000
0000
,
0000
0103
0100
0001
,
0010
0001
0001
0100
,
0010
0110
0000
0110
,
0000
1001
0000
1001
,
0000
0000
0000
0000
2000
3000
0000
0000
0000
0000
0000
0000
1000
0000
0000
0000
,
0000
0001
0000
0001
,
0000
0100
0000
0100
,
0000
1000
0000
1000
,
0000
0100
0000
0100
,
0000
0001
0000
0001
,
0000
1000
0000
1000
,
0000
1000
0000
1000
,
0000
0001
0000
0010
,
0000
0001
0000
0010
,
0000
1000
0000
0010
,
0000
0001
0000
1000
,
0000
1001
0000
0000
,
0000
0110
0000
0000
,
0000
1001
0000
1001
,
0000
1001
0000
1001
,
0000
0001
0000
0001
,
0000
1000
0000
1000
,
0000
0010
0000
0010
,
0000
0100
0000
0100
,
0000
0010
0000
0010
,
0000
1000
0000
1000
,
0000
0100
0000
0010
,
0000
0001
0000
1000
,
0000
1001
0000
0000
,
0000
1001
0000
0000
,
0000
1001
0000
0000
,
0000
1001
0000
0000
,
0000
0000
2002
0000
0000
3003
2000
0000
,
0000
0000
0000
0000
,
0000
0000
0000
3000
,
0000
0000
0000
0000
,
0000
0000
0000
0000
0000
0000
0002
0003
,
0000
0000
0020
0030
0000
0000
2000
3000
,
0000
0000
0000
0000
0200
0000
0300
0000
0000
0000
0000
0000
0002
0003
0000
0000
,
0010
0000
0000
0000
0200
0300
0100
0000
1000
0000
1000
0000
0002
0003
0100
0000
,
0001
0000
0000
0000
0001
0000
0000
0000
2002
0000
0000
3003
0000
0000
0000
0000
0000
0000
0000
0000
0000
0000
0000
0000
2002
0000
0000
0000
0000
0000
0000
0000
,
0000
0000
0000
0000
,
0000
0000
0000
0000
0000
0000
0000
0000
3003
0000
0000
0000
2000
3000
0000
0000
,
0000
0000
0100
0000
,
0000
0001
0000
0000
,
0100
0000
0000
0010
,
0000
0100
0000
1000
,
0000
0000
0001
0000
,
0000
1000
0000
0000
,
0001
0000
0000
0010
,
0000
0010
0000
0001
,
0000
0000
0100
0000
,
0000
1000
0000
0000
,
0100
0000
0000
0010
,
0000
0100
0000
0001
,
0000
0000
0001
0000
,
0000
1000
0000
0000
,
0010
0000
0000
1000
,
0000
1000
0000
0001
,
0000
0000
0100
0000
,
0000
1000
0000
0000
,
0100
0000
0000
0001
,
0000
0001
0000
1000
,
0000
0000
0100
0000
,
0000
0001
0000
0000
,
0100
0000
0000
1000
,
0000
1000
0000
0001
,
0000
0000
0100
0000
,
0000
0001
0000
0000
,
0010
0000
0000
0100
,
0000
0100
0000
2000
,
0000
3002
0000
2003
,
0000
3020
0000
0230
,
0000
0302
0000
2003
,
0000
3002
0003
2002
,
0000
0000
0000
0000
,
0000
0000
3003
1000
,
0000
0001
0000
0000
2002
0000
0000
0000
,
0000
3003
0000
1000
,
0000
0100
0000
0000
0010
0000
0000
0001
,
0000
0100
0100
0010
,
0000
0100
0000
0000
2002
0000
0000
0000
,
3003
2000
0000
0000
,
0000
0000
0000
0000
,
3000
0001
1000
0001
,
0000
1000
0001
1000
,
0000
2002
3003
2002
,
0000
0000
0000
0000
,
0000
0000
0000
0000
,
0000
0000
0000
0000
,
0000
0000
0000
0000
,
0000
0000
0000
0000
,
0000
0000
0000
0000
,
0000
0000
0000
0000
,
0000
0000
0000
0000
,
3003
0000
0000
0000
;

//--------------- dance-single - Fred-104 ----------------
#NOTES:
     dance-single:
     Fred-104:
     Easy:
     13:
     :
0000
0000
0000
0000
,
2000
3000
0200
0300
,
0002
0003
0020
0030
,
2000
3000
1002
0003
,
2000
0000
3000
0000
0001
0001
1000
1000
,
0120
0030
2000
3000
,
0200
0300
0020
0030
,
0002
0003
0200
0300
,
2000
3000
0020
0030
,
1001
0000
0100
0000
0110
0010
0011
0000
,
1001
0000
0100
0000
0110
0010
1010
0000
,
1100
0101
0011
1010
,
1001
1000
1001
0001
1000
0100
0010
0001
,
1001
0000
0000
0000
2000
3000
0000
0000
0100
0000
0000
0000
0001
0000
0000
0000
,
0100
1000
0001
0100
,
1000
0100
0001
1000
,
0100
0010
0010
0010
,
0010
0001
1000
0010
,
0001
0010
1000
0001
,
0010
0110
0000
0000
,
0000
1000
1000
1000
,
1000
0001
0100
1000
,
0001
1000
0100
0001
,
1000
1001
0000
0110
,
0000
0001
0001
0001
,
0001
1000
0010
0001
,
1000
0001
0010
1000
,
0001
0101
0000
1010
,
0000
0001
0001
1000
,
1000
0000
0000
0000
0002
0003
0000
0000
0000
0000
0000
0000
0001
0000
0000
0000
,
0000
0010
0100
0010
,
0000
0100
0000
0100
,
0000
1000
0010
1000
,
0000
0001
0000
0001
,
0000
0100
0010
0100
,
0000
0001
0000
0001
,
0000
0001
0000
0001
,
0000
1000
0000
1000
,
0000
0100
0010
0001
,
0000
0100
0000
0100
,
0000
0010
1000
0100
,
0000
1001
0000
0000
,
0000
0110
0000
0000
,
0000
0001
0000
0001
,
0000
1000
0000
1000
,
0000
0100
0010
0100
,
0000
0010
0001
0100
,
0000
0010
1000
0010
,
0000
1000
0001
0010
,
0000
0100
0010
0100
,
0000
0010
0001
0100
,
0000
0010
1000
0010
,
0000
1000
0001
0010
,
0000
0110
0000
1000
,
0000
0110
0000
0001
,
0000
1001
0000
1001
,
0000
0110
0000
0110
,
0000
0000
0000
0000
2002
0000
0000
0000
0000
0000
3003
0000
0002
0003
0000
0000
,
1000
0001
1000
0001
,
1000
0001
1000
1001
,
0000
0000
0000
0000
,
0000
0000
0000
1000
,
0000
0100
0000
0001
,
0000
0000
0010
0000
0000
0000
1000
1000
,
0001
0000
0001
0000
0100
0010
0100
0001
1000
0010
0100
0001
1000
0100
0010
0001
,
1000
0000
0001
0000
0100
0000
0010
0000
0220
0000
0000
0330
0000
0000
0000
0000
0000
0000
0000
0000
0000
0000
0000
0000
2002
0000
0000
0000
0000
0000
0000
0000
,
0000
0000
0000
0000
,
0000
0000
0000
0000
0000
0000
0000
0000
3003
0000
0000
0000
2000
3000
0000
0000
,
0000
0001
0010
0000
,
0100
1000
0000
0001
,
0100
0000
0010
1000
,
0100
1000
0100
0010
,
0000
0001
1000
0000
,
0001
0100
0000
0010
,
1000
0000
0001
0010
,
0100
0010
0100
0010
,
0000
0001
1000
0000
,
0001
0100
0000
0001
,
1000
0000
0100
0010
,
0100
0010
0100
1000
,
0000
0001
1000
0000
,
0010
0100
0000
0001
,
1000
0000
0010
1000
,
0001
1000
0001
1000
,
0000
0100
0010
0000
,
0001
1000
0000
0001
,
0100
0000
0010
1000
,
0001
0010
0001
0010
,
0000
0100
1000
0000
,
0001
1000
0000
0010
,
1000
0000
0010
0100
,
0001
0100
0001
0100
,
0000
0001
1000
0000
,
0100
0010
0000
0001
,
1000
0000
0010
0100
,
0010
1000
0000
0002
,
0000
0023
0000
0230
,
0000
2300
0000
3002
,
0000
0203
0000
0320
,
0000
2030
3000
2002
,
0000
0000
0000
0000
,
0000
0000
3003
1010
,
0000
0101
0000
0000
2002
0000
0000
0000
,
0000
3003
0000
1000
,
0000
0100
0000
0000
0001
0000
0000
0010
,
0000
1000
1000
0001
,
0000
1000
0000
0000
2002
0000
0000
0000
,
3003
2000
0000
0000
,
0000
0000
0000
0000
,
3000
0001
0100
0001
,
0000
1000
0000
0010
,
1000
0001
0001
1000
,
0000
0000
0000
1000
,
0000
0000
0000
0001
,
0000
0000
0000
0001
,
0000
0000
0000
0000
,
0000
0000
0000
0000
,
0000
0000
0000
2002
,
0000
0000
0000
0000
,
0000
0000
0000
0000
,
3003
0000
0000
0000
;

//--------------- dance-single - Fred-104 ----------------
#NOTES:
     dance-single:
     Fred-104:
     Medium:
     16:
     :
0000
0000
0000
0000
,
2001
3002
0023
0230
,
2300
3002
0203
0320
,
2030
0000
0000
0000
0000
0000
3000
0000
0000
0000
0001
1000
0002
0000
0000
0000
0000
0000
0023
0000
0000
0000
0000
0000
,
2030
0000
0000
0000
0000
0000
3020
0000
0000
0000
0000
0000
0031
0010
0001
0010
0000
0000
0100
1000
0100
1000
0000
0000
,
1002
2003
3200
0302
,
0023
0000
0000
0000
0000
0000
2030
0000
0000
0000
0000
0000
3200
0000
0000
0000
0000
0000
0310
0000
0000
0001
0010
0001
,
0020
0032
0203
2300
,
3020
0000
0000
0000
0000
0000
0032
0000
0000
0000
0000
0000
2003
0000
0000
0000
0000
0000
3001
1000
0001
1000
0000
0000
,
1001
0000
0100
0000
0010
0010
0110
0000
,
1001
0000
0000
0000
0000
0000
0010
0000
0000
0000
0000
0000
0100
0000
0000
0100
0000
0000
0010
0100
0010
0100
0000
0000
,
0110
1001
0110
1001
,
1100
0000
0000
0110
0000
0000
0011
0000
0000
1001
0000
0000
0001
0100
0010
1000
0000
0000
0001
0010
0100
1000
0000
0000
,
1001
0002
0023
0230
,
1300
0001
1000
0020
0000
0000
0230
0000
0000
0302
0000
0000
,
1003
0100
1000
0200
0000
0000
0320
0000
0000
0032
0000
0000
,
2003
0000
0000
3001
0100
0010
1000
0000
0000
0001
0010
0100
,
1000
0002
2003
3200
,
0310
0100
0010
0002
0000
0000
2003
0000
0000
3020
0000
0000
,
0130
0001
1000
0002
0000
0000
0000
0000
0000
0000
0000
0000
,
0003
0000
0000
1000
0010
0100
0001
0000
0000
1000
0100
0010
,
0001
2001
3002
0203
,
0310
1000
0010
0200
0000
0000
0302
0000
0000
2003
0000
0000
,
3100
0010
0001
1000
0000
0000
0001
0100
0010
1000
0000
0000
,
0001
0010
0100
1000
0100
0010
0001
0000
0000
1000
0010
0100
,
0001
2000
3200
0320
,
0130
1000
0001
0200
0000
0000
0320
0000
0000
2030
0000
0000
,
3001
0010
0100
1000
0000
0000
1100
0000
0000
0001
0000
0000
,
0101
0000
1000
0100
0001
0100
0010
0000
,
0011
0000
0000
0000
2000
3000
0000
0000
0100
0000
0000
0000
1000
0000
0000
0000
,
0010
0100
0001
0010
,
0100
1000
0001
1000
,
0010
0100
0010
1000
,
0100
0010
0001
1000
,
0001
0100
0010
0100
,
0001
0000
0000
1000
0000
0100
0000
1000
0000
0100
0000
0010
,
0000
0001
0000
1000
0000
0010
0000
1000
0000
0010
0000
0100
,
0000
0001
0000
1000
0000
0000
0001
0000
0000
0010
0000
0000
,
0100
0010
0100
1000
,
0001
1000
0010
0100
,
0010
1000
0001
0010
,
0100
0000
0000
1000
0000
0001
0000
0100
0000
0010
0000
0000
,
0000
0000
0000
1000
0000
0001
0000
0010
0000
0100
0000
0000
,
0000
0000
0000
1000
0000
0001
0000
1000
0000
0001
0000
0010
,
0000
0100
0000
1000
0000
0001
0000
0100
0000
0010
0000
0000
,
0000
0100
0001
0010
,
0001
0100
0010
1000
,
0001
0010
0100
1000
,
0010
1000
0100
1000
,
0001
0100
0010
0100
,
1000
0100
0001
1000
,
0100
0010
0100
1000
,
0010
0100
0001
1000
,
0001
0000
0000
1000
0000
0100
0000
0010
0000
0001
0000
0000
,
0000
0000
0000
1000
0000
0010
0000
0100
0000
0001
0000
0000
,
0000
0000
0000
1000
0000
0001
0000
0010
0000
0100
0000
0000
,
0000
0000
0000
1000
0000
0001
0000
0100
0000
0010
0000
0000
,
0000
0000
0000
0000
0220
0000
0000
0000
0000
0000
0330
0000
2000
3000
0000
0000
,
0001
0000
1000
0000
0001
0000
1000
0001
,
1000
0001
1000
0001
1000
0001
1000
0000
,
0000
0000
0000
0000
,
0000
0000
0000
0000
0000
0000
0000
0000
0000
0000
0000
0000
0000
0000
0000
0000
0000
0000
0000
0000
0000
0000
0000
0000
0000
0000
0000
0000
0000
0000
0000
0000
0000
0000
0000
0000
0000
0000
0000
0000
0000
0000
0000
0000
0000
0000
0000
0000
0002
0000
0000
0003
0000
0000
0000
0000
0000
0000
0000
0000
0000
0000
0000
0000
,
0000
0000
0000
0000
0000
0000
0000
0000
0000
0000
0000
0000
0000
0000
0000
0000
2000
0000
0000
3000
0000
0000
0000
0000
0000
0000
0000
0000
0000
0000
0000
0000
0000
0000
0000
0000
0000
0000
0000
0000
0000
0000
0000
0000
0000
0000
0000
0000
0002
0000
0000
0003
0000
0000
0000
0000
0000
0000
0000
0000
0000
0000
0000
0000
,
0000
0000
0000
0000
0000
0000
0000
0000
0000
0000
0000
0000
0000
0000
0000
0000
2000
0000
0000
3000
0000
0000
0000
0000
1000
0000
0000
0000
0000
0000
0000
0000
0001
0000
0000
0000
0000
0000
0000
0000
0001
0000
0000
0000
0000
0000
0000
0000
2002
0000
0000
3003
1000
0000
0000
0000
0100
0000
0000
0000
0010
0000
0000
0000
,
0001
0000
0000
0000
0100
0000
0000
0000
0010
0000
0000
0000
1000
0000
0000
0000
0002
0000
0000
0003
0010
0000
0000
0000
0100
0000
0000
0000
1000
0000
0000
0000
0010
0000
0000
0000
1000
0000
0000
0000
0001
0000
0000
0000
0010
0000
0000
0000
0200
0000
1000
0300
0100
0000
1000
0000
0010
0000
0100
0000
0010
0000
1000
0000
,
0100
0000
0010
0000
0100
0000
0010
0000
0001
0000
1000
0000
0001
0000
1000
0000
0002
0000
0000
0003
0000
0000
0001
0000
0000
0000
0000
0000
0000
0000
0000
0000
0000
0000
0000
0000
0000
0000
0000
0000
0000
0000
0000
0000
0000
0000
0000
0000
2002
0000
0000
0000
0000
0000
0000
0000
0000
0000
0000
0000
0000
0000
0000
0000
,
0000
0000
0000
0000
,
0000
0000
0000
0000
0000
0000
0000
0000
3003
0000
0000
0000
2000
3000
0000
0000
,
0100
0010
0001
0100
,
0010
1000
0010
0100
,
0001
0000
0010
0000
0001
0000
1000
0010
,
1000
0000
0001
1000
0001
0000
0010
0000
,
0100
1000
0010
0100
,
0001
0100
0010
1000
,
0100
0000
0010
0000
0001
0000
1000
0010
,
1000
0000
0010
0100
0010
0000
1000
0000
,
0001
0010
0100
0010
,
0001
0100
0010
1000
,
0100
0000
1000
0000
0001
0000
0100
0010
,
0100
0000
0001
1000
0001
0000
0010
0000
,
0100
0010
0001
0100
,
0010
0100
0001
1000
,
0100
0000
0010
0000
0001
0000
1000
0010
,
1000
0000
0001
0010
0001
0000
0010
0000
,
0100
1000
0001
0100
,
0010
1000
0100
0010
,
0100
0000
1000
0000
0001
0000
0100
0010
,
0100
0000
0010
1000
0010
0000
1000
0000
,
0100
1000
0010
0100
,
0001
0010
0001
0100
,
0010
0000
1000
0000
0001
0000
0010
0100
,
0010
0000
0001
1000
0001
0000
1000
0000
,
0100
0010
0001
0100
,
0001
0010
0100
1000
,
0010
0100
0001
1000
,
0100
0000
0010
0000
0001
0000
1000
0010
,
1000
0000
0001
0000
0010
0000
0100
1000
,
0100
0000
0010
0000
0001
0000
1000
0010
,
1000
0000
0001
0100
0001
0000
1000
0001
,
1000
0001
1000
0001
1000
0000
2002
0000
,
0000
0000
0000
3003
1000
0100
0010
0001
,
0000
0000
1000
0001
0100
0010
0100
0100
,
0010
0010
0000
0100
0220
0000
0000
0000
,
0000
0330
0001
1000
1001
0000
1000
0100
,
0001
0100
0000
0000
0001
0100
1000
0100
,
0000
0000
0000
0000
1000
0100
1000
0000
0001
0010
0001
0000
0100
0000
0100
0000
,
0010
0010
0000
0100
0220
0000
0030
0000
,
0300
0002
0000
0000
,
0000
0000
0000
0000
,
0003
1000
0100
0001
,
1000
0000
0010
0000
0001
0000
1000
0001
,
1000
0000
0000
0000
0000
0000
0000
0000
0001
0000
0000
0000
0000
0000
0000
0000
1000
0000
0000
0000
0000
0000
0000
0000
0000
0000
0000
0000
0000
0000
0000
0000
2002
3003
0000
0000
0000
0000
0000
0000
0000
0000
0000
0000
0000
0000
0000
0000
1000
0000
0000
0000
0000
0000
0000
0000
0000
0000
0000
0000
0000
0000
0000
0000
,
0000
0001
0000
1000
,
0000
0001
0000
1000
,
0001
1000
0001
1000
,
0000
0000
0000
0000
,
0000
0000
0000
0000
,
0000
0000
0000
2002
,
0000
0000
0000
0000
,
0000
0000
0000
0000
,
3003
0000
0000
0000
;

//--------------- dance-single - Fred-104 ----------------
#NOTES:
     dance-single:
     Fred-104:
     Hard:
     18:
     :
0000
0000
0000
0000
,
2010
0001
3200
0001
,
0320
0100
0032
0010
,
2000
0000
0000
0000
0000
0000
3003
0000
0000
0000
0001
1000
1002
0000
0000
0000
0000
0000
0100
0000
0000
0000
0000
0000
,
0023
0000
0000
0000
0000
0000
1000
0000
0000
0000
0000
0000
0031
0010
0100
1000
0010
1000
0100
0010
0001
1000
0010
0100
,
0102
1000
0203
1000
,
0320
0000
0000
0000
0000
0000
0100
0000
0000
0000
0000
0000
2030
0000
0000
0000
0000
0000
3001
0000
0000
0001
0010
0100
,
2100
0001
3020
0001
,
0230
0000
0000
0000
0000
0000
0001
0000
0000
0000
0000
0000
1000
0000
0000
0000
0000
0000
0301
1000
0100
0010
0001
1000
,
1002
0000
0203
0000
1300
0100
0101
0000
,
2001
0000
0000
0000
0000
0000
3200
0000
0000
0000
0000
0000
0301
0000
0000
0100
0000
0000
1000
0001
0100
0010
1000
0001
,
0012
0100
1003
0000
2010
0100
3001
0000
,
1010
0000
0000
1010
0000
0000
0101
0000
0000
0101
0000
0000
1000
0100
0001
0100
0010
0001
1000
0010
0100
1000
0100
0001
,
1000
0000
0000
0000
0022
0030
0000
0000
2003
0000
0000
0000
3020
0000
0000
0000
,
0031
0010
0100
0002
0000
0000
2003
0000
0000
3200
0000
0000
,
0301
0100
0010
0002
0000
0000
0100
0000
0000
1000
0000
0000
,
0013
0000
0000
0001
1000
0100
0010
0001
0100
0010
1000
0100
,
0010
0100
1000
0020
0000
0000
2030
0000
0000
3200
0000
0000
,
0310
0100
0001
0200
0000
0000
2300
0000
0000
3002
0000
0000
,
0103
0010
0001
0020
0000
0000
1000
0000
0000
0001
0000
0000
,
0130
0000
0000
0001
1000
0100
0010
0001
0100
0010
1000
0001
,
0010
0100
1000
0020
0000
0000
0230
0000
0000
2300
0000
0000
,
3001
0010
0100
0002
0000
0000
2003
0000
0000
3200
0000
0000
,
0301
1000
0010
0001
0000
0000
1000
0100
0001
0100
0000
0000
,
1000
0010
0001
0010
1000
0001
0010
0100
1000
0010
0100
0001
,
1000
0100
0010
0002
0000
0000
0203
0000
0000
0320
0000
0000
,
0031
1000
0100
0002
0000
0000
0023
0000
0000
2030
0000
0000
,
3001
0100
1000
1100
0000
0000
0001
0000
0000
0101
0000
0000
,
1000
0000
0000
0000
0001
0010
0100
1000
0100
0010
0001
1000
0001
0000
0000
0000
,
1001
0000
0000
0000
2000
3000
0000
0000
0100
0000
0000
0000
0100
0000
0000
0000
,
0010
0000
0100
0000
0100
0000
1000
0001
,
1000
0001
0100
0100
,
0010
0000
0100
0000
0100
0000
0001
1000
,
0001
0010
0100
0100
,
1000
0000
0100
0000
0100
0000
0010
0001
,
0010
0000
0000
0001
0000
1000
0000
0100
0000
0001
0000
0100
,
0000
1000
0000
0001
0000
1000
0000
0010
0000
0001
0000
0010
,
0000
1000
0000
0001
0000
0000
0010
0000
0000
0010
0000
0000
,
1000
0000
0010
0000
0010
0000
0001
1000
,
0001
1000
0100
0100
,
0001
0000
0100
0000
0100
0000
0010
0001
,
0010
0000
0000
0001
0000
0010
0000
1000
0000
0010
0000
0000
,
0000
0000
0000
0001
0000
0100
0000
1000
0000
0100
0000
0000
,
0000
0000
0000
0001
0000
1000
0000
0100
0000
0010
0000
0001
,
0000
0000
1000
0000
0000
0000
0010
0000
0000
0000
0100
0000
0000
0000
0001
0000
0000
0000
1000
0000
0000
0100
0000
0000
,
1000
0100
0010
0000
0001
0000
0001
0000
,
0100
0000
0001
0000
0001
0000
0010
0100
,
1000
0001
0100
0100
,
1000
0000
0100
0000
0100
0000
0001
1000
,
0100
0010
0001
0001
,
1000
0000
0001
0000
0001
0000
0100
0010
,
1000
0001
0010
0100
,
1000
0010
1000
0001
,
0100
0000
0000
0010
0000
1000
0000
0100
0000
0110
0000
0000
,
0000
0000
0000
0010
0000
0001
0000
0100
0000
0110
0000
0000
,
0000
0000
0000
0010
0000
1000
0000
0100
0000
0010
0000
0001
,
0000
0100
0000
0010
0000
1000
0000
0100
0000
0010
0000
0001
,
0000
0000
0000
0000
1000
0000
0000
0000
0000
0000
0000
0000
2002
0000
0000
0000
0000
0000
0000
0000
0000
0000
0000
0000
0000
0000
0000
0000
0000
0000
3003
0000
0000
0000
0000
0000
0002
0000
0000
0003
0000
0000
1000
0000
0000
0000
0000
0000
,
0001
1000
0001
1000
0001
1000
0001
1000
,
0001
1000
0001
1000
0001
1000
0001
0000
,
0000
0000
0000
0000
,
0000
0000
0000
0000
0000
0000
0000
0000
0000
0000
0000
0000
0000
0000
0000
0000
0000
0000
0000
0000
0000
0000
0000
0000
0000
0000
0000
0000
0000
0000
0000
0000
0000
0000
0000
0000
0000
0000
0000
0000
0000
0000
0000
0000
0000
0000
0000
0000
2000
0000
0000
3000
0000
0000
0000
0000
0000
0000
0000
0000
0000
0000
0000
0000
,
0000
0000
0000
0000
0000
0000
0000
0000
0000
0000
0000
0000
0000
0000
0000
0000
0020
0000
0000
0030
0000
0000
0000
0000
0000
0000
0000
0000
0000
0000
0000
0000
0000
0000
0000
0000
0000
0000
0000
0000
0000
0000
0000
0000
0000
0000
0000
0000
0002
0000
0000
0003
0000
0000
0000
0000
0000
0000
0000
0000
0000
0000
0000
0000
,
0000
0000
0000
0000
0000
0000
0000
0000
0000
0000
0000
0000
0000
0000
0000
0000
0200
0000
0000
0300
0000
0000
0000
0000
0100
0000
0000
0000
0000
0000
0000
0000
0010
0000
0000
0000
0100
0000
0000
0000
0010
0000
0000
0000
0000
0000
0000
0000
2001
0000
0000
3000
0001
0000
1000
0000
0010
0000
0000
0000
1000
0000
0001
0000
,
0010
0000
0100
1000
0001
0000
0100
0000
0110
0000
0010
1000
0001
0000
0010
0100
0010
0000
0001
1000
0010
0000
0100
0001
1000
0100
0010
0001
0100
0010
0100
0001
,
0010
0000
0001
0000
1000
0000
0010
0000
0100
0000
0001
0000
1000
0000
0100
0000
0020
0000
0000
0030
0000
0000
0010
0000
0000
0000
0000
0000
0000
0000
0000
0000
0000
0000
0000
0000
0000
0000
0000
0000
0000
0000
0000
0000
0000
0000
0000
0000
2002
0000
0000
0000
0000
0000
0000
0000
0000
0000
0000
0000
0000
0000
0000
0000
,
0000
0000
0000
0000
,
0000
0000
0000
0000
0000
0000
0000
0000
3003
0000
0000
0000
0002
0003
0000
0000
,
0010
0100
1000
0010
,
0100
0001
1000
0100
,
0001
0000
0100
0000
1000
0000
0001
0100
,
0001
0100
0010
0100
0010
0100
0001
0000
,
1000
0100
0010
0001
,
0100
0010
1000
0001
,
0010
0000
1000
0000
0010
0000
0001
1000
,
0001
1000
0010
0100
0010
0100
0001
0000
,
1000
0100
0010
1000
,
0010
0001
1000
0010
,
0001
0000
0010
0000
1000
0000
0001
0010
,
0001
0010
0100
1000
0100
1000
0001
0000
,
0100
0010
1000
0100
,
0010
0001
1000
0010
,
0001
0000
0010
0000
0100
0000
0010
1000
,
0010
1000
0001
0010
0001
0010
0001
0000
,
1000
0010
0100
1000
,
0001
0010
0100
0001
,
1000
0000
0001
0000
0010
0000
0100
1000
,
0001
0100
0010
0100
0001
1000
0001
0000
,
0010
1000
0001
0100
,
1000
0001
0100
0010
,
0001
0000
1000
0000
0100
0000
0001
1000
,
0100
0010
0100
1000
0001
0100
0010
0000
,
1000
0001
0010
1000
,
0001
0100
0010
0001
,
1000
0001
0100
0010
,
1000
0000
0001
1000
0001
0000
1000
0100
,
1000
0100
0010
0001
0010
0001
1000
0010
,
1000
0010
0100
0001
0100
0001
1000
0001
,
0010
0100
1000
0001
0100
0001
0010
0100
,
0010
0001
1000
0010
0100
0001
2000
0000
,
0000
0000
0000
0000
3100
0100
0010
0022
,
0000
0000
0033
0000
0001
0000
0001
0000
0100
0010
0100
0000
0110
0000
0110
0000
,
1010
1010
0000
1001
2002
0000
0000
0000
,
0000
0000
3003
0000
0001
1000
0001
0000
1001
0000
0000
0000
1100
0000
1100
0000
,
0101
0101
0000
0000
0011
0011
1010
1010
,
0000
0000
0000
0000
1000
0010
1000
0000
0001
0100
0001
0000
1001
0000
1001
0000
,
1100
1100
0000
0011
2002
0000
0003
0000
,
3000
0000
0000
0000
0000
0000
0000
0000
0000
0000
0000
0000
0000
0000
0000
0000
0000
0000
0000
0000
0000
0000
0000
0000
0000
0000
0000
0000
0000
0000
0000
0000
0000
0000
0000
0000
0000
0000
0000
0000
0000
0000
0000
0000
0000
0000
0000
0000
0001
0000
0000
0000
0000
0000
0000
0000
0000
0000
0000
0000
0000
0000
0000
0000
0000
0000
0000
0000
0000
0000
0000
0000
0000
0000
0000
0000
0000
0000
0000
0000
0000
0000
0000
0000
0000
0000
0000
0000
0000
0000
0000
0000
0000
0000
0000
0000
0000
0000
0000
0000
0000
0000
0000
0000
0000
0000
0000
0000
0000
0000
0000
0000
0000
0000
0000
0000
0000
0000
0000
0000
0000
0000
0000
0000
0000
0010
0000
0000
0000
0000
0000
0000
0000
0000
0000
0000
0000
0000
0000
0000
0000
0000
0000
0000
0000
0000
0000
0000
0000
0000
0000
0000
0000
0000
0000
0000
0000
0000
0000
0000
0000
0000
0000
0000
0000
0000
0000
0000
0000
0000
0000
0000
0000
0000
0000
0000
0000
0000
0000
0000
0000
0000
0000
0000
0000
0000
0000
0000
0000
0000
0000
0000
,
0000
0000
0000
0000
0000
0000
0000
0000
0000
0000
0100
0000
0000
0000
0000
0000
0000
0000
0000
0000
0000
0000
0000
0000
0000
0000
0000
0000
0000
0000
0000
0000
0000
0000
0000
0000
0000
0000
0000
0000
0000
0000
0000
0000
0000
0000
0000
0000
0000
0000
0000
0000
0000
0000
0000
0000
0000
0000
0000
0000
0000
0000
0000
0000
0000
0000
0000
0000
0000
0000
0000
0000
0000
0000
0000
0000
0000
0000
0000
0000
0000
0000
0000
0000
0000
0000
1000
0000
0000
0000
0000
0000
0000
0000
0000
0000
0000
0000
0000
0000
0000
0000
0000
0000
0000
0000
0000
0000
0000
0000
0000
0000
0000
0000
0000
0000
0000
0000
0000
0000
0000
0000
0000
0000
0000
0000
0000
0000
0000
0000
0000
0000
0000
0000
0000
0000
0000
0000
0000
0000
0000
0000
0000
0000
0000
0000
0000
0000
0000
0000
0000
0000
0000
0000
0000
0000
0000
0000
0000
0000
0000
0000
0000
0001
0000
0000
0000
0000
0000
0000
0000
0000
0000
0000
0000
0000
0000
0000
0000
0000
0000
0000
0000
0000
0000
0000
0000
0000
0000
0000
0000
0000
,
0000
0000
1000
0010
0100
0010
1000
0001
,
1000
0010
0100
0000
0001
0000
1000
0100
,
1000
0000
0000
0000
0000
0000
0000
0000
0100
0000
0000
0000
0000
0000
0000
0000
0010
0000
0000
0000
0000
0000
0000
0000
0000
0000
0000
0000
0000
0000
0000
0000
0022
0033
0000
0000
0000
0000
0000
0000
0000
0000
0000
0000
0000
0000
0000
0000
1000
0000
0000
0000
0000
0000
0000
0000
0000
0000
0000
0000
0000
0000
0000
0000
,
0100
1000
0010
0100
,
0001
0010
0001
0100
,
0010
1000
0001
1000
,
0000
0000
0000
0000
,
0000
0000
0000
0000
,
0000
0000
0000
2002
,
0000
0000
0000
0000
,
0000
0000
0000
0000
,
3003
0000
0000
0000
;

//--------------- dance-single - Fred-104† ----------------
#NOTES:
     dance-single:
     Fred-104†:
     Challenge:
     19:
     :
0000
0000
0000
0000
,
2100
0000
0000
0000
0000
0000
0000
0000
0001
0000
0000
0000
0000
0000
0000
0000
3100
0000
0000
0200
0000
0000
0000
0000
0010
0000
0000
0000
0000
0000
0000
0000
,
1300
0000
0000
2000
0000
0000
0000
0000
0001
0000
0000
0000
0000
0000
0000
0000
3010
0000
0000
0020
0000
0000
0000
0000
0001
0000
0000
0000
0000
0000
0000
0000
,
0130
0000
0000
0000
0000
0000
0000
0000
0000
0200
0000
0000
0000
0000
0000
0000
0000
0000
0000
0000
0000
0000
0000
0000
0301
0000
0000
0000
0000
0000
0000
0000
0000
0000
0000
0000
0000
0000
0000
0000
1000
0000
0000
0000
0100
0000
0000
0000
0110
0000
0000
0000
0000
0000
0000
0000
0000
0020
0000
0000
0000
0000
0000
0000
0000
0000
0000
0000
0000
0000
0000
0000
1000
0000
0000
0000
0000
0000
0000
0000
0000
0000
0000
0000
0000
0000
0000
0000
0000
0000
0000
0000
0000
0000
0000
0000
,
0031
0000
0000
0000
0000
0000
0000
0000
0000
0002
0000
0000
0000
0000
0000
0000
0000
0000
0000
0000
0000
0000
0000
0000
1000
0000
0000
0000
0000
0000
0000
0000
0000
0000
0000
0000
0000
0000
0000
0000
0000
0000
0000
0000
0000
0000
0000
0000
0013
0000
0000
0000
0100
0000
0000
0000
1000
0000
0000
0000
0010
0000
0000
0000
0100
0000
0000
0000
1000
0000
0000
0000
0001
0000
0000
0000
0010
0000
0000
0000
0100
0000
0000
0000
0001
0000
0000
0000
0010
0000
0000
0000
0100
0000
0000
0000
,
1100
0000
0000
2000
0000
0000
0000
0000
0001
0000
0000
0000
0000
0000
0000
0000
3010
0000
0000
0020
0000
0000
0000
0000
0001
0000
0000
0000
0000
0000
0000
0000
,
0130
0000
0000
0000
0000
0000
0000
0000
0000
0200
0000
0000
0000
0000
0000
0000
0000
0000
0000
0000
0000
0000
0000
0000
0001
0000
0000
0000
0000
0000
0000
0000
0000
0000
0000
0000
0000
0000
0000
0000
0000
0000
0000
0000
0000
0000
0000
0000
0310
0000
0000
0000
0000
0000
0000
0000
0000
0020
0000
0000
0000
0000
0000
0000
0000
0000
0000
0000
0000
0000
0000
0000
1030
0000
0000
0000
0000
0000
0000
0000
0000
0000
0000
0000
0001
0000
0000
0000
1000
0000
0000
0000
0001
0000
0000
0000
,
0011
0000
0000
0020
0000
0000
0000
0000
0001
0000
0000
0000
0000
0000
0000
0000
0130
0000
0000
0200
0000
0000
0000
0000
0001
0000
0000
0000
0000
0000
0000
0000
,
0310
0000
0000
0000
0000
0000
0000
0000
0000
0020
0000
0000
0000
0000
0000
0000
0000
0000
0000
0000
0000
0000
0000
0000
0001
0000
0000
0000
0000
0000
0000
0000
0000
0000
0000
0000
0000
0000
0000
0000
0000
0000
0000
0000
0000
0000
0000
0000
0130
0000
0000
0000
0000
0000
0000
0000
0000
0200
0000
0000
0000
0000
0000
0000
0000
0000
0000
0000
0000
0000
0000
0000
1300
0000
0000
0000
0010
0000
0000
0000
0100
0000
0000
0000
0001
0000
0000
0000
0010
0000
0000
0000
0100
0000
0000
0000
,
2100
0001
3010
0000
1010
0011
0101
1100
,
1002
0000
0000
1000
0000
0000
0103
0000
0000
0000
0000
0000
0101
0000
0000
1010
0000
0000
0001
1000
0100
0001
1000
0010
,
0110
1100
1001
0010
0110
0101
1001
0010
,
0110
1000
0001
0010
0000
0000
0110
0001
1000
0010
0000
0000
1000
0010
0001
1000
0100
0001
0010
1000
0001
0100
1000
0001
,
2002
3003
0000
0000
0000
0000
0000
0000
0000
0000
0000
0000
0000
0000
0000
0000
1000
0000
0000
0000
0000
0000
0000
0000
0100
0000
0000
0000
0000
0000
0000
0000
0010
0000
0000
0000
0000
0000
0000
0000
0001
0000
0000
0000
0000
0000
0000
0000
1000
0000
0000
0000
0000
0000
0000
0000
0010
0000
0000
0000
0000
0000
0000
0000
,
0100
0000
0001
0000
1000
0000
0100
0000
0000
0010
0000
0000
0100
0000
0000
1000
0000
0000
0001
0000
0000
0100
0000
0000
,
0010
0000
1000
0000
0001
0000
0010
0000
0000
0100
0000
0000
1000
0000
0000
0001
0000
0000
0100
0000
0000
0010
0000
0000
,
0100
0000
0000
0001
0000
0000
0010
0000
0100
0000
1000
0000
0010
0000
0100
0000
1000
0000
0001
0000
0010
0000
0100
0000
,
0001
0000
0010
0000
0100
0000
1000
0000
0000
0001
0000
0000
0100
0000
0000
0010
0000
0000
1000
0000
0000
0100
0000
0000
,
0010
0000
0100
0000
1000
0000
0001
0000
0000
0100
0000
0000
0001
0000
0000
0010
0000
0000
0100
0000
0000
0010
0000
0000
,
0001
1000
0010
0200
0000
0000
1000
0000
0000
0010
0000
0000
,
0301
0000
0000
1000
0100
0001
1000
0010
0001
0100
0010
0001
,
1000
0000
0100
0000
0001
0000
0010
0000
0000
0100
0000
0000
1000
0000
0000
0010
0000
0000
1000
0000
0000
0001
0000
0000
,
0010
0000
1000
0000
0001
0000
0100
0000
0000
1000
0000
0000
0001
0000
0000
0100
0000
0000
0010
0000
0000
0001
0000
0000
,
1000
0100
0001
1001
0000
0000
0001
0100
0010
1010
0000
0000
,
0001
0100
0010
1000
0100
0010
1000
0001
0100
0010
0001
0100
,
1000
0000
0001
0000
0010
0000
1000
0000
0000
0001
0000
0000
0100
0000
0000
1000
0000
0000
0001
0000
0000
0010
0000
0000
,
0100
0001
1000
0000
0001
0000
0100
0000
1000
0000
0001
0000
0010
0000
0100
0000
,
0001
1000
0100
0010
0012
0000
1000
0000
0200
0000
0303
0000
0102
0000
1000
0000
,
0020
0000
0033
0000
0001
1000
0100
0010
0001
0100
0010
1000
1001
0000
0000
0000
,
1001
0000
0001
0000
0010
0100
1000
0000
,
0001
0000
0100
0010
1000
0000
0001
0010
,
0100
1000
0001
0000
0100
0010
1000
0000
,
0100
0000
0010
0001
0100
0000
0001
1000
,
0010
1000
0001
0000
0010
0100
1000
0000
,
0001
0000
0100
0010
1000
0000
0100
0000
,
1000
0000
0000
0001
0000
0100
0000
1000
0000
0100
0000
0010
,
0000
0001
0000
1000
0000
0100
0000
0010
0000
0001
0000
0010
,
0000
0000
1000
0000
0000
0000
0001
0000
0000
0000
0000
0000
1000
0000
0000
0001
0000
0000
0100
0000
0000
0000
0000
0000
,
0010
0000
1000
0001
0010
0000
0100
0010
,
0001
1000
0010
0000
1000
0010
0100
0000
,
0001
0000
1000
0100
0010
0000
0001
0100
,
0010
0000
0000
1000
0000
0000
0001
0000
0000
0000
0010
0000
0000
0000
0100
0000
0000
0000
1100
0000
0000
0000
0000
0000
,
0000
0000
0000
1000
0000
0010
0000
0100
0000
0101
0000
0000
,
0000
0000
0000
0001
0000
0010
0000
0100
0000
0001
0000
1000
,
0000
0000
0010
0000
0000
0000
0100
0000
0000
0000
0010
0000
0000
0000
0001
0000
0000
0000
1000
0000
0000
0100
0000
0000
,
0010
0001
1000
0000
0001
0100
0010
1000
,
0001
0000
0010
0100
0010
0000
0001
0100
,
0010
1000
0100
0000
0010
0100
0001
0100
,
0010
0000
0001
1000
0010
0000
0100
0001
,
1000
0100
0010
0000
0001
1000
0010
0100
,
1000
0000
0100
0010
0001
0000
0010
1000
,
0001
0000
1000
0100
0010
0001
1000
0010
,
1000
0001
0010
0100
0010
0001
0100
0010
,
1000
0000
0000
0001
0000
0000
1000
0000
0000
0000
0100
0000
0000
0000
0010
0000
0000
0000
0011
0000
0000
0000
0000
0000
,
0000
0000
0000
0001
0000
0100
0000
0010
0000
1010
0000
0000
,
0000
0000
0000
0000
0000
0000
1000
0000
0000
0100
0000
0000
0001
0000
0000
0100
0000
0000
1000
0000
0000
0000
0100
0000
,
0000
0000
0010
0000
0000
0000
0001
0000
0000
0100
0000
0000
1000
0000
0000
0100
0000
0000
0001
0000
0000
0000
0100
0000
,
0000
0000
0010
0000
0000
0000
2002
0000
0000
0000
0000
0000
0000
0000
0000
3003
0000
0000
1000
0000
0000
0100
0000
0000
,
0010
0001
1000
0100
0010
0001
1000
0100
,
0010
0001
1000
0100
0010
0001
1000
0000
,
0000
0000
0000
0000
,
0000
0000
0000
0000
0000
0000
0000
0000
0000
0000
0000
0000
0000
0000
0000
0000
0000
0000
0000
0000
0000
0000
0000
0000
0000
0000
0000
0000
0000
0000
0000
0000
0000
0000
0000
0000
0000
0000
0000
0000
0000
0000
0000
0000
0000
0000
0000
0000
1001
0000
0000
1000
0000
0000
0000
0000
0000
0000
0000
0000
0000
0000
0000
0000
,
0000
0000
0000
0000
0000
0000
0000
0000
0000
0000
0000
0000
0000
0000
0000
0000
0100
0000
0000
0100
0000
0000
0000
0000
0000
0000
0000
0000
0000
0000
0000
0000
0000
0000
0000
0000
0000
0000
0000
0000
0000
0000
0000
0000
0000
0000
0000
0000
0001
0000
0000
0001
0000
0000
0000
0000
0100
0000
0000
0000
0100
0000
0001
0000
,
0100
0000
0000
0000
0001
0000
0100
0000
0001
0000
0000
0000
0001
0000
0000
0000
0010
0000
0000
0010
0000
0000
0000
0000
1000
0000
0000
0000
0010
0000
1000
0000
0010
0000
0000
0000
1000
0000
0010
0000
1000
0000
0000
0000
0001
0000
0000
0000
1002
0000
0000
0003
1000
0000
0001
0000
0010
0000
0000
0000
0100
0000
0010
0000
,
0100
0000
0000
0000
1000
0000
0001
0000
0100
0000
0010
0000
1000
0000
0100
0000
0020
0000
0100
0030
0010
0000
0001
0000
0100
0000
0010
0000
1000
0000
0100
0000
0001
0000
0100
0000
1000
0000
0010
0000
0100
0000
0001
0000
1000
0000
0001
0000
2000
0000
0100
3000
1000
0000
0010
0000
0100
0000
1000
0000
0001
0000
0010
0000
,
0100
0001
1000
0010
0001
1000
0100
0010
1000
0000
0000
1000
0000
0000
0000
0000
0000
0000
0000
0000
0000
0000
0000
0000
2002
0000
0000
0000
0000
0000
0000
0000
,
0000
0000
0000
0000
,
0000
0000
0000
0000
0000
0000
0000
0000
0000
0000
0000
0000
0000
0000
0000
0000
0000
0000
0000
0000
0000
0000
0000
0000
0000
0000
0000
0000
0000
0000
0000
0000
0000
3003
0000
0000
0000
0000
0000
0000
0000
0000
0000
0000
0000
0000
0000
0000
1000
0000
0000
0000
0000
0000
0000
0000
0000
0000
0000
0000
0000
0000
0000
0000
,
0010
0100
0001
0000
1000
0000
0100
0010
,
0001
0000
0100
0000
0001
0010
0100
0000
,
1000
0000
0001
0100
0010
0000
1000
0100
,
0010
0001
0100
0010
1000
0001
0010
0000
,
0100
1000
0001
0000
0100
0000
0010
1000
,
0100
0000
0010
0000
0100
1000
0010
0000
,
0100
0000
0001
1000
0100
0000
0010
0001
,
1000
0010
0100
0001
0010
0100
1000
0000
,
0001
1000
0010
0000
1000
0000
0001
0010
,
0100
0000
1000
0100
0010
0000
0001
0000
,
0100
0010
0100
0000
0001
0000
1000
0100
,
0010
0001
0100
0010
1000
0100
0010
0000
,
0100
1000
0001
0000
0100
0000
0010
1000
,
0100
0000
0010
0000
0100
1000
0010
0000
,
0100
0000
0001
0010
0100
0000
1000
0010
,
0100
0001
1000
0001
0010
0100
0010
0000
,
0001
1000
0100
0000
0010
0000
1000
0010
,
0001
0000
1000
0000
0001
0100
1000
0000
,
0100
0010
0100
0001
2000
0000
3001
0010
,
0100
0010
1000
0010
0001
1000
0001
0000
,
0010
0100
0010
0000
1000
0000
0010
0100
,
0010
0000
0001
0000
0100
0010
1000
0010
,
0200
0000
0302
0000
2003
0000
3100
0001
,
0100
0010
0001
1000
0010
1000
0001
0000
,
0100
0001
1000
0000
0001
0000
0010
0100
,
1000
0000
0001
0000
0100
0010
0001
0010
,
0200
0000
0320
0000
2030
0000
3100
0010
,
0001
0000
0000
0100
0000
0000
0010
0000
0000
1000
0000
0000
0001
0000
0000
0010
0000
0000
0100
0000
1000
0000
0100
0000
,
1000
0000
0000
0001
0000
0000
0100
0000
0000
0010
0000
0000
1000
0000
0000
0001
0000
0000
0010
0000
0100
0000
0010
0000
,
0100
0000
0000
1000
0000
0000
0001
0000
0000
0100
0000
0000
0010
0000
0000
1000
0000
0000
0001
0000
0010
0000
0001
0000
,
0010
0000
0000
0100
0000
0000
1000
0000
0010
0000
1000
0000
0010
0000
0000
0100
0000
0000
0001
0000
0010
0000
0001
0000
,
0010
0000
0000
0100
0000
0000
1000
0000
0001
0000
1000
0000
0010
0000
0000
0100
0000
0000
0002
0000
0000
0000
0000
0000
,
0000
0000
0000
0000
1000
1000
0010
0023
,
0000
0000
0000
0000
0100
0000
0130
0000
1000
0001
1000
0000
1010
0000
1010
0000
,
0101
0000
0101
0000
0001
1000
0001
1000
2002
0000
0000
0000
0000
0000
0000
0000
,
0000
0000
3000
0000
0013
0100
0010
0000
0110
0000
0000
0000
0011
0000
0011
0000
,
1100
1100
0001
0000
1010
1010
0101
0202
,
0303
0000
0000
0000
1000
0100
0001
0000
1000
0010
0001
0000
0101
0000
0101
0000
,
1010
0000
1010
0000
0001
1000
0001
1000
2002
0000
0000
0000
3000
0000
0000
0000
,
0003
0000
0000
0000
0000
0000
0000
0000
0000
0000
0000
0000
0000
0000
0000
0000
0000
0000
0000
0000
0000
0000
0000
0000
0000
0000
0000
0000
0000
0000
0000
0000
0000
0000
0000
0000
0000
0000
0000
0000
0000
0000
0000
0000
0000
0000
0000
0000
2000
0000
0000
0000
0000
0000
0000
0000
0000
0000
0000
0000
0000
0000
0000
0000
0000
0000
0000
0000
0000
0000
0000
0000
0000
0000
0000
0000
0000
0000
0000
0000
0000
0000
0000
0000
0000
0000
0000
0000
0000
0000
0000
0000
0000
0000
0000
0000
0000
0000
0000
0000
0000
0000
0000
0000
0000
0000
0000
0000
0000
0000
0000
0000
0000
0000
0000
0000
0000
0000
0000
0000
0000
0000
0000
0000
0000
3200
0000
0000
0000
0000
0000
0000
0000
0000
0000
0000
0000
0000
0000
0000
0000
0000
0000
0000
0000
0000
0000
0000
0000
0000
0000
0000
0000
0000
0000
0000
0000
0000
0000
0000
0000
0000
0000
0000
0000
0000
0000
0000
0000
0000
0000
0000
0000
0000
0000
0000
0000
0000
0000
0000
0000
0000
0000
0000
0000
0000
0000
0000
0000
0000
0000
0000
,
0000
0000
0000
0000
0000
0000
0000
0000
0000
0000
0302
0000
0000
0000
0000
0000
0000
0000
0000
0000
0000
0000
0000
0000
0000
0000
0000
0000
0000
0000
0000
0000
0000
0000
0000
0000
0000
0000
0000
0000
0000
0000
0000
0000
0000
0000
0000
0000
0000
0000
0000
0000
0000
0000
0000
0000
0000
0000
0000
0000
0000
0000
0000
0000
0000
0000
0000
0000
0000
0000
0000
0000
0000
0000
0000
0000
0000
0000
0000
0000
0000
0000
0000
0000
0000
0000
2003
0000
0000
0000
0000
0000
0000
0000
0000
0000
0000
0000
0000
0000
0000
0000
0000
0000
0000
0000
0000
0000
0000
0000
0000
0000
0000
0000
0000
0000
0000
0000
0000
0000
0000
0000
0000
0000
0000
0000
0000
0000
0000
0000
0000
0000
0000
0000
0000
0000
0000
0000
0000
0000
0000
0000
0000
0000
0000
0000
0000
0000
0000
0000
0000
0000
0000
0000
0000
0000
0000
0000
0000
0000
0000
0000
0000
3020
0000
0000
0000
0000
0000
0000
0000
0000
0000
0000
0000
0000
0000
0000
0000
0000
0000
0000
0000
0000
0000
0000
0000
0000
0000
0000
0000
0000
,
0000
0000
0031
0100
1000
0100
0001
1000
,
0100
0001
0100
0000
0010
0000
0001
1000
,
0010
0000
0000
0000
0000
0000
0000
0000
0100
0000
0000
0000
0000
0000
0000
0000
0001
0000
0000
0000
0000
0000
0000
0000
0000
0000
0000
0000
0000
0000
0000
0000
2002
3003
0000
0000
0000
0000
0000
0000
0000
0000
0000
0000
0000
0000
0000
0000
0001
0000
0000
0000
0000
0000
0000
0000
0000
0000
0000
0000
0000
0000
0000
0000
,
0010
0100
1000
0010
,
0100
0001
0010
0100
,
1000
0010
0100
0001
,
0000
0000
0000
0000
,
0000
0000
0000
0000
,
0000
0000
0000
2002
,
0000
0000
0000
0000
,
0000
0000
0000
0000
,
3003
0000
0000
0000
;

//--------------- dance-double - Fred-104 ----------------
#NOTES:
     dance-double:
     Fred-104:
     Easy:
     13:
     :
00000000
00000000
00000000
00000000
,
00002000
00003000
00000002
00000003
,
00000200
00000300
00002000
00003000
,
00020000
00030000
00002000
00003000
,
00020000
00000000
00030000
00000000
00100000
10000000
01000000
00100000
,
00102000
00003000
00020000
00030000
,
02000000
03000000
20000000
30000000
,
00200000
00300000
00020000
00030000
,
00002000
00003000
00020000
00030000
,
00011000
00000000
00001000
00000000
00000100
00000001
00000010
00001000
,
00011000
00000000
00010000
00000000
01000000
10000000
00100000
00010000
,
00011000
00001100
00011000
00001010
,
00011000
00010000
00011000
00001000
00010000
00010000
00001000
00001000
,
00011000
00000000
00000000
00000000
00002002
00003003
00000000
00000000
00000001
00000000
00000000
00000000
00000100
00000000
00000000
00000000
,
00001000
00010000
00001000
01000000
,
00010000
00100000
01000000
10000000
,
00100000
00010000
00010000
00010000
,
00010000
00001000
00010000
00000100
,
00000010
00000001
00000100
00001000
,
00010000
00011000
00000000
00000000
,
00000000
00001000
00001000
00001000
,
00001000
00010000
00100000
10000000
,
00010000
10000000
01000000
00010000
,
00001000
00011000
00000000
00000110
,
00000000
00000001
00000001
00000001
,
00000001
00000100
00000010
00000100
,
00001000
00010000
00100000
10000000
,
01000000
01100000
00000000
00011000
,
00000000
00000100
00000100
00000010
,
00000110
00000000
00000000
00000000
00002000
00003000
00000000
00000000
00000000
00000000
00000000
00000000
00000001
00000000
00000000
00000000
,
00000000
00000100
00000010
00000100
,
00000000
00001000
00000000
00010000
,
00000000
00001000
01000000
00001000
,
00000000
00010000
00000000
00001000
,
00000000
00100000
00010000
00100000
,
00000000
01000000
00000000
01000000
,
00000000
01000000
00000000
01000000
,
00000000
10000000
00000000
00010000
,
00000000
01000000
00100000
00010000
,
00000000
00001000
00000000
00010000
,
00000000
00000100
00000010
00000001
,
00000000
00001001
00000000
00000000
,
00000000
00000110
00000000
00000000
,
00000000
00000001
00000000
00000001
,
00000000
00000100
00000000
00000100
,
00000000
00001000
00000000
00010000
,
00000000
00001000
01000000
00001000
,
00000000
00100000
00000000
00010000
,
00000000
00100000
01000000
10000000
,
00000000
00010000
00000000
01000000
,
00000000
00100000
00010000
00001000
,
00000000
00010000
00000100
00000010
,
00000000
00000001
00001000
00000010
,
00000000
00000110
00000000
00000000
,
00000000
00011000
00000000
00000000
,
00000000
01100000
00000000
01100000
,
00000000
10010000
00000000
10010000
,
00000000
00000000
00000000
00000000
20020000
00000000
00000000
00000000
00000000
00000000
30030000
00000000
20000000
30000000
00000000
00000000
,
01000000
10000000
01000000
00010000
,
00001000
00010000
00001000
00010000
,
00000000
00000000
00000000
00000000
,
00000000
00000000
00000000
00011000
,
00000000
00001000
00000000
00000010
,
00000000
00000000
00000001
00000000
00000000
00000000
00001001
00001000
,
00000001
00000000
00000100
00000000
00001000
00010000
00001000
00000000
01000000
00010000
01000000
00000000
00100000
10000000
00100000
10000000
,
01000000
00000000
00010000
00000000
00001000
00000000
00010000
00000000
00022000
00000000
00000000
00033000
00000000
00000000
00000000
00000000
00000000
00000000
00000000
00000000
00000000
00000000
00000000
00000000
00022000
00000000
00000000
00000000
00000000
00000000
00000000
00000000
,
00000000
00000000
00000000
00000000
,
00000000
00000000
00000000
00000000
00000000
00000000
00000000
00000000
00033000
00000000
00000000
00000000
00002000
00003000
00000000
00000000
,
00000000
00010000
00001000
00000000
,
00100000
00001000
00000000
00100000
,
00010000
00000000
00100000
01000000
,
10000000
01000000
10000000
00010000
,
00000000
01000000
00001000
00000000
,
00010000
00000100
00000000
00000010
,
00000001
00000000
00001000
00000001
,
00000100
00000001
00000100
00000001
,
00000000
00001000
00000001
00000000
,
00000010
00000100
00000000
00010000
,
00001000
00000000
01000000
00001000
,
00010000
00001000
00010000
00001000
,
00000000
00000100
00000001
00000000
,
00001000
00000100
00000000
00000010
,
00000001
00000000
00001000
00000001
,
00000100
00000001
00000100
00000001
,
00000000
00001000
00000001
00000000
,
00000010
00000100
00000000
00010000
,
00001000
00000000
01000000
00001000
,
00010000
00100000
01000000
00010000
,
00000000
10000000
01000000
00000000
,
10000000
00010000
00000000
00100000
,
01000000
00000000
10000000
00010000
,
01000000
00010000
00100000
01000000
,
00000000
00010000
00001000
00000000
,
00010000
00000100
00000000
00000010
,
00000001
00001000
00000000
00000001
,
00000010
00000100
00000000
00020000
,
00000000
00032000
00000000
00003020
,
00000000
00000032
00000000
00000203
,
00000000
00002300
00000000
00023000
,
00000000
00032000
00003000
00022000
,
00000000
00000000
00000000
00000000
,
00000000
00000000
00033000
00101000
,
00000000
00010010
00000000
00000000
00022000
00000000
00000000
00000000
,
00000000
00033000
00000000
00001000
,
00000000
00010000
00000000
00000000
00100000
00000000
00000000
10000000
,
00000000
01000000
00010000
00001000
,
00000000
00010000
00000000
00000000
00022000
00000000
00000000
00000000
,
00033000
00020000
00000000
00000000
,
00000000
00000000
00000000
00000000
,
00030000
00001000
00010000
00001000
,
00000000
00001000
00000000
00001000
,
01000000
01000000
01000000
00010000
,
00000000
00000000
00000000
10000000
,
00000000
00000000
00000000
00010000
,
00000000
00000000
00000000
10000000
,
00000000
00000000
00000000
00000000
,
00000000
00000000
00000000
00000000
,
00000000
00000000
00000000
02200000
,
00000000
00000000
00000000
00000000
,
00000000
00000000
00000000
00000000
,
03300000
00000000
00000000
00000000
;

//--------------- dance-double - Fred-104 ----------------
#NOTES:
     dance-double:
     Fred-104:
     Medium:
     16:
     :
00000000
00000000
00000000
00000000
,
10020000
20030000
32000000
03020000
,
00032000
00003020
00000032
00000203
,
00002300
00000000
00000000
00000000
00000000
00000000
00003000
00000000
00000000
00000000
00010000
00001000
00020000
00000000
00000000
00000000
00000000
00000000
00230000
00000000
00000000
00000000
00000000
00000000
,
20300000
00000000
00000000
00000000
00000000
00000000
32000000
00000000
00000000
00000000
00000000
00000000
03100000
00001000
00100000
00001000
00000000
00000000
00010000
00000010
00010000
00000010
00000000
00000000
,
00002010
00003002
00000023
00002030
,
00023000
00000000
00000000
00000000
00000000
00000000
02030000
00000000
00000000
00000000
00000000
00000000
23000000
00000000
00000000
00000000
00000000
00000000
30010000
00000000
00000000
01000000
00100000
01000000
,
00200000
00320000
00032000
00003200
,
00000302
00000000
00000000
00000000
00000000
00000000
00000023
00000000
00000000
00000000
00000000
00000000
00002030
00000000
00000000
00000000
00000000
00000000
00013000
00001000
00010000
00001000
00000000
00000000
,
00011000
00000000
00001010
00000000
00000011
00000001
00000100
00001000
,
00011000
00000000
00000000
00000000
00000000
00000000
00110000
00000000
00000000
00000000
00000000
00000000
10100000
00000000
00000000
10000000
00000000
00000000
01000000
00010000
00001000
00010000
00000000
00000000
,
00011000
00001000
00000001
00001000
00011000
00010000
10000000
00010000
,
00011000
00000000
00000000
00001000
00000000
00000000
00011000
00000000
00000000
00010000
00000000
00000000
00001000
00010000
00100000
01000000
00000000
00000000
00001000
00010000
00100000
01000000
00000000
00000000
,
10010000
00000000
00000000
00000000
20000000
30000000
01000000
00000000
00010000
00000000
01000000
00000000
10000000
00000000
01000000
00000000
,
00100000
00000000
00001000
00010000
00000100
00000010
00000001
00000100
,
00000010
00000000
00001000
00000001
00000100
00001000
00010000
00001000
,
01000000
00000000
00000000
00010000
00100000
01000000
10000000
00000000
00000000
00010000
01000000
00100000
,
10000000
00000000
00010000
00100000
01000000
00010000
00001000
00010000
,
00000010
00000000
00001000
00000100
00000001
00000100
00000010
00000100
,
00010000
00011000
00001000
00000100
,
00000001
00000000
00000000
00001000
00000100
00000010
00000001
00000000
00000000
00001000
00000010
00000100
,
00000001
00000000
00001000
00000001
00000010
00001000
00010000
00001000
,
01000000
00000000
00100000
01000000
10000000
01000000
00100000
10000000
,
00010000
00000000
00000000
00101000
00000000
00000000
00001000
00010000
00000100
00001000
00000000
00000000
,
00000100
00010000
00001000
00010000
00100000
10000000
00010000
00000000
00000000
10000000
01000000
00010000
,
00001000
00000000
00010000
00000010
00000100
00000010
00000001
00000010
,
00001000
00000001
00000010
00000100
00000010
00001000
00010000
01000000
,
10000000
00010000
00110000
00000000
10000000
00000000
10100000
00000000
,
00010000
00000000
10000000
01000000
00010000
00001000
00010000
00000000
,
00011000
00000000
00000000
00000000
00020000
00030000
00000000
00000000
00001000
00000000
00000000
00000000
00000100
00000000
00000000
00000000
,
00000001
00001000
00000001
00000010
,
00000100
00001000
00000001
00000100
,
00001000
00010000
00100000
10000000
,
00010000
00100000
01000000
00010000
,
01000000
00100000
00001000
00010000
,
00000100
00000000
00000000
00000010
00000000
00000001
00000000
00000010
00000000
00000001
00000000
00000010
,
00000000
00000100
00000000
00001000
00000000
00000100
00000000
00001000
00000000
00000100
00000000
00010000
,
00000000
00001000
00000000
00010000
00000000
00000000
00001000
00000000
00000000
01000000
00000000
00000000
,
00010000
00100000
00001000
00100000
,
01000000
10000000
00010000
01000000
,
00100000
00010000
00000010
00010000
,
00001000
00000000
00000000
00010000
00000000
00001000
00000000
01000000
00000000
00001000
00000000
00000000
,
00000000
00000000
00000000
00010000
00000000
00001000
00000000
00100000
00000000
00001000
00000000
00000000
,
00000000
00000000
00000000
00010000
00000000
00001000
00000000
00010000
00000000
00001000
00000000
00000100
,
00000000
00000010
00000000
00000100
00000000
00000010
00000000
00001000
00000000
00000001
00000000
00000000
,
00000000
00001000
00000010
00000100
,
00001000
01000000
00010000
00100000
,
01000000
10000000
00010000
01000000
,
00001000
00000100
00000010
00010000
,
00001000
00100000
00001000
00000010
,
00000100
00001000
00000001
00000100
,
00001000
00010000
00001000
00000010
,
00001000
00010000
01000000
10000000
,
00010000
00000000
00000000
10000000
00000000
01000000
00000000
00100000
00000000
00001000
00000000
00000000
,
00000000
00000000
00000000
00010000
00000000
00000100
00000000
00000010
00000000
00000001
00000000
00000000
,
00000000
00000000
00000000
00001000
00000000
00000010
00000000
00010000
00000000
00001000
00000000
00000000
,
00000000
00000000
00000000
00010000
00000000
00001000
00000000
00000010
00000000
00000100
00000000
00000000
,
00000000
00000000
00000000
00000000
00002002
00000000
00000000
00000000
00000000
00000000
00003003
00000000
00000002
00000003
00000000
00000000
,
00000010
00001000
00010000
01000000
,
10000000
00100000
00010000
00001000
,
00000000
00000000
00000000
00000000
,
00000000
00000000
00000000
00000000
00000000
00000000
00000000
00000000
00000000
00000000
00000000
00000000
00000000
00000000
00000000
00000000
00000000
00000000
00000000
00000000
00000000
00000000
00000000
00000000
00000000
00000000
00000000
00000000
00000000
00000000
00000000
00000000
00000000
00000000
00000000
00000000
00000000
00000000
00000000
00000000
00000000
00000000
00000000
00000000
00000000
00000000
00000000
00000000
00002000
00000000
00000000
00003000
00000000
00000000
00000000
00000000
00000000
00000000
00000000
00000000
00000000
00000000
00000000
00000000
,
00000000
00000000
00000000
00000000
00000000
00000000
00000000
00000000
00000000
00000000
00000000
00000000
00000000
00000000
00000000
00000000
00020000
00000000
00000000
00030000
00000000
00000000
00000000
00000000
00000000
00000000
00000000
00000000
00000000
00000000
00000000
00000000
00000000
00000000
00000000
00000000
00000000
00000000
00000000
00000000
00000000
00000000
00000000
00000000
00000000
00000000
00000000
00000000
00002000
00000000
00000000
00003000
00000000
00000000
00000000
00000000
00000000
00000000
00000000
00000000
00000000
00000000
00000000
00000000
,
00000000
00000000
00000000
00000000
00000000
00000000
00000000
00000000
00000000
00000000
00000000
00000000
00000000
00000000
00000000
00000000
00020000
00000000
00000000
00030000
00000000
00000000
00000000
00000000
00010000
00000000
00000000
00000000
00000000
00000000
00000000
00000000
00001000
00000000
00000000
00000000
00000000
00000000
00000000
00000000
00001000
00000000
00000000
00000000
00000000
00000000
00000000
00000000
00022000
00000000
00000000
00033000
00001000
00000000
00000000
00000000
00010000
00000000
00000000
00000000
00100000
00000000
00000000
00000000
,
10000000
00000000
00000000
00000000
00010000
00000000
00000000
00000000
00100000
00000000
00000000
00000000
01000000
00000000
00000000
00000000
20000000
00000000
00000000
30000000
00010000
00000000
01000000
00000000
00010000
00000000
00000000
00000000
10000000
00000000
00100000
00000000
10000000
00000000
00000000
00000000
01000000
00000000
00100000
00000000
00001000
00000000
00000000
00000000
00010000
00000000
00001000
00000000
00000200
00000000
00000000
00000300
00000001
00000000
00001000
00000000
00000100
00000000
00000000
00000000
00000010
00000000
00001000
00000000
,
00010000
00000000
00000000
00000000
01000000
00000000
00100000
00000000
00010000
00000000
00000000
00000000
10000000
00000000
00100000
00000000
00020000
00000000
00000000
00030000
00000000
00000000
00001000
00000000
00000000
00000000
00000000
00000000
00000000
00000000
00000000
00000000
00000000
00000000
00000000
00000000
00000000
00000000
00000000
00000000
00000000
00000000
00000000
00000000
00000000
00000000
00000000
00000000
00000220
00000000
00000000
00000000
00000000
00000000
00000000
00000000
00000000
00000000
00000000
00000000
00000000
00000000
00000000
00000000
,
00000000
00000000
00000000
00000000
,
00000000
00000000
00000000
00000000
00000000
00000000
00000000
00000000
00000330
00000000
00000000
00000000
00000002
00000003
00000000
00000000
,
00000010
00000100
00000010
00001000
,
00010000
01000000
00100000
00010000
,
10000000
00000000
00100000
00000000
00010000
00000000
00001000
00010000
,
00001000
00000000
00010000
00000100
00010000
00000000
00001000
00000000
,
00010000
00100000
01000000
00010000
,
10000000
01000000
00010000
00001000
,
00010000
00000000
00100000
00000000
00010000
00000000
00001000
00010000
,
00001000
00000000
00010000
00000010
00010000
00000000
00001000
00000000
,
00010000
00000100
00000010
00000001
,
00001000
00000001
00000100
00001000
,
00010000
00000000
00001000
00000000
01000000
00000000
00010000
00100000
,
00010000
00000000
10000000
00100000
10000000
00000000
00010000
00000000
,
00100000
01000000
00010000
00001000
,
00000010
00000100
00010000
00001000
,
00010000
00000000
00000100
00000000
00000010
00000000
00000001
00001000
,
00000001
00000000
00000100
00000010
00000100
00000000
00000001
00000000
,
00000010
00000100
00001000
00000010
,
00000100
00001000
00010000
00100000
,
10000000
00000000
00010000
00000000
10000000
00000000
01000000
00100000
,
01000000
00000000
00100000
00010000
00100000
00000000
00001000
00000000
,
00010000
00000010
00010000
00001000
,
00100000
01000000
00010000
01000000
,
10000000
00000000
00010000
00000000
01000000
00000000
00001000
00010000
,
00001000
00000000
00010000
00000010
00010000
00000000
00001000
00000000
,
00010000
00000100
00000010
00000100
,
00000001
00000100
00001000
00000001
,
00000100
00001000
00010000
00100000
,
01000000
00000000
00100000
00000000
10000000
00000000
00010000
00100000
,
00010000
00000000
10000000
00000000
01000000
00000000
00100000
00010000
,
00100000
00000000
00001000
00000000
00010000
00000000
00000100
00000010
,
00000100
00000000
00000010
00000000
00000001
00000000
00001000
00000010
,
00001000
00000000
00000010
00010000
00001000
00000000
00022000
00000000
,
00000000
00000000
00000000
00033000
00001000
00010000
00100000
10000000
,
00000000
00000000
00010000
00100000
10000000
00100000
00010000
10000000
,
00100000
00010000
00010000
00001000
00022000
00000000
00000000
00000000
,
00000000
00033000
00010000
00000100
00001100
00000000
00000100
00010000
,
00001000
00010000
00000000
00000000
01000000
00010000
00001000
00010000
,
00000000
00000000
00000100
00010000
00001000
00010000
00100000
10000000
,
01000000
00010000
00001000
00010000
00022000
00000000
00003000
00000000
,
00030000
00002000
00000000
00000000
,
00000000
00000000
00000000
00000000
,
00003000
00001000
00001000
00010000
,
00010000
00100000
00100000
10000000
,
01000000
00000000
00000000
00000000
00000000
00000000
00000000
00000000
00000000
00000000
00000000
00000000
00000000
00000000
00000000
00000000
00010000
00000000
00000000
00000000
00000000
00000000
00000000
00000000
00000000
00000000
00000000
00000000
00000000
00000000
00000000
00000000
00022000
00033000
00000000
00000000
00000000
00000000
00000000
00000000
00000000
00000000
00000000
00000000
00000000
00000000
00000000
00000000
00010000
00000000
00000000
00000000
00000000
00000000
00000000
00000000
00000000
00000000
00000000
00000000
00000000
00000000
00000000
00000000
,
00000000
00001000
00000000
00000100
,
00000000
00000001
00000000
00001000
,
00000001
00001000
00000001
00001000
,
00000000
00000000
00000000
00000000
,
00000000
00000000
00000000
00000000
,
00000000
00000000
00000000
00002002
,
00000000
00000000
00000000
00000000
,
00000000
00000000
00000000
00000000
,
00003003
00000000
00000000
00000000
;

//--------------- dance-double - Fred-104 ----------------
#NOTES:
     dance-double:
     Fred-104:
     Hard:
     18:
     :
00000000
00000000
00000000
00000000
,
00002000
00010000
01000000
00010000
,
00100000
00000010
00010000
01000000
,
00010000
00000000
00000000
00000000
00000000
00000000
00013000
00000000
00000000
00000000
00010000
00001000
00020000
00000000
00000000
00000000
00000000
00000000
00000010
00000000
00000000
00000000
00000000
00000000
,
00100000
00000000
00000000
00000000
00000000
00000000
00030010
00000000
00000000
00000000
00000000
00000000
00010000
00001000
00000010
00000100
00000010
00000001
00001000
00000010
00000100
00000001
00000010
00000100
,
00020000
00001000
01000000
00000010
,
00100000
00000000
00000000
00000000
00000000
00000000
00000100
00000000
00000000
00000000
00000000
00000000
00001000
00000000
00000000
00000000
00000000
00000000
00031000
00000000
00000000
00010000
00001000
00010000
,
00200000
01000000
20300000
00100000
,
30020000
00000000
00000000
00000000
00000000
00000000
01000000
00000000
00000000
00000000
00000000
00000000
00230000
00000000
00000000
00000000
00000000
00000000
00301000
00010000
01000000
00100000
00010000
10000000
,
10100000
00000000
00001000
00000000
00011000
00010000
00000010
00000000
,
00000101
00000000
00000000
00000000
00000000
00000000
00010000
00000000
00000000
00000000
00000000
00000000
00011000
00000000
00000000
00010000
00000000
00000000
00001000
00010000
01000000
10000000
00010000
10000000
,
10010000
00011000
00001001
00011000
,
10010000
00000000
00000000
00010000
00000000
00000000
10010000
00000000
00000000
10000000
00000000
00000000
00010000
10000000
00100000
01000000
00100000
00010000
00001000
00000100
00000010
00000100
00000001
00001000
,
00000001
00000000
00000000
00000000
00022000
00003000
00000000
00000000
00000100
00000000
00000000
00000000
00001000
00000000
00000000
00000000
,
01030000
00100000
00010000
20000000
00000000
00000000
00100000
00000000
00000000
00010000
00000000
00000000
,
31000000
00100000
00001000
00020000
00000000
00000000
00001000
00000000
00000000
00000010
00000000
00000000
,
00031000
00000000
00000000
00010000
00001000
00000100
00000010
00000100
00001000
00010000
00001000
00000010
,
00000100
00000010
00001000
00020000
00000000
00000000
00001000
00000000
00000000
00000100
00000000
00000000
,
00031000
00000100
00000001
00000020
00000000
00000000
00001000
00000000
00000000
00000100
00000000
00000000
,
00000031
00000100
00001000
00020000
00000000
00000000
00000010
00000000
00000000
00100000
00000000
00000000
,
00031000
00000000
00000000
00001000
00010000
00100000
01000000
00100000
00010000
00001000
00010000
01000000
,
00100000
01000000
00010000
00002000
00000000
00000000
00010000
00000000
00000000
00000100
00000000
00000000
,
00013000
00001000
01000000
00020000
00000000
00000000
10000000
00000000
00000000
00100000
00000000
00000000
,
01030000
00100000
10000000
00010000
00000000
00000000
10000000
01000000
00010000
00001000
00000000
00000000
,
00010000
00001000
00000010
00000001
00000010
00001000
00010000
00001000
00000010
00000001
00000100
00001000
,
00010000
00001000
00000100
00000002
00000000
00000000
00000010
00000000
00000000
00001000
00000000
00000000
,
00000103
00001000
00010000
00002000
00000000
00000000
01000000
00000000
00000000
00000100
00000000
00000000
,
00013000
00001000
00010000
00010010
00000000
00000000
00010000
00000000
00000000
00101000
00000000
00000000
,
00001000
00000000
00010000
00001000
00010000
00100000
10000000
01000000
,
01100000
00000000
00000000
00000000
00020000
00030000
00000000
00000000
10000000
00000000
00000000
00000000
01000000
00000000
00000000
00000000
,
00010000
00000000
00001000
00000000
00010000
00000000
00100000
01000000
,
00100000
10000000
00010000
00100000
,
01000000
00000000
00010000
00000000
00001000
00000000
00000100
00000001
,
00000100
00000001
00001000
00000100
,
00000010
00000000
00001000
00000000
00010000
00000000
00001000
00100000
,
00001000
00000000
00000000
00010000
00000000
00001000
00000000
00000010
00000000
00000100
00000000
00000010
,
00000000
00001000
00000000
00010000
00000000
00001000
00000000
00000100
00000000
00000010
00000000
00000100
,
00000000
00001000
00000000
00010000
00000000
00000000
00001000
00000000
00000000
00000010
00000000
00000000
,
00000100
00000000
00000010
00000000
00000001
00000000
00000100
00000010
,
00000100
00000001
00000010
00000100
,
00000010
00000000
00001000
00000000
00010000
00000000
01000000
00100000
,
01000000
00000000
00000000
10000000
00000000
00100000
00000000
00010000
00000000
00011000
00000000
00000000
,
00000000
00000000
00000000
00010000
00000000
00001000
00000000
00000100
00000000
00000101
00000000
00000000
,
00000000
00000000
00000000
00001000
00000000
00000100
00000000
00000010
00000000
00000001
00000000
00000010
,
00000000
00000000
00000100
00000000
00000000
00000000
00010000
00000000
00000000
00000000
00001000
00000000
00000000
00000000
01000000
00000000
00000000
00000000
00010000
00000000
00000000
10000000
00000000
00000000
,
00010000
10000000
00100000
00000000
10000000
00000000
01000000
00000000
,
00010000
00000000
00001000
00000000
00010000
00000000
00000100
00001000
,
00000100
00000010
00000001
00001000
,
00000010
00000000
00010000
00000000
00100000
00000000
01000000
00010000
,
01000000
00001000
00010000
01000000
,
00100000
00000000
00010000
00000000
01000000
00000000
00001000
00010000
,
00001000
00010000
00100000
10000000
,
01000000
00000000
00010000
00000000
00001000
00000000
00010000
00001000
,
00010000
00000000
00000000
00001000
00000000
00010000
00000000
01000000
00000000
11000000
00000000
00000000
,
00000000
00000000
00000000
10000000
00000000
00100000
00000000
00010000
00000000
00011000
00000000
00000000
,
00000000
00000000
00000000
00001000
00000000
00010000
00000000
00100000
00000000
10000000
00000000
00100000
,
00000000
00010000
00000000
00001000
00000000
00010000
00000000
01000000
00000000
10000000
00000000
01000000
,
00000000
00000000
00000000
00000000
00010000
00000000
00000000
00000000
00000000
00000000
00000000
00000000
00022000
00000000
00000000
00000000
00000000
00000000
00000000
00000000
00000000
00000000
00000000
00000000
00000000
00000000
00000000
00000000
00000000
00000000
00033000
00000000
00000000
00000000
00000000
00000000
00002000
00000000
00000000
00003000
00000000
00000000
00010000
00000000
00000000
00000000
00000000
00000000
,
00001000
00010000
00001000
00010000
00001000
00010000
00001000
00010000
,
00001000
00010000
00001000
00010000
00001000
00010000
00001000
00000000
,
00000000
00000000
00000000
00000000
,
00000000
00000000
00000000
00000000
00000000
00000000
00000000
00000000
00000000
00000000
00000000
00000000
00000000
00000000
00000000
00000000
00000000
00000000
00000000
00000000
00000000
00000000
00000000
00000000
00000000
00000000
00000000
00000000
00000000
00000000
00000000
00000000
00000000
00000000
00000000
00000000
00000000
00000000
00000000
00000000
00000000
00000000
00000000
00000000
00000000
00000000
00000000
00000000
20000000
00000000
00000000
30000000
00000000
00000000
00000000
00000000
00000000
00000000
00000000
00000000
00000000
00000000
00000000
00000000
,
00000000
00000000
00000000
00000000
00000000
00000000
00000000
00000000
00000000
00000000
00000000
00000000
00000000
00000000
00000000
00000000
02000000
00000000
00000000
00000000
03000000
00000000
00000000
00000000
00000000
00000000
00000000
00000000
00000000
00000000
00000000
00000000
00000000
00000000
00000000
00000000
00000000
00000000
00000000
00000000
00000000
00000000
00000000
00000000
00000000
00000000
00000000
00000000
00020000
00000000
00000000
00030000
00000000
00000000
00000000
00000000
00000000
00000000
00000000
00000000
00000000
00000000
00000000
00000000
,
00000000
00000000
00000000
00000000
00000000
00000000
00000000
00000000
00000000
00000000
00000000
00000000
00000000
00000000
00000000
00000000
00002000
00000000
00000000
00003000
00000000
00000000
00000000
00000000
00001000
00000000
00000000
00000000
00000000
00000000
00000000
00000000
00010000
00000000
00000000
00000000
00001000
00000000
00000000
00000000
00010000
00000000
00000000
00000000
00000000
00000000
00000000
00000000
00021000
00000000
00000000
00030000
00001000
00000000
00010000
00000000
00000100
00000000
00000000
00000000
00000010
00000000
00000001
00000000
,
00001000
00000000
00000010
00000100
00001000
00000000
00010000
00000000
00011000
00000000
00001000
00010000
00100000
00000000
01000000
00010000
10000000
00000000
00010000
00100000
01000000
10000000
01000000
10000000
00010000
01000000
00100000
00010000
00001000
00000100
00000001
00001000
,
00000001
00000000
00000010
00000000
00001000
00000000
00100000
00000000
00010000
00000000
10000000
00000000
01000000
00000000
00010000
00000000
00002000
00000000
00000000
00003000
00000000
00000000
00001000
00000000
00000000
00000000
00000000
00000000
00000000
00000000
00000000
00000000
00000000
00000000
00000000
00000000
00000000
00000000
00000000
00000000
00000000
00000000
00000000
00000000
00000000
00000000
00000000
00000000
20020000
00000000
00000000
00000000
00000000
00000000
00000000
00000000
00000000
00000000
00000000
00000000
00000000
00000000
00000000
00000000
,
00000000
00000000
00000000
00000000
,
00000000
00000000
00000000
00000000
00000000
00000000
00000000
00000000
30030000
00000000
00000000
00000000
20000000
30000000
00000000
00000000
,
01000000
00010000
00001000
00010000
,
00100000
00010000
00001000
00000100
,
00000001
00000000
00001000
00000000
00000100
00000000
00000010
00000001
,
00000010
00000001
00001000
00000010
00001000
00000010
00000100
00000000
,
00001000
00010000
00001000
01000000
,
00010000
00100000
10000000
00100000
,
00001000
00000000
00010000
00000000
00001000
00000000
00100000
00010000
,
00100000
00010000
01000000
00010000
01000000
00010000
00100000
00000000
,
01000000
10000000
00010000
01000000
,
00100000
00010000
00000010
00001000
,
00000010
00000000
00000100
00000000
00000001
00000000
00000010
00000001
,
00000010
00000001
00001000
00000010
00001000
00000010
00000100
00000000
,
00001000
00010000
00100000
01000000
,
00010000
10000000
01000000
00010000
,
00001000
00000000
00100000
00000000
00001000
00000000
00010000
00000100
,
00010000
00000100
00000010
00000100
00000010
00000100
00001000
00000000
,
00000001
00000100
00001000
01000000
,
00010000
00100000
01000000
00010000
,
00000100
00000000
00010000
00000000
00001000
00000000
00010000
00001000
,
00010000
00000100
00001000
00000001
00000100
00000010
00001000
00000000
,
00000001
00000010
00001000
00100000
,
00010000
01000000
00001000
00010000
,
00100000
00000000
10000000
00000000
01000000
00000000
00100000
00001000
,
00010000
00001000
01000000
00010000
10000000
00010000
00100000
00000000
,
00010000
01000000
00001000
00010000
,
00000010
00000100
00001000
00000100
,
00000001
00000010
00001000
00010000
,
01000000
00000000
10000000
00000000
00010000
00000000
01000000
00100000
,
10000000
00100000
01000000
00010000
10000000
01000000
00100000
00010000
,
00100000
00001000
00010000
00001000
00010000
00000100
00001000
00000001
,
00000100
00000010
00000100
00000001
00001000
00000001
00000010
00000100
,
00001000
00000100
00010000
00001000
00100000
00001000
00020000
00000000
,
00000000
00000000
00000000
00000000
00031000
00001000
00010000
00022000
,
00000000
00000000
00033000
00000000
00001000
00000000
00010000
00000000
00100000
10000000
00100000
00000000
10000000
00000000
01000000
00000000
,
00100000
00101000
00000000
00010010
00002020
00000000
00000000
00000000
,
00000000
00000000
00003030
00000000
00000100
00000001
00000100
00000000
00001001
00000000
00000000
00000000
00000001
00000000
00000010
00000000
,
00001000
00011000
00000000
00000000
00010000
00001000
00000100
00000101
,
00000000
00000000
00000000
00000000
00000001
00000010
00001000
00000000
00010000
01000000
10000000
00000000
00010000
00000000
01000000
00000000
,
00001000
00011000
00000000
00010100
00002200
00000000
00000300
00000000
,
00003000
00000000
00000000
00000000
00000000
00000000
00000000
00000000
00000000
00000000
00000000
00000000
00000000
00000000
00000000
00000000
00000000
00000000
00000000
00000000
00000000
00000000
00000000
00000000
00000000
00000000
00000000
00000000
00000000
00000000
00000000
00000000
00000000
00000000
00000000
00000000
00000000
00000000
00000000
00000000
00000000
00000000
00000000
00000000
00000000
00000000
00000000
00000000
00000001
00000000
00000000
00000000
00000000
00000000
00000000
00000000
00000000
00000000
00000000
00000000
00000000
00000000
00000000
00000000
00000000
00000000
00000000
00000000
00000000
00000000
00000000
00000000
00000000
00000000
00000000
00000000
00000000
00000000
00000000
00000000
00000000
00000000
00000000
00000000
00000000
00000000
00000000
00000000
00000000
00000000
00000000
00000000
00000000
00000000
00000000
00000000
00000000
00000000
00000000
00000000
00000000
00000000
00000000
00000000
00000000
00000000
00000000
00000000
00000000
00000000
00000000
00000000
00000000
00000000
00000000
00000000
00000000
00000000
00000000
00000000
00000000
00000000
00000000
00000000
00000000
00000100
00000000
00000000
00000000
00000000
00000000
00000000
00000000
00000000
00000000
00000000
00000000
00000000
00000000
00000000
00000000
00000000
00000000
00000000
00000000
00000000
00000000
00000000
00000000
00000000
00000000
00000000
00000000
00000000
00000000
00000000
00000000
00000000
00000000
00000000
00000000
00000000
00000000
00000000
00000000
00000000
00000000
00000000
00000000
00000000
00000000
00000000
00000000
00000000
00000000
00000000
00000000
00000000
00000000
00000000
00000000
00000000
00000000
00000000
00000000
00000000
00000000
00000000
00000000
00000000
00000000
00000000
,
00000000
00000000
00000000
00000000
00000000
00000000
00000000
00000000
00000000
00000000
00001000
00000000
00000000
00000000
00000000
00000000
00000000
00000000
00000000
00000000
00000000
00000000
00000000
00000000
00000000
00000000
00000000
00000000
00000000
00000000
00000000
00000000
00000000
00000000
00000000
00000000
00000000
00000000
00000000
00000000
00000000
00000000
00000000
00000000
00000000
00000000
00000000
00000000
00000000
00000000
00000000
00000000
00000000
00000000
00000000
00000000
00000000
00000000
00000000
00000000
00000000
00000000
00000000
00000000
00000000
00000000
00000000
00000000
00000000
00000000
00000000
00000000
00000000
00000000
00000000
00000000
00000000
00000000
00000000
00000000
00000000
00000000
00000000
00000000
00000000
00000000
00010000
00000000
00000000
00000000
00000000
00000000
00000000
00000000
00000000
00000000
00000000
00000000
00000000
00000000
00000000
00000000
00000000
00000000
00000000
00000000
00000000
00000000
00000000
00000000
00000000
00000000
00000000
00000000
00000000
00000000
00000000
00000000
00000000
00000000
00000000
00000000
00000000
00000000
00000000
00000000
00000000
00000000
00000000
00000000
00000000
00000000
00000000
00000000
00000000
00000000
00000000
00000000
00000000
00000000
00000000
00000000
00000000
00000000
00000000
00000000
00000000
00000000
00000000
00000000
00000000
00000000
00000000
00000000
00000000
00000000
00000000
00000000
00000000
00000000
00000000
00000000
00000000
00100000
00000000
00000000
00000000
00000000
00000000
00000000
00000000
00000000
00000000
00000000
00000000
00000000
00000000
00000000
00000000
00000000
00000000
00000000
00000000
00000000
00000000
00000000
00000000
00000000
00000000
00000000
00000000
00000000
,
00000000
00000000
10000000
00010000
00100000
01000000
00100000
00010000
,
00100000
00001000
00010000
00000000
00000010
00000000
00000100
00000001
,
00001000
00000000
00000000
00000000
00000000
00000000
00000000
00000000
00000001
00000000
00000000
00000000
00000000
00000000
00000000
00000000
00000010
00000000
00000000
00000000
00000000
00000000
00000000
00000000
00000000
00000000
00000000
00000000
00000000
00000000
00000000
00000000
00000022
00000033
00000000
00000000
00000000
00000000
00000000
00000000
00000000
00000000
00000000
00000000
00000000
00000000
00000000
00000000
00000001
00000000
00000000
00000000
00000000
00000000
00000000
00000000
00000000
00000000
00000000
00000000
00000000
00000000
00000000
00000000
,
00000100
00000010
00001000
00000100
,
00010000
00001000
00100000
00010000
,
01000000
00100000
10000000
00010000
,
00000000
00000000
00000000
00000000
,
00000000
00000000
00000000
00000000
,
00000000
00000000
00000000
20020000
,
00000000
00000000
00000000
00000000
,
00000000
00000000
00000000
00000000
,
30030000
00000000
00000000
00000000
;

//--------------- dance-double - Fred-104† ----------------
#NOTES:
     dance-double:
     Fred-104†:
     Challenge:
     19:
     :
00000000
00000000
00000000
00000000
,
00021000
00000000
00000000
00000000
00000000
00000000
00000000
00000000
00000010
00000000
00000000
00000000
00000000
00000000
00000000
00000000
00031000
00000000
00000000
00002000
00000000
00000000
00000000
00000000
00010000
00000000
00000000
00000000
00000000
00000000
00000000
00000000
,
00003100
00000000
00000000
00000200
00000000
00000000
00000000
00000000
00000001
00000000
00000000
00000000
00000000
00000000
00000000
00000000
00000310
00000000
00000000
00000020
00000000
00000000
00000000
00000000
00001000
00000000
00000000
00000000
00000000
00000000
00000000
00000000
,
00010030
00000000
00000000
00000000
00000000
00000000
00000000
00000000
00000000
00020000
00000000
00000000
00000000
00000000
00000000
00000000
00000000
00000000
00000000
00000000
00000000
00000000
00000000
00000000
00031000
00000000
00000000
00000000
00000000
00000000
00000000
00000000
00000000
00000000
00000000
00000000
00000000
00000000
00000000
00000000
00001000
00000000
00000000
00000000
00010000
00000000
00000000
00000000
00011000
00000000
00000000
00000000
00000000
00000000
00000000
00000000
00000000
00002000
00000000
00000000
00000000
00000000
00000000
00000000
00000000
00000000
00000000
00000000
00000000
00000000
00000000
00000000
01000000
00000000
00000000
00000000
00000000
00000000
00000000
00000000
00000000
00000000
00000000
00000000
00000000
00000000
00000000
00000000
00000000
00000000
00000000
00000000
00000000
00000000
00000000
00000000
,
00013000
00000000
00000000
00000000
00000000
00000000
00000000
00000000
00000000
00020000
00000000
00000000
00000000
00000000
00000000
00000000
00000000
00000000
00000000
00000000
00000000
00000000
00000000
00000000
00001000
00000000
00000000
00000000
00000000
00000000
00000000
00000000
00000000
00000000
00000000
00000000
00000000
00000000
00000000
00000000
00000000
00000000
00000000
00000000
00000000
00000000
00000000
00000000
00031000
00000000
00000000
00000000
00010000
00000000
00000000
00000000
00100000
00000000
00000000
00000000
01000000
00000000
00000000
00000000
00010000
00000000
00000000
00000000
10000000
00000000
00000000
00000000
01000000
00000000
00000000
00000000
00010000
00000000
00000000
00000000
00001000
00000000
00000000
00000000
00000010
00000000
00000000
00000000
00000001
00000000
00000000
00000000
00001000
00000000
00000000
00000000
,
00001001
00000000
00000000
00000002
00000000
00000000
00000000
00000000
00000100
00000000
00000000
00000000
00000000
00000000
00000000
00000000
00000013
00000000
00000000
00000020
00000000
00000000
00000000
00000000
00000100
00000000
00000000
00000000
00000000
00000000
00000000
00000000
,
00001030
00000000
00000000
00000000
00000000
00000000
00000000
00000000
00000000
00002000
00000000
00000000
00000000
00000000
00000000
00000000
00000000
00000000
00000000
00000000
00000000
00000000
00000000
00000000
00010000
00000000
00000000
00000000
00000000
00000000
00000000
00000000
00000000
00000000
00000000
00000000
00000000
00000000
00000000
00000000
00000000
00000000
00000000
00000000
00000000
00000000
00000000
00000000
00103000
00000000
00000000
00000000
00000000
00000000
00000000
00000000
00000000
00200000
00000000
00000000
00000000
00000000
00000000
00000000
00000000
00000000
00000000
00000000
00000000
00000000
00000000
00000000
01300000
00000000
00000000
00000000
00000000
00000000
00000000
00000000
00000000
00000000
00000000
00000000
10000000
00000000
00000000
00000000
00100000
00000000
00000000
00000000
00010000
00000000
00000000
00000000
,
00011000
00000000
00000000
00002000
00000000
00000000
00000000
00000000
00010000
00000000
00000000
00000000
00000000
00000000
00000000
00000000
00003010
00000000
00000000
00000020
00000000
00000000
00000000
00000000
00000100
00000000
00000000
00000000
00000000
00000000
00000000
00000000
,
00001030
00000000
00000000
00000000
00000000
00000000
00000000
00000000
00000000
00002000
00000000
00000000
00000000
00000000
00000000
00000000
00000000
00000000
00000000
00000000
00000000
00000000
00000000
00000000
00010000
00000000
00000000
00000000
00000000
00000000
00000000
00000000
00000000
00000000
00000000
00000000
00000000
00000000
00000000
00000000
00000000
00000000
00000000
00000000
00000000
00000000
00000000
00000000
01003000
00000000
00000000
00000000
00000000
00000000
00000000
00000000
00000000
02000000
00000000
00000000
00000000
00000000
00000000
00000000
00000000
00000000
00000000
00000000
00000000
00000000
00000000
00000000
03010000
00000000
00000000
00000000
10000000
00000000
00000000
00000000
00100000
00000000
00000000
00000000
00010000
00000000
00000000
00000000
00100000
00000000
00000000
00000000
01000000
00000000
00000000
00000000
,
01020000
10000000
01030000
00000000
10100000
00110000
00011000
00001100
,
00000102
00000000
00000000
00001000
00000000
00000000
00000013
00000000
00000000
00000000
00000000
00000000
00000011
00000000
00000000
00001010
00000000
00000000
00000001
00000010
00000100
00001000
00000100
00010000
,
00011000
00001010
00011000
00000000
00011000
00110000
00011000
00000000
,
00010000
00001000
00000100
00000101
00000000
00000000
00000001
00000010
00001000
00011000
00000000
00000000
00010000
00001000
00000010
00000001
00000100
00001000
00010000
00100000
10000000
01000000
00010000
00001000
,
00020000
00030000
00000000
00000000
00000000
00000000
00000000
00000000
00000000
00000000
00000000
00000000
00000000
00000000
00000000
00000000
00001000
00000000
00000000
00000000
00000000
00000000
00000000
00000000
00100000
00000000
00000000
00000000
00000000
00000000
00000000
00000000
10000000
00000000
00000000
00000000
00000000
00000000
00000000
00000000
00100000
00000000
00000000
00000000
00000000
00000000
00000000
00000000
01000000
00000000
00000000
00000000
00000000
00000000
00000000
00000000
00100000
00000000
00000000
00000000
00000000
00000000
00000000
00000000
,
00010000
00000000
10000000
00000000
00100000
00000000
00010000
00000000
00000000
00001000
00000000
00000000
00010000
00000000
00000000
00000100
00000000
00000000
00000001
00000000
00000000
00000100
00000000
00000000
,
00000010
00000000
00000001
00000000
00001000
00000000
00000010
00000000
00000000
00000100
00000000
00000000
00001000
00000000
00000000
01000000
00000000
00000000
00100000
00000000
00000000
10000000
00000000
00000000
,
00010000
00000000
00000000
00100000
00000000
00000000
00010000
00000000
10000000
00000000
01000000
00000000
00010000
00000000
00001000
00000000
00100000
00000000
00001000
00000000
00010000
00000000
00000010
00000000
,
00000100
00000000
00000001
00000000
00001000
00000000
00000100
00000000
00000000
00000010
00000000
00000000
00000001
00000000
00000000
00000100
00000000
00000000
00001000
00000000
00000000
00010000
00000000
00000000
,
00001000
00000000
00010000
00000000
00100000
00000000
10000000
00000000
00000000
01000000
00000000
00000000
00010000
00000000
00000000
00001000
00000000
00000000
00010000
00000000
00000000
00000100
00000000
00000000
,
00001000
00000010
00010000
00002000
00000000
00000000
01000000
00000000
00000000
00000010
00000000
00000000
,
00013000
00000000
00000000
00001000
00010000
00100000
01000000
10000000
01000000
00010000
10000000
01000000
,
00010000
00000000
00001000
00000000
00000010
00000000
00000001
00000000
00000000
00001000
00000000
00000000
00000010
00000000
00000000
00000100
00000000
00000000
00001000
00000000
00000000
00010000
00000000
00000000
,
00001000
00000000
00010000
00000000
00100000
00000000
10000000
00000000
00000000
01000000
00000000
00000000
00010000
00000000
00000000
10000000
00000000
00000000
00100000
00000000
00000000
00001000
00000000
00000000
,
00010000
00000100
00000010
00000001
00000000
00000000
00001000
00000001
00000100
00000110
00000000
00000000
,
00001000
00000001
00000010
00000001
00000100
00000010
00000100
00001000
00010000
00100000
01000000
10000000
,
01000000
00000000
00100000
00000000
01000000
00000000
00010000
00000000
00000000
10000000
00000000
00000000
01000000
00000000
00000000
00010000
00000000
00000000
00001000
00000000
00000000
00010000
00000000
00000000
,
00100000
00000000
01000000
00000000
00010000
00000000
00001000
00000000
00000000
00000010
00000000
00000000
00010000
00000000
00000000
00001000
00000000
00000000
00000100
00000000
00000000
00000001
00000000
00000000
,
00000010
00000100
00001000
00000001
00000102
00000000
00000000
00000000
00001003
00000000
00000000
00000000
01020000
00000000
00000000
00000000
,
10030000
00000000
00000000
00000000
00010000
10000000
01000000
00100000
00010000
00100000
00001000
00010000
00000100
00000000
00000000
00000000
,
00001001
00000000
00000001
00000000
00000100
00000010
00000100
00000000
,
00001000
00000000
00010000
00100000
01000000
00000000
00100000
10000000
,
00100000
10000000
00010000
00000000
01000000
00100000
00010000
00000000
,
00001000
00000000
00000100
00000010
00001000
00000000
00000100
00000010
,
00000001
00001000
00000010
00000000
00001000
00000001
00000010
00000000
,
00001000
00000000
00010000
00001000
00100000
00000000
00010000
00100000
,
01000000
00000000
00000000
10000000
00000000
00000000
00010000
00000000
00000000
00000000
01000000
00000000
00000000
00000000
10000000
00000000
00000000
00000000
01000000
00000000
00000000
00000000
00100000
00000000
,
00000000
00010000
00000000
00001000
00000000
00000100
00000000
00000010
00000000
00000001
00000000
00000010
,
00000000
00000000
00001000
00000000
00000000
00000000
00000001
00000000
00000000
00000000
00000000
00000000
00001000
00000000
00000000
00000010
00000000
00000000
00000100
00000000
00000000
00000000
00000000
00000000
,
00001000
00000000
00010000
00001000
00100000
00000000
00010000
10000000
,
00100000
01000000
00010000
00000000
00100000
01000000
10000000
00000000
,
00010000
00000000
01000000
00100000
00010000
00000000
00001000
00010000
,
00000100
00000000
00000000
00010000
00000000
00000000
00001000
00000000
00000000
00000000
00010000
00000000
00000000
00000000
00100000
00000000
00000000
00000000
10100000
00000000
00000000
00000000
00000000
00000000
,
00000000
00000000
00000000
10000000
00000000
01000000
00000000
00010000
00000000
00011000
00000000
00000000
,
00000000
00000000
00000000
00010000
00000000
00001000
00000000
00000010
00000000
00000100
00000000
00000010
,
00000000
00000000
00000001
00000000
00000000
00000000
00001000
00000000
00000000
00000000
00000010
00000000
00000000
00000000
00000100
00000000
00000000
00000000
00001000
00000000
00000000
00010000
00000000
00000000
,
00001000
00010000
00001000
00000000
01000000
00010000
10000000
00000000
,
01000000
00000000
00010000
00001000
00010000
00000000
00001000
00000010
,
00000001
00001000
00000010
00000000
00001000
00000001
00000010
00000000
,
00001000
00000000
00010000
00001000
00010000
00000000
01000000
00100000
,
01000000
10000000
00010000
00000000
10000000
00100000
01000000
00000000
,
00100000
00000000
00010000
00001000
00010000
00000000
00000010
00010000
,
00001000
00010000
00100000
01000000
00010000
10000000
01000000
00100000
,
00001000
00010000
00000010
00001000
00000001
00000010
00000100
00000000
,
00001000
00000000
00000000
00000001
00000000
00000100
00000000
00001000
00000000
00011000
00000000
00000000
,
00000000
00000000
00000000
00001000
00000000
00010000
00000000
00100000
00000000
10100000
00000000
00000000
,
00000000
00000000
00000000
10000000
00000000
01000000
00000000
00010000
00000000
00001000
00000000
00000010
,
00000000
00000001
00000000
00001000
00000000
00000001
00000000
00000100
00000000
00001000
00000000
00010000
,
00000000
00000000
00100000
00000000
00000000
00000000
20200000
00000000
00000000
00000000
00000000
00000000
00000000
00000000
00000000
30300000
00000000
00000000
10000000
00000000
00000000
01000000
00000000
00000000
,
10000000
00010000
00100000
00001000
00010000
00000010
00001000
00000001
,
00000100
00000001
00001000
00000010
00010000
00001000
00010000
00000000
,
00000000
00000000
00000000
00000000
,
00000000
00000000
00000000
00000000
00000000
00000000
00000000
00000000
00000000
00000000
00000000
00000000
00000000
00000000
00000000
00000000
00000000
00000000
00000000
00000000
00000000
00000000
00000000
00000000
00000000
00000000
00000000
00000000
00000000
00000000
00000000
00000000
00000000
00000000
00000000
00000000
00000000
00000000
00000000
00000000
00000000
00000000
00000000
00000000
00000000
00000000
00000000
00000000
00000001
00000000
00000000
00000001
00000000
00000000
00000000
00000000
00000000
00000000
00000000
00000000
00000000
00000000
00000000
00000000
,
00000000
00000000
00000000
00000000
00000000
00000000
00000000
00000000
00000000
00000000
00000000
00000000
00000000
00000000
00000000
00000000
00001000
00000000
00000000
00001000
00000000
00000000
00000000
00000000
00000000
00000000
00000000
00000000
00000000
00000000
00000000
00000000
00000000
00000000
00000000
00000000
00000000
00000000
00000000
00000000
00000000
00000000
00000000
00000000
00000000
00000000
00000000
00000000
00010000
00000000
00000000
00010000
00000000
00000000
00000000
00000000
00001000
00000000
00000000
00000000
00010000
00000000
00100000
00000000
,
00010000
00000000
00000000
00000000
00100000
00000000
10000000
00000000
00100000
00000000
00000000
00000000
10000000
00000000
00000000
00000000
10000000
00000000
00000000
10000000
00000000
00000000
00000000
00000000
00010000
00000000
00000000
00000000
10000000
00000000
01000000
00000000
10000000
00000000
00000000
00000000
00100000
00000000
01000000
00000000
00010000
00000000
00000000
00000000
10000000
00000000
00000000
00000000
20010000
00000000
00000000
30000000
00010000
00000000
10000000
00000000
00100000
00000000
00000000
00000000
10000000
00000000
00010000
00000000
,
00100000
00000000
00000000
00000000
01000000
00000000
00010000
00000000
00001000
00000000
00010000
00000000
00000100
00000000
00000010
00000000
00000002
00000000
00001000
00000003
00000001
00000000
00000100
00000000
00001000
00000000
00010000
00000000
00100000
00000000
00010000
00000000
00001000
00000000
00010000
00000000
01000000
00000000
10000000
00000000
00010000
00000000
01000000
00000000
00001000
00000000
00000100
00000000
00000020
00000000
00010000
00000030
00000010
00000000
00010000
00000000
00001000
00000000
00000010
00000000
00000001
00000000
00001000
00000000
,
00000100
00010000
01000000
00100000
00010000
10000000
00100000
00010000
00001000
00000000
00000000
00001000
00000000
00000000
00000000
00000000
00000000
00000000
00000000
00000000
00000000
00000000
00000000
00000000
00022000
00000000
00000000
00000000
00000000
00000000
00000000
00000000
,
00000000
00000000
00000000
00000000
,
00000000
00000000
00000000
00000000
00000000
00000000
00000000
00000000
00000000
00000000
00000000
00000000
00000000
00000000
00000000
00000000
00000000
00000000
00000000
00000000
00000000
00000000
00000000
00000000
00000000
00000000
00000000
00000000
00000000
00000000
00000000
00000000
00000000
00033000
00000000
00000000
00000000
00000000
00000000
00000000
00000000
00000000
00000000
00000000
00000000
00000000
00000000
00000000
00010000
00000000
00000000
00000000
00000000
00000000
00000000
00000000
00000000
00000000
00000000
00000000
00000000
00000000
00000000
00000000
,
00001000
00000010
00001000
00000000
00010000
00000000
00001000
00000100
,
00001000
00000000
00010000
00000000
00001000
01000000
00001000
00000000
,
00010000
00000000
00001000
00100000
00001000
00000000
00010000
00000100
,
00001000
00000001
00000010
00000001
00000100
00000010
00000100
00000000
,
00001000
00010000
00001000
00000000
01000000
00000000
00001000
00010000
,
00001000
00000000
00100000
00000000
00001000
00010000
00001000
00000000
,
01000000
00000000
00010000
00100000
00010000
00000000
10000000
00100000
,
01000000
00010000
00100000
00010000
10000000
01000000
00100000
00000000
,
00001000
00010000
00001000
00000000
01000000
00000000
00001000
00010000
,
00001000
00000000
00000100
00000010
00000100
00000000
00000001
00000000
,
00000010
00000100
00000010
00000000
00000001
00000000
00001000
00000001
,
00000100
00000010
00001000
00000100
00001000
00000100
00010000
00000000
,
00001000
01000000
00001000
00000000
00010000
00000000
00100000
01000000
,
00100000
00000000
10000000
00000000
01000000
00100000
01000000
00000000
,
00010000
00000000
00001000
00010000
00001000
00000000
00010000
00001000
,
01000000
00010000
01000000
00001000
00010000
00000100
00000010
00000000
,
00000001
00001000
00000010
00000000
00000100
00000000
00001000
00010000
,
00001000
00000000
01000000
00000000
00010000
10000000
01000000
10000000
,
00010000
00000000
00100000
00000000
00001000
00000000
00010000
00000100
,
00000010
00000001
00001000
00000010
00000100
00000001
00001000
00000000
,
00000001
00000010
00000100
00000000
00000010
00000000
00001000
00010000
,
00001000
00000000
00100000
00000000
01000000
10000000
00010000
01000000
,
00100000
00000000
00010000
00000000
00001000
00000000
00010000
00001000
,
00100000
00010000
01000000
00100000
10000000
00100000
01000000
00000000
,
00010000
10000000
01000000
00000000
00100000
00000000
00001000
00010000
,
00000100
00000000
00000010
00000000
00000001
00001000
00000010
00000100
,
00001000
00000000
00010000
00000000
00001000
00100000
00010000
10000000
,
00100000
01000000
00010000
10000000
01000000
00000000
00100000
00001000
,
00010000
00001000
00000100
00000001
00000010
00000100
00000010
00000001
,
00001000
00000010
00000100
00001000
00010000
00001000
01000000
00010000
,
00100000
00010000
01000000
10000000
01000000
00100000
00010000
00001000
,
00000100
00000000
00000000
00000001
00000000
00000000
00001000
00000000
00000100
00000000
00001000
00000000
00000100
00000000
00001000
00000000
00000100
00000000
00000020
00000000
00000000
00000000
00000000
00000000
,
00000000
00000000
00000000
00000000
00000001
00000001
00000100
00000230
,
00000000
00000000
00000000
00000000
00010000
00000000
00010300
00000000
00001000
00100000
00001000
00000000
00011000
00000000
00011000
00000000
,
00010010
00000000
00010010
00000000
00010000
00001000
00010000
00001000
00022000
00000000
00000000
00000000
00000000
00000000
00000000
00000000
,
00000000
00000000
00003000
00000000
00031000
01000000
00010000
00000000
01010000
00000000
00000000
00000000
10010000
00000000
10010000
00000000
,
11000000
11000000
00100000
00000000
00101000
00101000
00010100
00010100
,
00000000
00000000
00000000
00000000
00001000
00000100
00000001
00000000
00001000
00000010
00000001
00000000
00000110
00000000
00000110
00000000
,
00001100
00000000
00001100
00000000
00000100
00010000
00000100
00010000
00022000
00000000
00000000
00000000
00030000
00000000
00000000
00000000
,
00003000
00000000
00000000
00000000
00000000
00000000
00000000
00000000
00000000
00000000
00000000
00000000
00000000
00000000
00000000
00000000
00000000
00000000
00000000
00000000
00000000
00000000
00000000
00000000
00000000
00000000
00000000
00000000
00000000
00000000
00000000
00000000
00000000
00000000
00000000
00000000
00000000
00000000
00000000
00000000
00000000
00000000
00000000
00000000
00000000
00000000
00000000
00000000
00020000
00000000
00000000
00000000
00000000
00000000
00000000
00000000
00030000
00000000
00000000
00000000
00000000
00000000
00000000
00000000
00000000
00000000
00000000
00000000
00000000
00000000
00000000
00000000
00000000
00000000
00000000
00000000
00000000
00000000
00000000
00000000
00000000
00000000
00000000
00000000
00000000
00000000
00000000
00000000
00000000
00000000
00000000
00000000
00000000
00000000
00000000
00000000
00000000
00000000
00000000
00000000
00000000
00000000
00000000
00000000
00000000
00000000
00000000
00000000
00000000
00000000
00000000
00000000
00000000
00000000
00000000
00000000
00000000
00000000
00000000
00000000
00000000
00000000
00000000
00000000
00000000
00002000
00000000
00000000
00000000
00000000
00000000
00000000
00000000
00003000
00000000
00000000
00000000
00000000
00000000
00000000
00000000
00000000
00000000
00000000
00000000
00000000
00000000
00000000
00000000
00000000
00000000
00000000
00000000
00000000
00000000
00000000
00000000
00000000
00000000
00000000
00000000
00000000
00000000
00000000
00000000
00000000
00000000
00000000
00000000
00000000
00000000
00000000
00000000
00000000
00000000
00000000
00000000
00000000
00000000
00000000
00000000
00000000
00000000
00000000
00000000
00000000
00000000
00000000
00000000
00000000
00000000
00000000
,
00000000
00000000
00000000
00000000
00000000
00000000
00000000
00000000
00000000
00000000
00000020
00000000
00000000
00000000
00000000
00000000
00000000
00000000
00000030
00000000
00000000
00000000
00000000
00000000
00000000
00000000
00000000
00000000
00000000
00000000
00000000
00000000
00000000
00000000
00000000
00000000
00000000
00000000
00000000
00000000
00000000
00000000
00000000
00000000
00000000
00000000
00000000
00000000
00000000
00000000
00000000
00000000
00000000
00000000
00000000
00000000
00000000
00000000
00000000
00000000
00000000
00000000
00000000
00000000
00000000
00000000
00000000
00000000
00000000
00000000
00000000
00000000
00000000
00000000
00000000
00000000
00000000
00000000
00000000
00000000
00000000
00000000
00000000
00000000
00000000
00000000
00000002
00000000
00000000
00000000
00000000
00000000
00000000
00000000
00000003
00000000
00000000
00000000
00000000
00000000
00000000
00000000
00000000
00000000
00000000
00000000
00000000
00000000
00000000
00000000
00000000
00000000
00000000
00000000
00000000
00000000
00000000
00000000
00000000
00000000
00000000
00000000
00000000
00000000
00000000
00000000
00000000
00000000
00000000
00000000
00000000
00000000
00000000
00000000
00000000
00000000
00000000
00000000
00000000
00000000
00000000
00000000
00000000
00000000
00000000
00000000
00000000
00000000
00000000
00000000
00000000
00000000
00000000
00000000
00000000
00000000
00000000
00000000
00000000
00000000
00000000
00000000
00000000
00000200
00000000
00000000
00000000
00000000
00000000
00000000
00000000
00000300
00000000
00000000
00000000
00000000
00000000
00000000
00000000
00000000
00000000
00000000
00000000
00000000
00000000
00000000
00000000
00000000
00000000
00000000
00000000
00000000
,
00000000
00000000
00001000
00010000
00001000
00100000
00010000
10000000
,
00100000
01000000
00100000
00000000
00010000
00000000
00001000
00010000
,
00000100
00000000
00000000
00000000
00000000
00000000
00000000
00000000
00010000
00000000
00000000
00000000
00000000
00000000
00000000
00000000
00001000
00000000
00000000
00000000
00000000
00000000
00000000
00000000
00000000
00000000
00000000
00000000
00000000
00000000
00000000
00000000
00022000
00033000
00000000
00000000
00000000
00000000
00000000
00000000
00000000
00000000
00000000
00000000
00000000
00000000
00000000
00000000
00001000
00000000
00000000
00000000
00000000
00000000
00000000
00000000
00000000
00000000
00000000
00000000
00000000
00000000
00000000
00000000
,
00010000
00100000
10000000
00010000
,
10000000
01000000
00010000
00001000
,
00000010
00000001
00001000
00000001
,
00000000
00000000
00000000
00000000
,
00000000
00000000
00000000
00000000
,
00000000
00000000
00000000
00022000
,
00000000
00000000
00000000
00000000
,
00000000
00000000
00000000
00000000
,
00033000
00000000
00000000
00000000
;
