#VERSION:0.83;
#TITLE:Butterfly Twist;
#ARTIST:Yooh;
#BANNER:Butterfly Twist.png;
#BACKGROUND:Butterfly Twist-bg.png;
#CDTITLE:./CDTitles/SDVX VIVID WAVE.png;
#MUSIC:Butterfly Twist.ogg;
#SAMPLESTART:27;
#SAMPLELENGTH:15;
#DISPLAYBPM:80:160;
#BPMS:0=160,69.5=80,70=160,213=320,213.5=160,213.75=80,214=160,230=80,244=160,248=320,249=160;
#STOPS:68=0.188,68.5=0.187,69=0.188,248=0.094,248.5=0.093;
#TIMESIGNATURES:0=4=4,68=2=4,70=4=4,242=6=4,248=4=4;
#BGSTAGE:15;

//--------------- dance-single - Fred-104 ----------------
#NOTEDATA:;
#STEPSTYPE:dance-single;
#DESCRIPTION:Fred-104;
#DIFFICULTY:Beginner;
#METER:3;
#CREDIT:Fred-104;
#NOTES:
0000
0000
0000
0000
,
0000
0000
0000
0000
,
0000
0000
0000
0000
,
0000
0000
0000
0000
,
0000
0000
0000
0000
,
0000
0000
0000
0000
,
2000
0000
0000
0000
,
3000
0000
0000
0000
,
0002
0000
0000
0000
,
0003
0000
0000
0000
,
1000
0000
0000
0000
,
0010
0000
0000
0000
,
1000
0000
0000
0000
,
0001
0000
0000
0000
,
1000
0000
0000
0000
,
0001
0000
0000
0000
,
2000
0000
0000
0000
,
3000
0000
1000
0000
,
0000
0000
0001
0000
,
0000
0000
1000
0000
,
0000
0000
0001
0000
,
0000
0000
0100
0000
,
0000
0000
0010
0000
,
0000
0000
0100
0000
,
0000
0000
0001
0000
,
0000
0000
1000
0000
,
0000
0000
0001
0000
,
0000
0000
0010
0000
,
0000
0000
0100
0000
,
0000
0000
1000
0000
,
0000
0000
0001
0000
,
0000
0000
0100
0000
,
0000
0000
0010
0000
,
0000
0000
2000
0000
,
0000
0000
0000
0000
,
0000
0000
3002
0000
,
0000
0000
0000
0000
,
0000
0000
2003
0000
,
0000
0000
0000
0000
,
0000
0000
3002
0000
,
0000
0000
0000
0000
,
0000
0003
1000
0000
,
0000
0000
0100
0000
,
1000
0000
0100
0000
,
0000
0000
1000
0000
,
0001
0000
0010
0000
,
0000
0000
0001
0000
,
1000
0000
0100
0000
,
0000
0000
1000
0000
,
0000
0000
0002
0000
,
0000
0003
2000
0000
,
0000
3000
0002
0000
,
0000
0003
2000
0000
,
0000
3000
0000
0000
,
0001
0000
1000
0000
,
0001
0000
0200
0000
,
0000
0000
0300
0000
,
0000
0000
0001
0000
,
0000
0000
1000
0000
,
0000
0000
0001
0000
,
0000
0000
2000
0000
,
3000
0000
0000
0000
,
0000
0000
0000
0000
,
0002
0000
0000
0000
,
2003
0000
0000
0000
,
3001
0000
1000
0000
,
0020
0000
0000
0000
,
0130
0000
0010
0000
,
0100
0000
0001
0000
,
1000
0000
0100
0000
,
2000
0000
0000
0000
,
0000
0000
0000
0000
,
3002
0000
0000
0000
,
0000
0000
0000
0000
,
2003
0000
0000
0000
,
0000
0000
0000
0000
,
3002
0000
0000
0003
,
2002
0000
0000
0000
0000
0000
0000
0000
0000
0000
0000
0000
0000
0000
0000
3003
;

//--------------- dance-single - Fred-104 ----------------
#NOTEDATA:;
#STEPSTYPE:dance-single;
#DESCRIPTION:Fred-104;
#DIFFICULTY:Easy;
#METER:7;
#CREDIT:Fred-104;
#NOTES:
0000
0000
0000
0000
,
0000
0000
0000
0000
,
0000
0000
0000
0000
,
0000
0000
0000
0000
,
0000
0000
0000
0000
,
0000
0000
0000
0000
,
2000
0000
0000
0000
,
3200
0000
0000
0000
,
0320
0000
0000
0000
,
0032
0000
0000
0000
,
1003
1000
1000
0000
,
0100
1000
0001
0000
,
0100
0100
0100
0000
,
0001
0010
0100
0000
,
1100
0000
1010
0000
,
0101
0000
0011
0000
,
1000
1000
0001
0001
,
2002
0000
0000
3003
1000
0000
0100
0000
,
0020
0030
0001
1000
,
0020
0030
0100
0100
,
0010
0010
0100
0001
,
2000
3000
0001
0010
,
0200
0300
1000
0001
,
0200
0300
0010
0010
,
0100
0100
0001
1000
,
0002
0003
1000
0100
,
2000
3000
0001
0001
,
2000
3000
0001
0001
,
0010
0001
1000
0001
,
0200
0300
0010
0010
,
0200
0300
0001
1000
,
0002
0000
0003
0000
1000
0100
1000
0000
,
0001
0100
0001
0000
1000
0000
0010
0000
,
0100
1001
2000
0000
,
3200
0000
0320
0000
,
0000
0000
0032
0000
,
0203
0000
0320
0000
,
0000
0000
2030
0000
,
3002
0000
0203
0000
,
0000
0000
0302
0000
,
0023
0000
0230
0000
,
1300
0001
1000
1000
,
0100
0100
0001
0100
,
1000
0000
0001
0001
,
0100
0100
1000
0100
,
0001
0000
1000
0010
,
1000
0010
0001
0010
,
1000
0000
0001
0010
,
0001
0010
1000
0010
,
0001
0000
1000
1000
,
0100
0100
0010
0001
,
0010
0010
0001
0001
,
0100
0100
0010
1000
,
0020
0000
2030
3000
,
0200
0300
0002
0003
,
0020
0030
1000
1000
,
0001
0001
1001
0000
,
0110
0000
1000
1010
,
0001
0101
1000
0110
,
0001
0000
0000
0000
0110
0000
0000
0000
1000
0000
1000
0000
0010
0100
0010
0000
,
0100
0001
0100
0000
0001
1000
0001
1000
0001
0000
1000
0000
0001
0000
0010
0000
,
0011
0110
2200
0000
,
3300
0000
1000
0010
,
0100
0100
0002
0003
,
1000
0001
0100
0010
,
0100
0001
2000
3000
,
0001
0001
0010
0010
,
0100
1000
0002
0103
,
0100
0010
0100
0000
0010
0100
0010
0000
,
1000
0100
0010
0001
,
2000
0000
3002
0000
,
0203
0000
0320
0000
,
0230
0000
0302
0000
,
2003
0000
3200
0000
,
0320
0000
0032
0000
,
2003
0000
3002
0000
,
0103
0010
0100
0100
,
2002
0000
0000
0000
0000
0000
0000
0000
0000
0000
0000
0000
0000
0000
0000
3003
;

//--------------- dance-single - Fred-104 ----------------
#NOTEDATA:;
#STEPSTYPE:dance-single;
#DESCRIPTION:Fred-104;
#DIFFICULTY:Medium;
#METER:12;
#CREDIT:Fred-104;
#NOTES:
0000
0000
0000
0000
,
0000
0000
0000
0000
,
0000
0000
0000
0000
,
0000
0000
0000
0000
,
0000
0000
0000
0000
,
0000
0000
0000
0000
,
2000
0000
3020
0000
,
0230
0000
0302
2003
,
3002
0000
0023
0000
,
0130
1000
0001
0110
,
1001
0000
0001
0000
0100
0010
0100
0010
,
0000
1000
0010
1000
0000
0001
0010
0001
,
1000
0000
1000
0000
0001
0100
0010
1000
,
0000
0001
0010
0100
0000
1000
0001
0000
,
1000
0100
1100
0000
0001
0100
0101
0000
,
1000
0010
1010
0000
0001
0010
0011
0000
,
1000
0100
0010
0001
0100
0010
0100
0010
,
0200
0300
0000
0000
0200
0300
0000
0000
0200
0300
0000
0000
2002
0000
3003
0000
1000
0000
0000
0000
0010
0000
0000
0000
2000
0000
0000
0000
0000
0000
3001
0000
,
0010
0000
0100
0000
1000
0000
0000
0000
0001
0000
0100
0000
0020
0000
0000
0130
,
0001
1000
0100
0000
2000
0000
3001
0100
,
0001
1000
0001
0010
0001
0010
0100
0010
,
0001
0000
0100
0000
0010
0000
1000
0000
0200
0000
0000
0000
2300
0000
0000
3010
,
1000
0000
0001
0000
0010
0000
0100
0000
1000
0000
0001
0000
0200
0000
0000
0310
,
0100
0001
1000
0001
0010
0100
1000
0000
,
0001
0100
1000
0000
0001
0010
1000
0001
,
0010
0000
0000
0000
0100
0000
1000
0000
0001
0000
0100
0000
0020
0000
0000
0130
,
0001
0000
0010
0000
0100
0000
0100
0000
1000
0000
0100
0000
0020
0000
0000
0130
,
1000
0010
0100
0100
0002
0000
1003
0010
,
0001
0010
1000
0001
1000
0100
0010
0001
,
0100
0000
0010
0000
0100
0000
0000
0000
0010
0000
0100
0000
0020
0000
0000
1030
,
0001
0000
0010
0000
0100
0000
0000
0000
1000
0000
0100
0000
2000
0000
0000
3100
,
1000
0001
0100
0000
0001
1000
0010
1000
,
0001
1000
0100
0010
0011
0000
1010
0000
,
1100
0101
0002
0000
,
0023
0000
2030
0000
,
0000
0000
3020
0000
,
0230
0000
2300
0000
,
0000
0000
3001
0100
,
0001
0010
0100
1000
,
0001
0100
0010
1000
,
0001
0010
0100
1000
,
0001
1000
1001
0000
0001
0100
0001
0100
,
0001
0100
0001
0000
1000
0100
1000
0100
,
1000
0100
1000
0000
0001
0010
0001
0010
,
0001
0010
0001
0000
1000
0010
1000
0010
,
1000
0010
1000
0000
0001
0010
0100
0000
,
1000
0001
0100
0000
0010
1000
0001
0000
,
1000
0100
0010
0000
0100
1000
0001
0000
,
0100
0010
1000
0000
0001
0010
0100
1000
,
0001
0100
0010
0000
1000
0100
1000
0000
,
0100
0001
0100
0000
1000
0010
1000
0000
,
0010
0001
0010
0000
1000
0100
0001
0000
,
1000
0010
0001
0000
1000
0100
0010
0000
,
0001
0000
1000
0000
0020
0000
0000
0000
0130
0000
0000
0001
0000
0000
1000
0000
,
0100
0000
0000
0010
0000
0000
0001
0000
0010
0000
0000
1000
0000
0000
0001
0000
,
0100
0000
0000
1000
0000
0000
0001
0000
0100
0000
0010
0000
1000
0000
0010
0000
,
0100
0001
1000
0100
0010
0001
1001
0000
,
0001
0000
0000
0000
1000
0000
0000
0000
0001
0000
0000
0000
2000
0000
0000
0000
0000
0000
0000
0000
0000
0000
0000
0000
3001
0000
0000
0000
0000
0000
0100
0000
0000
0010
0000
0000
0110
0000
0000
0100
0000
0000
0001
0000
0000
0000
0000
0000
,
1000
0100
0010
0100
1000
0100
0010
0100
2000
0000
3001
0100
0101
0001
0200
0000
,
0310
1000
0002
0000
0013
0100
1000
0001
1001
0000
1000
0100
1000
0001
0100
0010
,
1000
0000
0010
0000
0100
0000
0001
0000
0010
0000
0100
0000
1000
0000
0001
0000
0100
0000
0010
0000
1000
0000
0000
1000
0000
0000
0001
0000
0000
0002
0000
0000
,
0013
0100
1000
0001
0100
0010
0100
0001
,
2000
0000
0000
0000
3001
0000
0000
0100
0001
0000
1000
0000
0001
0000
0010
0000
,
0100
1000
0100
0001
0100
1000
0100
0010
,
0002
0000
0103
0010
0001
0010
0100
1000
,
0100
0010
1000
0001
0010
0100
1000
0001
,
2001
0000
0000
0000
3002
0000
0000
0103
0001
0000
1000
0000
0001
0000
0010
0000
,
0100
0010
0001
0100
0010
0001
0010
0100
,
0001
1000
0010
0100
0001
1000
0100
0010
,
0011
1010
1100
0101
,
0002
0000
0023
0000
,
0230
0000
2300
0000
,
3002
0000
0203
0000
,
0320
0000
2030
0000
,
3001
0010
0100
1000
,
0001
0100
0010
1000
,
0001
0010
0100
0000
1000
0001
0100
0000
,
0001
0000
0000
1000
0000
0001
0000
0100
0000
0010
0000
0100
0001
1000
0001
1000
;

//--------------- dance-single - Fred-104 ----------------
#NOTEDATA:;
#STEPSTYPE:dance-single;
#DESCRIPTION:Fred-104;
#DIFFICULTY:Hard;
#METER:16;
#CREDIT:Fred-104;
#NOTES:
0000
0000
0000
0000
,
0000
0000
0000
0000
,
0000
0000
0000
0000
,
0000
0000
0000
0000
,
0000
0000
0000
0000
,
0000
0000
0000
0000
,
1000
0000
0000
0100
0000
0000
0010
0000
0000
0002
0000
0000
0103
0000
0010
0000
,
0100
0000
0000
0001
0000
0000
1000
0000
0000
0010
0000
0000
0100
0000
0001
0000
,
1000
0000
0000
0100
0000
0000
0010
0000
0000
0001
0000
0000
1000
0000
0010
0000
,
1010
0011
0101
1100
,
1000
0000
0001
0000
0100
0000
0010
0000
1000
0000
0002
0000
0013
0001
0020
0000
,
0000
0000
0130
0000
0100
1000
0200
0000
0000
0000
1300
0000
0001
0000
0100
0000
,
0010
1000
0010
0000
0100
0000
0010
0000
1000
0000
0001
0000
0010
0001
0020
0000
,
0000
0000
0031
0000
0001
1000
0002
0000
0000
0000
0013
0100
1000
0000
0002
0000
,
1003
0000
0000
0001
0000
0000
1000
0000
0100
0000
0000
1000
0001
0000
0000
0100
0000
0000
0001
0000
1000
0000
0000
0001
,
0010
0000
0000
0100
0000
0000
1000
0000
0001
0000
0000
0100
0010
0000
0000
1000
0000
0000
0001
0000
1000
0000
0000
0001
,
0010
0000
0010
0000
0100
0000
0100
0000
1000
0001
0100
0010
1000
0001
0010
0100
,
2000
3000
0000
0000
0000
0000
0000
0000
2200
3300
0000
0000
0000
0000
0000
0000
0022
0033
0000
0000
0000
0000
0000
0000
2002
0000
0000
0000
3003
0000
0000
0000
1000
0000
0000
0000
0000
0000
0000
0000
0100
0000
0000
0000
0000
0000
0000
0000
2000
0000
0000
0000
0000
0000
0000
0000
0000
0000
0000
0000
3001
0000
0000
0000
,
1000
0100
0001
0000
0100
0010
0001
0000
0100
0000
0001
0000
2000
0000
0000
3001
,
0100
1000
0100
0000
0010
0100
0001
0000
2000
0000
0000
0000
3100
0010
1000
0000
,
0010
0100
1000
0000
0010
1000
0001
0000
1000
0100
1000
0100
0010
0100
0010
0100
,
1000
0001
0100
0000
0001
1000
0100
0000
0020
0000
0000
0000
0032
0000
0000
0103
,
0010
0001
0010
0000
0100
0001
1000
0000
0100
0000
0010
0000
0210
0000
0000
1300
,
0010
0100
1000
0000
0100
0010
1000
0000
0001
0000
2000
0000
3100
1000
0000
0001
,
1000
0000
0100
0000
0010
0100
0010
0000
0001
0100
0010
1000
0001
0000
0100
0000
,
0010
0000
0000
0000
0100
0000
0110
0000
1001
0000
1000
0000
1200
0000
0000
1300
,
0010
0001
0010
0000
0100
1000
0100
0000
0001
0000
1000
0000
0012
0000
0000
1003
,
0100
0001
0100
0000
0010
1000
0010
0000
0002
0000
0000
0000
1003
0010
0100
0000
,
1000
0100
0010
0000
1000
0100
0010
0000
0001
1000
0001
1000
0100
1000
0100
1000
,
0001
0100
0010
0000
1000
0100
0010
0000
0001
0000
0100
0000
2100
0000
0000
3100
,
0010
1000
0100
0000
0010
0001
1000
0000
0001
0000
0100
0000
0120
0000
0000
0031
,
0010
0100
0001
0000
1000
0100
0010
0000
0001
0000
0100
0010
1000
0010
0100
0000
,
1000
0100
0001
0000
1000
0100
0010
0000
0011
0000
0000
0010
0100
0000
1000
0000
,
0010
0100
0001
0000
0101
0000
0000
0000
2000
0000
0000
0000
0000
0000
0000
0000
,
3200
0000
0320
0000
,
0000
0000
2030
0000
,
3020
0000
0032
0000
,
0000
0000
2003
0100
,
0000
0100
0000
0001
,
0000
3001
2000
0010
,
0000
0010
0000
3001
,
0100
0000
0010
0000
0110
0000
0000
0000
1000
0100
1000
0000
0001
0000
0100
0000
,
0010
1000
0010
0000
0100
0001
1000
0000
0100
0010
0001
0010
0000
0001
0000
0010
,
0000
0100
1000
0000
0001
0100
0010
0000
1000
0010
1000
0000
0001
0000
0010
0000
,
0100
0010
0100
0000
1000
0010
1000
0000
0001
0010
0100
0010
0000
0001
0000
0010
,
0000
0100
0010
0000
0001
1000
0010
0000
1000
0100
1000
0000
0001
0000
0100
0010
,
0100
0000
0001
0000
1000
0010
1000
0000
0001
0010
0100
1000
0000
0100
0000
0010
,
0000
0001
1000
0000
0010
0100
0001
0000
1000
0010
1000
0000
0100
0000
0010
0001
,
0010
0000
0001
0000
0100
0001
0100
0000
0110
0000
0000
0000
1000
0100
0010
0001
,
1000
0001
1001
0000
1000
0100
0001
0100
,
1000
0100
0001
0100
0010
1000
0010
0001
,
0010
1000
0010
0001
1000
0010
0001
0010
,
1000
0010
0001
0010
0100
1000
0100
0001
,
1000
0000
0100
0010
0002
0000
0000
0000
1003
0000
0100
1000
0000
0001
1000
0100
,
1000
0000
0010
1000
0000
0001
1000
0001
0100
0000
0001
1000
0000
0001
0100
0001
,
0010
0000
0100
1000
0000
0001
0100
0010
1000
0010
1000
0010
0100
0001
0100
0001
,
1000
0100
0010
0001
1000
0010
0100
0001
1000
0000
0100
0000
0110
0000
0000
0000
,
1000
0000
0000
0000
0000
0000
0000
0000
0010
0000
0000
0000
0000
0000
0000
0000
0100
0000
0000
0000
0000
0000
0000
0000
0002
0000
0000
0000
0000
0000
0000
0000
0000
0000
0000
0000
0000
0000
0000
0000
0000
0000
0003
0000
0000
0000
0000
0000
1100
0000
0000
0000
0000
0000
0000
0000
0000
0000
0000
0000
2000
0000
0000
0000
0000
0000
3200
0000
0000
0000
0000
0000
1300
0000
0000
0001
0000
0000
0010
0000
0000
0000
0000
0000
0001
0000
0000
0000
0000
0000
0100
0000
0000
0000
0000
0000
,
0010
1000
0010
0000
1000
0100
1000
0100
1000
0001
0100
0000
0001
1000
0100
0000
2000
0000
0000
0000
3100
0000
0100
0000
0001
0000
0010
0000
0020
0000
0000
0000
,
1030
0000
0010
0000
0020
0000
0000
0000
0031
0000
0010
0000
0020
0000
1030
0000
1002
0000
0000
0000
1003
0000
0001
0100
0001
0010
0100
0000
2000
0000
3002
0000
,
0103
0010
0100
0000
0001
1000
0001
1000
0100
0010
0001
0000
1000
0010
1000
0010
1000
0000
0010
0000
0100
0001
0000
1000
0001
0000
0010
0001
0000
1000
0002
0003
,
0101
0100
0110
0000
1010
0000
1001
0110
,
0200
0300
0000
0000
0000
0000
0000
0000
0200
0300
0000
0000
0000
0000
0000
0000
2001
0000
0000
0000
0000
0000
0000
0000
0000
0000
0000
0000
3001
0000
0000
0000
0100
0000
0000
0000
1000
0000
0000
0000
0100
0000
0000
0000
0000
0000
0000
0000
0010
0000
0000
0000
1000
0000
0000
0000
0001
0000
0000
0000
0000
0000
0000
0000
,
1000
0100
0010
0000
1000
0010
0100
0000
1000
0010
0100
0000
1000
0100
0010
0000
,
2001
0000
0000
0000
3001
0010
0100
0000
0001
0100
0010
0000
0001
1000
0010
0000
,
0001
0010
0100
0000
0001
0010
0100
0000
0002
0000
0203
0000
0320
0000
0032
0003
,
2001
0000
0000
0000
3002
0000
0000
0103
0010
0001
0010
0000
1000
0100
0010
0000
,
0001
0100
0010
0000
0001
0010
0100
0001
1000
0100
0001
0000
0100
0010
0001
0000
,
1001
0001
0100
0010
1010
1000
0001
1000
,
1100
0000
0000
0100
0010
0000
0011
0000
0001
0100
0010
0000
1010
0000
0000
0000
,
2001
0000
3002
0000
,
0203
0000
0320
0000
,
2030
0000
3200
0000
,
0302
0000
0023
2030
,
3001
0100
0001
0000
1000
0010
1000
0000
0001
0010
0001
1000
0000
0100
1000
0000
,
0001
0010
0100
1000
0000
0100
0000
0001
0000
0100
1000
0000
0001
0100
0010
0000
,
1000
0010
0100
0000
0010
1000
0100
0000
0010
0001
0100
0001
0000
0100
0010
0000
,
1000
0001
0010
0100
0000
0010
0000
0001
0000
1000
0010
0100
0001
1000
0100
0010
;

//--------------- dance-double - Fred-104 ----------------
#NOTEDATA:;
#STEPSTYPE:dance-double;
#DESCRIPTION:Fred-104;
#DIFFICULTY:Easy;
#METER:7;
#CREDIT:Fred-104;
#NOTES:
00000000
00000000
00000000
00000000
,
00000000
00000000
00000000
00000000
,
00000000
00000000
00000000
00000000
,
00000000
00000000
00000000
00000000
,
00000000
00000000
00000000
00000000
,
00000000
00000000
00000000
00000000
,
00020000
00000000
00000000
00000000
,
00030020
00000000
00000000
00000000
,
00020030
00000000
00000000
00000000
,
00032000
00000000
00000000
00000000
,
00103000
00100000
00100000
00000000
,
00010000
10000000
00010000
00000000
,
10000000
10000000
10000000
00000000
,
01000000
00100000
00001000
00000000
,
00101000
00000000
00010010
00000000
,
01001000
00000000
00010100
00000000
,
00010000
00001000
00000100
00000001
,
00000220
00000000
00000000
00000330
00001000
00000000
00000001
00000000
,
00000200
00000300
00000001
00000010
,
00002000
00003000
00010000
00100000
,
01000000
00001000
00010000
00100000
,
20000000
30000000
01000000
00100000
,
00020000
00030000
10000000
00100000
,
00020000
00030000
00001000
00010000
,
00001000
00000010
00000100
00001000
,
00000200
00000300
00000010
00000001
,
00002000
00003000
00000010
00010000
,
00002000
00003000
00010000
00001000
,
00000100
00001000
00010000
00001000
,
02000000
03000000
00100000
10000000
,
00020000
00030000
10000000
01000000
,
00020000
00000000
00030000
00000000
00001000
00010000
00001000
00000000
,
00010000
00000100
00010000
00000000
00001000
00000000
00000100
00000000
,
00000010
00001000
00000002
00000000
,
00000203
00000000
00002300
00000000
,
00000000
00000000
00023000
00000000
,
00230000
00000000
20300000
00000000
,
00000000
00000000
32000000
00000000
,
03200000
00000000
00302000
00000000
,
00000000
00000000
00023000
00000000
,
00030200
00000000
00000320
00000000
,
00000031
00001000
00000001
00000100
,
00001000
00010000
01000000
10000000
,
00010000
00000000
10000000
00100000
,
00010000
00001000
00000010
00000001
,
00001000
00000000
00000001
00000100
,
00001000
00010000
00100000
10000000
,
00010000
00000000
10000000
01000000
,
00010000
00001000
00000010
00000001
,
00001000
00000000
00000001
00000100
,
00000010
00001000
00000100
00010000
,
00001000
00100000
00010000
01000000
,
00100000
10000000
01000000
00100000
,
00002000
00000000
00023000
00030000
,
00002000
00003000
00000020
00000030
,
00000200
00000300
00010000
00001000
,
00000010
00000001
00001001
00000000
,
00000110
00000000
00000000
00000000
00001000
00000000
00000100
00000010
,
00000001
00000000
00000100
00001000
00010000
00000000
00100000
10000000
,
00010000
00000000
00000000
00000000
10000000
00000000
00000000
00000000
01000000
00000000
01000000
00000000
00100000
00010000
00100000
00000000
,
00001000
00010000
00001000
00000000
00010000
00000010
00010000
00000010
00010000
00000000
00001000
00000000
00000100
00000000
00000001
00000000
,
00000011
00001010
00022000
00000000
,
00033000
00000000
00001000
00010000
,
01000000
00100000
00020000
00030000
,
00100000
01000000
10000000
00010000
,
10000000
01000000
00200000
00300000
,
00001000
00001000
00010000
00010000
,
01000000
00100000
00020000
10030000
,
00100000
01000000
00010000
00000000
00100000
00001000
00010000
00000000
,
00001000
00000100
00000010
00001000
,
00000002
00000000
00000023
00000000
,
00000230
00000000
00000000
00000000
,
00020300
00000000
00032000
00000000
,
02003000
00000000
00000000
00000000
,
03200000
00000000
20300000
00000000
,
32000000
00000000
03200000
00000000
,
00301000
00010000
00100000
10000000
,
20020000
00000000
00000000
00000000
00000000
00000000
00000000
00000000
00000000
00000000
00000000
00000000
00000000
00000000
00000000
30030000
;

//--------------- dance-double - Fred-104 ----------------
#NOTEDATA:;
#STEPSTYPE:dance-double;
#DESCRIPTION:Fred-104;
#DIFFICULTY:Medium;
#METER:12;
#CREDIT:Fred-104;
#NOTES:
00000000
00000000
00000000
00000000
,
00000000
00000000
00000000
00000000
,
00000000
00000000
00000000
00000000
,
00000000
00000000
00000000
00000000
,
00000000
00000000
00000000
00000000
,
00000000
00000000
00000000
00000000
,
00002000
00000000
00203000
00000000
,
00302000
00000000
00023000
00230000
,
02300000
00000000
03002000
00000000
,
00013000
00100000
10000000
11000000
,
01100000
00000000
00010000
00000000
10000000
01000000
00100000
00010000
,
00000000
00100000
00001000
00010000
00000000
00001000
00010000
00000010
,
00010000
00000000
00001000
00000000
00010000
00001000
00000100
00000010
,
00000000
00001000
00000010
00000100
00000000
00000001
00001000
00000000
,
00000001
00000100
00000110
00000000
00010000
00001000
00011000
00000000
,
00001000
00100000
00110000
00000000
10000000
00100000
01100000
00000000
,
01000000
00001000
00010000
00001000
00000010
00001000
00010000
00001000
,
02000000
03000000
00000000
00000000
00002000
00003000
00000000
00000000
00020000
00030000
00000000
00000000
00022000
00000000
00033000
00000000
00001000
00000000
00000000
00000000
00010000
00000000
00000000
00000000
00002000
00000000
00000000
00000000
00000000
00000000
00013000
00000000
,
00001000
00000000
00000100
00000000
00000010
00000000
00000000
00000000
00001000
00000000
00000001
00000000
00000200
00000000
00000000
00000301
,
00000010
00000100
00010000
00000000
00002000
00000000
00003010
00000001
,
00000100
00001000
00010000
00100000
01000000
00010000
10000000
01000000
,
00010000
00000000
00001000
00000000
00010000
00000000
00100000
00000000
02000000
00000000
00000000
00000000
03002000
00000000
00000000
00013000
,
00001000
00000000
00100000
00000000
00001000
00000000
00010000
00000000
00001000
00000000
00000100
00000000
00000002
00000000
00000000
00000103
,
00000010
00001000
00001000
00000001
00000010
00001000
00010000
00000000
,
00100000
01000000
00010000
00000000
10000000
01000000
00100000
00001000
,
00010000
00000000
00000000
00000000
00001000
00000000
00000100
00000000
00000010
00000000
00000100
00000000
00000002
00000000
00000000
00001003
,
00000001
00000000
00000100
00000000
00000010
00000000
00000010
00000000
00000100
00000000
00000001
00000000
00002000
00000000
00000000
00003010
,
00001000
00000100
00010000
00010000
00002000
00000000
00013000
00100000
,
01000000
00100000
10000000
00100000
00010000
00100000
10000000
01000000
,
00010000
00000000
00001000
00000000
00010000
00000000
00000000
00000000
00001000
00000000
00010000
00000000
00002000
00000000
00000000
00013000
,
00001000
00000000
00000010
00000000
00000100
00000000
00000000
00000000
00001000
00000000
00000001
00000000
00000200
00000000
00000000
00000310
,
00000100
00000010
00010000
00000000
00001000
00010000
00001000
01000000
,
00010000
10000000
01000000
00100000
00110000
00000000
00101000
00000000
,
00010010
00001010
00002000
00000000
,
00003002
00000000
00000203
00000000
,
00000000
00000000
00002300
00000000
,
00023000
00000000
02030000
00000000
,
00000000
00000000
13000000
01000000
,
00010000
00001000
00000100
00000001
,
00000010
00000000
00000001
00000100
,
00001000
00010000
01000000
10000000
,
00100000
10000000
00010000
00000000
10000000
01000000
00010000
00000000
,
00001000
00000010
00000001
00000000
00000001
00000100
00001000
00000000
,
00010000
00100000
10000000
00000000
10000000
00100000
00010000
00000000
,
00001000
00000100
00000001
00000000
00000001
00000010
00001000
00000000
,
00010000
01000000
10000000
00000000
00010000
00100000
01000000
00000000
,
10000000
00100000
10000000
00000000
00010000
10000000
01000000
00100000
,
00001000
00010000
00001000
00000000
00010000
00001000
00000100
00000000
,
00000010
00001000
00000001
00000000
00000100
00000010
00000100
00001000
,
00010000
00100000
01000000
00000000
00100000
10000000
00010000
00000000
,
10000000
01000000
00010000
00000000
00001000
00000100
00000001
00000000
,
00000010
00000100
00000010
00000000
00000001
00000010
00001000
00000000
,
00010000
00100000
10000000
00000000
00010000
01000000
00010000
00000000
,
10000000
00000000
01000000
00000000
00200000
00000000
00000000
00000000
00301000
00000000
00000000
00010000
00000000
00000000
00000010
00000000
,
00010000
00000000
00000000
00000100
00000000
00000000
00001000
00000000
00000010
00000000
00000000
00010000
00000000
00000000
00001000
00000000
,
01000000
00000000
00000000
00010000
00000000
00000000
00100000
00000000
00001000
00000000
00010000
00000000
00100000
00000000
10000000
00000000
,
00010000
00100000
01000000
00100000
00010000
10000000
11000000
00000000
,
00010000
00000000
00000000
00000000
01000000
00000000
00000000
00000000
00100000
00000000
00000000
00000000
20000000
00000000
00000000
00000000
00000000
00000000
00000000
00000000
00000000
00000000
00000000
00000000
30010000
00000000
00000000
00000000
00000000
00000000
10000000
00000000
00000000
01000000
00000000
00000000
01100000
00000000
00000000
00100000
00000000
00000000
00001000
00000000
00000000
00000000
00000000
00000000
,
00010000
00001000
00000010
00001000
00010000
00001000
00000010
00001000
00020000
00000000
00031000
00010000
00011000
00010000
00000200
00000000
,
00001300
00000001
00000200
00000000
00000301
00000010
00000100
00001000
00001010
00000000
00000001
00000100
00000010
00000100
00001000
00010000
,
00100000
00000000
01000000
00000000
00100000
00000000
10000000
00000000
00010000
00000000
10000000
00000000
01000000
00000000
00010000
00000000
00001000
00000000
00000100
00000000
00000010
00000000
00000000
00001000
00000000
00000000
00000001
00000000
00000000
00000200
00000000
00000000
,
00000310
00000100
00000001
00000000
00000010
00001000
00010000
01000000
,
00200000
00000000
00000000
00000000
00310000
00000000
00000000
00010000
10000000
00000000
00100000
00000000
01000000
00000000
00001000
00000000
,
00010000
00100000
00010000
00001000
00010000
01000000
00010000
00000000
,
00021000
00000000
00031000
00000100
00000010
00010000
00001000
00000010
,
00000001
00001000
00000010
00000100
00000010
00010000
00001000
00000000
,
00021000
00000000
00000000
00000000
00032000
00000000
00000000
01003000
00001000
00000000
00010000
00000000
01000000
00000000
00100000
00000000
,
00001000
00010000
00100000
01000000
00010000
10000000
01000000
10000000
,
00100000
00010000
00001000
00010000
00001000
00000010
00000001
00000010
,
00000110
00011000
01100000
10010000
,
20000000
00000000
32000000
00000000
,
03200000
00000000
00302000
00000000
,
00023000
00000000
00030200
00000000
,
00000320
00000000
00000032
00000000
,
00001003
00000100
00000010
00000001
,
00000100
00001000
00010000
00100000
,
10000000
01000000
00010000
00000000
00001000
00000010
00000001
00000000
,
00001000
00000000
00000000
00000100
00000000
00000010
00000000
00000001
00000000
00001000
00000000
00000100
00010000
00001000
00010000
00001000
;

//--------------- dance-double - Fred-104 ----------------
#NOTEDATA:;
#STEPSTYPE:dance-double;
#DESCRIPTION:Fred-104;
#DIFFICULTY:Hard;
#METER:16;
#CREDIT:Fred-104;
#NOTES:
00000000
00000000
00000000
00000000
,
00000000
00000000
00000000
00000000
,
00000000
00000000
00000000
00000000
,
00000000
00000000
00000000
00000000
,
00000000
00000000
00000000
00000000
,
00000000
00000000
00000000
00000000
,
00010000
00001000
00000100
00000010
00001000
00000002
00000013
00000200
,
00000000
00010300
00001000
00000020
00000000
00000031
00000100
00001000
,
00010000
00100000
01000000
00010000
00100000
01000000
00010000
00001000
,
00011000
00010010
00011000
01001000
,
00010000
00001000
00000100
00000001
00000010
00002000
00013000
00002000
,
00000000
01003000
00010000
00200000
00000000
00301000
00010000
00100000
,
10000000
01000000
00010000
00001000
00010000
00001000
00000100
00000002
,
00000000
00001003
00000001
00000020
00000000
00001030
00010000
00100000
,
01000000
00000000
00000000
00010000
00000000
00000000
10000000
00000000
01000000
00000000
00000000
01000000
00100000
00000000
00000000
00001000
00000000
00000000
00010000
00000000
00000010
00000000
00000000
00000010
,
00001000
00000000
00000000
00000001
00000000
00000000
00000010
00000000
00000100
00000000
00000000
00000100
00010000
00000000
00000000
00001000
00000000
00000000
00100000
00000000
00010000
00000000
00000000
00010000
,
10000000
00000000
00100000
00000000
01000000
00000000
00010000
00000000
10000000
01000000
00100000
00001000
00010000
00000010
00001000
00000001
,
00000200
00000300
00000000
00000000
00000000
00000000
00000000
00000000
00000220
00000330
00000000
00000000
00000000
00000000
00000000
00000000
00022000
00033000
00000000
00000000
00000000
00000000
00000000
00000000
02200000
00000000
00000000
00000000
03300000
00000000
00000000
00000000
10000000
00000000
00000000
00000000
00000000
00000000
00000000
00000000
00010000
00000000
00000000
00000000
00000000
00000000
00000000
00000000
20000000
00000000
00000000
00000000
00000000
00000000
00000000
00000000
00000000
00000000
00000000
00000000
31000000
00000000
00000000
00000000
,
00010000
01000000
00100000
00000000
00010000
01000000
00001000
00000000
00010000
00000000
00001000
00000000
00000020
00000000
00000000
00000031
,
00000010
00000100
00001000
00000000
00000010
00000100
00001000
00000000
00020000
00000000
00000000
00000000
00031000
00010000
00100000
00000000
,
00010000
00001000
00010000
00000000
01000000
00010000
00001000
00000000
00010000
00000010
00001000
00000010
00010000
00000100
00001000
00000100
,
00000010
00000100
00001000
00000000
00000100
00000010
00001000
00000000
00020000
00000000
00000000
00000000
00032000
00000000
00000000
00013000
,
00100000
01000000
00010000
00000000
00100000
10000000
00100000
00000000
01000000
00000000
10000000
00000000
00020000
00000000
00000000
10030000
,
00100000
00010000
00100000
00000000
01000000
00100000
10000000
00000000
01000000
00000000
00100000
00000000
00001000
00010000
00000000
00000010
,
00010000
00000000
00001000
00000000
00000100
00000010
00001000
00000000
00000100
00000000
00000010
00000000
00001000
00000000
00010000
00000000
,
00100000
00000000
00000000
00000000
01000000
00000000
01100000
00000000
10010000
00000000
10000000
00000000
12000000
00000000
00000000
13000000
,
00100000
00010000
00100000
00000000
01000000
10000000
01000000
00000000
00010000
00000000
00100000
00000000
00102000
00000000
00000000
00013000
,
00001000
00000010
00000001
00000000
00000010
00000100
00001000
00000000
00000002
00000000
00000000
00000000
00000013
00001000
00010000
00000000
,
00100000
00010000
00001000
00000000
00000010
00000100
00001000
00000000
00000001
00000100
00000001
00000100
00000010
00001000
00000010
00001000
,
00000001
00000100
00001000
00000000
00010000
00100000
01000000
00000000
00100000
00000000
10000000
00000000
10020000
00000000
00000000
10030000
,
01000000
00010000
01000000
00000000
00100000
00010000
01000000
00000000
00001000
00000000
00010000
00000000
00012000
00000000
00000000
00013000
,
00001000
00000100
00000010
00000000
00001000
00000010
00000001
00000000
00000010
00000000
00000100
00001000
00000100
00000001
00001000
00000000
,
00000001
00000010
00000100
00000000
00010000
00001000
00010000
00000000
00001000
00000000
00000000
00010000
01000000
00000000
10000000
00000000
,
01000000
00100000
00010000
00000000
00110000
00000000
00000000
00000000
00021000
00000000
00000000
00000000
00000000
00000000
00000000
00000000
,
00032000
00000000
00003200
00000000
,
00000000
00000000
00000302
00000000
,
00000023
00000000
00002030
00000000
,
00000000
00000000
00013000
00001000
,
00000100
00000001
00000010
00001000
,
00010000
00001000
00010000
00100000
,
10000000
01000000
00010000
00001000
,
00000100
00000000
00000001
00000000
00001001
00000000
00000000
00000000
00000001
00000100
00000001
00000000
00001000
00000000
00000100
00000000
,
00010000
00000000
00001000
00000000
00100000
00010000
00100000
00000000
00001000
00010000
00100000
00010000
00000000
00001000
00000000
00010000
,
00000000
00001000
00100000
00000000
00010000
00000000
10000000
00000000
00010000
00100000
00010000
00000000
10000000
00000000
00100000
00000000
,
01000000
00000000
00010000
00000000
10000000
01000000
10000000
00000000
00010000
01000000
10000000
01000000
00000000
00010000
00000000
01000000
,
00000000
10000000
01000000
00000000
00010000
00000000
00100000
00000000
00001000
00010000
00001000
00000000
00000010
00000000
00001000
00010000
,
00001000
00000000
00010000
00000000
00000100
00001000
00000001
00000000
00001000
00000100
00000010
00000100
00000000
00001000
00000000
00000100
,
00000000
00000010
00000001
00000000
00000100
00001000
00010000
00000000
00001000
00010000
00100000
00000000
00010000
00000000
00001000
00010000
,
01000000
00000000
00010000
00000000
00001000
00010000
00001000
00000000
00011000
00000000
00000000
00000000
00010000
00001000
00000100
00000010
,
00001000
00000100
00000110
00000000
00000001
00000100
00001000
00010000
,
00100000
10000000
00010000
00010000
10000000
01000000
00010000
00001000
,
00000010
00000001
00001000
00001000
00000001
00000010
00001000
00010000
,
01000000
10000000
00010000
00010000
10000000
00100000
00010000
00001000
,
00000100
00000000
00000001
00001000
00000002
00000000
00000000
00000000
00001003
00000000
00000001
00000010
00000000
00000100
00001000
00000100
,
00010000
00000000
00001000
00100000
00000000
00010000
10000000
00010000
00100000
00000000
01000000
00100000
00000000
00001000
00010000
00000010
,
00001000
00000000
00000001
00000010
00000000
00000100
00001000
00000100
00010000
00001000
00010000
00001000
01000000
00010000
01000000
00010000
,
10000000
01000000
00100000
00001000
00010000
00000010
00001000
00000001
00000010
00000000
00000100
00000000
00001001
00000000
00000000
00000000
,
00000010
00000000
00000000
00000000
00000000
00000000
00000000
00000000
00010000
00000000
00000000
00000000
00000000
00000000
00000000
00000000
00001000
00000000
00000000
00000000
00000000
00000000
00000000
00000000
00011000
00000000
00000000
00000000
00000000
00000000
00000000
00000000
00000000
00000000
00000000
00000000
00000000
00000000
00000000
00000000
00000000
00000000
00000000
00000000
00000000
00000000
00000000
00000000
00000110
00000000
00000000
00000000
00000000
00000000
00000000
00000000
00000000
00000000
00000000
00000000
00002000
00000000
00000000
00000000
00000000
00000000
00003002
00000000
00000000
00000000
00000000
00000000
00000013
00000000
00000000
00000001
00000000
00000000
00001000
00000000
00000000
00000000
00000000
00000000
00000010
00000000
00000000
00000000
00000000
00000000
00000100
00000000
00000000
00000000
00000000
00000000
,
00001000
00010000
00001000
00000000
00010000
00001000
00010000
00001000
00010000
01000000
00100000
00000000
00010000
10000000
00100000
00000000
20000000
00000000
00000000
00000000
31000000
00000000
01000000
00000000
00010000
00000000
00100000
00000000
00020000
00000000
00000000
00000000
,
00130000
00000000
00001000
00000000
00020000
00000000
00000000
00000000
00030010
00000000
00010000
00000000
00002000
00000000
00013000
00000000
00012000
00000000
00000000
00000000
00103000
00000000
00001000
00010000
00000010
00001000
00000010
00000000
00020000
00000000
00032000
00000000
,
01003000
00010000
10000000
00000000
00010000
00100000
01000000
10000000
01000000
10000000
00010000
00000000
01000000
00001000
01000000
00001000
01000000
00000000
00001000
00000000
00010000
00001000
00000000
00000100
00000001
00000000
00000000
00001000
00000000
00000000
00000200
00000300
,
00000110
00000001
00001000
00000000
00001001
00000000
00000010
00010000
,
00002000
00003000
00000000
00000000
00000000
00000000
00000000
00000000
00002000
00003000
00000000
00000000
00000000
00000000
00000000
00000000
00012000
00000000
00000000
00000000
00000000
00000000
00000000
00000000
00000000
00000000
00000000
00000000
00013000
00000000
00000000
00000000
00100000
00000000
00000000
00000000
01000000
00000000
00000000
00000000
00010000
00000000
00000000
00000000
00000000
00000000
00000000
00000000
01000000
00000000
00000000
00000000
10000000
00000000
00000000
00000000
01000000
00000000
00000000
00000000
00000000
00000000
00000000
00000000
,
00010000
10000000
01000000
00000000
00010000
00001000
00010000
00000000
00001000
00000010
00000001
00000000
00000010
00000100
00001000
00000000
,
00001002
00000000
00000000
00000000
00001003
00000001
00000010
00000000
00001000
00000010
00000100
00000000
00001000
00000001
00000100
00000000
,
00000010
00000100
00001000
00000000
00010000
00100000
10000000
00000000
02000000
00000000
03200000
00000000
00320000
00000000
20030000
30000000
,
10020000
00000000
00000000
00000000
20030000
00000000
00000000
30100000
00010000
00001000
00010000
00000000
00001000
00000010
00000100
00000000
,
00001000
00000001
00000100
00000000
00001000
00010000
00100000
01000000
00010000
10000000
01000000
00000000
10000000
00010000
01000000
00000000
,
01100000
01000000
00010000
10000000
11000000
01000000
00010000
00001000
,
00000010
00000000
00000000
00000001
00000010
00000000
00000100
00000000
00010000
00001000
00010000
00000000
00011000
00000000
00000000
00000000
,
00021000
00000000
00032000
00000000
,
00003200
00000000
00000302
00000000
,
00000023
00000000
00002030
00000000
,
00023000
00000000
02030000
13000000
,
00010000
01000000
00010000
00000000
10000000
00100000
01000000
00000000
00010000
10000000
01000000
00100000
00000000
00100000
00001000
00000000
,
00010000
00001000
00000100
00000010
00000000
00001000
00000000
00000100
00000000
00000001
00000100
00000000
00000010
00000001
00001000
00000000
,
00000001
00000010
00000100
00000000
00000010
00000100
00001000
00000000
00000010
00010000
00001000
00010000
00000000
00100000
01000000
00000000
,
00010000
10000000
00100000
01000000
00000000
00010000
00000000
10000000
00000000
01000000
00100000
00001000
00010000
00000100
00000010
00000001
;
