#TITLE:Broadway Walk;
#ARTIST:Dirty Androids;
#BANNER:Broadway Walk.png;
#BACKGROUND:Broadway Walk-bg.png;
#CDTITLE:./CDTitles/DANCERUSH STARDOM.png;
#MUSIC:Broadway Walk.ogg;
#SAMPLESTART:67.691;
#SAMPLELENGTH:15;
#BPMS:0=117;
#BGSTAGE:4;

//--------------- dance-single - Fred-104 ----------------
#NOTES:
     dance-single:
     Fred-104:
     Beginner:
     1:
     :
0000
0000
0000
0000
,
0000
0000
0000
0000
,
0000
0000
0000
0000
,
0000
0000
0000
0000
,
0000
0000
0000
0000
,
1000
0000
0000
0000
,
1000
0000
0000
0000
,
0001
0000
0000
0000
,
0001
0000
0000
0000
,
1000
0000
0000
0000
,
1000
0000
0000
0000
,
0100
0000
0000
0000
,
0100
0000
0000
0000
,
0010
0000
0000
0000
,
0010
0000
0000
0000
,
0001
0000
0000
0000
,
1000
0000
0000
0000
,
0001
0000
0000
0000
,
0100
0000
0000
0000
,
0001
0000
0000
0000
,
0100
0000
0000
0000
,
0001
0000
0000
0000
,
1000
0000
0000
0000
,
0100
0000
0000
0000
,
1000
0000
0000
0000
,
0001
0000
0000
0000
,
0000
0000
0000
0000
,
0010
0000
0000
0000
,
0000
0000
0000
0000
,
1000
0000
0000
0000
,
0000
0000
0000
0000
,
0100
0000
0000
0000
,
0000
0000
0000
0000
,
0001
0000
0000
0000
,
1000
0000
0000
0000
,
0001
0000
0000
0000
,
1000
0000
0000
0000
,
0010
0000
0000
0000
,
1000
0000
0000
0000
,
0010
0000
0000
0000
,
1000
0000
0000
0000
,
0001
0000
0000
0000
,
0001
0000
0000
0000
,
0100
0000
0000
0000
,
1000
0000
0000
0000
,
1000
0000
0000
0000
,
0010
0000
0000
0000
,
0001
0000
0000
0000
,
1000
0000
0000
0000
,
0001
0000
0000
0000
;

//--------------- dance-single - Fred-104 ----------------
#NOTES:
     dance-single:
     Fred-104:
     Easy:
     5:
     :
0000
0000
0000
0000
,
0000
0000
0000
0000
,
0000
0000
0000
0000
,
0000
0000
0000
0000
,
0000
0000
0000
0000
,
1000
0100
0000
0100
,
0010
0001
0000
0001
,
1000
1000
0001
0001
,
0100
0010
0100
0100
,
1001
0000
0001
1000
,
0010
0010
1000
0100
,
0010
0000
0001
0000
,
1000
0010
0001
0100
,
1000
0001
1000
1000
,
0010
0100
0001
0000
,
1000
0100
0010
0010
,
0001
1000
0001
0000
,
1000
0100
1000
0001
,
0100
0010
0100
0100
,
0001
0010
0010
0100
,
1000
0001
1000
0000
,
0001
0100
0001
0100
,
1000
0010
1000
0010
,
0001
1000
0010
0100
,
0001
1000
0100
0010
,
0002
0000
1003
0010
,
2000
0000
3001
1000
,
0200
0000
0310
0100
,
0010
0001
0010
0001
,
2000
0000
3100
0000
,
0002
0000
0013
0000
,
2000
0000
3001
0000
,
1000
1000
0001
0001
,
1001
0000
1000
0000
,
0001
0010
1000
0100
,
0001
0000
1000
0000
,
0100
0010
0001
1000
,
0010
0000
1000
0000
,
0001
0100
1000
0010
,
0001
1000
0001
0100
,
0010
0010
0100
0100
,
0002
0000
1003
0100
,
0020
0000
0031
1000
,
0020
0000
0130
0010
,
1000
0100
0010
0001
,
1001
0000
1000
0100
,
1000
0001
1000
0010
,
0100
0100
0001
0001
,
1000
1000
0010
0100
,
2002
0000
3003
0000
;

//--------------- dance-single - Fred-104 ----------------
#NOTES:
     dance-single:
     Fred-104:
     Medium:
     9:
     :
0000
0000
0000
0000
,
0000
0000
0000
0000
,
0000
0000
0000
0000
,
0000
0000
0000
0000
,
0000
0000
0000
0000
,
0001
0010
0001
0000
0100
0000
0010
0000
,
1000
0100
1000
0000
0010
0000
0100
0000
,
0001
1000
0001
0000
0100
0010
0100
0000
,
0001
0010
0100
1000
0010
0100
0001
0000
,
1001
0000
1000
0000
0100
0010
0001
0001
,
1000
0000
1001
0000
1000
0010
1000
0001
,
0100
0100
0010
0000
0100
0001
0010
0000
,
0001
1000
0010
0001
0010
1000
0001
0010
,
0110
0000
1001
0000
1000
0100
0001
0100
,
1000
0000
0001
0100
1000
0100
0001
0010
,
0100
1000
1000
0000
0001
1000
0010
0000
,
0110
0000
0110
0000
1000
0001
1000
0000
,
1001
0000
0110
0000
1000
0001
0010
0010
,
0100
0000
1000
0001
0100
0001
1000
0100
,
0010
0010
0001
0000
1000
0010
0100
0000
,
0010
1000
0100
0010
0001
0100
0010
0000
,
0110
0000
1001
0000
0001
0100
0010
0010
,
1000
0100
1000
0000
0001
1000
0010
0000
,
0100
0001
0010
0001
1000
0001
0100
0000
,
0010
0010
0100
0100
0001
1000
0001
0000
,
1000
0000
0100
0000
0001
0010
1000
0000
,
0001
0000
0100
0000
1000
0010
0001
0000
,
1000
0000
0010
0000
0001
0100
1000
0000
,
0001
0010
1000
0000
1000
0010
0001
0000
,
1000
0000
0010
0000
0001
0100
1000
0000
,
0001
0000
0010
0000
1000
0100
0001
0000
,
1000
0000
0100
0000
0001
0010
1000
0000
,
0001
0001
1000
1000
0001
1000
0001
0000
,
1100
0000
0101
0000
1000
0100
0010
0000
,
0001
0000
0110
0000
1000
0100
0001
0100
,
1000
1000
0001
0000
0100
0010
0100
0000
,
0001
0001
0010
0100
0100
1000
0001
0100
,
0110
0000
1001
0000
0001
0010
1000
0000
,
0010
0100
1000
0001
0100
0010
1000
0000
,
0100
0100
0010
0010
0001
1000
0010
0000
,
0100
0100
0001
0001
0010
0010
0100
0100
,
2000
0000
0000
0000
0000
0000
3010
0010
,
0200
0000
0000
0301
2000
0000
3200
0000
,
0320
0000
0000
0000
0000
0000
0031
1000
,
0001
0100
1000
0000
0001
0010
1000
0000
,
0110
0000
1001
0000
1000
0100
0010
0000
,
0001
1000
0010
0000
0100
0010
1000
0000
,
0100
0010
0001
0100
0010
1000
0010
1000
,
0001
0010
0100
1000
0100
0010
0001
0000
,
2002
0000
3003
0000
;

//--------------- dance-single - Fred-104 ----------------
#NOTES:
     dance-single:
     Fred-104:
     Hard:
     14:
     :
0000
0000
0000
0000
,
0000
0000
0000
0000
,
0000
0000
0000
0000
,
0000
0000
0000
0000
,
0000
0000
0000
0000
,
2000
0000
0000
0000
0000
0000
0001
0000
0000
0000
0000
0000
0001
0000
0000
0000
0000
0000
3001
0000
0000
0000
0000
0010
,
0200
1000
1000
1300
,
0001
0001
0100
0100
0010
0010
1000
1000
,
0001
0000
0010
0001
0000
0010
0001
0000
1000
0001
0000
1000
0010
0000
0010
0100
0000
0100
0001
0000
0000
0000
0000
0000
,
1001
0000
0000
0000
0000
1000
0100
0000
0000
0010
0000
0000
0001
0000
0010
0000
0000
0001
0000
0000
1000
0000
0000
1000
,
0010
0000
0000
0000
0000
0000
0100
0000
0010
0100
0000
0010
0000
0000
1000
0000
0000
0100
0000
0000
1000
0000
0000
0000
,
0012
0000
0000
1003
0000
0000
0001
0000
1000
0000
0000
1000
0000
0000
0000
0010
0000
0000
0100
0000
0100
0000
0000
0000
,
0001
0000
0000
1000
0000
0000
0010
0000
1000
0000
0000
0100
0000
0000
0010
0001
0000
1000
0001
0000
1000
0000
0000
1000
,
0001
0000
0000
0000
0000
0100
0001
0000
0000
1000
0000
0000
0100
0000
0100
0010
0000
0001
0000
0000
1000
0001
0000
0100
,
0001
0000
0000
0000
0000
0000
1000
0000
0100
1000
0000
0100
0000
0000
0100
0010
0000
0000
0001
0000
1000
0000
0000
0000
,
1100
0000
0000
0002
0000
0000
1003
0000
0010
1000
0000
0100
0000
0000
0010
0000
0000
0001
0000
0000
1000
0000
0000
0000
,
0001
0000
0001
1000
0000
0000
0100
0010
0100
0010
0000
0001
1000
0000
1000
0010
0000
0010
0100
0000
0000
0000
0000
0000
,
1001
0000
0000
0000
0000
0001
1000
0000
0000
0001
0000
0100
0000
0000
1000
0000
0000
0100
0000
0000
0001
1000
0000
0100
,
0010
0000
0000
0000
0000
0000
0001
0000
1000
0001
0000
0100
0001
0000
0001
0010
0000
0010
0100
0000
0100
1000
0000
0000
,
0120
0000
0000
2030
0000
0000
3001
0000
0001
0000
0000
0010
0000
0000
0100
1000
0000
0000
0001
0000
0100
0001
0000
0000
,
1000
0000
0000
0100
0000
0000
0010
0000
0010
0000
0000
0001
1000
0000
0000
0001
0000
0000
0100
0000
0100
0000
0000
0000
,
1001
0000
0000
0000
0000
0001
0100
0000
0000
0002
0000
0000
1003
0000
1000
0000
0000
0100
0000
0000
0001
0000
0000
0100
,
1000
0000
0000
0000
0000
0000
0001
0000
1000
0000
0000
0010
0000
0000
0010
0100
0000
0010
1000
0000
1000
0000
0000
0000
,
0012
0000
0000
1003
0000
0000
0001
0000
1000
0010
0000
0000
0100
0000
0000
0100
0000
0000
0001
0000
0001
0000
0000
0000
,
1000
0000
0010
1000
0000
0001
1000
0000
0100
0000
0000
0010
0000
0000
0001
1000
0000
0010
0100
0000
0100
0000
0000
0000
,
1001
0000
0000
0000
0000
0000
0001
0000
1000
0001
0000
0000
0200
0000
0000
0000
0000
0000
0310
0000
0000
1000
0000
0100
,
0020
0000
0000
0000
0000
0000
0031
0000
1000
0001
0000
0000
0200
0000
0000
0000
0000
0000
0310
0000
0000
1000
0000
0000
,
0200
0000
0000
0000
0000
0000
0310
0000
0100
0010
0000
0000
0002
0000
0000
0000
0000
0000
1003
0000
0000
0001
0000
1000
,
0010
0000
0000
0100
0000
0000
0010
0000
1000
0010
0000
1000
0100
0000
0000
0010
0000
0000
0001
0000
0001
1000
0000
1000
,
0001
0000
0000
0000
0000
0000
0001
0000
1000
0010
0000
0000
0200
0000
0000
0000
0000
0000
0301
0000
0000
0000
0000
0001
,
2000
0000
0000
0000
0000
0000
3100
0000
0010
0001
0000
0000
0200
0000
0000
0000
0000
0000
0320
0000
0000
0000
0000
0000
,
2030
0000
0000
0000
0000
0000
3001
0000
1000
0100
0000
1000
0100
0000
0000
0010
0000
0000
0100
0000
1000
0000
0000
0000
,
0001
0000
0000
0001
0000
0000
1000
0000
0000
1000
0000
0000
0001
0000
1000
0001
0000
1000
0001
0000
0000
0000
0000
0000
,
1000
0000
0000
0000
0000
0010
0000
0000
0000
0100
0000
0000
0010
0000
1000
0000
0000
0001
0000
0000
0010
0000
0000
0010
,
0100
0000
0000
0000
0000
0000
1000
0000
0010
0000
0000
1000
0001
0000
0100
0001
0000
0000
1000
0000
0100
0000
0000
0000
,
2001
0000
0000
3100
0000
0000
1000
0000
0001
0000
0000
0100
0000
0000
0010
0100
0000
0000
0001
0000
0010
0001
0000
1000
,
0001
0000
0000
1000
0000
0000
0100
0000
0010
0000
0000
0010
0001
0000
0000
1000
0000
0000
0010
0000
0010
0000
0000
0000
,
1001
0000
0000
0000
0000
1000
0100
0000
0000
0010
0000
0000
0001
0000
0000
1000
0000
0010
0000
0000
1000
0000
0000
1000
,
0001
0000
0000
0000
0000
0000
1000
0000
0100
0000
0000
0010
0001
0000
0100
0001
0000
0000
0010
0000
0010
0000
0000
0000
,
0001
0000
1000
0001
0000
0000
1000
0000
0010
1000
0000
0010
0100
0000
0000
0000
0000
0001
0000
0000
1000
0000
0000
0000
,
0001
0000
0010
0100
0000
0000
1000
0000
0010
0100
0000
0001
0000
0000
1000
0100
0000
1000
0001
0000
0100
0000
0000
0100
,
0002
0000
0000
0000
0000
0000
0000
0000
0000
0000
0000
0000
0000
0000
0000
0000
0000
0000
1003
0000
0001
1000
0000
0001
,
2000
0000
0000
3002
0203
0000
2300
0000
,
3200
0000
0000
0000
0000
0000
0000
0000
0000
0000
0000
0000
0000
0000
0000
0000
0000
0000
0000
0000
0000
0301
1000
0001
,
1000
0000
0000
0100
0000
0000
0010
0000
0001
0000
0000
0001
0010
0000
0100
0000
0000
1000
0000
0000
0001
0000
0000
0100
,
0010
0000
0000
0000
0000
0000
1001
0000
0000
0000
0000
0000
0001
0000
1000
0001
0000
0010
0000
0000
0100
0010
0000
0000
,
0001
0000
0000
1000
0000
0000
0010
0000
1000
0000
0000
1000
0100
0000
0010
0100
0000
0000
0010
0000
0001
0000
0000
0000
,
1000
0000
0000
0001
0000
0000
0100
0000
0100
0001
0000
0001
1000
0000
0000
0100
0000
1000
0000
0000
0010
0100
0000
0000
,
0001
0000
0001
1000
0000
1000
0100
0000
0100
0010
0000
0010
0001
0000
0100
0000
0000
0010
0000
0000
1000
0000
0000
0000
,
0210
0000
0000
0000
0000
0010
0000
0000
0010
0000
0000
0010
0300
0000
0000
0000
0000
0000
0000
0000
0000
0000
0000
0000
;

//--------------- dance-double - Fred-104 ----------------
#NOTES:
     dance-double:
     Fred-104:
     Easy:
     5:
     :
00000000
00000000
00000000
00000000
,
00000000
00000000
00000000
00000000
,
00000000
00000000
00000000
00000000
,
00000000
00000000
00000000
00000000
,
00000000
00000000
00000000
00000000
,
00010000
00001000
00000000
00001000
,
00000010
00000001
00000000
00000001
,
00000100
00001000
00010000
01000000
,
10000000
00100000
00010000
00001000
,
00011000
00000000
00010000
00000000
,
00001000
00010000
00000010
00001000
,
00000100
00000000
00000010
00000000
,
00000001
00001000
00000001
00000100
,
00001000
00000000
00010000
00000000
,
00001000
01000000
00001000
00000000
,
00010000
00000000
00001000
00000000
,
00100000
00010000
00100000
00000000
,
01000000
10000000
00010000
00000000
,
10000000
00100000
00010000
00001000
,
00010000
00000000
00001000
00000000
,
00010000
00000100
00001000
00000000
,
00000100
00000000
00000010
00000000
,
00000001
00000100
00001000
00000000
,
00010000
00001000
01000000
00001000
,
00010000
00001000
00010000
00001000
,
00020000
00000000
00031000
00000010
,
00000002
00000000
00001003
00000001
,
00000020
00000000
00001030
00010000
,
00200000
00000000
10300000
00010000
,
10000000
01000000
10000000
01000000
,
00010000
00001000
00010000
00001000
,
00000010
00000001
00001000
00000001
,
00000100
00001000
00010000
00001000
,
00011000
00000000
00001000
00100000
,
00010000
00100000
01000000
00100000
,
01000000
10000000
00010000
01000000
,
00100000
10000000
01000000
00000000
,
00100000
00001000
00010000
00001000
,
00010000
00000100
00010000
00000100
,
00001000
00000100
00000010
00000001
,
00001000
00000001
00000100
00001000
,
00020000
00000000
00000000
00031000
,
02000000
00000000
03010000
10000000
,
02000000
00000000
03100000
00001000
,
00010000
00000010
00001000
00000001
,
00001001
00000000
00001000
00000001
,
00000100
00001000
00010000
00100000
,
10000000
00010000
10000000
01000000
,
00010000
00001000
00000010
00000001
,
00002002
00000000
00003003
00000000
;

//--------------- dance-double - Fred-104 ----------------
#NOTES:
     dance-double:
     Fred-104:
     Medium:
     8:
     :
00000000
00000000
00000000
00000000
,
00000000
00000000
00000000
00000000
,
00000000
00000000
00000000
00000000
,
00000000
00000000
00000000
00000000
,
00000000
00000000
00000000
00000000
,
00001000
00010000
00100000
01000000
,
00010000
00100000
01000000
00010000
,
00001000
00010000
00000100
00000000
00001000
00000100
00000010
00000000
,
00000100
00000010
00001000
00000000
00010000
01000000
00100000
00000000
,
10010000
00000000
10000000
00000000
01000000
00100000
00001000
00000000
,
00010000
00010000
00001000
00000000
00000010
00000010
00001000
00000000
,
00010000
00001000
00010000
00000000
00001000
00000100
00000001
00000000
,
00001000
00000100
00000001
00000100
00001000
00000001
00000100
00000000
,
00000110
00000000
00001001
00000000
00000001
00000100
00001000
00010000
,
00001000
00000000
01000000
00010000
01000000
00010000
00100000
00000000
,
01000000
10000000
10000000
00000000
01000000
00100000
00001000
00000000
,
00011000
00000000
00011000
00000000
00010000
00001000
00010000
00000000
,
00011000
00000000
00000110
00000000
00001000
00000001
00000100
00000000
,
00000010
00000000
00001000
00000100
00000010
00000001
00000100
00000000
,
00001000
00010000
00001000
00000000
01000000
00010000
00100000
00000000
,
01000000
10000000
00010000
00000000
01000000
00100000
01000000
00000000
,
01100000
00000000
10010000
00000000
10000000
01000000
00010000
00000000
,
00001000
00010000
00001000
00000000
00000100
00000010
00001000
00000000
,
00000001
00000010
00000100
00000000
00010000
00001000
00010000
00000000
,
00001000
00001000
00010000
00010000
00001000
00010000
00001000
00000000
,
00011000
00001000
00010000
00100000
,
10000000
01000000
00010000
00001000
,
00000010
00000001
00000100
00001000
,
00010000
00001000
00010000
00000000
00001000
00010000
00001000
00000000
,
00010000
00001000
00000100
00000001
,
00000010
00001000
00010000
01000000
,
10000000
00100000
00010000
00001000
,
00010000
00001000
00010000
00001000
00010000
00010000
00010000
00000000
,
00011000
00000000
00001000
00000000
00010000
00000100
00001000
00000000
,
00000100
00000000
00000010
00000000
00000001
00001000
00000010
00000000
,
00000100
00000000
00001000
00000000
00010000
00001000
01000000
00000000
,
00010000
00100000
01000000
00000000
10000000
00100000
01000000
00000000
,
01010000
00000000
10010000
00000000
10000000
01000000
00010000
00000000
,
00001000
00010000
00000100
00000000
00001000
00000010
00000100
00000000
,
00000010
00001000
00000100
00000000
00000010
00000001
00001000
00000000
,
00000010
00000100
00001000
00000000
00010000
00001000
00010000
00000000
,
00002000
00000000
00000000
00000000
00000000
00000000
01003000
00010000
,
02000000
00000000
00000000
03100000
20000000
00000000
32000000
00000000
,
03020000
00000000
00000000
00000000
00000000
00000000
00031000
00010000
,
00001000
00010000
00000100
00001000
,
00000110
00000000
00001001
00000000
00000001
00000100
00000010
00000000
,
00001000
00000001
00000010
00000000
00000100
00010000
00001000
00000000
,
00010000
00100000
10000000
00000000
00010000
00100000
10000000
00000000
,
00100000
00010000
10000000
00000000
00100000
01000000
00010000
00000000
,
20020000
00000000
30030000
00000000
;

//--------------- dance-double - Fred-104 ----------------
#NOTES:
     dance-double:
     Fred-104:
     Hard:
     14:
     :
00000000
00000000
00000000
00000000
,
00000000
00000000
00000000
00000000
,
00000000
00000000
00000000
00000000
,
00000000
00000000
00000000
00000000
,
00000000
00000000
00000000
00000000
,
00010000
00000000
00000000
00002000
00000000
00000000
01000000
00000000
00000000
00000000
00000000
00000000
00010000
00000000
00000000
00000000
00000000
00000000
01003000
00000000
00000000
00000000
00000000
00010000
,
10000000
02000000
00010000
00000000
10000000
00000000
03100000
00000000
,
00010000
00010000
10000000
10000000
01000000
01000000
00010000
00010000
,
00001000
00000000
00010000
00001000
00000000
00010000
00001000
00000000
00010000
00000100
00000000
00001000
00000100
00000000
00000100
00000010
00000000
00000010
00000001
00000000
00000000
00000000
00000000
00000000
,
00001001
00000000
00000000
00000000
00000000
00000001
00000100
00000000
00000000
00000010
00000000
00000000
00000100
00000000
00001000
00000000
00000000
00010000
00000000
00000000
00001000
00000000
00000000
00010000
,
00001000
00000000
00000000
00000000
00000000
00000000
01000000
00000000
00010000
01000000
00000000
00010000
00000000
00000000
10000000
00000000
00000000
01000000
00000000
00000000
00100000
00000000
00000000
00000000
,
00012000
00000000
00000000
00013000
00000000
00000000
00001000
00000000
00010000
00000000
00000000
00010000
00000000
00000000
00000000
00000010
00000000
00000000
00000000
00000000
00001000
00000000
00000000
00000000
,
00000100
00000000
00000000
00000010
00000000
00000000
00000001
00000000
00001000
00000000
00000000
00000010
00000000
00000000
00000100
00001000
00000000
00000000
00010000
00000000
00001000
00000000
00000000
00000000
,
00011000
00000000
00000000
00000000
00000000
00001000
01000000
00000000
00000000
00010000
00000000
00000000
00100000
00000000
01000000
00100000
00000000
01000000
00000000
00000000
01000000
10000000
00000000
01000000
,
10000000
00000000
00000000
00000000
00000000
00000000
00100000
00000000
00010000
00100000
00000000
00010000
00000000
00000000
00010000
00001000
00000000
00000000
00001000
00000000
00010000
00000000
00000000
00000000
,
00021000
00000000
00000000
00031000
00000000
00000000
00010000
00000000
00001000
00010000
00000000
00001000
00000000
00000000
00000010
00000000
00000000
00000100
00000000
00000000
00000010
00000000
00000000
00000000
,
00000001
00000000
00001000
00000001
00000000
00000000
00001000
00000010
00001000
00000010
00000000
00000010
00010000
00000000
00010000
00001000
00000000
00010000
00001000
00000000
00000000
00000000
00000000
00000000
,
00011000
00000000
00000000
00000000
00000000
00001000
00010000
00000000
00000000
00100000
00000000
01000000
00000000
00000000
10000000
00000000
00000000
01000000
00000000
00000000
00010000
10000000
00000000
01000000
,
00100000
00000000
00000000
00000000
00000000
00000000
00001000
00000000
00001000
00010000
00000000
00010000
00000100
00000000
00001000
00000010
00000000
00001000
00000100
00000000
00001000
00000001
00000000
00000000
,
00002001
00000000
00000000
00003001
00000000
00000000
00001000
00000000
00000100
00000000
00000000
00000010
00000000
00000000
00001000
00010000
00000000
00000000
00001000
00000000
00100000
00001000
00000000
00000000
,
00010000
00000000
00000000
00100000
00000000
00000000
01000000
00000000
00010000
00000000
00000000
00010000
10000000
00000000
00000000
01000000
00000000
00000000
00010000
00000000
00010000
00000000
00000000
00000000
,
00011000
00000000
00000000
00000000
00000000
00001000
00010000
00000000
00000000
00002000
00000000
00000000
00003100
00000000
00000001
00000000
00000000
00001000
00000000
00000000
00000100
00000000
00000000
00000001
,
00000100
00000000
00000000
00000000
00000000
00000000
00001000
00000000
00000001
00000000
00000000
00000010
00000000
00000000
00000100
00010000
00000000
00001000
00010000
00000000
00001000
00000000
00000000
00000000
,
00021000
00000000
00000000
00031000
00000000
00000000
01000000
00000000
00010000
01000000
00000000
00000000
00100000
00000000
00000000
00100000
00000000
00000000
10000000
00000000
10000000
00000000
00000000
00000000
,
00010000
00000000
10000000
01000000
00000000
10000000
01000000
00000000
00010000
00000000
00000000
00001000
00000000
00000000
00000100
00000001
00000000
00000100
00000001
00000000
00001000
00000000
00000000
00000000
,
00000110
00000000
00000000
00000000
00000000
00000000
00000001
00000000
00000010
00000100
00000000
00000000
00020000
00000000
00000000
00000000
00000000
00000000
00031000
00000000
00000000
00010000
00000000
00100000
,
02000000
00000000
00000000
00000000
00000000
00000000
03010000
00000000
10000000
01000000
00000000
00000000
00200000
00000000
00000000
00000000
00000000
00000000
00301000
00000000
00000000
00000010
00000000
00000000
,
00000200
00000000
00000000
00000000
00000000
00000000
00001300
00000000
00000001
00000100
00000000
00000000
00002000
00000000
00000000
00000000
00000000
00000000
00013000
00000000
00000000
01000000
00000000
00100000
,
00010000
00000000
00000000
10000000
00000000
00000000
00100000
00000000
10000000
00100000
00000000
10000000
01000000
00000000
00000000
00100000
00000000
00000000
00001000
00000000
00010000
00001000
00000000
00010000
,
00001000
00000000
00000000
00000000
00000000
00000000
00010000
00000000
00000100
00001000
00000000
00000000
00000200
00000000
00000000
00000000
00000000
00000000
00000310
00000000
00000000
00000001
00000000
00000100
,
00000020
00000000
00000000
00000000
00000000
00000000
00000130
00000000
00001000
00010000
00000000
00000000
00002000
00000000
00000000
00000000
00000000
00000000
00023000
00000000
00000000
00000000
00000000
00000000
,
02030000
00000000
00000000
00000000
00000000
00000000
03100000
00000000
00010000
10000000
00000000
00010000
01000000
00000000
00000000
00100000
00000000
00000000
00010000
00000000
00001000
00000000
00000000
00000000
,
00010000
00000000
00000000
00010000
00000000
00000000
00001000
00000000
00000000
00001000
00000000
00000000
00010000
00000000
00001000
00010000
00000000
00001000
00010000
00000000
00000000
00000000
00000000
00000000
,
00001000
00000000
00000000
00000000
00000000
00010000
00000000
00000000
00000000
01000000
00000000
00000000
10000000
00000000
00010000
00000000
00000000
01000000
00000000
00000000
00100000
00000000
00000000
00010000
,
00001000
00000000
00000000
00000000
00000000
00000000
00010000
00000000
00001000
00000000
00000000
00001000
00010000
00000000
00000010
00001000
00000000
00000000
00000100
00000000
00000010
00000000
00000000
00000000
,
00000002
00000000
00000000
00002003
00000000
00000000
00003010
00000000
00000100
00000000
00000000
00001000
00000000
00000000
00010000
00001000
00000000
00000000
01000000
00000000
00010000
10000000
00000000
00000000
,
01000000
00000000
00000000
10000000
00000000
00000000
00100000
00000000
01000000
00000000
00000000
00100000
00010000
00000000
00000000
00001000
00000000
00000000
00010000
00000000
00010000
00000000
00000000
00000000
,
00011000
00000000
00000000
00000000
00000000
00001000
00010000
00000000
00000000
00001000
00000000
00000000
00000100
00000000
00000010
00000000
00000000
00000100
00000000
00000000
00000001
00000000
00000000
00000001
,
00001000
00000000
00000000
00000000
00000000
00000000
00000001
00000000
00000010
00000000
00000000
00000010
00000100
00000000
00001000
00000100
00000000
00000000
00010000
00000000
00010000
00000000
00000000
00000000
,
00002000
00000000
00000000
00023000
00000000
00000000
00130000
00000000
10000000
00100000
00000000
10000000
01000000
00000000
00000000
00000000
00000000
00100000
00000000
00000000
00100000
00000000
00000000
00000000
,
00001000
00000000
00010000
00001000
00000000
00000000
00010000
00000000
00000010
00001000
00000000
00000010
00000000
00000000
00010000
00001000
00000000
00100000
00010000
00000000
10000000
00000000
00000000
00100000
,
02000000
00000000
00000000
00000000
00000000
00000000
00000000
00000000
00000000
00000000
00000000
00000000
00000000
00000000
00000000
00000000
00000000
00000000
03010000
00000000
10000000
01000000
00000000
00100000
,
00002000
00000000
00000000
00023000
00032000
00000000
00003200
00000000
,
00000320
00000000
00000000
00000000
00000000
00000000
00000000
00000000
00000000
00000000
00000000
00000000
00000000
00000000
00000000
00000000
00000000
00000000
00000000
00000000
00000000
00000031
00000010
00000001
,
00000010
00000000
00000000
00001000
00000000
00000000
00000001
00000000
00000010
00000000
00000000
00000010
00001000
00000000
00010000
00000000
00000000
00001000
00000000
00000000
00010000
00000000
00000000
00000000
,
01000000
00000000
00000000
00000000
00000000
00000000
11000000
00000000
00000000
00000000
00000000
00000000
10000000
00000000
00010000
10000000
00000000
01000000
00000000
00000000
01000000
00100000
00000000
00000000
,
00001000
00000000
00000000
00010000
00000000
00000000
00001000
00000000
00010000
00001000
00000000
00010000
00000010
00000000
00001000
00000100
00000000
00000000
00000010
00000000
00000001
00000000
00000000
00000000
,
00001000
00000000
00000000
00000010
00000000
00000000
00000100
00000000
00001000
00010000
00000000
00001000
00010000
00000000
00000000
00001000
00000000
00010000
00000000
00000000
00100000
10000000
00000000
00000000
,
00010000
00000000
10000000
01000000
00000000
00100000
01000000
00000000
00010000
00001000
00000000
00000010
00000100
00000000
00000010
00000000
00000000
00000001
00000000
00000000
00000100
00000000
00000000
00000000
,
00012000
00000000
00000000
00000000
00000000
00010000
00000000
00000000
00010000
00000000
00000000
00010000
00003000
00000000
00000000
00000000
00000000
00000000
00000000
00000000
00000000
00000000
00000000
00000000
;
