#VERSION:0.83;
#TITLE:BroGamer;
#ARTIST:USAO;
#GENRE:SUPER ULTIMATE HYPER CORE;
#BANNER:BroGamer.png;
#BACKGROUND:BroGamer-bg.png;
#CDTITLE:./CDTitles/bm IIDX 24 SINOBUZ.png;
#MUSIC:BroGamer.ogg;
#SAMPLESTART:99.547;
#SAMPLELENGTH:15;
#BPMS:0=207;

//--------------- dance-single - Fred-104 ----------------
#NOTEDATA:;
#STEPSTYPE:dance-single;
#DESCRIPTION:Fred-104;
#DIFFICULTY:Beginner;
#METER:4;
#CREDIT:Fred-104;
#NOTES:
0000
0000
0000
0000
,
0000
0000
0000
0000
,
0000
0000
0000
0000
,
1000
0000
0000
0000
,
0000
0000
0000
0000
,
0000
0000
0000
0000
,
1000
0000
0000
0000
,
0001
0000
0000
0000
,
2000
0000
3000
0000
,
1001
0000
0000
0000
,
0001
0000
0000
0000
,
0010
0000
0010
0000
,
0010
0000
0000
0000
,
1000
0000
1000
0000
,
1000
0000
0000
0000
,
0100
0000
0100
0000
,
0100
0000
0000
0000
,
0001
0000
0001
0000
,
0001
0000
0000
0000
,
1000
0000
0010
0000
,
1000
0000
0000
0000
,
0010
0000
1000
0000
,
0001
0000
0000
0000
,
0010
0000
0010
0000
,
0100
0000
0100
0000
,
2000
0000
3000
0000
,
0001
0000
0000
0000
,
1000
0000
0000
0000
,
0001
0000
0000
0000
,
0100
0000
0000
0000
,
0001
0000
0000
0000
,
1000
0000
0000
0000
,
0100
0000
0000
0000
,
0020
0000
0030
0000
,
0001
0000
0001
0000
,
0001
0000
1000
0000
,
0010
0000
1000
0000
,
0010
0000
0001
0000
,
0001
0000
0100
0000
,
0001
0000
0100
0000
,
1000
0000
0001
0000
,
2000
0000
0000
3000
,
1001
0000
0000
0000
,
0000
0000
0000
0000
,
0002
0000
0000
0000
,
0003
0000
0000
0000
,
2000
0000
0000
3000
,
0200
0000
0000
0300
,
0020
0000
0000
0030
,
0002
0000
0000
0003
,
2000
0000
0000
3000
,
0002
0000
0000
0003
,
2000
0000
0000
3000
,
0002
0000
0000
0003
,
1001
0000
0000
0000
,
0000
0000
0000
0000
,
0000
0000
0000
0000
,
0000
0000
0000
0000
,
0000
0000
0000
0000
,
0000
0000
0000
0000
,
0000
0000
0000
0000
,
0000
0000
0000
0000
,
0001
0000
1000
0000
,
0010
0000
1000
0000
,
0010
0000
1000
0000
,
0001
0000
1000
0000
,
0001
0000
0001
0000
,
0010
0000
0100
0000
,
1000
0000
0001
0000
,
1001
0000
0000
0000
,
1000
0000
0100
0000
,
0001
0000
0001
0000
,
0001
0000
0100
0000
,
1000
0000
1000
0000
,
0001
0000
0001
0000
,
1000
0000
1000
0000
,
0001
0000
0001
0000
,
1001
0000
0000
0000
,
1000
0000
0010
0000
,
1000
0000
1000
0000
,
0001
0000
0010
0000
,
0100
0000
0100
0000
,
0100
0000
1000
0000
,
0001
0000
1000
0000
,
0010
0000
1000
0000
,
0002
0000
0000
0003
,
0001
0000
1000
0000
,
0001
0000
0010
0000
,
0010
0000
0001
0000
,
1000
0000
0010
0000
,
0100
0000
0010
0000
,
1000
0000
0001
0000
,
0001
0000
0001
0000
,
2000
0000
0000
3000
,
1000
0000
0010
0000
,
0001
0000
0000
0000
,
0001
0000
0010
0000
,
1000
0000
0000
0000
,
0001
0000
0100
0000
,
1000
0000
0000
0000
,
1000
0000
0100
0000
,
0001
0000
0000
0000
,
2000
0000
0000
3000
,
0002
0000
0000
0003
,
2000
0000
0000
3000
,
0002
0000
0000
0003
,
2000
0000
0000
3000
,
0002
0000
0000
0003
,
1000
1000
1000
1000
,
2002
0000
0000
0000
,
3003
0000
0000
0000
;

//--------------- dance-single - Fred-104 ----------------
#NOTEDATA:;
#STEPSTYPE:dance-single;
#DESCRIPTION:Fred-104;
#DIFFICULTY:Easy;
#METER:9;
#CREDIT:Fred-104;
#NOTES:
0000
0000
0000
0000
,
0000
0000
0000
0000
,
0000
0000
0000
0000
,
0000
0000
0000
0000
,
0000
0000
0000
0000
,
0000
0000
0000
0000
,
1001
1000
0100
0100
,
0010
0010
0001
1000
,
0010
1000
0010
0000
0100
0001
0100
0000
,
0110
0000
0000
0000
,
1010
1000
0001
0010
,
0011
0001
1000
0001
,
0101
0001
1000
0100
,
0110
0010
0002
2003
,
3010
0110
0100
0001
,
1000
0000
1100
0000
1000
0001
1000
0000
,
0001
0101
0100
0010
,
1000
0000
1000
0000
0001
1000
0001
0000
,
1000
0100
0020
0030
,
1000
0010
0002
0003
,
1000
0001
0200
0300
,
1000
0000
0100
0000
0001
1000
0001
0000
,
0100
0010
0002
0003
,
0010
1000
0001
0010
,
0100
0100
1000
1000
,
0001
1000
2002
3003
,
1000
0000
0100
0000
1000
0000
0000
1000
,
0000
1000
0001
0100
,
0010
0100
0010
0010
,
0100
0001
2002
3003
,
1100
0000
1000
0001
,
1000
0100
0010
0010
,
0001
1000
0010
0100
,
0001
1000
2002
3003
,
1000
0010
1000
1000
,
0100
0010
0011
0000
,
0001
0001
1000
0010
,
0100
0001
1001
0000
,
1000
0100
1000
0100
,
0001
0100
0001
0100
,
1000
0000
1000
0000
1000
0000
0001
0000
0001
0000
0001
0000
,
2002
0000
3003
0000
,
1001
0000
0001
0000
,
1000
0000
0010
0000
,
0100
0100
0001
1000
,
1001
0000
0000
0000
,
1000
0000
0000
1000
0000
0000
0010
0000
,
0010
0000
0000
0001
0000
0000
0001
0000
,
0001
0000
0000
0100
0000
0000
0100
0000
,
0100
0000
0000
1000
0000
0000
1000
0000
,
0001
0000
0000
0001
0000
0000
0100
0000
,
0100
0000
0000
1000
0000
0000
1000
0000
,
0100
0000
0000
0100
0000
0000
0001
0000
,
1000
1000
0001
1000
,
1002
0000
0000
0000
,
0000
0000
0000
0000
,
2003
0000
0000
0000
,
3100
0100
0010
0000
,
0012
0000
0000
0000
,
2003
0000
0000
0000
,
3020
0000
0000
0000
,
0230
0302
2000
3003
,
1000
0001
0010
0000
,
0100
0001
0100
1000
,
0001
1000
0010
0010
,
0100
0001
1000
0000
,
0100
0010
0001
0000
,
0100
0010
1000
0000
,
0001
0010
0100
1000
,
0001
0100
0202
0303
,
0001
1000
0100
1000
,
0001
0100
0010
0010
,
0100
0100
0001
0001
,
1000
0000
0100
0000
0010
0001
0010
0000
,
0011
0000
0001
1000
,
1010
0000
1000
0001
,
0100
0010
0100
0000
0001
1000
0001
0000
,
1001
0000
0000
0000
,
1001
0000
1000
0001
,
1000
1000
0100
0010
,
0011
0000
0001
1000
,
0010
0010
1000
0001
,
1001
0000
0001
0100
,
0001
0001
1000
0100
,
0110
0000
0010
0001
,
2000
0000
0002
3003
,
1001
1000
0010
0000
,
1000
1000
0001
0010
,
0100
0010
0100
0000
,
1000
0001
0100
0100
,
0110
0010
1000
0000
,
0001
0010
0001
1000
,
0010
0010
0100
0100
,
0002
0000
2000
3003
,
1001
1000
0100
1000
,
0001
0000
0000
0100
0000
0000
0001
0000
,
1000
1000
0100
0001
,
0100
1000
0001
0010
,
1001
0010
0001
1000
,
0010
0000
0000
0100
0000
0000
0010
0000
,
1000
0001
0010
0100
,
1000
0001
2002
3003
,
1000
0000
0000
0100
0000
0000
0010
0000
,
0001
0000
0000
0100
0000
0000
0010
0000
,
1000
0000
0000
0010
0000
0000
0100
0000
,
0001
0000
0000
0010
0000
0000
0100
0000
,
1100
1000
0001
0100
,
0110
0010
1000
0001
,
1000
0010
1000
0000
0001
0100
0001
0000
,
2000
0000
0002
3003
,
1001
0000
0000
0000
;

//--------------- dance-single - Fred-104 ----------------
#NOTEDATA:;
#STEPSTYPE:dance-single;
#DESCRIPTION:Fred-104;
#DIFFICULTY:Medium;
#METER:12;
#CREDIT:Fred-104;
#NOTES:
0000
0000
0000
0000
,
0000
0000
0000
0000
,
0000
0000
0000
0000
,
0000
0000
0000
0000
,
0000
0000
0000
0000
,
0000
0000
0000
0000
,
1001
0001
0010
0010
,
0100
0100
1000
1000
,
0001
0000
0000
0001
0100
0000
0000
0000
0001
0000
1000
0000
0001
0000
0000
0000
,
1001
0000
0000
0000
,
0001
1010
0001
1000
,
0001
0110
1000
0001
,
0100
1010
0100
0001
,
1000
0100
0011
1001
,
0001
0100
0001
0100
0000
0001
0010
0000
,
0100
1000
0100
0000
1000
0001
1000
0000
,
0010
0000
0100
0000
0001
1000
0001
0000
,
1000
0000
1000
0000
0001
0001
0001
0000
,
0010
0100
0010
0100
0010
0000
0001
0000
,
1000
0000
0010
0000
0100
0001
0100
0000
,
0001
1000
0100
1000
0001
0000
0100
0000
,
0010
0000
1000
0000
0100
0100
0100
0000
,
0010
0001
0010
0000
0001
0000
1000
0010
,
1000
0000
0001
0000
0010
0010
0010
0000
,
0100
1000
0100
0000
1000
0001
1000
0000
,
0001
1000
0001
1000
0001
0000
1001
0000
,
1000
0100
1000
0100
1000
0000
0010
0100
,
0000
0010
1000
0000
0001
0010
0100
0000
,
1000
0001
1000
0010
1000
0001
0010
0000
,
0100
0000
0001
0000
0100
1000
0001
0000
,
0110
0000
1001
0000
1000
0010
1000
0000
,
0001
0010
0100
0000
1000
0001
1000
0000
,
0010
0100
0001
0100
0010
1000
0001
0000
,
1000
0001
1000
0001
0000
0000
2002
0000
0000
3003
0000
0000
,
0001
0010
0001
1000
0010
0000
0110
0000
,
0101
0000
0001
1000
0001
1000
0100
0000
,
0110
0000
0001
0000
1000
0010
1000
0000
,
0001
0000
0010
0100
1000
0010
1000
0000
,
1001
0000
0001
0100
0001
0100
0001
0000
,
1000
0100
1000
0000
0001
0010
0001
0000
,
0100
0000
0100
0000
0100
0000
0010
0000
0010
0000
0010
0000
,
0220
0000
0330
0000
,
1001
0001
1000
1000
,
0010
0010
0100
0100
,
0001
1000
0001
1000
0100
0010
0001
1000
,
0001
0000
0000
0000
,
1000
0000
0000
1000
0000
0000
1000
0000
0000
1000
0000
0000
1000
0000
0000
0000
,
0100
0000
0000
0100
0000
0000
0100
0000
0000
0100
0000
0000
0100
0000
0000
0000
,
0010
0000
0000
0010
0000
0000
0010
0000
0000
0010
0000
0000
0010
0000
0000
0000
,
0001
0000
0000
0001
0000
0000
0001
0000
0000
0001
0000
0000
0001
0000
0000
0000
,
1000
0000
0000
0100
0000
0000
0010
0000
0000
0001
0000
0000
1000
0000
0000
0000
,
0001
0000
0000
0100
0000
0000
0010
0000
0000
1000
0000
0000
0001
0000
0000
0000
,
1000
0000
0000
0001
0000
0000
0010
0000
0000
0100
0000
0000
1000
0000
0000
0000
,
0001
0100
0001
0000
1000
0100
1000
0000
,
1002
0000
0000
0000
,
0000
0000
0000
0000
,
2003
0000
0000
0000
,
3010
0000
0100
0000
0001
0010
0001
0000
,
2001
0000
0000
0000
,
0000
0000
0000
0000
,
3002
0000
0000
0000
,
0023
0230
2000
3300
,
0001
0100
0001
1000
,
0100
0010
0000
0010
0000
0010
0001
0000
,
1000
0010
1000
0001
,
0010
0100
1000
1000
,
0001
1000
0010
1000
,
0100
1000
0000
0001
0000
0001
0100
0000
,
0010
1000
0001
0010
,
0100
1000
2002
3003
,
1000
0100
1000
0000
0001
0000
0100
0000
,
0010
1000
0000
0010
0000
0100
0001
0000
,
1000
0100
1000
0100
,
0001
0010
1000
0001
,
1001
0000
1000
0000
0100
0000
0010
0001
,
1000
0000
0001
0000
0100
0010
0100
0010
,
0100
0000
0001
0000
1000
0100
0010
0001
,
1000
0000
0000
0000
,
1001
0000
0001
1000
0010
0000
1000
0001
,
0010
0100
0000
0010
0000
0001
0000
1000
,
0010
0000
0100
0000
0001
1000
0100
0010
,
0100
1000
0000
1000
0001
1000
0010
0000
,
0110
0000
0100
0001
1000
0000
0001
0010
,
0100
1000
0000
0001
0000
1000
0000
0010
,
0100
0000
0001
0000
1000
0100
0010
0001
,
1000
0001
0100
0110
,
0001
1000
0001
1000
0001
0000
0100
0000
,
0010
1000
0000
0001
0000
1000
0000
0100
,
0010
0000
0001
1000
0010
0000
1000
0001
,
0010
0100
0000
0100
1000
0001
1000
0000
,
0010
0100
0010
0100
0010
0000
1000
0001
,
1000
0100
0000
0010
0000
0001
0000
1000
,
0010
0000
0000
1000
0000
0000
0001
0000
0010
0000
0000
0100
0000
0000
0010
0000
,
0001
0001
0001
1001
,
1000
0000
0010
1000
0100
0000
1000
0001
,
0100
0001
0000
1000
0000
0100
0000
0010
,
0001
0000
1000
0000
0001
0100
0001
0100
,
0001
1000
0000
1000
0100
0010
0001
0000
,
1001
0000
1000
0010
0100
0000
0010
1000
,
0001
1000
0000
0100
0000
0010
0000
0100
,
1000
0000
0001
0000
0100
0001
0100
0001
,
0010
0100
1000
0001
,
1000
0000
0000
1000
0000
0000
1000
0000
0000
1000
0000
0000
1000
0000
0000
0000
,
0010
0000
0000
0010
0000
0000
0010
0000
0000
0010
0000
0000
0010
0000
0000
0000
,
0100
0000
0000
0100
0000
0000
0100
0000
0000
0100
0000
0000
0100
0000
0000
0000
,
0001
0000
0000
0001
0000
0000
0001
0000
0000
0001
0000
0000
0001
0000
0000
0000
,
1001
0000
1000
0000
0100
0000
0010
0001
,
1000
0000
0001
0000
0100
0000
0010
1000
,
0001
0010
0100
1000
0001
0100
0010
0000
,
0220
0000
0330
0000
,
1001
0000
0000
0000
;

//--------------- dance-single - Fred-104 ----------------
#NOTEDATA:;
#STEPSTYPE:dance-single;
#DESCRIPTION:Fred-104;
#DIFFICULTY:Hard;
#METER:16;
#CREDIT:Fred-104;
#NOTES:
0000
0000
0000
0000
,
0000
0000
0000
0000
,
0000
0000
0000
0000
,
0000
0000
0000
0000
,
0000
0000
0000
0000
,
0000
0000
0000
0000
,
1100
0000
0100
0000
0010
0010
0001
0000
,
1000
0010
0100
0001
1000
0100
0010
0000
,
0100
0000
1000
0000
0001
0000
0100
0000
0001
1000
0001
1000
0001
1000
0001
1000
,
0001
0000
0000
0000
,
0110
0000
1000
0000
0001
1000
0010
0000
,
0200
0001
1000
0310
,
1000
0000
1100
0000
0010
0001
0200
0000
,
1000
0000
0301
0010
0110
0000
0110
0000
,
1000
0100
0100
0010
0001
0001
1000
0010
,
0010
0000
0000
0100
0000
0000
0001
0000
0000
0001
0000
0000
1000
0000
0000
0001
0000
0000
0010
0000
0100
0000
1000
0000
,
0001
0100
0001
0000
1000
0000
0100
0000
0010
0100
0010
0100
0010
0000
0001
0000
,
1000
0001
0100
1000
0001
0010
1010
0000
,
1000
0100
1000
0001
0100
0010
1000
0001
,
0010
0000
0100
0000
0101
0000
0000
0000
0100
0000
0010
0000
0001
0000
1000
0010
,
1000
0001
0010
0100
0001
0100
1000
0001
,
0100
0000
0010
1000
0010
0000
0100
0001
0100
0000
0001
0000
1001
0000
0000
0000
,
1100
0100
0010
0000
0001
1000
0010
0001
,
0010
0100
0101
0000
1000
0100
0110
0000
,
0001
0000
0010
0100
0010
0000
0001
0000
1000
0000
0010
0100
0010
0000
1000
0000
,
0001
0100
0001
0100
0010
0100
0010
0100
0001
0000
1000
0000
0001
0000
0000
0000
,
1000
0100
0010
0100
0002
0000
0103
2000
,
0000
3001
0100
1000
0100
0001
0020
0000
,
0031
1000
0010
0100
1000
0100
0002
0000
,
2003
0010
3001
1001
,
0110
0000
1010
0000
0101
0001
1000
0100
,
1000
0000
0000
0000
0000
0000
0001
0000
0000
0100
0000
0000
0001
0000
0000
0000
0000
0000
1000
0000
0000
0010
0000
0000
1000
0000
0000
0000
0000
0000
0001
0000
0000
0000
0000
0000
0010
0000
0000
0000
0100
0000
0000
0000
1000
0000
0000
0000
,
0001
0000
1000
0010
1000
0000
0001
0010
0001
0000
1000
0100
1000
0000
0100
0000
,
1000
0000
0001
0000
0100
0000
0010
0000
1000
0000
0001
0000
0010
0000
0000
0100
0000
0000
0110
0000
0000
0000
0000
0000
,
0011
0001
1000
0010
1010
0000
0101
0000
,
0110
0000
1000
0010
0001
0010
0100
0000
,
0101
0000
1010
0000
0011
0000
1100
1000
,
0001
0000
0100
0010
0001
0010
1010
0000
,
1001
0000
0000
0000
0001
0000
0100
0000
0010
0000
1000
0000
0001
0010
0001
0000
,
1000
0000
0000
0000
0000
0000
0001
0000
0000
0100
0000
0000
0001
0000
0000
0000
0000
0000
1000
0000
0000
0100
0000
0000
1000
0000
0000
0000
0000
0000
0001
0000
0000
0000
0000
0000
0010
0000
0000
0000
0100
0000
0000
0000
0010
0000
0000
0000
,
0001
0000
1001
0000
0001
1000
0010
0000
1010
0000
0101
0000
,
2200
0000
0300
3000
,
0001
1000
0100
1000
0001
0100
0010
0000
,
0100
0001
1000
0100
0010
0001
1000
0000
,
0001
0000
0100
0000
0010
0000
1000
0000
0001
1000
0001
1000
0001
1000
0001
1000
,
0001
0000
0000
0000
,
1100
0000
0000
1100
0000
0000
1001
0000
0000
0101
0000
0000
1001
0000
0000
0000
,
0011
0000
0000
0011
0000
0000
1001
0000
0000
1010
0000
0000
0110
0000
0000
0000
,
0101
0000
0000
0101
0000
0000
1001
0000
0000
1100
0000
0000
1001
0000
0000
0000
,
1010
0000
0000
1001
0000
0000
0011
0000
0001
1000
0001
1000
0001
0000
1000
0000
,
1010
0000
0000
0101
0000
0000
1100
0000
0000
0011
0000
0000
1001
0000
0000
0000
,
0011
0000
0000
1010
0000
0000
0101
0000
0000
1100
0000
0000
0110
0000
0000
0000
,
0011
0000
0000
1100
0000
0000
0101
0000
0000
1010
0000
0000
1000
0000
0001
0000
,
0010
0000
0100
0000
1000
0000
0001
0000
1000
0001
1000
0001
1000
0000
0000
0000
,
1002
0000
0000
0000
,
2003
0000
0000
0000
,
3001
0000
0000
0001
0000
0000
0000
0000
0100
0000
0000
0000
0010
0000
0000
0000
,
1010
0000
1000
0100
0010
0001
1000
0000
,
0102
0000
0000
0000
,
0023
0000
0000
0000
,
0230
0000
0000
0300
,
2100
3002
2000
3003
,
0001
1000
0010
1000
0001
0000
1000
0100
,
0010
0001
0000
1000
0000
0010
1000
0001
,
0010
0100
0001
1000
0010
0100
1000
0000
,
0010
0100
0001
0000
1100
0000
0001
1000
,
0010
0100
0010
1000
0001
0000
1000
0100
,
0010
1000
0000
0010
0000
0001
1000
0010
,
0100
1000
0001
0010
0100
0001
1000
0000
,
0200
0000
0320
0000
0002
0030
0003
0000
,
1000
0001
1000
0100
0010
0000
0100
1000
,
0010
0100
0000
1000
0000
0100
0001
1000
,
0001
0100
0001
0100
1000
0100
1000
0001
,
1000
0001
0010
1000
0010
1000
0001
0000
,
1100
0000
0010
0000
0101
0000
0010
1000
,
1001
0000
0110
0000
1001
1000
0001
0100
,
0010
0000
1000
0000
0001
0010
0001
0010
0100
0000
1000
0000
0001
1000
0001
1000
,
0001
0000
0000
0000
,
1001
0000
1000
0010
0100
0000
0001
1000
,
0100
0010
1000
0010
0100
1000
0001
0100
,
0010
0000
1000
0001
0010
0100
0001
0100
,
1000
0000
0001
0100
0001
0000
1000
0100
1000
0000
0001
0010
0001
0010
0001
0000
,
1000
0000
0001
0010
0100
0000
1000
0001
,
0100
0010
0001
0010
0100
1000
0100
0001
,
1000
0000
0000
0000
0100
0000
0010
0000
0001
1000
0001
0000
1000
0100
1000
0000
,
0001
0000
0100
0000
1000
0000
0100
0000
0001
1000
0001
1000
0001
0000
0000
0000
,
1000
0100
0010
0001
1000
0010
0100
0001
,
1000
0100
0001
0100
0010
1000
0010
0100
,
1000
0000
0001
0100
1000
0001
0010
1000
,
0100
0010
0001
1000
0001
0001
1001
0000
,
0001
0100
0110
0000
1000
0001
0010
0100
,
1000
0010
0100
1000
0001
0010
0100
0001
,
1000
0000
0000
1100
0000
0000
0100
0010
0001
0000
1000
0010
1000
0000
0001
0000
,
0010
1000
0001
0100
1000
0100
0110
0000
,
1001
0000
0001
1000
0010
0000
1000
0001
,
0010
1000
0001
0100
0010
0001
1000
0010
,
0100
0000
0001
1000
0100
0001
0100
0010
,
0100
0000
1000
0000
0001
0000
0100
0010
0100
0000
0001
0010
0001
0000
1000
0000
,
0010
0100
0110
0000
0001
1000
0100
0010
,
0001
1000
0010
0001
1000
0100
0010
0100
,
0001
0000
1000
0100
0001
1000
0010
0001
,
0100
0020
2000
3030
,
1010
0000
0000
1001
0000
0000
0011
0000
0000
1001
0000
0000
1100
0000
0000
0000
,
0011
0000
0000
1001
0000
0000
1010
0000
0000
1001
0000
0000
0101
0000
0000
0000
,
1010
0000
0000
0101
0000
0000
1100
0000
0000
0011
0000
0000
1001
0000
0000
0000
,
1100
0000
0000
0110
0000
0000
0011
0000
0001
1000
0001
1000
0001
0000
0100
0000
,
0110
0000
0110
0000
0110
0000
0010
1000
,
1001
0000
1001
0000
1001
0001
1000
0010
,
0100
0000
0001
0000
1000
0000
0100
0000
0010
0001
0010
0001
0010
0001
0010
0001
,
0020
0000
0000
0000
0000
0000
0000
0000
0031
1000
0001
1000
0001
1000
0001
0000
,
1001
0000
0000
0000
;

//--------------- dance-single - Fred-104† ----------------
#NOTEDATA:;
#STEPSTYPE:dance-single;
#DESCRIPTION:Fred-104†;
#DIFFICULTY:Challenge;
#METER:18;
#CREDIT:Fred-104†;
#NOTES:
0000
0000
0000
0000
,
0000
0000
0000
0000
,
0000
0000
0000
0000
,
0000
0000
0000
0000
,
0000
0000
0000
0000
,
0000
0000
0000
0000
,
0010
0001
1000
0001
0100
0010
1000
0001
,
0010
0100
1000
0001
0100
0010
0100
0001
,
1000
0000
0000
1000
0010
0000
0010
0000
0100
0001
1000
0100
1000
0010
0100
0002
,
2000
0000
0003
3000
,
0100
1000
0001
1000
0010
1000
0100
0010
,
0001
1000
0010
0001
0010
1000
0001
0010
,
0100
0001
0100
0010
0001
0100
0010
0001
,
1000
0100
0010
1000
1100
0000
1001
0000
,
0001
0000
1000
0000
0100
0000
0010
0001
1000
0000
0010
0000
0100
0001
0100
0001
,
0100
0000
0000
0001
0000
0000
1000
0000
0000
0100
0000
0000
0110
0000
0000
0010
0000
0000
0001
0000
1000
0000
0010
0000
,
0100
0001
1000
0001
0100
0001
1000
0000
0100
0010
0001
0010
0100
0010
0001
0000
,
1000
0000
0100
0000
0001
0000
1000
0000
0010
0001
0010
0001
2000
0000
3000
0000
,
0001
0000
0100
0010
0100
0000
0001
0000
1000
0000
0100
0010
0100
0000
1000
0000
,
0001
0000
0100
0000
0010
1000
0001
0000
1000
0000
1000
0000
0001
1000
0001
1000
,
0001
0000
0100
0010
1000
0000
0100
0000
0010
0000
0001
1000
0010
0000
1000
0000
,
0001
0000
0010
0100
1000
0000
0010
0100
0001
0000
1000
0000
1001
0000
0000
0000
,
0011
0000
0010
0000
0100
0000
1000
0000
0001
0000
0100
0010
1000
0000
0001
0000
,
1000
0000
0100
0000
0120
0000
0000
0000
1030
0000
0010
0000
0001
1000
0010
1000
,
0001
0010
0100
1000
0001
0000
0100
0000
0010
1000
0010
0100
0001
0000
1000
0000
,
0001
0010
0001
0100
0010
1000
0100
2000
0002
0000
3000
0000
0003
0000
0000
0000
,
1010
0010
0100
1000
1100
0100
0002
1000
,
0000
0013
0100
0010
0001
1000
1001
0000
,
0011
0001
0100
1000
0100
0010
0110
0000
,
1100
0000
0011
0001
1000
0001
1001
0000
,
0110
0000
0000
0000
1001
0000
0000
0000
0001
0000
0100
0010
0100
0000
0001
0000
,
1000
0000
0000
0000
0000
0000
0100
0000
0000
0010
0000
0000
0001
0000
0000
0000
0000
0000
1000
0000
0000
0010
0000
0000
1000
0000
0000
0000
0000
0000
0001
0000
0000
0000
0000
0000
0010
0000
0000
0000
1000
0000
0000
0000
0010
0000
0000
0000
,
0001
0000
1000
0001
0010
0000
0100
0010
0001
0000
1000
0010
0100
0001
1000
0000
,
0001
0000
0000
0000
0100
0000
0000
0000
0010
0000
0000
0000
1000
0000
0000
0000
0100
0000
0000
0000
0010
0000
0000
0000
0001
0000
0000
0010
0000
0000
0001
0000
0000
0010
0000
0000
0001
0000
0000
0010
0000
0000
0001
0000
0000
0000
0000
0000
,
1001
1000
0010
0100
0101
0001
0101
0000
,
1010
0000
1000
0010
0001
0020
0100
0000
,
1000
0000
0130
0001
1000
0100
0010
0001
,
1000
0000
1010
0010
0100
0001
1001
0000
,
0001
0000
0010
0000
0100
0000
1000
0000
0001
0000
0100
0000
0010
0000
1000
0001
,
1000
0000
0000
0000
0000
0000
0100
0000
0000
0010
0000
0000
0001
0000
0000
0000
0000
0000
1000
0000
0000
0010
0000
0000
0100
0000
0000
0000
0000
0000
0010
0000
0000
0000
0000
0000
0001
0000
0000
0000
0010
0000
0000
0000
1000
0000
0000
0000
,
0001
0000
0011
0000
0010
0100
1000
0001
0100
0000
0010
0000
,
0220
0000
0030
0300
,
1001
1000
0001
0010
0100
1000
0001
0010
,
0001
1000
0010
1000
0100
0010
0001
1000
,
0001
0010
0100
1000
0001
1000
0001
1000
0010
0100
0001
1000
0100
0010
0001
1000
,
0001
0000
0000
0000
,
1100
0000
0000
0101
0000
0000
1010
0000
0000
0011
0000
0000
1100
0000
0000
0000
,
0011
0000
0000
1010
0000
0000
0101
0000
0000
1100
0000
0000
0011
0000
0000
0000
,
0101
0000
0000
1100
0000
0000
0011
0000
0000
1010
0000
0000
0101
0000
0000
0000
,
1010
0000
0000
0101
0000
0000
1100
0000
0100
0010
0001
1000
0010
0000
1000
0000
,
0001
0000
0010
0100
0000
1000
0001
0000
0100
0010
0000
1000
0001
0000
1000
0000
,
0100
0000
0010
0001
0000
1000
0010
0000
0100
0001
0000
1000
0001
0000
0010
0000
,
0100
0000
1000
0001
0000
0100
0010
0000
1000
0001
0000
0010
0100
0000
0010
0000
,
0001
0000
1000
0010
0000
0001
0010
0000
0100
1000
0100
0010
0100
0000
0001
0000
,
1001
0000
0000
0000
,
0000
0000
0000
0000
,
0000
0000
0000
0000
,
0110
0000
1000
0100
0001
0010
1000
0000
,
0110
0000
0000
0000
,
0000
0000
0000
0000
,
0000
0000
0000
0000
,
2002
0000
0003
0000
3000
0000
0000
0001
,
1000
0100
0001
0100
1000
0000
0001
0100
,
0020
0001
0000
0100
0000
0031
0010
1000
,
0001
0010
0100
1000
0010
1000
0100
0010
,
0001
1000
0010
0001
1000
0100
0001
0000
,
1001
1000
0100
1000
0001
0000
1000
0100
,
0020
1000
0000
0001
0000
0130
1000
0001
,
0100
1000
0001
0010
0100
0001
1000
0000
,
1100
0000
0011
0000
1000
0001
1001
0000
,
0001
0100
0010
0001
1000
0100
0001
1000
,
0100
0001
0100
0010
1000
0001
0100
1000
,
0001
0100
1000
0100
0010
0001
1000
0100
,
0001
0000
1000
0100
1000
0100
0010
0001
1000
0010
1000
0010
0100
0001
1000
0000
,
1100
0000
0101
0000
1100
1000
0001
0100
,
0110
0000
1010
0000
0101
0001
1000
0100
,
0010
0001
1000
0010
0100
0001
0100
0001
1000
0100
0010
0001
1000
0010
1000
0020
,
2000
0000
0030
3000
,
1001
0000
0001
0010
0110
0000
1000
0010
,
0001
0000
0010
0000
0100
0000
1000
0000
0100
0000
0010
0000
1000
0100
0010
0000
,
0011
0000
0001
0100
1000
0001
0010
1000
,
0100
0000
0010
0001
0010
0000
0100
1000
0001
0100
0010
1000
0001
0010
0100
0000
,
1100
0000
1000
0001
0101
0000
0001
1000
,
0010
0000
0001
0000
0010
0000
0100
0000
1000
0000
0100
0000
0001
1000
0100
0000
,
0110
0000
0000
0000
0001
0000
0010
0000
0100
0010
0001
1000
0010
0000
0100
0000
,
0001
1000
0100
1000
0001
1000
0100
0010
0001
1000
0001
1000
0001
0000
0000
0000
,
1000
0010
1000
0000
0001
0000
0010
0000
0100
1000
0001
0000
0100
0000
0001
0000
,
1000
0000
0001
0010
0100
0000
0001
0000
0100
0000
1000
0000
0001
0000
0100
0000
,
0010
1000
0001
0000
0010
0000
0100
0000
1000
0001
0100
0000
0010
0000
1000
0000
,
0001
0000
0010
0100
1000
0000
0001
0100
0010
1000
0100
0010
0001
1000
0001
0000
,
1001
0000
0001
0000
0101
0000
0100
0000
0010
1000
0001
0000
0010
0000
0100
0000
,
1000
0000
0010
0100
1000
0000
0100
0000
0001
0000
1000
0000
0100
0000
0010
0000
,
0011
0000
0001
0100
0010
0000
1000
0100
0010
0000
0001
1000
0010
0100
0001
1000
,
0001
0010
0100
1000
0100
0010
0001
0000
0100
0000
0100
0000
0110
0000
0000
0000
,
1001
0000
1000
0001
0100
0010
0001
1000
,
0100
0000
0010
0000
1000
0000
0100
0000
0001
0000
0100
0000
0010
0100
1000
0000
,
1001
0000
0000
0000
0001
0000
0010
0000
1000
0000
0010
0000
0100
0000
0010
0001
,
1000
0000
0010
0100
0001
0000
1000
0100
0010
0001
0010
0100
1000
0001
0100
0000
,
0110
0010
1010
1000
0001
0010
0100
0010
,
1000
0000
0001
0000
0100
0000
0010
0000
0001
0000
0100
0000
0010
1000
0001
0000
,
0011
0000
1100
1000
0001
0100
0010
1000
,
0001
0000
0000
0000
0001
0000
0000
0000
1000
0001
1000
0001
1000
0000
0000
0000
,
1100
0000
0000
0101
0000
0000
1010
0000
0000
0011
0000
0000
1001
0000
0000
0000
,
0011
0000
0000
1010
0000
0000
0101
0000
0000
1100
0000
0000
1001
0000
0000
0000
,
1010
0000
0000
0011
0000
0000
1100
0000
0000
0101
0000
0000
1001
0000
0000
0000
,
1100
0000
0000
0101
0000
0000
1100
0000
1000
0001
0100
0010
1000
0000
0001
0000
,
1000
0000
0001
0010
0000
0100
1000
0000
0001
0100
0000
0010
1000
0000
0001
0000
,
1000
0000
0100
0010
0000
0001
1000
0000
0010
0100
0000
0001
1000
0000
0001
0000
,
0010
0100
1000
0001
0100
0010
1000
0010
0100
0001
1000
0100
0010
0100
1000
0001
,
0200
0000
0000
0000
0000
0000
0000
0000
0301
1000
0100
0010
0001
1000
0010
0000
,
0110
0000
0000
0000
;

//--------------- dance-double - Fred-104 ----------------
#NOTEDATA:;
#STEPSTYPE:dance-double;
#DESCRIPTION:Fred-104;
#DIFFICULTY:Easy;
#METER:10;
#CREDIT:Fred-104;
#NOTES:
00000000
00000000
00000000
00000000
,
00000000
00000000
00000000
00000000
,
00000000
00000000
00000000
00000000
,
00000000
00000000
00000000
00000000
,
00000000
00000000
00000000
00000000
,
00000000
00000000
00000000
00000000
,
10010000
10000000
01000000
00100000
,
00001000
00001000
00010000
00010000
,
00000010
00001000
00000010
00000000
00010000
00001000
00010000
00000000
,
00011000
00000000
00000000
00000000
,
10010000
10000000
01000000
00100000
,
00001000
00010000
00000100
00000010
,
00000011
00001000
00000001
00000100
,
00000010
00000100
00002000
00023000
,
00031000
00000000
00000000
01000000
00000000
00000000
00010000
00000000
,
00000000
10000000
00000000
00000000
01000000
00000000
00100000
00000000
,
00110000
10000000
00100000
10000000
,
01000000
00000000
00010000
00000000
00001000
00010000
00001000
00000000
,
00010000
00001000
00000200
00000300
,
00000001
00001000
00000200
00000300
,
00000001
00000100
00002000
00003000
,
00000001
00000000
00000100
00000000
00001000
00010000
00001000
00000000
,
01000000
00010000
00200000
00300000
,
01000000
00100000
00010000
10000000
,
00100000
00010000
00001000
00000010
,
00000001
00001000
00002002
00003003
,
00000001
00000000
00001000
00000000
00000010
00000000
00000000
00000010
,
00000000
00010000
00001000
00010000
,
00100000
01000000
00100000
01000000
,
00010000
10000000
20020000
30030000
,
01100000
00000000
10000000
01000000
,
00010000
01000000
10000000
01000000
,
00010000
00001000
00010000
00000100
,
00000010
00000001
00002002
00003003
,
00000001
00000010
00000100
00000010
,
00001000
00010000
00011000
00000000
,
00001000
00010000
00100000
10000000
,
00010000
10000000
10010000
00000000
,
10000000
01000000
10000000
01000000
,
00100000
00001000
00010000
00001000
,
00010000
00000000
00001000
00000000
00001000
00000000
00000100
00000000
00000001
00000000
00000001
00000000
,
00002002
00000000
00003003
00000000
,
00000110
00000001
00001000
00000001
,
00000010
00000100
00010000
00001000
,
00100000
00010000
00100000
00000000
01000000
10000000
01000000
00000000
,
10010000
00000000
00000000
00000000
,
10000000
00000000
00000000
01000000
00000000
00000000
00010000
00000000
,
00001000
00000000
00000000
00000100
00000000
00000000
00000001
00000000
,
00000001
00000000
00000000
00000010
00000000
00000000
00001000
00000000
,
00010000
00000000
00000000
00100000
00000000
00000000
10000000
00000000
,
10000000
00000000
00000000
01000000
00000000
00000000
00100000
00000000
,
00001000
00000000
00000000
00010000
00000000
00000000
00000100
00000000
,
00001000
00000000
00000000
00000001
00000000
00000000
00000100
00000000
,
00000010
00000100
00001000
00010000
,
00012000
00000000
00000000
00000000
,
00000000
00000000
00000000
00000000
,
00023000
00000000
00000000
00000000
,
00031000
00010000
00000100
00010000
,
00012000
00000000
00000000
00000000
,
02003000
00000000
00000000
00000000
,
03020000
00000000
00000000
00000000
,
20030000
30020000
20000000
30030000
,
10000000
01000000
00010000
00000000
,
01000000
00100000
01000000
00000000
,
10000000
00010000
00100000
00000000
,
00001000
00010000
00001000
00000100
,
00000001
00000010
00000100
00000000
,
00001000
00000010
00000100
00000000
,
00001000
00010000
00100000
10000000
,
01000000
00100000
00022000
00033000
,
00010000
00001000
00010000
00001000
,
00000100
00000001
00000100
00000001
,
00000010
00000100
00001000
00000100
,
00010000
00000000
00001000
00000000
01000000
00001000
00010000
00000000
,
00011000
00000000
00001000
00000000
00010000
00000000
00000010
00001000
,
00000010
00000000
00000100
00000000
00000001
00001000
00000001
00001000
,
00000100
00010000
00001000
00100000
,
10010000
00000000
00000000
00000000
,
10100000
10000000
00010000
10000000
,
01000000
00000000
00000000
00100000
00000000
00000000
00001000
00000000
,
00010000
00000000
00001000
00000100
,
00000001
00000000
00000010
00000000
00000100
00000010
00000100
00000000
,
00001100
00000000
00000001
00001000
,
00000010
00000000
00000000
00000100
00000000
00000000
00001000
00000000
,
00010000
00001000
01000000
00001000
,
00010000
00000000
00010000
00000000
00000010
00001000
00000010
00000000
,
00001010
00001000
00000001
00000000
,
00000010
00000100
00000001
00000100
,
00001000
00000001
00000100
00001000
,
00010000
00000000
00001000
00000000
00100000
00010000
00100000
00000000
,
00110000
00010000
10000000
00000000
,
00100000
10000000
01000000
00100000
,
00001000
00001000
00010000
00010000
,
00001000
00010000
00022000
00033000
,
00010000
00001000
00010000
00000100
,
00010000
00000100
00001000
00000100
,
00000010
00000001
00001000
00000010
,
00000100
00000000
00001000
00000000
00010000
00001000
00010000
00000000
,
00001000
00100000
00001000
00100000
,
00010000
00100000
01000000
10000000
,
00010000
01000000
00100000
10000000
,
01000000
00000000
00100000
00000000
00001000
00010000
00001000
00000000
,
00010000
00000000
00000000
00001000
00000000
00000000
00100000
00000000
,
00010000
00000000
00000000
10000000
00000000
00000000
00100000
00000000
,
01000000
00000000
00000000
00100000
00000000
00000000
00010000
00000000
,
00001000
00000000
00000000
00000100
00000000
00000000
00000001
00000000
,
00001001
00001000
00000010
00010000
,
00011000
00001000
00010000
00100000
,
10000000
01000000
00100000
00000000
00010000
00100000
00001000
00000000
,
00022000
00000000
00033000
00000000
,
00011000
00000000
00000000
00000000
;

//--------------- dance-double - Fred-104 ----------------
#NOTEDATA:;
#STEPSTYPE:dance-double;
#DESCRIPTION:Fred-104;
#DIFFICULTY:Medium;
#METER:13;
#CREDIT:Fred-104;
#NOTES:
00000000
00000000
00000000
00000000
,
00000000
00000000
00000000
00000000
,
00000000
00000000
00000000
00000000
,
00000000
00000000
00000000
00000000
,
00000000
00000000
00000000
00000000
,
00000000
00000000
00000000
00000000
,
00000001
00001000
00000001
00000000
00000100
00001000
00010000
00000000
,
00001000
00010000
00001000
00000000
00010000
00100000
10000000
00000000
,
01000000
00000000
00000000
01000000
00100000
00000000
00001000
00000000
00010000
00000000
00000100
00000000
00010000
00000000
00000000
00000000
,
00011000
00000000
00000000
00000000
,
00010000
00001000
00010000
00000000
00000010
00001000
00000100
00000000
,
00000010
00000001
00001000
00000000
00000010
00000100
00001000
00000000
,
00010000
00001000
01000000
00000000
00010000
00100000
01000000
00000000
,
00100000
10000000
00100000
00000000
00010000
10000000
01000000
00000000
,
00100000
00001000
00010000
00001000
00000100
00000000
00000010
00001000
,
00000000
00000001
00001000
00000000
00000100
00000010
00000001
00000000
,
00001000
00000010
00000100
00000000
00001000
00010000
00001000
00000000
,
00010000
00000000
00010000
00000000
00001000
00010000
00001000
00000000
,
00010000
00000100
00010000
00000100
00001000
00000000
00000100
00000000
,
00000010
00000001
00000100
00000000
00000010
00000100
00001000
00000000
,
00010000
00001000
01000000
00001000
00010000
00000000
00001000
00000000
,
00100000
00010000
10000000
00000000
00100000
01000000
00100000
00000000
,
10000000
01000000
00100000
01000000
00100000
00000000
00001000
00000000
,
00010000
00000100
00001000
00000000
00000100
00000010
00000001
00000000
,
00001000
00000001
00000010
00000000
00001000
00010000
00100000
00000000
,
10000000
00010000
00100000
00002000
00020000
00003000
00030000
00000000
,
00001000
00100000
00010000
00100000
01000000
00000000
10000000
00010000
,
00000000
01000000
00100000
00000000
10000000
01000000
00010000
00000000
,
00001000
00010000
00000100
00001000
00000010
00000100
00000001
00000000
,
00000010
00000000
00000100
00000010
00001000
00010000
00001000
00000000
,
00011000
00000000
01100000
00000000
00010000
10000000
00010000
00000000
,
10000000
00100000
00010000
00000000
00001000
00000010
00000001
00000000
,
00001000
00000100
00000001
00000100
00001000
00000010
00010000
00000000
,
00001000
00000000
00010000
00000000
00001000
00000000
00010000
00000000
00001000
00000000
00020000
00000000
00002000
00000000
00000000
00030000
00000000
00000000
00003000
00000000
00000000
00000000
00000000
00000000
,
00000100
00000010
00001000
00000100
00000010
00000000
00000011
00000000
,
00001001
00000000
00000001
00000100
00001000
00010000
00001000
00000000
,
00011000
00000000
00001000
01000000
00010000
00100000
00001000
00000000
,
01000000
00000000
00010000
00100000
01000000
10000000
00010000
00000000
,
01100000
00000000
10000000
01000000
00010000
01000000
10000000
00000000
,
01000000
00010000
00001000
00000000
00010000
00001000
00000010
00000000
,
00000001
00000000
00000100
00000000
00001000
00000000
00010000
00000000
00100000
00000000
10000000
00000000
,
20020000
00000000
30000000
00030000
,
10010000
10000000
01000000
01000000
,
00010000
00001000
00000100
00000001
,
00000010
00000100
00001000
00000010
00000100
00001000
00010000
00001000
,
00011000
00000000
00000000
00000000
,
00001000
00000000
00000000
00001000
00000000
00000000
00001000
00000000
00000000
00001000
00000000
00000000
00001000
00000000
00000000
00000000
,
00010000
00000000
00000000
00010000
00000000
00000000
00010000
00000000
00000000
00010000
00000000
00000000
00010000
00000000
00000000
00000000
,
00100000
00000000
00000000
00100000
00000000
00000000
00100000
00000000
00000000
00100000
00000000
00000000
00100000
00000000
00000000
00000000
,
10000000
00000000
00000000
10000000
00000000
00000000
10000000
00000000
00010000
00000000
00010000
00000000
10000000
00000000
00000000
00000000
,
01000000
00000000
00000000
00100000
00000000
00000000
00001000
00000000
00000000
00010000
00000000
00000000
00000010
00000000
00000000
00000000
,
00001000
00000000
00000000
00000100
00000000
00000000
00000010
00000000
00000000
00000001
00000000
00000000
00001000
00000000
00000000
00000000
,
00000010
00000000
00000000
00000100
00000000
00000000
00001000
00000000
00000000
00010000
00000000
00000000
00001000
00000000
00000000
00000000
,
00010000
00001000
00000010
00000100
00000010
00000001
00001000
00000000
,
00001002
00000000
00000000
00000000
,
00000000
00000000
00000000
00000000
,
00000203
00000000
00000000
00000000
,
00001300
00010000
00100000
10000000
,
02100000
00000000
00000000
00000000
,
03200000
00000000
00000000
00000000
,
00302000
00000000
00000000
00000000
,
00023000
00032000
00003020
00000030
,
00000001
00000100
00000010
00000100
00000001
00000000
00000010
00000000
,
00000100
00010000
00000000
00001000
00000000
00010000
00100000
00000000
,
01000000
00000000
00010000
00100000
01000000
00000000
10000000
00100000
,
01000000
00100000
10000000
00000000
01000000
00100000
00001000
00000000
,
00010000
00001000
00010000
00000100
00001000
00000000
00000001
00000000
,
00000100
00000010
00000000
00000100
00000000
00001000
00010000
00000000
,
00001000
00000000
00100000
00010000
10000000
00000000
00100000
00010000
,
00002000
00000000
00023000
00000000
00002000
00030000
00003000
00000000
,
00010000
00001000
00100000
00001000
00010000
00000000
00001000
00000000
,
00000100
00000001
00000100
00000000
00000010
00001000
00000010
00000000
,
00001000
00000001
00000010
00000000
00000100
00001000
00010000
00000000
,
00100000
01000000
10000000
00000000
00010000
10000000
00010000
00000000
,
01100000
00000000
10010000
00000000
11000000
00000000
01000000
00100000
,
00001000
00000000
00011000
00000000
00010000
00001000
00000010
00000001
,
00001000
00000010
00000100
00001000
00000100
00000010
00000100
00000001
,
00001000
00000000
00000000
00000000
,
00001001
00000000
00001000
00000100
00000010
00000000
00001000
00000010
,
00000001
00001000
00000000
00000010
00000000
00000100
00000000
00001000
,
00010000
00000000
00001000
01000000
00010000
00000000
00100000
01000000
,
00100000
00010000
10000000
00100000
00010000
00001000
00010000
00000000
,
00011000
00000000
00010000
00000100
00001000
00000000
00000100
00010000
,
00001000
00010000
00000000
01000000
00000000
00100000
00000000
00010000
,
10000000
00000000
00100000
00010000
00001000
00000000
00010000
00000100
,
00001000
00000100
00000010
00000001
00001000
00000010
00010000
00000000
,
00001000
00010000
00100000
00010000
00001000
00000000
00010000
00001000
,
00100000
01000000
00000000
10000000
00000000
00010000
00000000
01000000
,
00010000
10000000
01000000
00000000
00100000
00001000
00010000
00000000
,
00001000
00000100
00000001
00000000
00001000
00000100
00000010
00000000
,
00000001
00001000
00000010
00001000
00000001
00000000
00000010
00000100
,
00001000
00000010
00000000
00000100
00000000
00001000
00000000
00010000
,
00001000
00000000
00000000
00010000
00000000
00000000
00100000
00000000
10000000
00000000
00000000
01000000
00000000
00000000
00100000
00000000
,
00001000
00010000
00000010
00001001
,
00000110
00000000
00001000
00000001
00000100
00000000
00001000
00000100
,
00000001
00001000
00000000
00000001
00000000
00000010
00001000
00010000
,
00001000
00000000
00100000
00010000
01000000
00000000
00100000
10000000
,
00010000
00100000
01000000
00000000
10000000
00010000
01000000
00000000
,
01100000
00000000
00100000
10000000
01000000
00000000
00100000
00001000
,
00010000
00001000
00000000
00010000
00000000
00000100
00000000
00000010
,
00000001
00000000
00001000
00000001
00000010
00000000
00000100
00000010
,
00001000
00010000
00001000
00000000
00010000
00000000
00011000
00000000
,
00010000
00000000
00000000
00010000
00000000
00000000
00001000
00000000
00000000
00001000
00000000
00000000
00000100
00000000
00000000
00000000
,
00000001
00000000
00000000
00000001
00000000
00000000
00000010
00000000
00000000
00000010
00000000
00000000
00000100
00000000
00000000
00000000
,
00010000
00000000
00000000
00010000
00000000
00000000
00001000
00000000
00000000
00001000
00000000
00000000
01000000
00000000
00000000
00000000
,
00010000
00000000
00000000
00010000
00000000
00000000
00100000
00000000
00000000
00100000
00000000
00000000
01000000
00000000
00000000
00000000
,
11000000
00000000
01010000
00000000
11000000
00000000
10000000
00010000
,
00100000
00000000
00101000
00000000
00001000
00010000
00000100
00001000
,
00000100
00000010
00001000
00000000
00010000
01000000
00100000
00010000
,
02000000
00000000
03000000
00000000
,
10010000
00000000
00000000
00000000
;

//--------------- dance-double - Fred-104 ----------------
#NOTEDATA:;
#STEPSTYPE:dance-double;
#DESCRIPTION:Fred-104;
#DIFFICULTY:Hard;
#METER:17;
#CREDIT:Fred-104;
#NOTES:
00000000
00000000
00000000
00000000
,
00000000
00000000
00000000
00000000
,
00000000
00000000
00000000
00000000
,
00000000
00000000
00000000
00000000
,
00000000
00000000
00000000
00000000
,
00000000
00000000
00000000
00000000
,
00010000
00001000
00000010
00000100
00001000
00000001
00000100
00000000
,
00000010
00000100
00001000
01000000
00010000
00100000
01000000
00000000
,
10000000
00000000
00000000
10000000
00100000
00000000
00010000
00000000
00001000
00010000
00001000
00010000
00000010
00001000
00000010
00001000
,
00000001
00000000
00000000
00000000
,
00000110
00000000
00001001
00000000
00000001
00000100
00001000
00000000
,
00010000
00001000
01000000
00010000
00100000
10000000
00100000
00000000
,
00010000
00001000
00000100
00000000
00010000
00000010
00001010
00000000
,
00001000
00000100
00000001
00000100
00010000
00000000
00011000
00000000
,
00001000
00010000
01000000
00100000
00001000
00000010
00000100
00010000
,
00000010
00000000
00000000
00001000
00000000
00000000
00100000
00000000
00000000
00010000
00000000
00000000
00001000
00000000
00000000
00010000
00000000
00000000
01000000
00000000
00100000
00000000
00010000
00000000
,
00100000
00000000
00001000
00000000
00010000
00000000
00001000
00000000
00000100
00000010
00001000
00000010
00000100
00000000
00001000
00000000
,
00010000
00000000
00000000
00000000
00010000
00000000
00000000
00000000
00001000
00010000
00001000
00010000
00001000
00000000
00000000
00000000
,
00010000
00100000
01000000
10000000
01000000
00010000
00100000
01000000
,
00010000
00000000
00001000
00000000
00011000
00000000
00000000
00000000
00001000
00000000
00000100
00000000
00000001
00000000
00000010
00000100
,
00000010
00000001
00000100
00010000
00000100
00000010
00000001
00000010
,
00001000
00000100
00000010
00001000
00010000
00010000
00011000
00000000
,
00101000
00100000
00010000
00000000
01000000
00010000
00100000
01000000
,
00010000
00001000
00011000
00000000
00001000
00010000
00011000
00000000
,
00010000
00001000
00000100
00000010
00001000
00000100
00000010
00000001
,
00001000
00000010
00001000
00000010
00010000
00001000
00010000
00001000
00100000
00000000
01000000
00000000
10000000
00000000
00000000
00000000
,
00010000
01000000
10000000
01000000
00200000
00000000
00310000
00002000
,
00000000
00003100
00000010
00001000
00000001
00000010
00002000
00000000
,
00013000
01000000
00100000
00010000
01000000
00010000
00000200
00000000
,
00000320
00001000
00000130
00000101
,
00000110
00000000
00001001
00000000
00000001
00000100
00001000
00010000
,
00001000
00000000
00000000
01000000
00000000
00000000
00010000
00000000
00000000
00100000
00000000
00000000
10000000
00000000
00000000
00100000
00000000
00000000
00001000
00000000
00010000
00000000
00001000
00000000
,
00000100
00000001
00001000
00000100
00000010
00001000
00010000
01000000
,
00100000
00000000
00010000
00000000
10000000
00000000
00100000
00000000
00010000
00000000
00001000
00000000
00010000
00000000
00000000
00001000
00000000
00000000
00011000
00000000
00000000
00000000
00000000
00000000
,
00010100
00000100
00001000
00000001
00000100
00000010
00000100
00001000
,
00020000
00001000
10000000
00031000
,
00010000
00100000
01000000
00100000
10000000
00010000
00100000
02000000
,
00010000
00000000
13000000
00100000
00010000
00001000
00011000
00000000
,
00000110
00000000
00001000
00000100
00000010
00000001
00001000
00000010
,
00010000
00000000
00000000
00100000
00000000
00000000
00001000
00000000
00000000
00000010
00000000
00000000
00010000
00000000
00000000
00100000
00000000
00000000
01000000
00000000
00010000
00000000
10000000
00000000
,
01000000
00000000
00010000
00000000
00001000
00000100
00000001
00000000
00000010
00000000
00001000
00000000
,
00022000
00000000
00003000
00030000
,
00011000
00000000
10010000
00000000
00010000
00001000
00010000
00000000
,
00011000
00000000
00001001
00000000
00001000
00010000
00001000
00000000
,
00010000
00000000
00001000
00000000
00000100
00000000
00000001
00000000
00000010
00000100
00000010
00000100
00001000
00000100
00001000
00000100
,
00010000
00000000
00000000
00000000
,
00001000
00000000
00000000
00100000
00000000
00000000
10000000
00000000
00000000
00100000
00000000
00000000
00001000
00000000
00000000
00000000
,
00010000
00000000
00000000
00000010
00000000
00000000
00000001
00000000
00000000
00000010
00000000
00000000
00010000
00000000
00000000
00000000
,
00001000
00000000
00000000
01000000
00000000
00000000
10000000
00000000
00000000
01000000
00000000
00000000
00001000
00000000
00000000
00000000
,
00010000
00000000
00000000
00000100
00000000
00000000
00000001
00000000
00000100
00000000
00010000
00000000
00001000
00000000
00000000
00000000
,
00011000
00000000
00000000
00101000
00000000
00000000
00011000
00000000
00000000
00010010
00000000
00000000
00011000
00000000
00000000
00000000
,
00011000
00000000
00000000
00010100
00000000
00000000
00011000
00000000
00000000
01001000
00000000
00000000
00011000
00000000
00000000
00000000
,
00011000
00000000
00000000
00010010
00000000
00000000
00011000
00000000
00000000
01001000
00000000
00000000
00011000
00000000
00000000
00000000
,
00001000
00000000
00010000
00000000
00100000
00000000
10000000
00000000
00010000
10000000
00010000
10000000
00010000
00000000
10000000
00000000
,
10020000
00000000
00000000
00000000
,
20030000
00000000
00000000
00000000
,
31000000
00000000
00000000
01000000
00000000
00000000
00000000
00000000
00100000
00000000
00000000
00000000
00001000
00000000
00000000
00000000
,
00011000
00000000
00010000
00000100
00000010
00000001
00001000
00000000
,
00000120
00000000
00000000
00000000
,
00002030
00000000
00000000
00000000
,
00003002
00000000
00000023
00000000
,
00000230
00020300
00002000
00033000
,
00010000
00001000
00000010
00001000
00010000
00000000
00001000
00000100
,
00000001
00001000
00000000
00000100
00000000
00000010
00000001
00001000
,
00000010
00000100
00001000
00010000
00100000
01000000
00010000
00000000
,
00100000
10000000
00100000
00000000
00001000
00000000
00011000
00000000
,
00010000
00001000
00000100
00001000
00010000
00000000
00001000
00010000
,
01000000
00100000
00000000
00010000
00000000
10000000
01000000
00010000
,
00000010
00001000
00000100
00000010
00000001
00000100
00001000
00000000
,
00020000
00032000
00020000
00033000
,
00001000
00010000
01000000
10000000
01000000
00000000
00010000
00001000
,
00010000
00100000
01000000
00100000
10000000
00010000
00100000
01000000
,
10000000
00100000
10000000
00100000
00010000
00001000
00010000
00001000
,
00000100
00000001
00000100
00000001
00000010
00000100
00001000
00000000
,
00000101
00000000
00001100
00000000
00011000
00000000
00001000
01000000
,
01010000
00000000
10100000
00000000
10000000
00010000
10000000
01000000
,
00010000
00000000
00001000
00000000
00000100
00000001
00000100
00000001
00000010
00000000
00000100
00000000
00010000
00001000
00010000
00001000
,
01000000
00000000
00000000
00000000
,
10010000
00000000
10000000
01000000
00100000
00000000
00010000
01000000
,
00100000
00001000
00100000
10000000
00100000
00010000
00001000
00000100
,
00000001
00000000
00001000
00000100
00000010
00010000
00000010
00000100
,
00001000
00000001
00000100
00001000
00010000
00100000
10000000
01000000
,
00100000
00000000
00001000
00010000
01000000
00000000
10000000
01000000
,
00100000
10000000
00100000
00010000
01000000
00100000
00010000
00000010
,
00001000
00000000
00000100
00000010
00000001
00000100
00000010
00000100
,
00001000
00000000
00010000
00000000
00100000
00000000
10000000
00000000
01000000
00100000
01000000
00100000
00001000
00000000
00000000
00000000
,
00010000
00001000
00000100
00000010
00001000
00000001
00000010
00000100
,
00001000
00000010
00000100
00001000
00010000
00100000
10000000
00100000
,
00010000
00001000
00100000
00010000
01000000
10000000
01000000
00001000
,
00000100
00000001
00000100
00010000
01000000
00001000
00011000
00000000
,
00010000
00001000
00011000
00000000
00001000
00010000
00100000
10000000
,
00100000
00001000
00100000
01000000
00010000
00100000
01000000
00010000
,
00001000
00000000
00000000
00000010
00000000
00000000
00000100
00000010
00000001
00000000
00001000
00000010
00000100
00000000
00001000
00000000
,
00010000
00000000
00000000
00000000
00010000
00000000
00000000
00000000
00001000
00010000
00001000
00010000
00001000
00000000
00000000
00000000
,
00011000
00000000
00001000
00010000
01000000
00100000
00010000
10000000
,
00100000
00001000
00000010
00010000
00001000
00000100
00000001
00000010
,
00000100
00000000
00010000
01000000
00100000
00001000
00010000
00100000
,
01000000
10000000
01000000
00010000
00100000
01000000
00010000
00000100
,
00000010
00000001
00001001
00000000
00001000
00000001
00000100
00001000
,
00010000
01000000
00010000
00001000
00010000
10000000
00100000
00010000
,
01000000
00000000
00100000
00010000
00001000
00000100
00000001
00000010
,
00000100
00020000
00002000
00033000
,
00011000
00000000
00000000
00110000
00000000
00000000
10100000
00000000
00000000
11000000
00000000
00000000
01010000
00000000
00000000
00000000
,
00011000
00000000
00000000
00001100
00000000
00000000
00000101
00000000
00000000
00000011
00000000
00000000
00001010
00000000
00000000
00000000
,
00011000
00000000
00000000
00110000
00000000
00000000
10100000
00000000
00000000
11000000
00000000
00000000
01010000
00000000
00000000
00000000
,
00011000
00000000
00000000
00001100
00000000
00000000
00000101
00000000
00001000
00000100
00001000
00000100
00000010
00000000
00000001
00000000
,
00000011
00000000
00001010
00000000
00011000
00010000
00001000
01000000
,
01010000
00000000
10100000
00000000
10010000
10000000
01000000
00010000
,
00001000
00000000
00000100
00000000
00000001
00000000
00000010
00000000
00001000
00010000
00001000
00010000
00001000
00100000
00010000
00100000
,
00002000
00000000
00000000
00000000
00000000
00000000
00000000
00000000
00013000
00001000
00010000
00001000
00010000
00001000
00010000
00000000
,
00011000
00000000
00000000
00000000
;

//--------------- dance-double - Fred-104† ----------------
#NOTEDATA:;
#STEPSTYPE:dance-double;
#DESCRIPTION:Fred-104†;
#DIFFICULTY:Challenge;
#METER:17;
#CREDIT:Fred-104†;
#NOTES:
00000000
00000000
00000000
00000000
,
00000000
00000000
00000000
00000000
,
00000000
00000000
00000000
00000000
,
00000000
00000000
00000000
00000000
,
00000000
00000000
00000000
00000000
,
00000000
00000000
00000000
00000000
,
00011000
00000000
00001000
00010000
00100000
01000000
00010000
10000000
,
01000000
00100000
00001000
00000010
00000100
00001000
00000001
00000100
,
00000010
00000000
00000000
00000010
00001000
00000000
00000100
00000000
00010000
00001000
00010000
00001000
01000000
00010000
01000000
00020000
,
20000000
00000000
00030000
30000000
,
00010000
00100000
01000000
10000000
00010000
01000000
00010000
10000000
,
01000000
00010000
00001000
00010000
00100000
00010000
00001000
00000000
,
00010000
00000100
00000001
00001000
00000010
00000001
00001000
00000001
,
00000100
00000010
00000100
00001000
00011000
00000000
00011000
00000000
,
00001000
00000000
00010000
00000000
01000000
00000000
00100000
00010000
00100000
00000000
00001000
00000000
00010000
00000010
00001000
00000000
,
00000001
00000000
00000000
00000010
00000000
00000000
00000100
00000000
00000000
00001000
00000000
00000000
00000001
00000000
00000000
00000001
00000000
00000000
00001000
00000000
00000010
00000000
00000100
00000000
,
00001000
00010000
00001000
00000000
01000000
00010000
01000000
00000000
00100000
10000000
00100000
10000000
00010000
00000000
00100000
00000000
,
01000000
00000000
00010000
00000000
00001000
00000000
00000010
00000000
00000001
00001000
00000001
00001000
00000010
00000000
00010000
00000000
,
00001000
00010000
01000000
00100000
10000000
00100000
00010000
10000000
,
00100000
00000000
00010000
00000000
00001000
00000000
00010000
00000000
00000100
00000000
00000100
00000000
00001000
00000001
00001000
00000001
,
00001000
00000100
00000010
00000100
00010000
00001000
01000000
00010000
,
00100000
00000000
00001000
00010000
00001000
00000000
01000000
00010000
01000000
00000000
00010000
00000000
10010000
00000000
00000000
00000000
,
10100000
10000000
00010000
00100000
01000000
00010000
00001000
00000100
,
00000001
00000000
00001000
00000000
00000100
00000000
00000010
00000000
00001000
00000000
00010000
00000000
00001000
00010000
00001000
00010000
,
00001000
00000000
01000000
00010000
01000000
00000000
00001000
00000000
00010000
00000000
00000100
00001000
00000100
00000000
00000010
00000000
,
00000001
00000010
00000100
00001000
00000100
00010000
00001000
00020000
00002000
00000000
00030000
00000000
00003000
00000000
00000000
00000000
,
00010000
00001000
00000100
00000010
00000100
00000001
00001000
00000200
,
00000000
00000301
00000100
00010000
00001000
00010000
00200000
00000000
,
01300000
00010000
10000000
01000000
00010000
00001000
00011000
00000000
,
00000110
00000000
00001000
00000100
00000010
00000001
00001001
00000000
,
00000101
00000000
00001100
00001000
00010000
01000000
10000000
00010000
,
01000000
00000000
00000000
00000000
00000000
00000000
00100000
00000000
00000000
10000000
00000000
00000000
00100000
00000000
00000000
00000000
00000000
00000000
01000000
00000000
00000000
00010000
00000000
00000000
01000000
00000000
00000000
00000000
00000000
00000000
00010000
00000000
00000000
00000000
00000000
00000000
10000000
00000000
00000000
00000000
01000000
00000000
00000000
00000000
00010000
00000000
00000000
00000000
,
00001000
00000000
00010000
00001000
00010000
00000000
00000100
00001000
00000100
00000000
00000010
00000001
00000010
00000000
00000100
00000000
,
00001000
00000000
00000010
00000000
00000100
00000000
00001000
00000000
00010000
00000000
00100000
00000000
01000000
00000000
00000000
00010000
00000000
00000000
10010000
00000000
00000000
00000000
00000000
00000000
,
10000000
00100000
00010000
00001000
00011000
00000000
00010010
00000000
,
00001010
00000000
00000001
00001000
00000100
00000001
00000100
00010000
,
00011000
00000000
00010000
00001000
00010000
01000000
00100000
00001000
,
00010000
00000000
00000100
00000010
00000001
00000100
00001000
00000000
,
00011000
00000000
00000000
00000000
00001000
00000000
00010000
00000000
00000100
00000000
00000010
00000000
00000001
00001000
00000001
00000000
,
00000100
00000000
00000000
00000000
00000000
00000000
00000010
00000000
00000000
00001000
00000000
00000000
00000010
00000000
00000000
00000000
00000000
00000000
00010000
00000000
00000000
00001000
00000000
00000000
00010000
00000000
00000000
00000000
00000000
00000000
00100000
00000000
00000000
00000000
00000000
00000000
01000000
00000000
00000000
00000000
00010000
00000000
00000000
00000000
10000000
00000000
00000000
00000000
,
01000000
00000000
01100000
00000000
00100000
00001000
00010000
00000000
00001000
00000000
00000100
00000000
,
00000202
00000000
00000300
00000003
,
00001001
00000001
00000010
00000100
00001000
00000100
00010000
00001000
,
01000000
00010000
00100000
00010000
10000000
00100000
01000000
00010000
,
10000000
01000000
10000000
00000000
00010000
00100000
00010000
00000000
00100000
00001000
00010000
00000010
00001000
00000010
00000100
00000001
,
00001000
00000000
00000000
00000000
,
00000011
00000000
00000000
00000110
00000000
00000000
00001100
00000000
00000000
00010100
00000000
00000000
00011000
00000000
00000000
00000000
,
01001000
00000000
00000000
00011000
00000000
00000000
00010100
00000000
00000000
00011000
00000000
00000000
00101000
00000000
00000000
00000000
,
00010010
00000000
00000000
00011000
00000000
00000000
00101000
00000000
00000000
00110000
00000000
00000000
11000000
00000000
00000000
00000000
,
01010000
00000000
00000000
10100000
00000000
00000000
10010000
00000000
10000000
01000000
00100000
00010000
00100000
00000000
00001000
00000000
,
00010000
00000000
00000010
00001000
00000000
00000100
00010000
00000000
00000010
00001000
00000000
00000100
00010000
00000000
00000000
00000000
,
00001000
00000000
01000000
00010000
00000000
00100000
00001000
00000000
01000000
00010000
00000000
00100000
00001000
00000000
00000000
00000000
,
00010000
00000000
00001000
00000100
00000000
00000010
00010000
00000000
00001000
00000100
00000000
00000010
00010000
00000000
00000000
00000000
,
00001000
00000000
00010000
00001000
00000000
00000100
00000001
00000000
00000010
00000100
00001000
00000100
00010000
00000000
00000000
00000000
,
00011000
00000000
00000000
00000000
,
00000000
00000000
00000000
00000000
,
00000000
00000000
00000000
00000000
,
10010000
00000000
10000000
01000000
00010000
00001000
00000010
00000000
,
00000011
00000000
00000000
00000000
,
00000000
00000000
00000000
00000000
,
00000000
00000000
00000000
00000000
,
00022000
00000000
00003000
00000000
00030000
00000000
00000000
00001000
,
00010000
00100000
01000000
00100000
10000000
00000000
00010000
10000000
,
01000000
00010000
00000000
00000010
00000000
00001000
00000100
00000010
,
00000001
00001000
00000010
00000100
00001000
00010000
00001000
01000000
,
00010000
00100000
10000000
00100000
00001000
00010000
00011000
00000000
,
00010000
00001000
00000010
00000100
00000010
00000000
00000001
00001000
,
00000010
00010000
00000000
00100000
00000000
01000000
00010000
10000000
,
01000000
00100000
00010000
00001000
00000100
00000010
00000001
00000000
,
00000110
00000000
00011000
00000000
01000000
00100000
01100000
00000000
,
00010000
10000000
01000000
00100000
01000000
00000000
00010000
00001000
,
00000010
00000001
00001000
00000001
00001000
00000010
00000001
00000010
,
00000100
00001000
00010000
01000000
00100000
01000000
00001000
00000100
,
00000010
00000001
00000100
00001000
00010000
01000000
10000000
00000000
,
10010000
00000000
01100000
00000000
00010000
10000000
01000000
00100000
,
00101000
00000000
00010010
00000000
00010000
00001000
00000100
00000010
,
00001000
00000000
00000100
00000000
00000010
00000001
00001000
00000010
00000100
00000000
00001000
00000000
00010000
00001000
01000000
00002000
,
00020000
00000000
00003000
00030000
,
00011000
00000000
00001000
01000000
00010000
00000000
10000000
00100000
,
00010000
00000000
00100000
00000000
01000000
00000000
10000000
00000000
01000000
00000000
00010000
00000000
10000000
01000000
00100000
00000000
,
00001000
00000000
00010000
00001000
00000100
00000010
00000001
00000010
,
00001000
00000000
00000001
00000010
00000100
00000000
00001000
00000100
00010000
00000100
00010000
00001000
00100000
00010000
01000000
00000000
,
01010000
00000000
00010000
10000000
00100000
00000000
00001000
00000010
,
00000100
00000000
00001000
00000000
00000001
00000000
00000100
00000000
00001000
00000000
00010000
00000000
00001000
00100000
00001000
00000000
,
00011000
00000000
00000000
00000000
00010000
00000000
00001000
00000000
00000100
00000010
00000100
00000010
00001000
00000000
00000001
00000000
,
00000010
00000000
00001000
00000000
00010000
00000000
01000000
00000000
10000000
00010000
10000000
00010000
10000000
00000000
00000000
00000000
,
00010000
00100000
00010000
00000000
01000000
00000000
00010000
00000000
10000000
00000000
01000000
00000000
00100000
00000000
00001000
00000000
,
00011000
00000000
00010000
00000000
00001000
00000000
00000100
00000000
00000001
00000000
00000010
00000000
00000100
00001000
00000100
00001000
,
00000001
00000000
00000100
00000010
00000100
00000000
00001000
00010000
00001000
00000000
01000000
00000000
00001000
00000000
00010000
00000000
,
00100000
00000000
01000000
00100000
10000000
00000000
01000000
00100000
00010000
00000000
10000000
00000000
10100000
00000000
00000000
00000000
,
00010000
10000000
00010000
00000000
10000000
00000000
00010000
00000000
00100000
00000000
01000000
00000000
00010000
00000000
00001000
00000000
,
00011000
00000000
00010000
00000000
00001000
00000000
00000010
00000000
00000100
00000000
00001000
00000000
00000001
00000100
00000001
00000100
,
00000010
00000000
00001000
00000001
00000010
00000000
00000100
00010000
00001000
00000000
00100000
00001000
00010000
00001000
00100000
00010000
,
01000000
00100000
10000000
01000000
00100000
00000000
00000000
00000000
00010000
00000000
00000000
00000000
10010000
00000000
00000000
00000000
,
12000000
00000000
03100000
00010000
02000000
00000000
03100000
10000000
,
01000000
00000000
00010000
00000000
00001000
00000000
00010000
00000000
00000100
00000000
00000010
00000000
00000001
00001000
00000001
00000000
,
00000201
00000000
00000310
00001000
00000001
00000010
00000100
00010000
,
00001000
00000000
01000000
00010000
01000000
00000000
00100000
10000000
00010000
10000000
01000000
00100000
00010000
00100000
00001000
00000000
,
00011000
00010000
00000100
00001000
00000002
00000000
00000103
00000010
,
00000001
00000000
00000010
00000000
00001000
00000000
00000100
00000000
00000010
00000000
00001000
00000000
00010000
00001000
00010000
00000000
,
00012000
00000000
00013000
00100000
01000000
10000000
01000000
00100000
,
00010000
00000000
00001000
00000000
00000100
00000000
00000010
00000000
00001000
00000001
00001000
00000001
00001000
00000000
00000000
00000000
,
00000011
00000000
00000000
00001010
00000000
00000000
00000101
00000000
00000000
00001100
00000000
00000000
00011000
00000000
00000000
00000000
,
00101000
00000000
00000000
00011000
00000000
00000000
01001000
00000000
00000000
01010000
00000000
00000000
10010000
00000000
00000000
00000000
,
11000000
00000000
00000000
01100000
00000000
00000000
00101000
00000000
00000000
00011000
00000000
00000000
00010010
00000000
00000000
00000000
,
00001010
00000000
00000000
00000101
00000000
00000000
00001100
00000000
00000001
00000010
00000100
00001000
00000100
00000000
00010000
00000000
,
00001000
00000000
01000000
00010000
00000000
00100000
00001000
00000000
01000000
00010000
00000000
00100000
00001000
00000000
00000000
00000000
,
00010000
00000000
00000010
00001000
00000000
00000100
00010000
00000000
00000010
00001000
00000000
00000100
00010000
00000000
00000000
00000000
,
00001000
01000000
00001000
01000000
00010000
10000000
00010000
10000000
01000000
00100000
01000000
00100000
00001000
00010000
00001000
00010000
,
00002000
00000000
00000000
00000000
00000000
00000000
00000000
00000000
00013000
00000100
00001000
00000100
00000010
00000001
00001000
00000000
,
00001001
00000000
00000000
00000000
;
