#TITLE:Bright Lights;
#ARTIST:aran;
#BANNER:Bright Lights.png;
#BACKGROUND:Bright Lights-bg.png;
#CDTITLE:./CDTitles/GROOVE COASTER 4MAX DIAMOND GALAXY.png;
#MUSIC:Bright Lights.ogg;
#SAMPLESTART:78.667;
#SAMPLELENGTH:15;
#BPMS:0=180,68=90,136=180,192=90,196=180,252=90,256=180;
#BGSTAGE:15;

//--------------- dance-single - Fred-104 ----------------
#NOTES:
     dance-single:
     Fred-104:
     Beginner:
     4:
     :
0000
0000
0000
0000
,
0000
0000
0000
0000
,
0000
0000
0000
0000
,
0000
0000
0000
0000
,
0000
0000
0000
0000
,
0000
0000
0000
0000
,
0000
0000
0000
0000
,
0000
0000
0000
0000
,
0000
0000
0000
0000
,
0000
0000
0000
0000
,
0000
0000
0000
0000
,
1000
0000
1000
0000
,
0002
0000
0003
0000
,
0001
0000
0001
0000
,
2000
0000
3000
0000
,
0001
0000
1000
0000
,
0002
0000
0003
0000
,
1001
0000
0000
0000
,
1000
1000
0100
0010
,
0001
0001
1000
0010
,
1000
1000
0001
0001
,
1000
0001
1000
1000
,
0001
0010
0100
0100
,
1000
0001
1000
0001
,
0100
0001
1000
1000
,
1001
0000
0000
0000
,
1000
0000
0100
0000
,
0001
0000
0010
0000
,
1000
0000
0001
0000
,
0100
0000
0010
0000
,
1000
0000
0010
0000
,
0001
0000
0100
0000
,
1000
0000
0001
0000
,
1000
1000
0001
0001
,
1001
0000
0000
0000
,
0000
0000
0000
0000
,
0000
0000
0000
0000
,
0000
0000
0000
0000
,
1000
0000
1000
0000
,
0001
0000
0001
0000
,
0100
0100
0100
0100
,
0110
0000
0000
0000
,
0001
0000
0001
0000
,
1000
0000
0010
0000
,
1000
0000
1000
0000
,
0001
0001
0001
0000
,
1000
0000
0100
0000
,
1000
0000
0001
0000
,
1001
0000
0000
0000
,
1000
0000
0100
0000
,
0010
0000
0001
0001
,
0001
0000
1000
0000
,
0010
0010
0010
0000
,
0100
0000
0001
0000
,
1000
0000
0100
0000
,
1000
0000
0001
0000
,
1000
1000
1000
0000
,
0001
0000
1000
0000
,
0010
0010
0010
0000
,
1000
0000
0001
0000
,
0010
0010
0010
0000
,
0001
0000
1000
0000
,
0001
0001
0001
0001
,
1001
0000
0000
0000
,
1000
0000
0000
0001
,
0000
0000
1000
0000
,
0000
0001
0000
0000
,
1000
0000
0000
0001
,
0000
0000
1000
0000
,
0000
0001
0000
0000
,
2000
0000
3000
0000
,
0002
0000
0003
0000
,
1001
0000
0000
0000
;

//--------------- dance-single - Fred-104 ----------------
#NOTES:
     dance-single:
     Fred-104:
     Easy:
     8:
     :
0000
0000
0000
0000
,
0000
0000
0000
0000
,
0000
0000
0000
0000
,
0000
0000
0000
0000
,
0000
0000
0000
0000
,
0000
0000
0000
0000
,
0000
0000
0000
0000
,
0000
0000
0000
0000
,
0000
0000
0000
0000
,
0000
0000
0000
0000
,
0000
0000
0000
0000
,
0001
0001
0010
0100
,
1000
0001
2000
3000
,
0010
0010
0100
0001
,
1000
0001
1000
1000
,
0100
0010
0010
0001
,
1000
0001
1000
1000
,
0110
0000
0110
1001
,
0001
0001
0010
0010
0100
1000
1010
0000
,
1000
1000
0010
0100
0010
1000
1001
0000
,
1000
0100
0010
0001
0100
0001
0011
0000
,
0001
0100
1000
0100
0001
1000
0001
1001
,
1000
0000
1000
0000
0100
0000
0010
0000
0001
0000
1000
0000
0001
0100
0001
0000
,
1000
0000
1000
0000
0100
0000
0010
0000
0100
0000
0100
0000
1000
0001
1000
0000
,
0001
0001
0100
0010
0100
0100
0110
0000
,
0110
0000
0110
1001
,
1000
0000
0110
0000
0001
0010
0100
0000
,
1000
0000
0110
0000
0001
0100
0010
0000
,
1000
0000
0101
0000
1000
0100
0010
0000
,
0001
0000
1100
0000
0001
0100
0010
0000
,
1000
0100
0001
0001
0100
1000
1000
0010
,
0001
0000
0001
0000
0010
0000
1000
0000
0100
0000
0010
0000
0001
1000
0001
1000
,
0001
0100
1000
1000
0100
0001
0001
0010
,
1000
0000
1000
0000
0010
0000
0001
0000
0100
0000
0010
0000
1000
0001
1000
0001
,
0200
0000
0000
0000
,
0320
0000
0000
0000
,
2030
0000
0000
0000
,
0002
0000
3003
0000
,
1000
0000
0000
0100
0000
0000
0010
0000
,
0001
0000
0000
1000
0000
0000
0010
0000
,
0100
0100
0100
0100
,
0010
0010
1001
0000
,
1000
0000
0000
0100
0000
0000
0010
0000
,
0001
0000
0000
0100
0000
0000
0010
0000
,
1000
0000
0100
1000
0000
0100
1000
0000
,
0001
1000
1001
0000
,
1000
0000
0000
0010
0000
0000
0100
0000
,
0010
0000
0000
1000
0000
0000
0001
0000
,
0010
0000
0110
0000
1000
0001
2002
3003
,
0001
0000
0000
0100
0000
0000
0010
0000
,
1000
0000
0000
0001
0000
0000
0010
0000
,
0100
0000
1000
0001
0000
1000
0010
0000
,
0100
0001
1001
0000
,
1000
0000
0000
0001
0000
0000
1000
0000
,
0010
0000
0000
0100
0000
0000
0001
0000
,
1000
0000
0100
0010
0000
0001
0010
0000
,
0001
1000
2002
3003
,
1000
0000
0000
0001
0000
0100
0001
0000
,
1000
0000
0000
0100
0000
0010
0001
0000
,
1000
0000
0001
0010
0000
0100
0010
0000
,
0001
1000
1001
0000
,
0001
0000
0000
0100
0000
0010
1000
0000
,
0001
0000
0010
0100
0000
0100
1000
0000
,
0001
0000
0110
0000
1000
0100
0110
0000
,
0002
0000
0000
2003
,
0000
0000
3020
0000
,
0000
0230
0000
0000
,
0302
0000
0000
2003
,
0000
0000
3200
0000
,
0320
0000
0032
0000
,
2003
0000
3002
0000
,
0203
0000
0020
0000
,
0330
0000
0000
0000
;

//--------------- dance-single - Fred-104 ----------------
#NOTES:
     dance-single:
     Fred-104:
     Medium:
     11:
     :
0000
0000
0000
0000
,
0000
0000
0000
0000
,
0000
0000
0000
0000
,
0000
0000
0000
0000
,
0000
0000
0000
0000
,
0000
0000
0000
0000
,
0000
0000
0000
0000
,
0000
0000
0000
0000
,
0000
0000
0000
0000
,
0000
0000
0000
0000
,
0000
0000
0000
0000
,
0001
0000
1000
0100
1000
0000
0010
1000
,
0010
0100
0001
0000
1000
0000
0100
0000
,
0010
0001
0000
1000
0001
0000
0100
0010
,
0100
0010
1000
0100
,
0010
0001
0010
0001
0010
0000
0100
1000
,
0001
0000
0100
0000
0010
0100
0010
0000
,
2000
0000
3200
0000
0310
0010
0011
0000
,
0001
0100
0001
0100
0010
0100
0010
1000
0100
0000
0010
0000
0011
0000
0000
0000
,
0001
1000
0010
1000
0010
0100
0001
1000
0100
0000
0010
0000
0011
0000
1000
0000
,
0001
1000
0010
0100
0001
1000
0100
0010
0100
0000
1000
0000
1001
0000
0100
0000
,
1000
0010
1000
0100
0010
0001
1000
0010
0100
0000
0001
0000
0100
0000
1001
0000
,
0001
1000
0010
0100
0010
1000
0100
1000
0100
0000
0010
0000
0001
1000
0001
0000
,
0100
0001
0100
0001
0010
0100
1000
0100
0010
0000
0001
0000
1000
0010
0100
0000
,
0010
0000
1000
0000
0010
0000
1000
0000
0100
0000
0010
0000
0001
0000
1000
0000
0001
0000
0000
0001
0000
0000
0001
0000
1000
0000
0000
0000
1001
0000
0000
0000
,
0002
0000
0203
0000
0310
0010
1010
0000
,
0000
1000
0100
0010
0000
0001
0010
0100
0000
1000
0010
0100
0000
0001
0100
0010
,
0000
1000
0001
0010
0000
0100
1000
0001
0000
0100
0001
1000
0100
0010
0001
1000
,
0000
0010
1000
0100
0000
0010
0001
0100
0000
0010
1000
0100
0000
0010
0001
1000
,
0000
0001
0010
0100
0000
1000
0010
0100
0000
0001
0010
0100
1000
0001
1000
0000
,
0001
0000
0100
0000
1000
0000
0001
0000
0010
0000
1000
0000
0100
0010
0001
1000
,
0001
0100
0010
0001
0010
0100
0001
1001
,
1000
0000
0100
0000
0001
0000
1000
0000
0010
0000
0001
0000
0100
0010
1000
0001
,
1000
0100
0010
1000
0010
0100
1000
1001
,
0002
0000
0000
0000
,
0023
0000
0000
0000
,
0230
0000
0000
0000
,
2300
0000
3000
0000
,
0001
0100
0001
0100
0000
0100
0010
1000
,
0100
0000
0100
0010
0000
0010
0001
1000
,
0010
0100
0010
0100
0000
0100
0001
1000
,
0001
1000
2002
3003
,
1000
0000
0100
1000
0000
0001
1000
0010
,
0100
0000
0010
1000
0000
0010
0100
0010
,
1000
0100
0010
0001
0000
1000
0100
0010
,
0001
1000
0001
1000
0001
0000
0000
0000
,
1000
0000
0001
0100
0000
0010
1000
0010
,
0100
0000
0001
1000
0000
0100
0010
0001
,
1000
0010
0110
0100
0101
0011
2002
3003
,
0001
0000
0010
0100
0000
1000
0010
1000
,
0100
0000
0010
0001
0000
1000
0010
0100
,
0010
1000
0010
1000
0000
0001
0010
0100
,
1000
0001
1000
0001
1000
0000
0000
0000
,
0001
0000
1000
0010
0000
0100
0010
1000
,
0100
0000
0010
0001
0000
1000
0001
0100
,
0010
1000
0010
0100
0000
0010
1000
0001
,
0010
0100
0010
0100
0020
0000
0030
0000
,
0001
0000
1000
0001
0000
0100
0001
1000
,
0100
0010
0100
1000
0000
0010
1000
0001
,
1000
0010
0100
0010
0000
1000
0001
0010
,
0100
1000
0100
1000
0200
0000
0300
0000
,
1000
0010
1000
0100
0000
0010
0100
1000
,
0001
0100
0010
1000
0000
0001
0010
0100
,
2000
0000
3002
0000
0103
0010
0100
0000
0001
0000
1000
0100
0010
0000
0011
0000
,
0002
0000
0000
2003
,
0000
0000
0000
3020
,
0000
0000
0000
0230
,
0000
0000
0302
0000
,
0000
2003
0000
0000
,
3200
0000
0320
0000
,
0032
0000
2003
0000
,
3010
0000
0100
0000
0001
0010
0001
1000
,
0001
0000
0000
0000
;

//--------------- dance-single - Fred-104 ----------------
#NOTES:
     dance-single:
     Fred-104:
     Hard:
     15:
     :
0000
0000
0000
0000
,
0000
0000
0000
0000
,
0000
0000
0000
0000
,
0000
0000
0000
0000
,
0000
0000
0000
0000
,
0000
0000
0000
0000
,
0000
0000
0000
0000
,
0000
0000
0000
0000
,
0000
0000
0000
0000
,
0000
0000
0000
0000
,
0000
0000
0000
0000
,
1000
0100
1000
0100
0010
0001
0010
0001
,
1000
0010
0100
0001
1000
0010
0100
0001
,
1000
0001
0010
0100
1000
0001
0010
0100
,
1100
0101
0011
1010
,
1000
0001
0010
0100
1000
0001
0100
0010
,
1000
0100
0010
0001
1000
0001
0100
0010
,
2000
0000
3001
0100
2000
0000
3001
0010
1000
0100
0010
0000
0011
0000
1001
0000
,
1000
0100
1000
0001
0100
0010
1000
0001
0010
0010
0100
0000
1000
0001
1000
1000
,
0001
0010
0001
0100
0010
1000
0001
0010
0011
0000
1010
0000
0101
0000
1100
0000
,
1000
0100
0110
0010
0001
1000
1010
1000
0001
0000
0011
0000
0001
1000
1100
0100
,
1000
0000
0001
0000
0101
0000
0100
0000
0010
0000
1000
0000
1001
0000
0001
0000
0010
0000
0000
0000
1100
0000
0000
0000
0101
0000
0000
0000
0220
0330
0000
0000
,
1000
0100
0001
0100
0010
0100
1000
0001
0101
0000
1010
0000
0001
1000
0100
0100
,
1000
0001
0100
0010
0100
1000
0100
0001
1001
0000
0110
0000
0001
1000
0100
0100
,
1000
0000
0010
0000
0100
0000
0010
0000
0001
0000
0010
0000
0100
0000
0001
0000
1000
0000
0000
1000
0000
0000
1000
0000
1100
0000
0000
0000
1001
0000
0000
0000
,
0002
0000
1003
0100
0002
0000
1003
0010
0001
0100
0010
0000
1010
0000
1001
0000
,
0001
0010
0001
0010
1000
0010
1000
0001
0100
0001
0100
1000
0001
1000
0100
1000
,
0001
0010
0001
0010
1000
0001
0100
1000
0100
1000
0001
1000
0001
0100
0010
1000
,
0001
1000
0100
0010
0011
0001
1000
0010
0100
0001
1000
0100
0110
0100
1000
0001
,
0100
0000
0000
0010
0000
0000
1000
0000
0000
0001
0000
0000
0011
0000
0000
0010
0000
0000
0100
0000
0000
1000
0000
0000
0001
0000
0000
1000
0000
0000
0001
0000
0000
1000
0001
1000
0001
0000
0000
0000
0000
0000
0110
0000
0000
0000
0000
0000
,
1000
0010
0100
0010
0001
0000
1000
0100
0010
0100
0001
0000
1000
0100
0001
0100
,
0010
0000
0000
0000
0000
0000
0001
0000
0000
0100
0000
0000
1000
0000
0000
0100
0000
0000
0010
0000
0000
0000
0000
0000
1000
0000
0000
0100
0000
0000
0010
0000
0000
0001
1000
0001
2000
0000
0000
0000
0000
0000
3000
0000
0000
0000
0000
0000
,
0001
0010
0100
0010
1000
0000
0001
0100
0010
0100
1000
0000
0001
0100
1000
0100
,
0010
0000
0000
0000
0000
0000
1000
0000
0000
0100
0000
0000
0001
0000
0000
0100
0000
0000
0010
0000
0000
0000
0000
0000
0001
0000
0000
0100
0000
0000
0010
0000
0000
1000
0001
1000
0001
0000
0000
1000
0000
0000
0100
0000
0000
0100
0000
0000
,
0120
0000
0000
0000
,
0032
0000
0000
0000
,
2003
0000
0000
0000
,
0002
0000
3003
0000
,
0001
0010
0100
1000
0010
0100
0001
0010
,
0001
1000
0010
0100
0001
1000
0100
0010
,
0001
1000
0001
1000
0001
1000
0001
1000
0001
1000
0001
1000
0001
1000
0001
1000
,
0001
0000
0000
0000
0000
0000
0100
0000
0000
0000
0000
0000
0010
0000
0000
0000
0000
0000
1000
0000
0001
0000
1000
0000
0001
0000
0000
0000
0000
0000
0000
0000
0000
0000
0000
0000
1000
0000
0000
0001
0000
0000
1000
0000
0000
0001
0000
0000
,
1000
0100
0010
0100
0001
0100
0010
0001
,
1000
0000
0010
0000
0100
0000
1000
0000
0100
0000
0010
0000
0100
0001
0100
0001
,
1000
0001
0010
1000
0010
0100
0010
0001
,
1001
1000
1010
0010
0110
0000
1001
1000
,
0001
0100
0010
0001
0010
1000
0010
0100
,
0001
0000
1000
0000
0100
0000
0010
0000
0001
0000
1000
0010
0100
0000
0001
0000
,
0011
0000
0000
0000
0000
0000
1010
0000
0000
0000
0000
0000
0101
0000
0000
0001
0000
0000
1000
0000
0000
0100
0000
0000
0110
0000
0000
0000
0000
0000
0011
0000
0000
0001
1000
0001
1000
0000
0000
0000
0000
0000
2002
0000
0000
3003
0000
0000
,
0001
0100
0010
0100
1000
0001
0010
0100
,
0001
0000
1000
0000
0100
0000
0001
0000
1000
0000
0010
0000
0100
1000
0100
1000
,
0001
0100
1000
0001
0010
1000
0001
0010
,
0110
0100
1100
1000
1001
0000
0110
0001
,
1000
0010
0001
1000
0100
0010
0001
0010
,
1000
0000
0001
0000
0010
0000
1000
0000
0001
0000
0100
0000
0010
0001
0010
0001
,
1000
0000
0010
0000
0001
0000
1000
0000
0100
0000
0001
1000
0001
0000
1000
0000
,
1100
0100
0110
0010
0011
0000
2002
3003
,
0001
0000
0010
0000
0100
0000
1000
0000
0001
0000
0100
0010
1000
0000
0001
0000
,
0010
0000
0100
0000
1000
0000
0001
0100
0001
0000
1000
0000
0100
0010
0100
0010
,
0001
0000
1000
0000
0010
0000
0100
0000
0001
0000
0010
0100
0010
0000
0100
0000
,
1100
0000
0001
0000
0101
0000
1000
0000
1001
0000
0001
1000
0001
1000
0001
0000
,
0010
0000
0100
0000
1000
0000
0010
0000
0100
0000
0010
1000
0001
0000
0010
0000
,
0100
0000
1000
0000
0001
0000
0100
0010
0100
0000
0001
0000
1000
0100
0010
0001
,
2000
0000
0000
0000
0000
0000
3002
0000
0000
0000
0000
0000
0103
0000
0000
0010
0000
0000
0100
0000
0000
0010
0000
0000
0200
0000
0000
0302
0000
0000
2003
0000
0000
3100
0010
0100
0010
0000
0000
0001
0000
0000
0011
0000
0000
0000
0000
0000
,
0001
0010
0100
1000
0010
0100
0001
0100
,
0010
1000
0100
0010
0001
1000
0010
0001
,
0010
1000
0001
1000
0100
0001
0100
1000
,
0001
0100
1000
0100
0010
0100
0001
1000
,
0100
0001
0100
0010
0100
1000
0001
0100
,
1000
0001
0010
0100
0001
1000
0100
0001
,
1000
0010
0001
1000
0010
0100
0010
0001
,
1000
0000
0100
0000
0010
0000
1000
0000
0001
0000
0010
0000
0100
1000
0100
1000
,
0100
0000
0000
0000
;

//--------------- dance-double - Fred-104 ----------------
#NOTES:
     dance-double:
     Fred-104:
     Easy:
     9:
     :
00000000
00000000
00000000
00000000
,
00000000
00000000
00000000
00000000
,
00000000
00000000
00000000
00000000
,
00000000
00000000
00000000
00000000
,
00000000
00000000
00000000
00000000
,
00000000
00000000
00000000
00000000
,
00000000
00000000
00000000
00000000
,
00000000
00000000
00000000
00000000
,
00000000
00000000
00000000
00000000
,
00000000
00000000
00000000
00000000
,
00000000
00000000
00000000
00000000
,
00010000
00001000
00100000
00001000
,
00010000
00001000
00000020
00000030
,
00000001
00001000
00000010
00001000
,
00000010
00010000
00001000
00001000
,
00010000
01000000
00100000
00010000
,
10000000
00000000
00100000
00000000
00010000
00001000
00010000
00000000
,
00011000
00000000
00000110
00001001
,
00000001
00000100
00000010
00000100
00001000
00010000
00011000
00000000
,
00001000
00010000
00001000
01000000
00010000
00100000
01100000
00000000
,
10000000
00100000
01000000
00100000
00010000
00001000
00011000
00000000
,
00010000
00001000
00000100
00000001
00000010
00000100
00001000
00001001
,
00000001
00000000
00000100
00000000
00001000
00000000
00010000
00000000
00001000
00000000
01000000
00000000
00010000
10000000
00010000
00000000
,
00100000
00000000
01000000
00000000
10000000
00000000
00010000
00000000
01000000
00000000
00100000
00000000
10000000
01000000
10000000
00000000
,
00100000
00010000
00001000
00010000
00000010
00010000
00011000
00000000
,
00011000
00000000
01100000
10010000
,
10000000
00000000
01100000
00000000
00001000
00010000
00001000
00000000
,
00010000
00000000
00001010
00000000
00010000
00000100
00001000
00000000
,
00000001
00000000
00001100
00000000
00000001
00001000
00000100
00000000
,
00000010
00000000
00001001
00000000
00000001
00000100
00001000
00000000
,
00010000
00001000
00100000
00100000
00010000
10000000
10000000
01000000
,
00010000
00000000
00010000
00000000
00001000
00000000
00000100
00000000
00000001
00000000
00000010
00000000
00000100
00010000
00001000
00010000
,
00001000
00010000
00000010
00000010
00001000
00000001
00000001
00000100
,
00001000
00000000
00001000
00000000
00010000
00000000
01000000
00000000
10000000
00000000
00100000
00000000
01000000
00001000
00010000
00001000
,
00020000
00000000
00000000
00000000
,
00030020
00000000
00000000
00000000
,
00020030
00000000
00000000
00000000
,
00002000
00000000
00033000
00000000
,
00001000
00000000
00010000
00100000
00000000
01000000
00010000
00000000
,
10000000
00000000
01000000
00100000
00000000
00001000
00010000
00000000
,
00001000
00000100
00000001
00000010
,
00001000
00010000
00011000
00000000
,
00001000
00000000
00000000
01000000
00000000
00010000
00100000
00000000
,
01000000
00000000
10000000
00010000
00000000
10000000
00100000
00000000
,
00010000
00001000
00010000
00000100
,
00000010
00000001
00000010
00000000
00001001
00000000
00000000
00000000
,
00011000
00000000
00000010
00010000
00000000
00001000
00010000
00000000
,
00001000
00000000
01000000
00010000
00000000
00100000
01000000
00000000
,
10000000
00000000
00010000
00000000
01000000
00000000
00001000
00000000
00010000
00001000
00010000
00000000
00011000
00000000
00000000
00000000
,
00011000
00000000
00010000
00000100
00000000
00000010
00000001
00000000
,
00001000
00000000
00000010
00000100
00000000
00001000
00010000
00000000
,
00001000
00000000
01000000
00010000
00000000
10000000
00010000
00000000
,
00100000
01000000
00100000
00000000
10010000
00000000
00000000
00000000
,
10000000
00000000
01000000
00100000
00000000
00001000
00010000
00000000
,
00001000
00000000
00010000
00000010
00000000
00001000
00000010
00000000
,
00000100
00000001
00000100
00000001
00000000
00001000
00000100
00000000
,
00010000
00001000
00010000
00011000
,
01100000
00000000
00010000
10000000
00000000
00100000
01000000
00000000
,
00100000
00000000
10000000
01000000
00000000
00100000
00001000
00000000
,
00010000
00000100
00010000
00000100
00000000
00001000
00000001
00000000
,
00000010
00000100
00000010
00000000
00001001
00000000
00000000
00000000
,
00000001
00000000
00000100
00000010
00000000
00000100
00001000
00000000
,
00010000
00000000
00001000
01000000
00000000
00001000
00010000
00000000
,
00001000
00100000
00010000
10000000
00100000
00010000
00011000
00000000
,
00002000
00000000
00000000
02003000
,
00000000
00000000
03002000
00000000
,
00000000
00023000
00000000
00000000
,
00030200
00000000
00000000
00002300
,
00000000
00000000
00003002
00000000
,
00000023
00000000
00002030
00000000
,
00023000
00000000
00230000
00000000
,
20300000
00000000
00020000
00000000
,
30030000
00000000
00000000
00000000
;

//--------------- dance-double - Fred-104 ----------------
#NOTES:
     dance-double:
     Fred-104:
     Medium:
     12:
     :
00000000
00000000
00000000
00000000
,
00000000
00000000
00000000
00000000
,
00000000
00000000
00000000
00000000
,
00000000
00000000
00000000
00000000
,
00000000
00000000
00000000
00000000
,
00000000
00000000
00000000
00000000
,
00000000
00000000
00000000
00000000
,
00000000
00000000
00000000
00000000
,
00000000
00000000
00000000
00000000
,
00000000
00000000
00000000
00000000
,
00000000
00000000
00000000
00000000
,
00001000
00000000
00010000
00001000
01000000
00000000
00010000
10000000
,
00100000
00010000
00001000
00000000
00000010
00000000
00000100
00000000
,
00001000
00000001
00000000
00000100
00000010
00000000
00000100
00001000
,
00010000
00100000
10000000
01000000
,
00100000
00010000
00100000
00001000
00010000
00000000
00001000
00000100
,
00000010
00000000
00001000
00000000
00000100
00000010
00000001
00000000
,
00000200
00000000
00002300
00000000
00013000
00001000
00011000
00000000
,
00001000
00010000
00001000
01000000
00010000
01000000
00100000
10000000
01000000
00000000
00100000
00000000
00011000
00000000
00000000
00000000
,
00001000
00010000
00000010
00001000
00000100
00000010
00000001
00001000
00000010
00000000
00010000
00000000
00011000
00000000
00001000
00000000
,
00010000
00100000
01000000
00010000
00100000
01000000
10000000
00100000
00010000
00000000
00001000
00000000
00011000
00000000
00000010
00000000
,
00010000
00001000
00000100
00000001
00001000
00000100
00000010
00000100
00010000
00000000
00001000
00000000
01000000
00000000
10010000
00000000
,
00010000
00100000
01000000
00100000
10000000
00100000
00010000
10000000
00100000
00000000
00010000
00000000
00001000
00010000
00000010
00000000
,
00010000
00001000
00000100
00000010
00000100
00000001
00001000
00000100
00000010
00000000
00000001
00000000
00000100
00001000
00010000
00000000
,
00001000
00000000
00010000
00000000
00100000
00000000
01000000
00000000
00010000
00000000
00100000
00000000
01000000
00000000
10000000
00000000
00010000
00000000
00000000
00010000
00000000
00000000
00010000
00000000
10000000
00000000
00000000
00000000
11000000
00000000
00000000
00000000
,
02000000
00000000
03020000
00000000
00031000
00010000
00011000
00000000
,
00000000
00010000
00001000
00000010
00000000
00001000
00010000
00001000
00000000
00010000
00100000
01000000
00000000
00100000
00010000
00001000
,
00000000
00010000
00001000
00000100
00000000
00001000
00010000
00001000
00000000
00010000
01000000
00100000
01000000
00010000
00001000
00010000
,
00000000
00001000
00010000
00100000
00000000
10000000
01000000
00010000
00000000
00001000
00010000
00001000
00000000
00000100
00000001
00001000
,
00000000
00000100
00000010
00000001
00000000
00001000
00000010
00000100
00000000
00001000
00010000
00100000
10000000
00010000
00100000
01000000
,
10000000
00000000
00100000
00000000
00010000
00000000
00000010
00000000
00001000
00000000
00000100
00000000
00000010
00000001
00000100
00001000
,
00010000
00000000
00001000
00000000
01000000
00000000
00010000
00000000
00100000
00000000
01000000
00000000
10000000
00010000
10000000
01000000
,
10000000
00000000
01000000
00000000
00010000
00000000
00000100
00000000
00001000
00000000
00000010
00000000
00000100
00000001
00000010
00001000
,
00010000
00000000
00001000
00000000
00100000
00000000
00010000
00000000
01000000
00000000
00100000
00000000
10000000
00010000
10000000
00100000
,
00020000
00000000
00000000
00000000
,
00032000
00000000
00000000
00000000
,
00003200
00000000
00000000
00000000
,
00000002
00000000
00000303
00000000
,
00001000
00000001
00000010
00000100
00000000
00010000
00001000
01000000
,
00010000
00100000
10000000
00100000
00000000
00010000
10000000
00100000
,
00010000
00001000
00010000
00001000
00000000
00000100
00000001
00001000
,
00000010
00010000
00100000
10000000
20020000
00000000
30030000
00000000
,
00010000
00100000
01000000
10000000
00000000
00100000
10000000
00010000
,
00100000
01000000
00010000
00001000
00000000
00000100
00000001
00001000
,
00000100
00000010
00000001
00001000
00000000
00000010
00010000
00100000
,
01000000
00010000
00100000
01000000
11000000
00000000
00010000
00000000
,
10000000
00100000
00010000
00001000
00000000
01000000
00001000
00000100
,
00000010
00010000
00001000
00000010
00000000
00000100
00000010
00000001
,
00002000
00000000
00003002
00000000
00000103
00001000
00010000
00000000
00011000
00000000
01010000
00000000
11000000
00000000
01100000
00000000
,
00010000
10000000
01000000
00010000
00000000
00001000
01000000
00001000
,
00000100
00000010
00010000
00001000
00000000
00000010
00000100
00000010
,
00000001
00001000
00000100
00010000
00000000
01000000
00100000
00010000
,
10000000
00100000
00010000
00001000
00010000
00000000
00011000
00000000
,
00001000
00010000
00100000
10000000
00000000
00010000
00100000
01000000
,
00100000
00010000
10000000
00100000
00000000
00001000
00000010
00000100
,
00000001
00001000
00000100
00010000
00000000
01000000
00100000
00010000
,
01000000
00100000
00010000
00001000
00010000
00000000
00011000
00000000
,
00001000
01000000
00010000
10000000
00000000
01000000
00100000
00010000
,
10000000
00100000
00010000
00001000
00000000
00000010
00001000
00010000
,
00001000
00000100
00000010
00000100
00000000
00001000
00010000
00000010
,
00001000
00000100
00000001
00000100
00001000
00000000
00001001
00000000
,
00000001
00000100
00000001
00000100
00000000
00001000
00010000
00100000
,
01000000
00010000
01000000
00010000
00000000
10000000
01000000
00010000
,
00002000
00000000
00023000
00000000
00031000
00000100
00000001
00000000
00000011
00000000
00001010
00000000
00011000
00000000
00011000
00000000
,
00002000
00000000
00000000
00023000
,
00000000
00000000
00230000
00000000
,
00000000
20300000
00000000
00000000
,
32000000
00000000
00000000
03020000
,
00000000
00000000
00032000
00000000
,
00000000
00003020
00000000
00000000
,
00000032
00000000
00000000
00000203
,
00000000
00000000
00002300
00000000
,
00013000
00000000
00000000
00000000
;

//--------------- dance-double - Fred-104 ----------------
#NOTES:
     dance-double:
     Fred-104:
     Hard:
     15:
     :
00000000
00000000
00000000
00000000
,
00000000
00000000
00000000
00000000
,
00000000
00000000
00000000
00000000
,
00000000
00000000
00000000
00000000
,
00000000
00000000
00000000
00000000
,
00000000
00000000
00000000
00000000
,
00000000
00000000
00000000
00000000
,
00000000
00000000
00000000
00000000
,
00000000
00000000
00000000
00000000
,
00000000
00000000
00000000
00000000
,
00000000
00000000
00000000
00000000
,
00010000
00001000
00010000
00001000
00000010
00000100
00000010
00000100
,
00001000
00000001
00001000
00000001
00000100
00001000
00000100
00001000
,
00010000
00100000
00010000
00100000
10000000
01000000
10000000
01000000
,
01100000
00011000
00000110
00001001
,
00001000
00000001
00000010
00000100
00001000
00000001
00000100
00001000
,
00010000
00100000
01000000
00010000
10000000
01000000
00010000
00001000
,
00020000
00000000
00031000
00010000
00200000
00000000
00310000
00001000
00000010
00001000
00010000
00000000
00011000
00000000
00011000
00000000
,
00001000
00010000
00001000
00010000
01000000
00100000
01000000
00100000
00010000
10000000
00010000
00000000
01000000
00100000
00010000
00001000
,
00010000
00000100
00010000
00000100
00000010
00000001
00000010
00000001
00001001
00000000
00010100
00000000
01001000
00000000
00011000
00000000
,
00001000
00010000
00011000
00001000
01000000
00010000
10010000
10000000
01000000
00100000
00101000
00001000
00010000
00001000
00001100
00000100
,
00000001
00000000
00000010
00000000
00000110
00000000
00000100
00000000
00010000
00000000
00001000
00000000
01001000
00000000
01000000
00000000
00100000
00000000
00000000
00000000
11000000
00000000
00000000
00000000
01010000
00000000
00000000
00000000
20020000
30030000
00000000
00000000
,
10000000
01000000
00010000
00000100
00001000
00000001
00000100
00001000
00011000
00000000
01001000
00000000
00001000
00010000
00100000
10000000
,
00010000
00100000
01000000
00010000
00000100
00001000
00000010
00000100
00000101
00000000
00001001
00000000
00000001
00000100
00001000
00010000
,
00001000
00000000
01000000
00000000
00010000
00000000
00100000
00000000
01000000
00000000
10000000
00000000
00100000
00000000
00010000
00000000
00001000
00000000
00000000
00001000
00000000
00000000
00001000
00000000
00011000
00000000
00000000
00000000
00011000
00000000
00000000
00000000
,
00002000
00000000
00013000
00001000
00000020
00000000
00001030
00010000
00100000
00010000
00001000
00000000
00011000
00000000
00011000
00000000
,
00001000
01000000
00010000
01000000
00100000
00010000
00001000
00000010
00000100
00001000
00000100
00010000
00000010
00001000
00010000
01000000
,
00100000
10000000
00010000
00100000
01000000
00010000
00001000
00000100
00000001
00001000
00000100
00000010
00000001
00001000
00000010
00000000
,
00010000
00001000
00100000
00010000
10010000
10000000
01000000
00010000
00000100
00001000
00000001
00000100
00000110
00000010
00001000
00000001
,
00000010
00000100
00010000
00001000
00101000
00100000
00010000
00100000
01000000
10000000
00100000
00010000
00001000
00010000
00011000
00000000
,
00010000
00001000
00000100
00001000
00010000
00000000
00001000
00010000
01000000
00010000
00001000
00000000
00010000
00001000
00000010
00001000
,
00010000
00000000
00001000
00010000
00100000
00010000
00001000
00000000
00010000
00001000
00000100
00000001
00000010
00001000
00010000
00000000
,
00001000
00010000
01000000
00010000
00001000
00000000
00010000
00001000
00000100
00001000
00010000
00000000
00001000
00010000
00100000
00010000
,
00001000
00000000
00010000
00001000
00000010
00001000
00010000
00000000
00001000
00010000
00100000
10000000
01000000
00010000
00001000
00010000
,
00012000
00000000
00000000
00000000
,
00023000
00000000
00000000
00000000
,
00230000
00000000
00000000
00000000
,
20000000
00000000
30300000
00000000
,
10000000
01000000
00010000
00001000
00010000
00000100
00000010
00000001
,
00001000
00000010
00010000
00100000
01000000
00010000
00100000
00001000
,
00010000
00001000
00010000
00001000
00010000
00001000
00010000
00001000
00010000
00001000
00010000
00001000
00010000
00001000
00010000
00001000
,
00010000
00000000
00000000
00000000
00000000
00000000
00001000
00000000
00000000
00000000
00000000
00000000
00000100
00000000
00000000
00000000
00000000
00000000
00000001
00000000
00001000
00000000
00000001
00000000
00001000
00000000
00000000
00000000
00000000
00000000
00000000
00000000
00000000
00000000
00000000
00000000
00000001
00000000
00000000
00000100
00000000
00000000
00000001
00000000
00000000
00000100
00000000
00000000
,
00000010
00000100
00001000
00010000
01000000
00100000
00010000
10000000
,
00100000
00000000
00010000
00000000
00001000
00000000
01000000
00000000
00001000
00000000
00000100
00000000
00001000
00010000
00001000
00010000
,
00001000
00010000
00100000
01000000
10000000
01000000
00100000
10000000
,
01000000
00010000
00001000
00000100
00000101
00000000
00001001
00001000
,
00000001
00000010
00000100
00000010
00001000
00010000
01000000
00100000
,
00010000
00000000
10000000
00000000
00100000
00000000
00010000
00000000
00001000
00000000
00010000
00001000
00010000
00000000
00001000
00000000
,
00011000
00000000
00110000
00000000
10100000
10000000
01000000
00100000
00101000
00000000
00010010
00000000
00000110
00000000
00002002
00003003
,
00000001
00000100
00001000
00000001
00000010
00000100
00000010
00001000
,
00000001
00000000
00000100
00000000
00001000
00000000
00010000
00000000
00100000
00000000
10000000
00000000
00010000
10000000
00010000
10000000
,
00010000
00100000
10000000
00010000
01000000
00100000
00010000
10000000
,
00100000
00010000
00001000
00000010
00000011
00000000
00001001
00001000
,
00000010
00010000
00001000
00010000
00100000
10000000
00010000
00100000
,
01000000
00000000
10000000
00000000
00100000
00000000
00010000
00000000
00001000
00000000
00000100
00000000
00000010
00000100
00000010
00000100
,
00000001
00000000
00001000
00000000
00000100
00000000
00010000
00000000
01000000
00000000
00100000
00010000
00100000
00000000
00010000
00000000
,
10000000
00100000
00010000
00001000
00011000
00000000
00022000
00033000
,
00010000
00000000
00001000
00000000
00000100
00000000
00000010
00000000
00001000
00000000
00000001
00000010
00000100
00000000
00001000
00000000
,
00000010
00000000
00000100
00000000
00001000
00000000
01000000
00000000
00010000
00000000
00100000
00000000
00001000
00010000
00001000
00010000
,
00001000
00010000
01000000
00100000
00010000
00100000
01000000
10000000
,
10010000
00010000
01000000
00001000
00011000
00000000
00010100
00010000
,
00001000
00000000
00010000
00000000
00000010
00000000
00001000
00000000
00000001
00000000
00000010
00000100
00001000
00000000
00000010
00000000
,
00000100
00000000
00001000
00000000
00100000
00000000
00010000
00000000
10000000
00000000
00100000
00000000
00010000
00001000
00010000
00001000
,
00020000
00000000
00032000
00000000
00003010
00000100
00001000
00000001
00000100
00001000
01000000
00010000
10000000
01000000
01100000
00000000
,
00010000
01000000
00001000
00100000
01000000
00010000
00001000
00010000
,
00000100
00010000
00001000
00100000
00001000
00000010
00000100
00001000
,
00000010
00000100
00001000
00010000
00100000
01000000
00010000
00100000
,
01000000
00010000
00001000
00000010
00000100
00001000
00000010
00000100
,
00001000
00010000
00001000
00100000
01000000
00010000
00001000
00000010
,
00000100
00000010
00000100
00001000
00000010
00010000
00100000
01000000
,
00010000
00100000
01000000
00010000
00001000
01000000
00010000
00000100
,
00001000
00000000
00010000
00000000
00001000
00000000
01000000
00000000
00100000
00000000
00010000
00000000
00001000
00010000
00001000
00010000
,
00000010
00000000
00000000
00000000
;
