#TITLE:Blue River;
#ARTIST:T-BONE;
#GENRE:COWBOY;
#CREDIT:YonabearCWY/Fred-104;
#BANNER:Blue River.png;
#BACKGROUND:Blue River-bg.png;
#CDTITLE:./CDTitles/pnm 11 CS.png;
#MUSIC:Blue River.ogg;
#SAMPLESTART:5.361;
#SAMPLELENGTH:15;
#BPMS:0=134;
#STOPS:184=2.240;
#TIMESIGNATURES:0=4=4,16=6=4,22=4=4,26=6=4,32=4=4,52=6=4,58=4=4,62=6=4,68=4=4,184=3=4,187=4=4;
#BGSTAGE:2;

//--------------- dance-single - YonabearCWY ----------------
#NOTES:
     dance-single:
     YonabearCWY:
     Beginner:
     5:
     :
0000
0000
0000
0000
,
0000
0000
0000
0000
,
0000
0000
0000
0000
,
1000
1000
1000
1000
,
1000
0000
0000
0000
,
0001
0001
0001
0000
,
0001
0000
0100
0100
,
0110
0000
1000
1000
,
0001
0001
0001
0001
,
0001
0000
0000
0000
,
0001
0000
0000
0000
,
1000
0000
0010
0010
,
0110
0000
0100
0100
,
0100
0000
0100
0000
,
0010
0010
0110
0000
,
0000
0000
0100
0000
,
0000
0000
0001
0001
,
0110
0100
0100
0100
,
0100
0000
0100
0000
,
0010
0000
0010
0000
,
1000
0000
1000
0000
,
0001
0001
0001
0000
,
0001
0000
0000
0000
,
1000
1000
1000
0000
,
1000
0000
0000
0000
,
1001
0000
1001
0000
,
1001
0000
1001
1001
,
0110
0000
0100
0000
,
0100
0000
0000
0000
,
0010
0000
0010
0000
,
0010
0000
0000
0000
,
1000
0000
1000
0000
,
1000
0000
0000
0000
,
0001
0000
0001
0000
,
0001
0000
0000
0000
,
1000
1000
1000
1000
,
0100
0100
0100
0100
,
0010
0010
0010
0010
,
0001
0001
0001
0001
,
1000
0000
1000
0000
,
0001
0000
0001
0000
,
0010
0000
0010
0000
,
0100
0000
2002
0000
,
0000
3003
0000
0000
0000
0000
0000
0000
,
0000
0000
0000
0000
,
0000
0000
0000
0000
,
0000
0100
0100
0110
,
0000
0010
0000
0010
,
0000
0000
0000
0000
,
0000
1000
0000
1000
,
0000
1000
0000
0001
,
0001
0001
0000
0001
,
0000
0000
0000
0100
,
0000
0100
0000
0100
,
0000
0010
0010
0110
,
0000
0010
0000
0110
,
0000
0100
0000
1001
,
0000
0001
0000
1000
,
0000
1001
0000
0100
,
0100
0100
0100
0110
,
0000
0000
0000
0010
,
0010
0010
0010
0110
,
0000
0000
2002
0000
,
0000
0000
0000
0000
,
3003
0000
0000
0000
;

//--------------- dance-single - YonabearCWY ----------------
#NOTES:
     dance-single:
     YonabearCWY:
     Easy:
     7:
     :
0000
0000
0000
0000
,
0000
0000
0000
0000
,
0000
0000
0000
0000
,
1000
0000
0010
0000
1000
0010
1000
0000
,
0001
0000
0100
0000
0001
0100
0001
0000
,
0110
1001
0100
0100
,
0100
0010
0010
0010
,
1000
0001
1001
0110
,
0001
0000
0100
0000
0001
0100
0001
0000
,
0010
0000
0100
0000
0010
0100
0010
0000
,
0100
1000
0001
0000
,
1000
0010
1100
0011
,
0001
0100
0001
0000
0010
0000
0010
0000
,
0001
1000
0001
0000
0100
0000
0100
0000
,
1010
0101
0020
1000
,
0001
1030
0200
0001
,
1000
0301
0011
1100
,
1001
0000
0100
0010
0001
0000
0100
0000
,
0010
0000
1000
0001
0010
0000
0001
0000
,
0100
0000
0010
1000
0100
0000
1000
0000
,
0101
1010
0110
1001
,
0000
0010
0000
0010
0000
0010
0000
0100
,
0000
0100
0000
0100
0000
0001
0000
0001
,
0000
0001
0000
1000
0000
1000
0000
1000
,
0000
0010
0000
0010
0000
0010
0000
0000
,
2002
0000
3003
0100
0220
0000
0330
0001
,
2002
0000
3003
0000
0110
0220
0000
0330
,
0001
0001
0001
0001
,
1000
1000
1000
1000
,
0010
0010
0010
0010
,
0100
0100
0100
0100
,
0011
0010
0010
0010
,
0101
0100
0100
0100
,
1000
0001
1000
0001
,
2002
0000
0000
3003
,
0010
1010
0010
0011
,
0100
0100
0010
0010
,
0100
1100
0100
0101
,
0010
0010
0100
0100
,
1000
0001
1000
0001
,
0010
0100
0010
0100
,
2100
0001
0100
3001
,
0012
1003
2002
0000
,
0000
3003
0000
0000
0000
0000
0000
0000
,
0000
0000
0000
0000
,
0000
0000
0000
0000
,
0000
0000
0010
0100
0010
0100
0010
0000
,
1000
0000
0001
1000
0001
0000
1000
0000
,
0100
0000
1000
0000
0010
1000
0010
0000
,
0100
0000
0001
0000
0100
0000
0001
0010
,
0001
0000
1010
0000
0101
0000
1000
0001
,
1000
0000
0010
0010
0010
0000
0100
0000
,
0001
0000
0010
0000
0001
0000
0100
0010
,
0100
0000
0001
0001
0001
0000
1000
0000
,
0010
0000
1001
0000
0110
0000
0000
0001
,
0000
0100
0000
0001
0000
0100
0000
0010
,
0000
1000
0000
0010
0000
1000
0000
0100
,
0010
0100
0000
0010
0001
0010
0000
0100
,
1000
0100
0000
0001
0000
1000
0000
0010
,
0000
0100
0000
0010
0000
0100
0000
0001
,
0000
1000
0000
0001
0000
1000
0000
0001
,
1000
0001
0000
1000
0001
1000
0001
0000
,
1000
0010
2002
0000
,
0000
0000
0000
0000
,
3003
0000
0000
0000
;

//--------------- dance-single - YonabearCWY ----------------
#NOTES:
     dance-single:
     YonabearCWY:
     Medium:
     11:
     :
0000
0000
0000
0000
,
0000
0000
0000
0000
,
0000
0000
0000
0000
,
1000
0000
0001
0000
1000
0000
0010
1000
0000
0000
0100
0000
1000
0000
0010
0000
,
0001
0000
0010
0000
0100
0000
0001
1000
0000
0000
0100
0000
0010
0000
0001
0000
,
1000
0001
0000
0000
0100
0001
0000
0000
0010
0000
0001
0000
0010
0000
0001
0000
,
1000
0010
1000
0010
0100
0100
0010
0010
,
1000
0000
0001
0000
0010
0000
0100
0000
1000
0100
0000
0000
1000
0001
0000
0000
,
0010
0000
0001
0000
0100
0000
0001
0010
0000
0000
0100
0000
2000
0000
0000
0000
,
3010
0000
1000
0000
0001
0000
1000
0200
0000
0000
0010
0000
0010
0000
0310
0000
,
0001
0000
1000
0000
0010
0000
1000
0100
0000
0100
1000
0000
0001
0000
0100
0000
,
0001
0000
0010
0000
0001
0000
0100
0001
0000
0001
0100
0000
0010
0000
1000
0000
,
0001
0000
0000
1000
0010
0000
1000
0000
0001
0000
0100
0000
0010
0000
0100
0000
,
0000
0001
0010
0000
0001
0000
1000
0000
0010
0000
1000
0000
0100
0000
0010
0000
,
0001
0010
0000
0000
0010
0100
0000
0000
1000
0000
0100
0000
1000
0000
0100
0000
,
0010
0000
0100
0000
0010
0000
0000
0001
0100
0000
0100
0000
0010
0000
0010
0000
,
1000
0000
0001
0000
0100
0000
0001
0000
0010
0100
0000
0000
1000
0001
0000
0000
,
0100
0000
0000
0010
1000
0000
0001
0000
1000
0000
0010
0000
1000
0000
0100
0000
,
0000
0010
0001
0000
1000
0000
0001
0000
0100
0000
0001
0000
0010
0000
0000
0001
,
1000
0000
0010
0000
1000
0000
0100
0000
0010
0000
0000
0001
0100
0000
0010
0000
,
1000
0100
1000
0001
1000
0010
1000
0001
,
0000
1100
0000
1000
0000
0101
0000
0001
,
0000
0110
0000
1000
0000
0110
0000
0001
,
0000
1001
0000
0100
0000
1001
0000
0010
,
0000
1100
0000
0010
0000
0101
0000
0100
,
0020
0000
0130
1001
0200
0000
0310
1001
,
0020
0000
0130
0000
1001
2002
0000
3003
,
0010
0000
0100
1000
0001
0000
1000
0010
,
0100
0000
0000
0001
0010
0000
0000
0001
0100
0000
0000
0010
1000
0000
0000
0100
,
1000
0000
0100
0010
0001
0000
1000
0100
,
0010
0000
0000
0001
1000
0000
0000
0100
0010
0000
0000
0001
0100
0000
0000
0010
,
1000
0001
1000
0010
0001
0010
1000
0100
,
1000
0000
0100
0010
0001
0010
1000
0010
,
0001
0001
1000
1000
0010
0010
0100
0100
,
2002
0000
0000
0000
0000
0000
3000
0000
0000
0000
1003
0010
1000
0000
0001
0000
,
0100
0000
0000
0000
0100
0000
0000
0001
1000
0000
0000
0000
0010
0000
1000
0000
,
0100
0010
0001
0000
1000
1000
0101
0000
,
0010
0100
1000
0001
0100
0010
1000
0010
,
0100
0000
0001
0000
1000
0000
0100
0000
0010
0001
0000
2001
0000
0000
0000
0000
,
3010
0010
1000
1000
0001
0100
0001
0100
,
0010
0010
0100
0100
0001
1000
0001
1000
,
0210
0000
0000
0000
0000
0000
0000
0000
1300
0001
1000
0000
0010
0000
1000
0000
,
0001
0000
0010
0000
0100
0000
1000
0002
2000
0000
0000
0000
0000
0000
0000
0000
,
0000
3003
0000
0000
0000
0000
0000
0000
,
0000
0000
0000
0000
,
0000
0000
0000
0000
,
0000
0000
0100
0100
0100
0100
0110
0000
,
0001
0000
1000
0000
0010
1000
0000
1000
0100
0000
1000
0000
0001
0000
0000
0000
,
0010
0000
0001
0000
0100
0000
0001
0000
0010
0000
0001
0000
1000
0010
0000
0010
,
0100
0000
0001
0000
0010
0000
0000
0000
0100
0000
1000
0000
0001
1000
0000
1000
,
0100
0000
0010
0000
0001
0100
0000
0000
0010
1000
0000
0000
0110
0000
0100
0000
,
0001
0000
0010
0001
1000
0000
0010
0100
,
0001
0010
0000
0010
0100
0000
1000
0000
0001
0000
1000
0000
0100
0000
0000
0000
,
0010
0001
0000
0001
1000
0000
0010
0000
1000
0000
0100
0000
1000
0000
0000
0000
,
0010
0100
0000
0100
0001
0000
1000
0001
1000
0000
0001
0000
0010
0000
0100
0000
,
0000
0101
0000
0010
0000
1010
0000
0100
,
0001
0000
1000
0000
0010
0000
1000
0000
0100
0000
0010
0000
0001
0000
0000
1000
,
0010
0000
0000
0100
0001
0000
0000
0010
0100
0000
0000
1000
0001
0000
1000
0000
,
0010
0000
0100
0100
0100
0100
0000
1001
,
0000
0010
0000
0110
0000
1000
0000
1001
,
0000
0001
0100
0001
1000
0010
1000
0100
,
1000
0000
0001
0100
0000
0100
0001
0000
0010
0000
0001
0000
2010
0000
0000
0000
,
3002
0000
0103
0010
2002
0000
0000
0000
,
0000
0000
0000
0000
,
3003
0000
0000
0000
;

//--------------- dance-single - YonabearCWY ----------------
#NOTES:
     dance-single:
     YonabearCWY:
     Hard:
     15:
     :
0000
0000
0000
0000
,
0000
0000
0000
0000
,
0000
0000
0000
0000
,
1000
0001
1000
0000
0010
0000
1000
0100
1000
0000
0001
0000
0100
0001
0100
0000
,
0001
0010
0001
0000
1000
0000
0010
1000
0010
0000
1000
0000
0100
0001
0100
0000
,
1000
0100
1000
0000
0001
0000
0100
0001
0100
0001
0100
0000
0001
0000
0010
0000
,
0001
0000
1000
0000
0010
0000
1000
0001
0100
0000
0110
0000
0010
0000
1010
0000
,
1002
0000
0000
0000
0100
0000
0000
0000
0013
0001
1000
0000
0010
0000
1000
0000
,
0100
1000
0100
0000
1000
0000
0001
0010
0100
0000
0010
0000
0100
0001
0100
0000
,
0010
0001
0010
0000
0001
0000
1000
0010
0100
0000
0001
0000
1000
0001
1000
0000
,
0010
0100
0010
0000
1000
0000
0100
0000
1000
0000
0001
0000
0100
0010
0100
0010
,
0100
0000
0001
0000
0010
0000
0100
0000
1000
0100
1000
0100
1000
0000
0001
1000
,
0010
0000
0100
0000
0001
0100
0001
0000
1000
0000
0010
0000
1000
0100
0000
0100
,
0010
0000
0001
0000
0100
0001
0010
0001
0010
0000
0001
0000
1000
0010
0000
0010
,
0100
0000
0001
1000
0001
1000
0001
0000
0100
0010
0000
0010
0100
0000
0001
1000
,
0000
1000
0001
1000
0010
1000
0100
0000
1100
0000
1100
0000
0011
0000
0011
0000
,
2001
0000
0000
0000
0010
0000
0000
0000
3100
0000
1000
0000
0001
1000
0001
0000
,
0100
0000
0001
0010
0100
0000
1000
0000
0010
1000
0010
0000
1000
0000
0100
1000
,
0001
0000
1000
0000
0010
0000
0100
0000
0001
0000
0010
0001
1000
0000
0100
0000
,
1000
0000
0010
0100
0001
0000
0100
0000
0010
1000
0000
1000
0100
0000
1000
0001
,
0000
0001
0010
0000
0001
0100
0001
0100
0001
0000
1000
0010
1000
0010
1000
0000
,
0100
0010
0100
0010
0001
1000
0001
1000
0010
0000
0011
0000
1000
0000
1010
0000
,
0001
0101
1000
1100
0001
0010
0100
1000
,
0001
0010
0001
0010
0100
0010
0100
1000
0001
0000
1001
0000
0100
0000
0110
0000
,
1000
0000
1001
0000
0010
0000
0110
0000
1000
0001
1000
0000
0001
0010
0001
0000
,
0100
0001
0000
0001
2000
0000
3000
0000
1000
0100
0000
0100
0002
0000
0003
0000
,
0100
1000
0000
1000
0001
0000
0110
0000
1001
0000
2002
0000
0000
0000
3003
0000
,
0001
0100
0001
0100
0001
0100
0010
1000
0010
1000
0010
1000
0100
0010
0100
0010
,
0200
0000
0000
0000
1300
0000
0001
0000
1000
0010
0000
0010
0100
0000
0101
0000
,
1001
0000
0010
0001
0010
0000
0001
1000
0000
1000
0100
0000
0010
0000
0011
0000
,
0001
1000
0100
1000
0100
0000
0010
0001
0010
0001
1000
0000
0110
0000
1001
0000
,
1000
0100
1000
0010
0001
0010
1000
0000
1002
0000
0100
0000
0000
0000
0103
0000
,
0201
0000
0310
1000
0100
0010
0001
1000
0010
1000
0000
1000
0001
0000
0110
0000
,
1000
0010
1000
0010
1000
0010
0100
0010
0100
0010
0100
0010
0001
0010
0100
0010
,
2000
0000
0100
0000
0000
0000
3100
0000
1100
0000
1000
0001
0010
0000
0011
0000
,
1001
0000
0001
0000
0101
0000
0001
0010
0000
0010
0100
0000
1100
0000
1000
0000
,
1001
0000
1000
0010
1000
0100
0000
1001
0000
0001
0020
0000
0100
0000
0100
0000
,
0130
0000
1000
0100
0001
0100
1000
0001
0100
0001
1000
0010
1000
0001
1000
0010
,
0100
0000
0001
0000
0010
0000
0001
0000
1000
0010
0000
0100
0000
0001
0100
0000
,
0010
1000
0100
1000
0100
0010
0001
0010
0001
0010
1000
0010
1000
0010
0001
0010
,
0100
1000
0001
1000
0100
0001
0100
1000
0001
0100
1000
0100
0001
1000
0010
1000
,
0002
0000
0100
0000
0000
0000
0103
0000
0001
0000
1000
0000
0010
0000
1000
0001
,
0010
0000
0001
0000
0100
0000
0010
1000
2002
0000
0000
0000
0000
0000
0000
0000
,
0000
3003
0000
0000
0000
0000
0000
0000
,
0000
0000
0000
0000
,
0000
0000
0000
0000
,
0000
0000
0010
0010
0010
0010
0110
1000
,
0010
1000
0000
1000
0100
0000
0010
0001
0010
0000
0100
0000
0001
0000
0100
0000
,
1000
0010
0000
0010
0100
0000
0001
1000
0001
0000
1000
0000
0010
1000
0010
0000
,
1000
0000
0100
1000
0000
1000
0001
0000
0100
0000
0001
0000
0010
0001
0010
0000
,
0001
0000
0100
0010
0000
0010
1000
0000
0001
1000
0001
0000
1000
0100
1000
0100
,
1000
0000
0001
0010
0001
0000
1000
0000
0010
1000
0010
0000
0100
0001
0100
0001
,
0100
0000
0001
1000
0001
0000
1000
0000
0100
0010
0100
0000
1000
0001
0000
0001
,
0010
0000
0010
0100
0000
0100
1000
0000
1000
0010
1000
0001
1000
0001
0000
0001
,
0010
0000
0010
0100
0000
0100
1000
0100
1000
0000
0001
0100
0001
0000
0010
0000
,
1000
0010
0100
1000
0100
0010
1001
1001
,
0001
0100
0000
0120
0000
0000
1000
0000
1000
0000
1030
0000
0010
0100
0000
0100
,
0001
0000
0001
1000
0000
1000
0100
0000
0100
1000
0001
1000
0010
0000
0100
0000
,
0001
0010
1001
0100
0010
1000
1010
0100
,
1000
0100
0001
0100
0010
0001
0011
0011
,
1100
0000
1100
0000
0001
1000
0001
0000
1000
0000
0010
0000
1000
0100
1000
0100
,
1000
0000
0001
0000
0100
0001
0100
0001
1000
0010
1000
0000
0001
1000
0000
1000
,
0001
0101
0000
1010
2002
0000
0000
0000
,
0000
0000
0000
0000
,
3003
0000
0000
0000
;

//--------------- dance-single - YonabearCWY ----------------
#NOTES:
     dance-single:
     YonabearCWY:
     Challenge:
     18:
     :
0000
0000
0000
0000
,
0000
0000
0000
0000
,
0000
0000
0000
0000
,
1000
0001
0010
0100
0010
0000
0100
0001
0100
1000
0100
0000
0010
0100
1000
0100
,
0001
0000
0100
1000
0001
1000
0010
0000
0100
0001
0010
1000
0010
0000
0100
0001
,
1000
0100
0110
0000
0100
0000
1100
0000
1001
0000
0010
0001
0000
0001
0100
0000
,
0101
0000
0001
0000
1001
0000
0010
0100
1100
0000
1000
0000
1010
0000
1000
0000
,
0001
0000
0000
1000
0000
0000
0100
0000
0000
0010
0000
0000
0100
0000
0000
0010
0000
0000
0001
0000
0000
1000
0000
0000
0010
0000
0000
1000
0000
0000
1100
0000
0000
0000
0000
0000
0010
0000
0000
0001
0000
0000
0100
0000
0001
0000
0010
0000
,
0100
1000
0001
1000
0010
0000
0100
0001
1000
0001
0010
0000
0100
1000
0100
0001
,
0100
0000
0010
0001
0010
0100
0010
0000
0100
1000
0010
0100
0010
0000
1000
0001
,
0100
0000
0000
0001
0000
0000
0010
0000
0000
0000
0000
0000
0001
0000
0000
0000
0000
0000
0100
0000
0000
0010
0000
0000
0000
0000
0000
0010
0000
0000
1000
0000
0000
0000
0000
0000
0010
0000
0000
0000
0100
0000
0000
0000
0001
0000
0000
0000
,
0010
0000
0000
0100
0000
0000
1000
0000
0000
0100
0000
0000
1000
0000
0000
0010
0000
0000
0001
0000
0000
0010
0000
0000
0001
0000
0000
0010
0000
0000
1010
0000
0000
0000
0000
0000
0100
0000
0000
0001
0000
0000
1000
0000
0100
0000
0010
0000
,
0100
0010
0001
0010
1000
0000
0010
0001
0100
0001
1000
0000
0010
1000
0100
1000
,
0001
0000
0010
0001
0100
0010
0100
1000
0100
0000
0001
0000
0100
0000
0010
0000
,
1000
0010
1010
0000
1001
0000
0101
0000
0100
0001
0010
0100
1000
0001
0100
0010
,
1000
0100
0010
0001
0100
0010
0010
0000
1001
0000
1001
0000
0110
0000
0110
0000
,
0001
0000
0000
0010
0000
0000
0100
0000
0000
1000
0000
0000
0001
0000
0000
1000
0000
0000
0100
0000
0000
0001
0000
0000
0100
0000
0000
1000
0000
0000
1100
0000
0000
0000
0000
0000
1000
0000
0000
0001
0000
0000
0100
0000
0001
0000
1000
0000
,
0010
1000
0100
1000
0001
0010
0100
0000
1000
0100
0001
0100
1000
0001
0010
0000
,
0001
0000
0100
0001
0010
0001
1000
0010
1000
0000
0001
0010
0100
0010
0100
1000
,
1001
0000
0001
0000
0011
0000
0001
0000
0001
1000
0100
1000
0010
1000
0100
0000
,
1000
0001
0010
0001
0100
0001
0010
0000
0100
0010
1000
0010
0001
0010
1000
0001
,
0100
1000
0100
0001
0100
1000
0100
0001
0100
0000
1100
0000
0100
0000
0101
0000
,
0100
0110
0010
1010
0010
0011
0010
0110
,
0010
0001
0010
1000
0010
0001
0010
1000
0010
0000
0011
0000
0010
0000
1010
0000
,
0010
0110
0100
1100
0100
0101
0100
0110
,
1000
1000
0000
0001
0001
0000
0110
0000
0100
0100
0000
0010
0010
0000
1001
0000
,
0010
0010
0100
1000
1000
0001
0100
0001
1001
0000
1001
0000
0110
0000
0110
0000
,
1000
0010
1000
0010
0001
0010
0100
0010
0100
1000
0100
1000
0100
0001
0100
0001
,
0020
0000
0000
0000
0000
0000
0000
0000
0000
0000
0000
0000
0031
0000
0000
0000
0000
0000
1000
0000
0000
0000
0000
0000
0100
0000
1000
0000
0001
0000
1000
0000
0000
0100
0000
0000
0010
0000
0000
0002
0000
0000
0100
0000
0000
0000
0000
0000
,
0103
0001
0010
0000
0001
0000
1000
0010
0100
0000
0010
0000
1000
0001
0100
0000
,
0001
0000
0010
0000
0100
0000
0010
0000
0000
0100
0000
0000
1000
0000
0000
0001
0000
0000
1000
0000
0000
0000
0000
0000
0010
0000
0000
0100
0000
0000
0001
0000
0000
0100
0000
0000
0010
0000
0000
0000
0000
0000
1001
0000
0000
0000
0000
0000
,
1000
0000
0100
0000
0010
0000
0100
0000
0000
1000
0000
0000
0001
0000
0000
0100
0000
0000
0001
0000
0000
0010
0000
0000
0100
0000
0000
0000
0000
0000
0010
0000
0000
0000
0000
0000
0001
0000
0000
1000
0000
0000
0001
0000
0000
0000
0000
0000
,
1000
0000
0010
0000
1000
0000
0100
0000
0000
1000
0000
0000
0001
0000
0000
1000
0000
0000
0010
0000
0000
0100
0000
0000
0001
0000
0000
0100
0000
0000
0000
0000
0000
0100
0000
0000
0010
0000
0000
0000
0000
0000
1001
0000
0000
0000
0000
0000
,
0001
0010
0000
0001
0100
0000
0010
1000
0000
0100
1000
0100
1000
0100
0010
0100
0010
0001
0010
0001
1000
0001
1000
0001
,
0200
0000
0010
0000
0000
0000
1000
0000
0000
0000
0301
1000
0100
0000
1001
0000
,
1100
0000
1000
0000
1001
0000
0100
0001
0000
0001
0010
0000
0110
0000
1100
0000
,
1001
0000
0001
0010
0100
0010
0000
0110
0000
1000
0001
0000
0100
0001
0100
0000
,
0001
0010
0100
1000
0001
1000
0010
1000
0100
1000
0001
1000
0010
1000
0100
1000
,
0000
0001
0010
0001
0100
0000
1001
0000
0100
0010
0000
0110
0000
0001
1000
0100
,
0001
0100
1000
0001
0100
1000
0100
0001
1000
0010
0001
0010
1000
0001
0010
1000
,
0010
0001
1000
0100
0001
1000
0010
0001
1000
0100
0001
0100
0010
0001
0010
1000
,
0020
0000
0001
0000
0000
0000
0130
0000
1100
0000
1000
0000
0101
0000
0001
0010
,
0000
0010
0100
0000
1000
0000
0001
1000
2002
0000
0000
0000
0000
0000
0000
0000
,
3003
0000
0000
0000
0000
0000
0000
0000
0000
0000
0000
0000
0000
0000
0000
1000
0000
0001
0000
0000
0010
0000
0001
0000
0000
0000
0010
0000
0000
0000
0000
0000
0000
0010
0000
0000
0000
0001
0000
0000
0000
1000
0000
0000
0000
0000
0000
0000
,
0100
0000
1000
0000
0100
0000
1000
0000
0000
0000
0000
0000
0000
0000
0000
0010
0000
0000
0000
0000
0000
0000
0000
0000
0000
0100
0000
0000
0000
0000
0000
0000
0000
0000
0000
0001
0000
0000
0000
0000
0000
0000
1000
0000
0000
0100
0000
0000
,
0010
0001
0010
0100
1000
0000
1001
1001
2002
0000
0000
0000
0000
0000
0000
0000
,
3003
0000
0000
0000
0000
0000
0000
0000
0000
0000
0000
0000
0110
0000
0000
0000
0000
0000
1100
0000
0000
0000
0000
0000
0101
0000
0000
0000
0000
0000
0100
0000
0001
0000
1000
0000
0010
0000
0000
1000
0000
0000
0100
0000
0000
1000
0000
0000
,
0001
1000
0001
0010
0001
0100
0010
0100
0001
1000
0100
0010
0100
0000
1000
0001
,
0010
0001
0100
0010
0100
0000
0001
0010
0100
1000
0100
0010
0100
0000
1000
0010
,
0001
0010
1000
0010
1000
0100
1000
0100
0010
0001
0100
0001
0100
0010
1000
0001
,
0010
0000
0000
0000
0000
0000
0001
0000
0000
0010
0000
0000
1000
0000
0000
0010
0000
0000
0011
0000
0000
0000
0000
0000
0001
0000
0000
1000
0000
0000
0100
0000
1000
0000
0100
0000
0010
0000
0000
0001
0000
0000
0010
0000
0000
0100
0000
0000
,
0010
0001
1000
0001
1000
0100
0010
0100
1000
0100
1000
0001
1000
0001
0100
0001
,
0010
0000
0001
1000
0010
0001
0010
0100
0010
0000
0100
0010
0001
0010
0100
0010
,
1000
0000
0010
0001
0010
0100
0010
0000
0001
0010
1000
0010
0001
0000
1000
0100
,
0001
0100
1000
0000
0100
0001
0011
0000
0010
0100
1000
0001
1001
0000
1000
0000
,
1100
0000
1000
0000
1010
0000
1000
0001
0011
0000
0001
0000
0101
0000
0101
0000
,
0001
1000
0000
1000
0010
0000
0110
0000
0100
0001
0010
1000
0010
0000
0110
0000
,
0100
0000
0001
0000
0100
0000
0010
0000
0000
0100
0000
0000
0001
0000
0000
0100
0000
0000
0010
0000
0000
0000
0000
0000
0100
0000
0010
0000
1000
0000
0010
0000
0000
1000
0000
0000
0100
0000
0000
0010
0000
0000
0001
0000
0000
0100
0000
0000
,
1000
0000
0100
0001
0011
0000
0011
0000
1100
0000
1100
0000
1001
0000
0001
0000
,
0011
0000
0001
0000
0101
0000
0001
1000
1010
0000
0010
0000
0110
0000
0110
0000
,
1001
0000
0000
0000
0000
0000
1001
0000
0000
0000
0000
0000
0100
0000
0000
0010
0000
0000
0001
0000
0000
1000
0000
0000
0001
0000
0000
1000
0000
0000
0100
0000
0010
0000
0001
0000
0010
0000
0000
0100
0000
0000
1000
0000
0000
0100
0000
0000
,
0001
0000
0000
0100
0000
0000
1000
0000
0010
0000
1000
0000
0100
0000
0000
1000
0000
0000
0001
0000
0000
0100
0000
0000
0001
0000
0000
0000
0000
0000
1001
0000
0000
0000
0000
0000
0010
0000
0000
0010
0000
0000
0000
0000
0000
0100
0000
0000
,
0100
0000
1001
0100
0010
0100
0100
0000
2002
0000
0000
0000
0000
0000
0000
0000
,
0000
0000
0000
0000
,
3003
0000
0000
0000
;

//--------------- dance-double - Fred-104 ----------------
#NOTES:
     dance-double:
     Fred-104:
     Easy:
     8:
     :
00000000
00000000
00000000
00000000
,
00000000
00000000
00000000
00000000
,
00000000
00000000
00000000
00000000
,
00010000
00000000
00001000
00000000
01000000
00010000
00100000
00000000
,
00001000
00000000
00010000
00000000
00001000
00010000
00001000
00000000
,
00011000
00000110
00000001
00000010
,
00000100
00001000
00000100
00000000
00010000
00000000
00010000
00001000
,
00010000
00001000
00011000
01100000
,
10000000
00000000
01000000
00000000
00010000
00001000
00010000
00000000
,
00001000
00000000
00010000
00000000
00100000
01000000
00100000
00000000
,
10000000
01000000
00010000
00001000
,
00010000
00001000
00101000
00010010
,
00010000
00001000
00010000
00000000
00001000
00000000
00000100
00000000
,
00000001
00000010
00000001
00000000
00000100
00000000
00001000
00000000
,
00011000
01001000
02000000
00010000
,
03010000
10000000
01000000
00000000
00100000
00001000
00010000
00000000
,
00001000
00000100
00000010
00000000
00001010
00000000
00001001
00000000
,
00000110
00000000
00000001
00000100
00001000
00000000
00010000
00000000
,
00001000
00000000
00100000
00000000
00010000
10000000
00100000
00000000
,
01000000
00000000
00100000
10000000
01000000
00000000
00100000
00000000
,
00001000
00010000
00001000
00000000
00010000
00000100
00010000
00000000
,
00001000
00010000
00001000
00000000
00010000
00000010
00010000
00000000
,
00001000
00000010
00000100
00001000
,
00000001
00000100
00000001
00000000
00000100
00001000
00010000
00000000
,
00001000
00010000
00000100
00000010
,
00000220
00000330
00022000
00033000
,
02200000
00000000
03300000
00000000
00010000
20020000
00000000
30030000
,
10000000
00100000
10000000
00100000
,
00010000
00001000
00010000
00001000
,
00000010
00000001
00000010
00000001
,
00000100
00000000
00001000
00000000
00010000
00001000
00010000
00000000
,
00011000
00000000
00001000
00000000
00010000
00100000
10000000
00000000
,
10010000
00000000
10000000
00000000
01000000
00100000
00001000
00000000
,
00010000
00001000
00000100
00000001
,
00000022
00000000
00000000
00000033
,
00000001
00000100
00000001
00000000
00001000
00000100
00001000
00000000
,
00000010
00010000
00001000
00010000
,
00100000
01000000
00100000
00000000
10000000
01000000
10000000
00000000
,
01000000
00010000
00001000
00010000
,
00001000
00000100
00001000
00010000
,
00001000
00000000
01000000
00010000
01000000
00000000
00001000
00000000
,
00011000
00000000
00010000
00001000
00000010
00000000
00000001
00000010
,
00000100
00010000
00022000
00000000
,
00000000
00033000
00000000
00000000
00000000
00000000
00000000
00000000
,
00000000
00000000
00000000
00000000
,
00000000
00000000
00000000
00000000
,
00000000
00000000
10000000
00010000
10000000
00010000
10000000
00000000
,
01000000
00000000
00100000
00001000
00200000
00000000
00302000
00000000
,
00013000
00000000
00001000
00000000
00010000
00000010
00001000
00000010
,
00001000
00000000
00000100
00000000
00000010
00000000
00000001
00001000
,
00000001
00000000
00000110
00000000
00001001
00000000
00000001
00000100
,
00001000
00000000
00010000
00001000
00010000
00000000
00100000
01000000
,
00010000
00000000
10000000
00000000
01000000
00000000
00010000
00001000
,
00010000
00000000
00001000
01000000
00001000
00000000
00010000
00000000
,
00001000
00000000
01001000
00000000
00011000
00000000
00000000
00001000
,
00000000
00001000
00010000
00000000
00001000
00000000
01000000
00010000
,
01000000
00000000
00010000
10000000
01000000
00000000
00100000
00001000
,
00010000
00000000
00001000
00000100
00000001
00000000
00001000
00000100
,
00000010
00000011
00001001
00000001
,
00000100
00000010
00000200
00000000
00001300
00000000
00010000
00000000
,
00001000
00100000
00010000
00000000
10000000
00010000
01000000
00000000
,
00100000
00000000
00100000
00000000
00100000
00000000
00000000
00000000
01000000
00000000
00000000
00000000
00010000
00000000
00000000
00010000
,
00000000
00010000
00000000
10000000
20020000
00000000
00000000
00000000
,
00000000
00000000
00000000
00000000
,
30030000
00000000
00000000
00000000
;

//--------------- dance-double - Fred-104 ----------------
#NOTES:
     dance-double:
     Fred-104:
     Medium:
     12:
     :
00000000
00000000
00000000
00000000
,
00000000
00000000
00000000
00000000
,
00000000
00000000
00000000
00000000
,
00000001
00000000
00000010
00000000
00000100
00000000
00010000
00001000
00000000
00000000
00100000
00000000
00010000
00000000
10000000
00100000
,
01000000
00000000
00100000
00000000
10000000
00000000
01000000
00100000
00000000
00000000
00001000
00000000
00010000
00000000
00010000
00000000
,
00000010
00001000
00000010
00000000
00001000
00000001
00001000
00000000
00000001
00000000
00000010
00000000
00000100
00000000
00000010
00000000
,
00001000
00010000
01000000
00100000
10000000
00100000
00010000
01000000
,
00100000
00000000
00010000
00000000
00001000
00000000
00010000
00000000
00000010
00001000
00000010
00000000
00010000
00001000
00010000
00000000
,
00001000
00000000
00010000
00001000
00010000
00000000
00000010
00001000
00000000
00000000
00000200
00000000
00000310
00000000
00000002
00000000
,
00001003
00000000
00000010
00000100
00000000
00001000
00010000
00000000
00002000
00000000
00023000
00000000
02030000
00000000
03020000
00000000
,
00031000
00000000
00010000
00000000
00100000
00000000
01000000
00010000
00000000
10000000
01000000
00000000
00100000
00000000
00100000
00000000
,
00001000
00000000
00010000
00001000
00000000
00000100
00000000
00000001
00001000
00000000
00000100
00000000
00000010
00000001
00000010
00000000
,
00000001
00000000
00000000
00000100
00000010
00000000
00001000
00000000
00000010
00010000
00000000
00000000
00001000
00000000
00100000
00010000
,
00100000
00000000
00000000
00010000
00000000
00000000
10000000
00000000
00100000
00000000
00010000
00000000
00001000
00000000
01000000
00000000
,
00001000
00010000
00001000
00010000
00001000
00000000
00001000
00000000
00010000
00000000
00001000
00000000
00000010
00000000
00000001
00000000
,
00001000
00000010
00000100
00001000
00010000
01000000
10000000
20020000
,
00000000
00000000
00000000
00000000
00000000
00000000
30000000
00000000
10030000
01000000
10000000
00000000
00010000
01000000
00001000
00000000
,
00010000
00000000
00001000
00000000
00000100
00000000
00001000
00000000
00010000
00000000
00001000
00010000
00001000
00000000
00010000
00000000
,
00000010
00000000
00001000
00000000
00000100
00000000
00000010
00000000
00000001
00000000
00000100
00000000
00001000
00000000
00000000
00010000
,
00001000
00000000
00000000
00100000
00001000
00000000
01000000
00000000
00001000
00000000
00000000
00010000
00000000
00000000
00001000
00000000
,
00010000
00000000
00100000
00000000
10000000
00000000
00010000
00000000
10000000
01000000
10000000
01000000
00100000
00000000
00001000
00000000
,
00010000
00001000
00000100
00000010
00000100
00001000
00010000
00001000
,
01000000
00000000
00010000
10000000
01000000
00010000
00001000
00010000
,
00000010
00000100
00000001
00000010
00000100
00010000
01000000
10000000
,
00010000
00000000
01000000
00100000
00010000
00100000
01000000
00010000
,
10000000
01000000
00000000
10000000
02000000
00000000
03000000
00000000
00010000
00001000
00000000
00010000
00002000
00000000
00003000
00000000
,
00000100
00000001
00000000
00001000
00000200
00000000
00000300
00000000
00011000
00000000
00022000
00000000
00000000
00000000
00033000
00000000
,
00001000
00010000
00001000
00010000
00100000
10000000
00010000
00100000
,
01000000
00000000
00010000
00001000
00000100
00001000
00010000
00001000
,
01000000
00010000
00100000
10000000
00100000
00010000
01000000
00001000
,
00000100
00000010
00001000
00000002
00000000
00000013
00000100
00010000
,
00001000
00010000
00001000
00000000
00100000
00010000
00100000
00000000
00002000
00000000
00000000
00000000
00010000
00000000
00000000
00000000
,
00013000
00001000
00000010
00000001
00000010
00001000
00010000
00001000
,
01000000
01000000
00010000
00010000
10000000
10000000
00010000
00010000
,
20020000
00000000
00000000
00000000
00000000
00000000
00000000
00000000
30000000
00000000
10030000
00010000
10000000
00000000
00100000
00000000
,
00010000
00000000
00001000
00000000
00010000
00000000
00000000
00010000
00000000
00000000
00001000
00000000
00000010
00000000
00000000
00000000
,
00000100
00001000
00000001
00000000
00000100
00001000
00010000
00011000
,
00000000
00001000
00010000
00100000
00010000
00001000
00010000
02000000
,
00000000
00000000
13000000
00000000
01000000
00000000
00100000
00000000
00001000
00010000
00000000
00022000
00000000
00000000
00033000
00000000
,
00010000
00001000
00000100
00000001
00000010
00000010
00000100
00000100
,
00001000
00000010
00010000
00100000
01000000
01000000
00010000
00010000
,
20010000
00000000
00000000
00000000
00000000
00000000
30010000
10000000
00010000
00000000
00100000
00000000
00010000
00000000
10000000
00000000
,
00100000
00000000
01000000
00000000
00010000
00000000
10000000
00020000
20000000
00000000
00000000
00000000
00000000
00000000
00000000
00000000
,
00000000
30030000
00000000
00000000
00000000
00000000
00000000
00000000
,
00000000
00000000
00000000
00000000
,
00000000
00000000
00000000
00000000
,
00000000
00000000
00000010
00000010
00000010
00000010
00000110
00000000
,
00001000
00000000
00000100
00000000
00000010
00000000
00000001
00001000
00000001
00000000
00000100
00000000
00001000
00000000
00000000
00000000
,
00010000
00000000
00001000
00000000
01000000
00000000
00010000
00000000
10000000
01000000
10000000
00000000
00010000
00000000
00100000
00000000
,
00010000
00001000
00000100
00000010
00000001
00001000
00000001
00000100
,
00000010
00000000
00001000
00000000
00000100
00010000
00000100
00000000
00010000
00001000
00010000
00000000
00011000
00000000
00001000
00000000
,
01000000
00000000
00000000
00010000
00000000
00000000
00010000
00000000
00200000
00000000
00000000
00000000
01300000
00000000
10000000
00000000
,
00010000
00000000
00000000
00010000
01000000
00000000
00001000
00000000
00010000
00000000
00001000
00000000
00000010
00000000
00000000
00000000
,
00000001
00001000
00000010
00000100
00001000
00010000
00001000
00000000
,
00010000
00000000
00001000
00000000
01000000
00000000
00010000
10000000
00010000
00000000
10000000
01000000
00100000
00000000
00002000
00000000
,
00013000
00000000
00002000
00000000
02003000
00000000
03020000
00000000
00130000
00010000
00000000
00000000
00100000
00000000
01000000
00000000
,
10000000
00000000
00010000
00000000
01000000
00000000
00001000
00000000
00010000
00000000
00000100
00000000
00010000
00000000
00000000
00010000
,
00001000
00000000
00000000
00001000
00000100
00000000
00000000
00000100
00000001
00000000
00000000
00000001
00001000
00000000
00000000
00000000
,
00000100
00000000
00010000
00010000
00001000
00001000
00010000
00100000
,
01000000
00010000
01000000
00000000
10010000
00000000
11000000
00000000
,
01000000
00000000
00100000
00000000
00001000
00000000
00010000
00001000
00010000
00000000
00000010
00000000
00002000
00000000
00000000
00000000
,
00003100
00000000
00000010
00000001
00000000
00000001
00000010
00000000
00000100
00000000
00010000
00000000
00012000
00000000
00000000
00000000
,
01003000
00001000
00000000
00001000
00022000
00000000
00000000
00000000
,
00000000
00000000
00000000
00000000
,
00033000
00000000
00000000
00000000
;

//--------------- dance-double - Fred-104 ----------------
#NOTES:
     dance-double:
     Fred-104:
     Hard:
     15:
     :
00000000
00000000
00000000
00000000
,
00000000
00000000
00000000
00000000
,
00000000
00000000
00000000
00000000
,
00001000
00000000
00010000
00000100
00001000
00000000
00000001
00000000
00001000
00000100
00000000
00000010
00000001
00000000
00001000
00000010
,
00010000
00000000
00001000
00010000
00100000
00000000
01000000
00010000
10000000
00000000
01000000
00100000
01000000
00100000
00010000
00000000
,
00100000
00001000
00100000
00001000
00010000
00000000
00010000
00000000
00000010
00000000
00001000
00000100
00000010
00000000
00000001
00000000
,
00001000
00000000
00000010
00000000
00000100
00000000
00001000
00010000
00001000
00000000
00101000
00000000
00100000
00000000
00020000
00000000
,
10000000
00000000
00000000
00000000
01000000
00000000
00000000
00000000
10030000
01000000
00100000
00000000
00001000
00000000
00001000
00000000
,
00010000
00000000
00000010
00001000
00000100
00000000
00000010
00000100
00001000
00000000
00000010
00000000
00000100
00000000
00001000
00010000
,
00001000
00000000
00010000
00100000
00000000
01000000
00010000
00000000
00100000
00000000
01000000
00010000
00001000
00000000
00010000
00000000
,
00001000
00000000
00000100
00000010
00001000
00000000
00000100
00000010
00000000
00001000
00010000
00000000
00100000
01000000
00000000
00010000
,
00100000
00000000
01000000
00100000
00010000
00100000
00001000
00000000
00010000
00000010
00001000
00000010
00010000
00001000
00010000
00000000
,
00001000
00000000
00000100
00000000
00000010
00001000
00000001
00000000
00001000
00000100
00000000
00000010
00001000
00000000
00010000
00001000
,
00100000
00000000
00010000
10000000
00010000
01000000
00010000
00000000
20000000
00000000
32000000
00000000
03200000
00000000
00302000
00000000
,
00013000
00001000
00010000
00000010
00010000
00001000
00010000
00000000
00001000
00010000
00000100
00000000
00001000
00000100
00000000
00000010
,
00000001
00000000
00001000
00000010
00001000
00000001
00000010
00000000
00000200
00000000
00020300
00000000
02030000
00000000
03200000
00000000
,
00010000
00000000
00000000
00000000
10000000
00000000
00000000
00000000
00310000
10000000
00100000
00000000
01000000
00000000
01000000
00000000
,
00010000
00000000
10000000
01000000
00100000
00000000
00001000
00010000
00001000
00000000
00010000
00000010
00001000
00000000
00000001
00000010
,
00000100
00000000
00001000
00000000
00000010
00000000
00010000
00001000
00010000
00000000
00100000
00000000
01000000
00000000
00010000
00000000
,
10000000
00000000
01000000
00100000
00010000
00000000
00100000
00000000
00001000
00000000
00010000
00001000
00000000
00000100
00000001
00000000
,
00001000
00000100
00000010
00000000
00000001
00001000
00000010
00000000
00010000
00001000
00010000
00001000
00010000
00000000
00010000
00000000
,
00001000
00010000
00100000
01000000
00100000
01000000
00010000
01000000
00010000
00000000
00001000
00000000
00010000
00000000
01000000
00000000
,
00001000
00000100
00000010
00010000
00001000
00010000
00001000
00100000
,
00001000
00010000
01000000
00100000
01000000
00100000
00010000
00100000
00010000
00000000
00001000
00000000
00010000
00000000
00100000
00000000
,
00001000
00000000
00000010
00000000
00000100
00000000
00010000
00000000
00001000
00010000
00001000
00000000
01000000
00010000
01000000
00000000
,
00001000
00010000
00000000
00100000
10000000
00000000
20000000
30000000
10000000
01000000
00000000
00100000
00001000
00000000
00002000
00003000
,
00010000
00001000
00000000
00000100
00000001
00000000
00000010
00000000
00000100
00000000
00002002
00000000
00000000
00000000
00003003
00000000
,
00000001
00000010
00000001
00000010
00000100
00001000
00000100
00010000
00001000
01000000
00010000
01000000
00100000
10000000
00010000
00100000
,
02000000
00000000
00000000
00000000
13000000
00000000
00100000
00000000
00010000
00001000
00000000
00001000
00010000
00000000
00011000
00000000
,
00010010
00000000
00000010
00001000
00000001
00000000
00001000
00000100
00000000
00000010
00001000
00000000
00010000
00000000
00011000
00000000
,
00001000
00100000
00010000
00100000
01000000
00000000
10000000
00010000
01000000
00010000
10000000
00000000
11000000
00000000
00110000
00000000
,
10000000
00100000
01000000
00100000
00010000
00001000
00010000
00000000
00021000
00000000
00001000
00000000
00000000
00000000
00031000
00000000
,
00201000
00000000
00301000
00010000
00000010
00001000
00000010
00000100
00000001
00001000
00000000
00000100
00000010
00000000
00001001
00000000
,
00000001
00000100
00000001
00000100
00001000
00010000
00001000
00010000
01000000
10000000
01000000
10000000
00010000
01000000
00100000
10000000
,
00020000
00000000
00100000
00000000
00000000
00000000
00130000
00000000
00001000
00000000
00010000
00001000
00010000
00000000
00011000
00000000
,
00010100
00000000
00010000
00000000
00011000
00000000
00010000
00001000
00000000
01000000
00010000
00000000
01010000
00000000
10010000
00000000
,
11000000
00000000
10000000
01000000
00100000
00001000
00000000
00011000
00000000
00010000
00000020
00000000
00001000
00000000
00000100
00000000
,
00001030
00000000
00000001
00000100
00000010
00000100
00001000
00010000
00001000
00010000
00100000
01000000
00100000
10000000
00010000
20000000
,
00000000
00000000
31000000
00100000
00020000
00000000
20030000
00000000
30010000
01000000
00000000
00001000
00000000
00001000
00010000
00000000
,
00001000
00010000
00001000
00010000
00000010
00001000
00000001
00000000
00000010
00000100
00001000
00000100
00010000
00001000
01000000
00000000
,
00010000
10000000
01000000
00100000
00010000
01000000
00100000
00000000
10000000
00010000
00100000
01000000
00100000
00001000
00010000
00000000
,
00002000
00000000
00000000
00000000
00000000
00000000
00013000
00001000
00010000
00000000
00000010
00000000
00001000
00000000
00000001
00000010
,
00000100
00000000
00010000
00000000
00001000
00000000
00010000
00001000
00022000
00000000
00000000
00000000
00000000
00000000
00000000
00000000
,
00000000
00033000
00000000
00000000
00000000
00000000
00000000
00000000
,
00000000
00000000
00000000
00000000
,
00000000
00000000
00000000
00000000
,
00000000
00000000
00000000
00000000
10000000
00000000
10000000
00000000
10000000
00000000
10000000
00000000
10010000
00000000
00010000
10000000
,
01000000
00000000
00100000
00010000
00100000
00000000
00001000
00010000
00000010
00000000
00001000
00000001
00000010
00000000
00000100
00000000
,
00010000
00000000
00001000
00000000
00000100
00000000
00001000
00000000
00010000
00001000
01000000
00000000
00010000
10000000
01000000
00000000
,
00100000
00000000
00001000
00010000
00000000
00000010
00001000
00000000
00000010
00010000
00001000
00000000
00000000
00001000
00010000
00000000
,
00001000
01000000
00010000
00000000
10000000
01000000
00010000
00000000
10000000
00100000
00010000
00000000
10000000
01000000
10000000
01000000
,
00100000
00000000
00001000
00010000
00000000
00000010
00001000
00000000
00000001
00001000
00000100
00000000
00000010
00000001
00000010
00000001
,
00001000
00000000
00000010
00000100
00001000
00000000
00010000
00000000
00100000
01000000
00100000
00000000
10000000
00000000
01000000
00100000
,
00010000
00000000
00100000
00001000
00010000
00000000
00000010
00001000
00000010
00010000
00001000
00000000
00010000
00001000
00010000
00001000
,
00000100
00000000
00000001
00001000
00000100
00000010
00000001
00000000
00001000
00000000
00000010
00010000
00001000
00000000
00010000
00000000
,
00100000
01000000
10000000
01000000
00010000
10000000
11000000
01100000
,
00100000
00001000
00000000
00021000
00000000
00000000
00001000
00000000
00001000
00000000
00031000
00000000
00010000
00000000
00001000
00000100
,
00000000
00000010
00000001
00000000
00000020
00000000
00002030
00000000
00023000
00000000
02030000
00000000
03100000
00000000
10000000
00000000
,
01000000
00100000
00101000
00001000
00010000
00001000
00011000
00010000
,
00001000
00000100
00000001
00000010
00000100
00001000
00001100
00000100
,
00010100
00000000
00010000
00000000
00001000
00000000
01000000
00010000
01000000
00000000
00100000
00000000
10000000
00000000
01000000
00100000
,
00010000
00000000
00100000
00001000
00010000
00001000
00010000
00000000
00001000
00000100
00000010
00000000
00001000
00000100
00000000
00000010
,
00000001
00000101
00000000
00001100
00000220
00000000
00000000
00000000
,
00000000
00000000
00000000
00000000
,
00000330
00000000
00000000
00000000
;

//--------------- dance-double - Fred-104 ----------------
#NOTES:
     dance-double:
     Fred-104:
     Challenge:
     18:
     :
00000000
00000000
00000000
00000000
,
00000000
00000000
00000000
00000000
,
00000000
00000000
00000000
00000000
,
00010000
00000000
00001000
00010000
00100000
00000000
01000000
00010000
10000000
01000000
10000000
00100000
01000000
00000000
00100000
00010000
,
00001000
00000000
00010000
00001000
00000100
00000000
00000010
00001000
00000001
00000010
00000100
00001000
00000001
00000100
00001000
00000000
,
00010000
00001000
00011000
00000000
00010100
00000000
00011000
00000000
00101000
00000000
00001000
00010000
00000000
00100000
10000000
00000000
,
00020000
00000000
00230000
00000000
20300000
00000000
30100000
00010000
02000000
00000000
03200000
00000000
00320000
00000000
00032000
00000000
,
00013000
00001000
00010000
00001000
00000010
00000100
00000010
00000001
00001000
00000010
00000110
00000000
00000001
00000010
00000100
00010000
,
00001000
00010000
00100000
00010000
00001000
00000000
00010000
00001000
00000010
00001000
00010000
00000000
00001000
00010000
01000000
00010000
,
00001000
00000000
00010000
00001000
00000100
00001000
00010000
00000000
00001000
00010000
00100000
10000000
00010000
00000000
00100000
01000000
,
10000000
00000000
00010000
00000000
01000000
00000000
00000000
00000000
00100000
00000000
00000000
00000000
10000000
00000000
01000000
00000000
00000000
00000000
01000000
00000000
00100000
00000000
00000000
00000000
00001000
00000000
00000000
00010000
00000000
00000000
00001000
00000000
,
00010000
00001000
00010000
00001000
00010000
01000000
00010000
01000000
10000000
01000000
01100000
00000000
10000000
00100000
00010000
00001000
,
00010000
00000100
00001000
00000100
00000010
00000000
00000001
00001000
00000010
00000100
00001000
00000000
00010000
00100000
01000000
00010000
,
00100000
00000000
01000000
10000000
00010000
01000000
00100000
10000000
00020000
00000000
00230000
00000000
02300000
00000000
03020000
00000000
,
00031000
00010000
00011000
00000000
00010010
00000000
00001010
00000000
00001000
00000001
00000010
00000100
00001000
00000100
00010000
00001000
,
01000000
00010000
10000000
01000000
00100000
00100000
00100000
00000000
00002000
00000000
00023000
00000000
00032000
00000000
00003200
00000000
,
00000301
00001000
00000100
00000010
00000001
00001000
00000010
00010000
00001000
00100000
00110000
00000000
00010000
00100000
01000000
10000000
,
00010000
01000000
00100000
00010000
00001000
00000100
00000001
00000000
00001000
00000100
00000010
00001000
00000010
00000001
00001000
00000000
,
00000001
00000100
00000010
00001000
00000100
00000010
00001000
00000000
00010000
00000000
00001000
00010000
01000000
00100000
00010000
10000000
,
11000000
00000000
10000000
00000000
01010000
00000000
00010000
00000000
10000000
01000000
00100000
01000000
00010000
00001000
00000100
00000000
,
00000001
00001000
00000010
00000100
00001000
00010000
00001000
00010000
01000000
00100000
00010000
10000000
00100000
00010000
00001000
00010000
,
00001000
00010000
00100000
00010000
00001000
00010000
01000000
00010000
00001000
00000000
00011000
00000000
00010000
00000000
00010010
00000000
,
00000010
00001010
00001000
00001100
00000100
00000101
00000100
00001100
,
00001000
00000001
00000100
00001000
00010000
00001000
00010000
01000000
10000000
00000000
10100000
00000000
00100000
00000000
00110000
00000000
,
00010000
00000000
00011000
00000000
00001000
00000000
00011000
00000000
00010000
00001000
00000100
00000000
00000001
00001000
00000001
00000000
,
00000010
00000010
00000000
00000100
00000100
00000000
00011000
00000000
01000000
01000000
00000000
00100000
00100000
00000000
10010000
00000000
,
10000000
01000000
00010000
10000000
00100000
00010000
10000000
01000000
01100000
00000000
00110000
00000000
00101000
00000000
00011000
00000000
,
00001000
00010000
00100000
01000000
10000000
01000000
00010000
10000000
01000000
00010000
00001000
00010000
00000100
00000010
00000001
00001000
,
00000020
00000000
00000000
00000000
00000000
00000000
00000000
00000000
00000000
00000000
00000000
00000000
00020030
00000000
00000000
00000000
00000000
00000000
00032000
00000000
00000000
00000000
00000000
00000000
00013000
00000000
00001000
00000000
00010000
00000000
00001000
00000000
00000000
00000100
00000000
00000000
00000001
00000000
00000000
00002000
00000000
00000000
00000100
00000000
00000000
00000000
00000000
00000000
,
00003100
00001000
00000001
00000000
00000100
00000000
00001000
00010000
00100000
00000000
10000000
00000000
01000000
00100000
00001000
00000000
,
00010000
00000000
00001000
00000000
00010000
00000000
00001000
00000000
00000000
00100000
00000000
00000000
00001000
00000000
00000000
00010000
00000000
00000000
00000010
00000000
00000000
00000000
00000000
00000000
00001000
00000000
00000000
00000100
00000000
00000000
00000010
00000000
00000000
00000001
00000000
00000000
00000100
00000000
00000000
00000000
00000000
00000000
00000110
00000000
00000000
00000000
00000000
00000000
,
00001000
00000000
00000001
00000000
00000010
00000000
00000100
00000000
00000000
00001000
00000000
00000000
00000100
00000000
00000000
00010000
00000000
00000000
00001000
00000000
00000000
01000000
00000000
00000000
00020000
00000000
00000000
00000000
00000000
00000000
00100000
00000000
00000000
00000000
00000000
00000000
10000000
00000000
00000000
00000000
00000000
00000000
01030000
00000000
00000000
00000000
00000000
00000000
,
00010000
00000000
10000000
00000000
01000000
00000000
10000000
00000000
00000000
00010000
00000000
00000000
01000000
00000000
00000000
00100000
00000000
00000000
00010000
00000000
00000000
00001000
00000000
00000000
00010000
00000000
00000000
00001000
00000000
00000000
00000000
00000000
00000000
00001000
00000000
00000000
00000100
00000000
00000000
00000000
00000000
00000000
00000101
00000000
00000000
00000000
00000000
00000000
,
00000001
00000000
00000000
00000010
00000000
00000000
00000100
00000000
00000000
00001000
00000000
00000000
00000100
00000000
00000000
00010000
00000000
00000000
00001000
00000000
00100000
00000000
00001000
00000000
00100000
00000000
00010000
00000000
10000000
00000000
00010000
00000000
01000000
00000000
00010000
00000000
01000000
00000000
00010000
00000000
10000000
00000000
01000000
00000000
10000000
00000000
01000000
00000000
,
00100000
00000000
00001000
00000000
00020000
00000000
00001000
00000000
00000000
00000000
00031000
00010000
00000010
00000000
00001010
00000000
,
00001100
00000000
00000001
00000000
00000101
00000000
00001000
00000001
00000000
00000010
00001000
00000000
00011000
00000000
00101000
00000000
,
00011000
00000000
00001000
00010000
00100000
10000000
00000000
11000000
00000000
01000000
00100000
00000000
00001000
00010000
00001000
00000000
,
00010000
00001000
00010000
00000010
00001000
00000100
00000010
00000001
00001000
00000010
00000100
00001000
00010000
00100000
01000000
00010000
,
00000000
10000000
01000000
00100000
00010000
00000000
00110000
00000000
00100000
00001000
00000000
00011000
00000000
00010000
00001000
00010000
,
00001000
00010000
00100000
01000000
10000000
01000000
00010000
10000000
01000000
00100000
01000000
00010000
00001000
00000010
00000100
00000001
,
00000100
00001000
00000001
00000100
00001000
00010000
00100000
00010000
00001000
00010000
01000000
10000000
00010000
01000000
00100000
10000000
,
00020000
00000000
00000000
00000000
00000000
00000000
00130000
01000000
00010000
00000000
00001000
00000000
00011000
00000000
00010000
00001000
,
00000000
00001000
00000100
00000000
00000010
00000000
00001000
00000001
00002002
00000000
00000000
00000000
00000000
00000000
00000000
00000000
,
00000000
00000000
00000000
00000000
00000000
00000000
00003003
00000000
00000000
00000000
00000000
00000000
00000000
00000000
00000000
00000001
00000000
00000010
00000000
00000000
00000100
00000000
00001000
00000000
00000000
00000000
00000100
00000000
00000000
00000000
00000000
00000000
00000000
00000100
00000000
00000000
00000000
00010000
00000000
00000000
00000000
00010000
00000000
00000000
00000000
00000000
00000000
00000000
,
00001000
00000000
00010000
00000000
00001000
00000000
00010000
00000000
00000000
00000000
00000000
00000000
00000000
00000000
00000000
00100000
00000000
00000000
00000000
00000000
00000000
00000000
00000000
00000000
00000000
10000000
00000000
00000000
00000000
00000000
00000000
00000000
00000000
00000000
00000000
00010000
00000000
00000000
00000000
00000000
00000000
00000000
10000000
00000000
00000000
01000000
00000000
00000000
,
00000000
00100000
00001000
00010000
00000010
00000000
00001000
00000001
00002002
00000000
00000000
00000000
00000000
00000000
00000000
00000000
,
00003003
00000000
00000000
00000000
00000000
00000000
00000000
00000000
00000000
00000000
00000000
00000000
00010010
00000000
00000000
00000000
00000000
00000000
00011000
00000000
00000000
00000000
00000000
00000000
00101000
00000000
00000000
00000000
00000000
00000000
00100000
00000000
00010000
00000000
10000000
00000000
00010000
00000000
00000000
01000000
00000000
00000000
00100000
00000000
00000000
10000000
00000000
00000000
,
00010000
00100000
01000000
10000000
00010000
01000000
00100000
00010000
00001000
00000000
00000100
00000010
00001000
00000000
00000001
00000010
,
00000100
00001000
00000010
00010000
00001000
00000000
00010000
01000000
00100000
10000000
00100000
01000000
10000000
00000000
00010000
01000000
,
00100000
01000000
10000000
01000000
00010000
10000000
01000000
00100000
01000000
00010000
00001000
00010000
00001000
00000100
00000010
00001000
,
00000001
00000000
00000000
00000000
00000000
00000000
00001000
00000000
00000000
00000100
00000000
00000000
00000010
00000000
00000000
00000001
00000000
00000000
00001001
00000000
00000000
00000000
00000000
00000000
00000001
00000000
00000000
00001000
00000000
00000000
00000010
00000000
00001000
00000000
00000010
00000000
00001000
00000000
00000000
00000001
00000000
00000000
00000010
00000000
00000000
00000100
00000000
00000000
,
00010000
00001000
00010000
00100000
01000000
00010000
01000000
00010000
10000000
01000000
00100000
00001000
00010000
00001000
00010000
00001000
,
00000100
00000000
00000001
00001000
00000100
00000010
00000001
00000100
00000010
00000000
00000001
00000010
00000100
00000010
00001000
00000001
,
00000010
00000000
00001000
00010000
01000000
00100000
00010000
00000000
10000000
00100000
00010000
00100000
10000000
00000000
00010000
00100000
,
10000000
00100000
00010000
00000000
10000000
01000000
01100000
00000000
00001000
00010000
00001000
00010000
00011000
00000000
00010000
00000000
,
00010010
00000000
00010000
00000000
00010100
00000000
00010000
00001000
01000000
00001000
00010000
00000000
00011000
00000000
00011000
00000000
,
00001000
00010000
00000000
00010000
00100000
00000000
10100000
00000000
10000000
00010000
00100000
00001000
00010000
00000000
00010010
00000000
,
00010000
00001000
00000100
00000001
00001000
00000100
00000010
00000001
00001000
00000010
00000100
00001000
00010000
00001000
01000000
00010000
,
10000000
00000000
01000000
00100000
00110000
00000000
00101000
00000000
00011000
00000000
00010010
00000000
00001010
00000000
00001000
00000000
,
00001100
00000000
00000100
00000000
00010100
00000000
00010000
00001000
00011000
00000000
00001000
00000000
01001000
00000000
01010000
00000000
,
10010000
00000000
00000000
00000000
00000000
00000000
11000000
00000000
00000000
00000000
00000000
00000000
00010000
00000000
00000000
10000000
00000000
00000000
00010000
00000000
00000000
01000000
00000000
00000000
00001000
00000000
00000000
00010000
00000000
00000000
00000100
00000000
00001000
00000000
00000100
00000000
00001000
00000000
00000000
00000001
00000000
00000000
00000100
00000000
00000000
00000010
00000000
00000000
,
00000100
00000000
00000000
00001000
00000000
00000000
00010000
00000000
00001000
00000000
00010000
00000000
00001000
00000000
00000000
01000000
00000000
00000000
00010000
00000000
00000000
10000000
00000000
00000000
01000000
00000000
00000000
00000000
00000000
00000000
10010000
00000000
00000000
00000000
00000000
00000000
10000000
00000000
00000000
01000000
00000000
00000000
00010000
00000000
00000000
00001000
00000000
00000000
,
00000010
00000000
00000001
00000100
00001000
00010000
00100000
00000000
22000000
00000000
00000000
00000000
00000000
00000000
00000000
00000000
,
00000000
00000000
00000000
00000000
,
33000000
00000000
00000000
00000000
;
