#TITLE:Blue Rain;
#ARTIST:dj TAKA VS Ryu☆;
#GENRE:TRANCE;
#BANNER:Blue Rain.png;
#BACKGROUND:Blue Rain-bg.png;
#CDTITLE:./CDTitles/bm IIDX 15 DJ TROOPERS.png;
#MUSIC:Blue Rain.ogg;
#SAMPLESTART:55.83;
#SAMPLELENGTH:15;
#BPMS:0=144;
#BGSTAGE:15;

//--------------- dance-single - Fred-104 ----------------
#NOTES:
     dance-single:
     Fred-104:
     Beginner:
     2:
     :
0000
0000
0000
0000
,
0000
0000
0000
0000
,
0000
0000
0000
0000
,
0000
0000
0000
0000
,
0000
0000
0000
0000
,
0000
0000
0000
0000
,
0000
0000
0000
0000
,
0000
0000
0000
0000
,
0000
0000
0000
0000
,
0000
0000
0000
0000
,
1000
0000
0000
0000
,
0000
0000
0000
0000
,
0001
0000
0000
0000
,
0000
0000
0000
0000
,
1000
0000
0000
0000
,
0000
0000
0000
0000
,
0001
0000
0000
0000
,
0000
0000
0000
0000
,
2000
0000
3000
0000
,
0002
0000
0003
0000
,
2000
0000
3000
0000
,
0002
0000
0003
0000
,
2000
0000
3000
0000
,
0002
0000
0003
0000
,
2000
0000
3000
0000
,
0002
0000
0003
0000
,
0000
1000
0000
0000
,
0000
0001
0000
0000
,
0000
0100
0000
0000
,
0000
0001
0000
0000
,
1000
0000
0000
0000
,
0001
0000
0000
0000
,
1000
0000
0001
0000
,
1000
0000
0000
0000
,
0001
0000
0000
0000
,
0010
0000
0000
0000
,
0100
0000
0000
0000
,
0010
0000
0000
0000
,
0100
0000
0000
0000
,
1000
0000
0000
0000
,
0001
0000
0000
0000
,
1000
0000
0000
0000
,
0001
0000
0000
0000
,
1000
0000
0000
0000
,
0001
0000
0000
0000
,
0100
0000
0000
0000
,
0001
0000
0000
0000
,
0100
0000
0000
0000
,
0010
0000
0000
0000
,
0100
0000
0000
0000
,
0001
0000
0000
0000
,
1000
0000
0000
0000
,
0001
0000
0000
0000
,
1000
0000
0000
0000
,
0001
0000
0000
0000
,
1000
0000
0000
0000
,
0001
0000
1000
0000
,
1001
0000
0000
0000
,
1000
0000
0000
0000
,
0001
0000
0000
0000
,
1000
0000
0000
0000
,
0001
0000
0000
0000
,
0001
0000
0000
0000
,
1000
0000
0000
0000
,
0100
0000
0000
0000
,
0010
0000
0000
0000
,
2002
0000
0000
3003
;

//--------------- dance-single - Fred-104 ----------------
#NOTES:
     dance-single:
     Fred-104:
     Easy:
     4:
     :
0000
0000
0000
0000
,
0000
0000
0000
0000
,
0000
0000
0000
0000
,
0000
0000
0000
0000
,
0000
0000
0000
0000
,
0000
0000
0000
0000
,
0000
0000
0000
0000
,
0000
0000
0000
0000
,
0000
0000
0000
0000
,
0000
0000
0000
0000
,
2000
0000
0000
0000
,
0000
0000
3002
2003
,
3020
0000
0000
0000
0000
0000
0000
0030
,
0000
0000
2000
3002
,
2003
0000
0000
0000
,
3000
0000
0002
0023
,
0230
0000
0000
0000
,
0300
0000
2000
3002
,
1003
0000
0010
0000
,
0100
0000
0001
0000
,
1000
0000
0001
0000
,
1000
0000
0001
0000
,
1000
0000
0010
0000
,
0001
0000
0001
0000
,
0001
0000
0010
0000
,
1000
0000
0001
1000
,
0001
0010
0000
0010
,
0100
0010
0000
0100
,
1000
0001
0000
0100
,
0001
0100
0000
0001
,
1000
1000
0100
0010
,
0001
0001
1000
0010
,
1000
0000
0001
0000
,
1001
0000
0002
2003
,
3001
0000
0010
0000
,
0100
1000
0100
1000
,
0100
0000
1000
0000
,
0001
0100
0001
0100
,
0010
0000
1000
0000
,
0001
1000
0001
1000
,
0100
0000
0010
0000
,
0001
1000
0001
0100
,
0001
0001
1000
1000
,
0010
1000
0010
1000
,
0001
0001
0010
0010
,
0001
1000
0100
1000
,
0001
0001
0100
0100
,
0010
0010
1000
1000
,
0001
0000
1000
0000
,
2002
0000
0000
3003
,
0000
0001
0000
0100
,
0000
0001
0000
0100
,
0000
1000
0000
0010
,
0000
1000
0000
0010
,
0001
0000
1000
0000
,
0001
0000
1000
0000
,
2002
3003
0001
1000
,
0001
1000
2002
3003
,
0001
0000
0100
0000
,
0010
0100
0010
0100
,
0001
0000
1000
0000
,
0100
1000
0100
0010
,
0010
0000
0001
0000
,
1000
0010
0001
0010
,
1000
0000
0001
0000
,
1000
1000
0001
0001
,
2002
0000
0000
3003
;

//--------------- dance-single - Fred-104 ----------------
#NOTES:
     dance-single:
     Fred-104:
     Medium:
     8:
     :
0000
0000
0000
0000
,
0000
0000
0000
0000
,
0000
0000
0000
0000
,
0000
0000
0000
0000
,
0000
0000
0000
0000
,
0000
0000
0000
0000
,
0000
0000
0000
0000
,
0000
0000
0000
0000
,
0000
0000
0000
0000
,
0000
0000
0000
0000
,
0002
0000
0000
0000
,
0000
0000
0203
0320
,
0230
0000
0000
0000
0000
0000
0000
0300
,
0000
0000
0002
2003
,
3020
0000
0000
0000
,
1030
0000
0002
0203
,
0320
0000
0000
0000
,
2030
3200
0320
0031
,
1001
0001
0000
0100
,
0010
0100
0000
0100
,
0001
0100
0000
0001
,
1000
0001
0000
1000
,
0100
1000
0100
1000
,
0001
0001
1000
0001
,
0010
0100
0010
0100
,
0010
0001
0001
1000
,
0001
0000
0000
0010
0000
0000
0010
0000
0000
0001
0000
0000
1000
0000
0000
0000
,
0010
0000
0000
1000
0000
0000
0010
0000
0000
1000
0000
0000
1000
0000
0000
0000
,
0001
0000
0000
0100
0000
0000
0010
0000
0000
0100
0000
0000
0100
0000
0000
0000
,
0001
0000
0000
0010
0000
0000
0100
0000
0000
1000
0000
0000
0001
0000
0000
0000
,
1000
0010
1000
0000
0001
0100
0001
0000
,
1000
0100
1000
0000
0001
0010
0001
0000
,
1000
0010
1000
0010
0100
0001
0100
0001
,
1000
0000
0002
2003
,
3001
0000
0000
0010
0000
0000
0001
0000
0000
0100
0000
0000
0001
0000
0000
0000
,
1000
0000
0000
0010
0000
0000
1000
0000
0000
0100
0000
0000
1000
0000
0000
0000
,
0001
0000
0000
0100
0000
0000
0001
0000
0000
0010
0000
0000
0001
0000
0000
0000
,
1000
0000
0000
0100
0000
0000
1000
0000
0000
0010
0000
0000
1000
0000
0000
0000
,
0001
0000
0000
0010
0000
0000
0100
0000
0000
1000
0000
0000
0001
0000
0000
0000
,
1000
0000
0000
0010
0000
0000
0100
0000
0000
0001
0000
0000
1000
0000
0000
0000
,
0001
0000
0000
0100
0000
0000
0010
0000
0000
1000
0000
0000
0001
0000
0000
0000
,
1000
0000
0000
0100
0000
0000
0010
0000
0000
0001
0000
0000
1000
0000
0000
0000
,
0001
0100
0001
0000
0100
0000
0010
0000
,
1000
0100
0010
0000
0001
0000
1000
0000
,
0010
1000
0100
0000
1000
0000
0001
0000
,
0010
0100
0010
0000
0001
0000
1000
0000
,
0001
0100
0001
0000
0100
0010
0100
0000
,
0010
1000
0010
0000
1000
0100
1000
0000
,
0001
0010
0001
0010
0100
1000
0100
1000
,
2002
0000
0000
3003
,
1001
0100
0000
0100
,
0010
0100
0000
0100
,
0001
1000
0000
1000
,
0010
0000
0100
0000
0001
1000
0001
0000
,
1000
0000
0100
0000
0010
0000
0001
1000
,
0001
0000
0100
0000
0010
0000
1000
0001
,
1000
0100
0110
0010
,
1001
0000
0000
0000
0110
0000
0000
0000
1001
0000
0000
1000
0000
0000
1000
0000
,
0001
0000
0000
0010
0000
0000
0001
0000
0000
1000
0000
0000
0010
0000
0000
0000
,
1000
0000
0000
0100
0000
0000
1000
0000
0000
0001
0000
0000
0010
0000
0000
0000
,
0001
0000
0000
0010
0000
0000
0100
0000
0000
1000
0000
0000
0001
0000
0000
0000
,
0100
0000
0000
0010
0000
0000
0100
0000
0000
0001
0000
0000
1000
0000
0000
0000
,
0001
0000
0000
0010
0000
0000
0100
0000
0000
1000
0000
0000
0001
0000
0000
0000
,
0100
0000
0000
0010
0000
0000
1000
0000
0000
0010
0000
0000
0100
0000
0000
0000
,
0001
0100
0001
0000
0100
0010
1000
0000
,
0001
0010
0100
0010
0100
1000
0100
1000
,
0002
0000
0000
0003
;

//--------------- dance-single - Fred-104 ----------------
#NOTES:
     dance-single:
     Fred-104:
     Hard:
     11:
     :
0000
0000
0000
0000
,
0000
0000
0000
0000
,
0000
0000
0000
0000
,
0000
0000
0000
0000
,
0000
0000
0000
0000
,
0000
0000
0000
0000
,
0000
0000
0000
0000
,
0000
0000
0000
0000
,
0000
0000
0000
0000
,
0000
0000
0000
0000
,
2000
0000
0000
0000
,
0000
0000
3200
0320
,
0032
0000
0000
0000
0000
0000
0000
0203
,
0000
0000
0320
0230
,
0302
0000
0000
0000
,
0103
0000
2000
3020
,
0032
0000
0000
0000
,
2003
0000
3020
0000
0230
0000
0302
0003
,
1001
0000
0000
1000
0000
0000
0100
0000
0000
1000
0000
0000
0001
0000
0000
0000
,
0010
0000
0000
0001
0000
0000
1000
0000
0000
0010
0000
0000
0100
0000
0000
0000
,
0001
0000
0000
0010
0000
0000
0100
0000
0000
1000
0000
0000
0010
0000
0000
0000
,
0100
0000
0000
0001
0000
0000
1000
0000
0000
0001
0000
0000
0100
0000
0000
0000
,
0001
0000
0000
0010
0000
0000
0001
0000
0000
1000
0000
0000
1010
0000
0000
0000
,
1000
0000
0000
0100
0000
0000
0010
0000
0000
0001
0000
0000
0101
0000
0000
0000
,
0001
0000
0000
0100
0000
0000
0010
0000
0000
0100
0000
0000
0110
0000
0000
0000
,
0001
0000
0000
0010
0000
0000
0100
0000
0000
1000
0000
0000
1010
0000
0000
0000
,
0001
0000
1000
0000
0001
0000
0000
0100
0000
0000
0010
0000
1000
0000
0000
0000
,
0100
0000
0010
0000
0001
0000
0000
1000
0000
0000
0010
0000
0100
0000
0000
0000
,
0001
0000
1000
0000
0001
0000
0000
0100
0000
0000
0010
0000
0100
0000
0000
0000
,
0001
0000
0010
0000
1000
0000
0000
0001
0000
0000
0100
0000
1000
0000
0000
0000
,
0001
0100
0001
0100
0010
0100
0010
1000
,
0010
1000
0100
0010
0001
1000
0010
1000
,
0001
0010
0001
0000
1000
0100
1000
0000
0001
1000
0001
1000
0001
0000
1000
0000
,
1001
0000
2000
3002
,
1003
0000
0010
0100
0000
0010
1000
0000
0000
0100
0000
0000
0010
0000
0000
0000
,
0001
0000
0100
0001
0000
0010
0001
0000
1000
0000
0000
0000
0010
0000
0000
0000
,
0100
0000
0001
0100
0000
0010
0100
0000
0000
0001
0000
0000
1000
0000
0000
0000
,
0001
0000
0100
0010
0000
0100
0010
0000
1000
0000
0000
0000
0100
0000
0000
0000
,
0010
0000
0001
0100
0000
0010
0100
0000
0000
0001
0000
0000
0100
0000
0000
0000
,
0001
0000
0010
0100
0000
1000
0100
0000
1000
0000
0000
0000
0010
0000
0000
0000
,
0100
0000
0001
0100
0000
0010
0100
0000
0000
0001
0000
0000
1000
0000
0000
0000
,
0010
0000
1000
0100
0000
1000
0010
0000
0100
0000
0000
0000
0001
0000
0000
0000
,
1000
0000
0000
0100
0000
0000
0010
0000
0000
0100
0000
0000
1000
0000
0000
0010
,
0100
0000
0000
0001
0000
0000
1000
0000
0000
0001
0000
0000
1000
0000
0100
0000
,
1000
0000
0000
0100
0000
0000
0010
0000
0000
0001
0000
0000
1000
0000
0000
0001
,
0100
0000
0000
0010
0000
0000
0100
0000
0000
0001
0000
0000
1000
0000
0001
0000
,
1000
0100
1000
0010
0100
0001
0100
0010
,
0100
0001
0010
0001
1000
0010
0100
0001
,
1000
0100
1000
0000
0001
0010
0001
0000
1000
0001
1000
0001
1000
0000
0001
0000
,
2002
0000
0000
3003
,
0001
0000
0100
0000
1000
0000
0000
0100
0000
0000
0001
0000
1000
0000
0000
0000
,
0001
0000
0010
0000
1000
0000
0000
0010
0000
0000
0001
0000
1000
0000
0000
0000
,
1000
0000
0100
0000
0001
0000
0000
0100
0000
0000
1000
0000
0001
0000
0000
0000
,
0001
0000
0010
0000
1000
0000
0000
0010
0000
0000
0001
0000
1000
0000
0000
0000
,
0001
0000
0100
0000
0010
0000
1000
0100
0000
0000
0100
0000
1000
0000
0010
0000
,
0100
0000
0001
0000
0010
0000
0100
0010
0000
0000
0001
0000
1000
0000
0010
0000
,
2010
3001
0012
1003
,
1100
0000
0000
0000
0101
0000
0000
0000
1010
0000
0000
0011
0000
0000
0110
0000
,
1001
0000
0000
1000
0000
0000
0001
0000
0000
1000
0000
0000
0010
0000
0100
0000
,
0001
0000
0000
0010
0000
0000
0100
0000
0000
0010
0000
0000
0001
0000
1000
0000
,
0010
0000
0000
1000
0000
0000
0100
0000
0000
0010
0000
0000
0001
0000
1000
0000
,
0001
0000
0000
0100
0000
0000
1000
0000
0000
0100
0000
0000
0001
0000
0010
0000
,
0100
0000
1000
0000
0010
0000
1000
0000
0100
0000
0010
0000
0001
0000
1000
0001
,
1000
0000
0100
0000
0010
0000
0001
0000
0100
0000
0010
0000
1000
0000
0001
0100
,
0001
0000
1000
0000
0100
0000
0010
0000
0001
0000
1000
0000
0010
0000
0100
0001
,
0100
0000
0001
0010
0000
0010
0100
0000
0100
1000
0000
1000
0010
0000
1000
0000
,
2002
0000
0000
3003
;

//--------------- dance-single - Fred-104 ----------------
#NOTES:
     dance-single:
     Fred-104:
     Challenge:
     15:
     :
0000
0000
0000
0000
,
0000
0000
0000
0000
,
0000
0000
0000
0000
,
0000
0000
0000
0000
,
0000
0000
0000
0000
,
0000
0000
0000
0000
,
0000
0000
0000
0000
,
0000
0000
0000
0000
,
0000
0000
0000
0000
,
0000
0000
0000
0000
,
2000
0000
0000
0000
,
0000
0000
3002
0023
,
0032
0000
0000
0000
0000
0000
0000
2003
,
0000
0000
3002
0203
,
0320
0000
0000
0000
,
0130
0000
0000
0000
0200
0000
0000
0302
,
2003
0000
0000
3000
,
0002
0000
0023
0000
0230
0000
2300
3000
,
1001
0000
0000
1000
0000
0000
0001
0000
0000
1000
0000
0000
0010
0000
0000
0100
,
0001
0000
0000
0010
0000
0000
0100
0000
0000
0010
0000
0000
0001
0000
1000
0000
,
0100
0000
0000
1000
0000
0000
0010
0000
0000
0100
0000
0000
0001
0000
0000
1000
,
0100
0000
0000
0010
0000
0000
0100
0000
0000
1000
0000
0000
0001
0000
0100
0000
,
0002
0000
0000
0023
0000
0000
2030
0000
0000
3020
0000
0000
0230
0000
0000
0320
,
0032
0000
0000
2003
0000
0000
3020
0000
0000
0032
0000
0000
0023
0000
0230
0000
,
0302
0000
0000
0023
0000
0000
0230
0000
0000
0302
0000
0000
0203
0000
0000
0320
,
0032
0000
0000
2003
0000
0000
3020
0000
0000
0230
0000
0000
0302
0000
0000
1003
,
0001
0000
0100
0000
0010
0000
1000
0100
0000
0100
0010
0000
0001
0000
1000
0010
,
1000
0000
0001
0000
0100
0000
0010
0100
0000
0100
0001
0000
1000
0010
0000
1000
,
0001
0000
0010
0000
0100
0000
0010
0001
0000
0001
1000
0000
0001
0000
0100
0010
,
0100
0000
0001
0000
0010
0000
0100
1000
0000
1000
0001
0000
1001
0000
0000
0000
,
1000
0000
0001
0000
1000
0001
1000
0100
1000
0010
0100
0000
0001
0100
0000
0010
,
0100
0000
0010
0000
0110
0000
0100
0010
0000
0100
0010
0100
0001
0000
1000
0000
,
0001
0000
0000
0010
0000
0000
0100
0000
0000
0000
0000
0000
1000
0000
0000
0100
0000
0000
0010
0000
0000
0000
0000
0000
0001
0000
0100
0000
0001
0000
0100
0000
0000
0000
0000
0000
0010
0000
1000
0000
0010
0000
1000
0000
0000
0000
0000
0000
,
1001
0000
0002
2003
,
3001
0000
0100
0010
0000
1000
0010
0000
0100
0001
0000
1000
0001
0000
0001
0000
,
1000
0000
0100
0010
0000
0100
1000
0000
0001
0010
0000
0001
1000
0000
1000
0000
,
0001
0000
0100
0010
0000
0100
0001
0000
1000
0100
0000
1000
0001
0000
0001
0000
,
1000
0000
0001
0010
0000
0001
0100
0000
0010
1000
0000
0001
1000
0000
1000
0000
,
0001
0000
0100
0010
0000
0100
0001
0000
0100
0010
0000
1000
0001
0000
1000
0001
,
1000
0000
0100
0010
0000
0001
0010
0000
0100
0010
0000
0001
1000
0000
1000
0000
,
0001
0000
0100
0010
0000
1000
0100
0000
0010
0100
0000
1000
0001
0000
0100
0001
,
1000
0000
0001
0010
0000
1000
0010
0000
0100
0001
0000
0100
0010
0000
0001
0000
,
1000
0000
0100
0010
0000
0100
1000
0000
0100
0010
0000
0100
1000
0000
0001
1000
,
0001
0000
0010
0100
0000
1000
0001
0000
1000
0100
0000
0010
0001
1000
0010
1000
,
0001
0000
0100
0010
0000
0100
1000
0000
0100
0010
0000
0100
0001
0000
1000
0100
,
1000
0000
0001
0100
0000
0001
1000
0000
0100
0010
0000
0001
1000
0001
0100
0010
,
1000
0010
1010
1000
0001
0010
0011
0001
,
1000
0100
1100
1000
0001
0100
0101
0001
,
1000
0000
0000
0100
0000
0000
0010
0000
0000
0000
0000
0000
0001
0000
0000
0100
0000
0000
0010
0000
0000
0000
0000
0000
1000
0000
0010
0000
1000
0000
0010
0000
0000
0000
0000
0000
0100
0000
0001
0000
0100
0000
0001
0000
0000
0000
0000
0000
,
2001
0000
0000
3020
0000
0000
0230
0000
0000
0302
0000
0003
1001
0000
0000
0000
,
1000
0000
0010
0000
0001
0000
1000
0100
0000
0001
1000
0000
0001
0000
0000
0000
,
0001
0000
0010
0000
1000
0000
0001
0100
0000
1000
0001
0000
1000
0100
0000
0100
,
1000
0000
0100
0000
0001
0000
1000
0010
0000
0001
1000
0000
0010
0000
0001
0000
,
0001
0000
0100
0000
1000
0000
0001
0010
0000
1000
0001
0000
0010
0100
0000
0100
,
1000
0000
0100
0000
0110
0000
0010
0001
0000
1000
0010
0100
0001
0000
0001
0010
,
0001
0000
0100
0000
0110
0000
0010
1000
0000
0100
1000
0100
0010
0000
0001
0000
,
2100
3100
0010
0000
0102
0103
0010
0000
,
1010
0000
0000
0000
0101
0000
0000
0000
1100
0000
0000
0011
0000
0000
1001
0000
,
0110
0000
0010
0100
0010
1000
0100
0000
0010
0001
0100
0010
1000
0000
0001
0010
,
0100
0000
1000
0100
0010
0001
1000
0000
0001
0100
0010
0100
0001
0100
0010
1000
,
0001
0000
1000
0100
0001
0100
1000
0000
0001
0100
0010
1000
0001
0000
0010
0100
,
1000
0000
0001
1000
0010
0100
0010
0000
1000
0100
0010
0100
0001
0100
0010
0100
,
1000
0000
0001
0100
0010
0100
1000
0000
0100
0010
1000
0001
1000
0000
0100
0010
,
0100
0000
1000
0001
0010
0100
0010
0000
1000
0010
0001
0010
0100
1000
0001
1000
,
0001
0000
0100
0010
1000
0010
0100
0000
0001
0010
0001
1000
0100
0000
1000
0100
,
0010
0000
0001
1000
0001
0010
1000
0000
0010
0001
0100
0010
1000
0100
0010
0001
,
0200
0000
0000
0300
;

//--------------- dance-double - Fred-104 ----------------
#NOTES:
     dance-double:
     Fred-104:
     Easy:
     5:
     :
00000000
00000000
00000000
00000000
,
00000000
00000000
00000000
00000000
,
00000000
00000000
00000000
00000000
,
00000000
00000000
00000000
00000000
,
00000000
00000000
00000000
00000000
,
00000000
00000000
00000000
00000000
,
00000000
00000000
00000000
00000000
,
00000000
00000000
00000000
00000000
,
00000000
00000000
00000000
00000000
,
00000000
00000000
00000000
00000000
,
20000000
00000000
00000000
00000000
,
00000000
00000000
30020000
20030000
,
32000000
00000000
00000000
00000000
,
00000000
00000000
03200000
00302000
,
00023000
00000000
00000000
00000000
,
00030000
00000000
00002000
00003020
,
00000032
00000000
00000000
00000000
,
00000003
00000000
00000200
00002300
,
00013000
00000000
00001000
00000000
,
00000010
00000000
00000100
00000000
,
00010000
00000000
00001000
00000000
,
00010000
00000000
00100000
00000000
,
10000000
00000000
01000000
00000000
,
00100000
00000000
00010000
00000000
,
10000000
00000000
00100000
00000000
,
00010000
00000000
00001000
00010000
,
00001000
00100000
00000000
00100000
,
01000000
10000000
00000000
10000000
,
00100000
00010000
00000000
00010000
,
00001000
00000010
00000000
00000010
,
00000100
00001000
00000001
00000010
,
00001000
00100000
01000000
10000000
,
00100000
00100000
00010000
00001000
,
00011000
00000000
00020000
00030020
,
00001030
00000000
00000001
00000000
,
00000010
00000100
00001000
00000001
,
00000100
00000000
00000010
00000000
,
00001000
00000010
00010000
00001000
,
00010000
00000000
00001000
00000000
,
00010000
00100000
01000000
00100000
,
01000000
00000000
00010000
00000000
,
10000000
01000000
00100000
00010000
,
10000000
00100000
01000000
00010000
,
10000000
01000000
00100000
01000000
,
00010000
00001000
00010000
00000100
,
00001000
00000100
00000010
00000001
,
00001000
00000010
00000100
00001000
,
00010000
00100000
10000000
00010000
,
00100000
00100000
01000000
01000000
,
02200000
00000000
00000000
03300000
,
10000000
10000000
00000000
00100000
,
00000000
00010000
00000000
00001000
,
00000000
00000010
00000000
00001000
,
00000000
00010000
00000000
00100000
,
01000000
00000000
00100000
00000000
,
00010000
00000000
00001000
00000000
,
00022000
00033000
00010000
00001000
,
00000010
00000001
00002002
00003003
,
00000001
00000010
00000100
00001000
,
00000010
00010000
00001000
00100000
,
00010000
00100000
01000000
10000000
,
00100000
10000000
00010000
00100000
,
01000000
00100000
00001000
00010000
,
00000100
00001000
00000100
00010000
,
00000100
00000010
00000001
00001000
,
00000010
00000010
00000100
00000100
,
00002002
00000000
00000000
00003003
;

//--------------- dance-double - Fred-104 ----------------
#NOTES:
     dance-double:
     Fred-104:
     Medium:
     9:
     :
00000000
00000000
00000000
00000000
,
00000000
00000000
00000000
00000000
,
00000000
00000000
00000000
00000000
,
00000000
00000000
00000000
00000000
,
00000000
00000000
00000000
00000000
,
00000000
00000000
00000000
00000000
,
00000000
00000000
00000000
00000000
,
00000000
00000000
00000000
00000000
,
00000000
00000000
00000000
00000000
,
00000000
00000000
00000000
00000000
,
00020000
00000000
00000000
00000000
,
00000000
00000000
00032000
00003200
,
00000302
00000000
00000000
00000000
00000000
00000000
00000000
00000003
,
00000000
00000000
00002000
00003002
,
00000023
00000000
00000000
00000000
,
00001030
00000000
00020000
00230000
,
20300000
00000000
00000000
00000000
,
32000000
03020000
00032000
00013000
,
00011000
00000000
00000000
00010000
00000000
00000000
00001000
00000000
,
00000100
00000000
00000000
00000010
00000000
00000000
00001000
00000000
,
00000001
00000000
00000000
00000010
00000000
00000000
00001000
00000000
,
00100000
00000000
00000000
00010000
00000000
00000000
10000000
00000000
,
00010000
00000000
00000000
00100000
00000000
00000000
01000000
00000000
00000000
00100000
00000000
00000000
00010000
00000000
00000000
00000000
,
10000000
00000000
00000000
00010000
00000000
00000000
01000000
00000000
00000000
00001000
00000000
00000000
00010000
00000000
00000000
00000000
,
00001000
00000000
00000000
00000100
00000000
00000000
00000010
00000000
00000000
00001000
00000000
00000000
00000001
00000000
00000000
00000000
,
00001000
00000000
00000000
00000100
00000000
00000000
00000010
00000000
00000000
00000001
00000000
00000000
00001000
00000000
00000000
00000000
,
00000001
00000000
00000000
00000100
00000000
00000000
00001000
00000000
00000000
00010000
00000000
00000000
00001000
00000000
00000000
00000000
,
00010000
00000000
00000000
00100000
00000000
00000000
10000000
00000000
00000000
01000000
00000000
00000000
00100000
00000000
00100000
00000000
,
00010000
00000000
00000000
10000000
00000000
00000000
00100000
00000000
00000000
00010000
00000000
00000000
00001000
00000000
00000000
00000000
,
00010000
00000000
00000000
00001000
00000000
00000000
00000010
00000000
00000000
00001000
00000000
00000000
00011000
00000000
00000000
00000000
,
00010000
00001000
00010000
00000000
00000100
00001000
00000001
00000000
,
00000100
00000010
00000001
00000000
00000010
00000100
00000001
00000000
,
00001000
00000100
00010000
00001000
01000000
00010000
00100000
00001000
,
00010000
00000000
00002000
00023000
,
00031000
00000000
00000000
00010000
00000000
00000000
01000000
00000000
00000000
10000000
00000000
00000000
00010000
00000000
00000000
00000000
,
01000000
00000000
00000000
00100000
00000000
00000000
01000000
00000000
00000000
00010000
00000000
00000000
10000000
00000000
01000000
00000000
,
00100000
00000000
00000000
00001000
00000000
00000000
00010000
00000000
00000000
00001000
00000000
00000000
00000010
00000000
00000000
00000000
,
00000100
00000000
00000000
00001000
00000000
00000000
00000001
00000000
00000000
00000010
00000000
00000000
00000100
00000000
00000010
00000000
,
00000001
00000000
00000000
00000100
00000000
00000000
00000010
00000000
00000000
00001000
00000000
00000000
00000001
00000000
00000000
00000000
,
00001000
00000000
00000000
00000010
00000000
00000000
00010000
00000000
00000000
00001000
00000000
00000000
00000100
00000000
00000001
00000000
,
00001000
00000000
00000000
00000100
00000000
00000000
00000010
00000000
00000000
00000100
00000000
00000000
00010000
00000000
00000000
00000000
,
00001000
00000000
00000000
00010000
00000000
00000000
00100000
00000000
00000000
10000000
00000000
00000000
00010000
00000000
00100000
00000000
,
01000000
00100000
00001000
00000000
00010000
00000010
00001000
00000000
,
00000010
00010000
00001000
00000000
00010000
01000000
10000000
00000000
,
01000000
00100000
00010000
00000000
10000000
00100000
00010000
00000000
,
00001000
00000010
00000001
00000000
00000100
00001000
00010000
00000000
,
00100000
01000000
00010000
00000000
10000000
01000000
00100000
00000000
,
00001000
00010000
00000100
00000000
00000010
00000001
00001000
00000000
,
00000001
00000100
00000010
00001000
00000100
00010000
00001000
01000000
,
02200000
00000000
00000000
03300000
,
10010000
00000000
00100000
00000000
00000000
00100000
01000000
00000000
,
00010000
00000000
10000000
00000000
00000000
10000000
01000000
00000000
,
00010000
00000000
00001000
00000000
00000000
00001000
00010000
00000000
,
00001000
00000000
00000100
00000000
00000010
00001000
00000001
00000000
,
00000100
00000000
00000010
00000000
00001000
00000000
00000001
00001000
,
00000001
00000000
00000010
00000000
00000100
00000000
00010000
00001000
,
01000000
00100000
01100000
01000000
,
10010000
00000000
00000000
00000000
01100000
00000000
00000000
00000000
10010000
00000000
00000000
10000000
00000000
00000000
10000000
00000000
,
00100000
00000000
00000000
10000000
00000000
00000000
00010000
00000000
00000000
00010000
00000000
00000000
10000000
00000000
00000000
00000000
,
00100000
00000000
00000000
00010000
00000000
00000000
00001000
00000000
00000000
00000010
00000000
00000000
00001000
00000000
00001000
00000000
,
00010000
00000000
00000000
01000000
00000000
00000000
00010000
00000000
00000000
00001000
00000000
00000000
00000100
00000000
00000000
00000000
,
00000001
00000000
00000000
00000100
00000000
00000000
00000010
00000000
00000000
00001000
00000000
00000000
00000100
00000000
00000100
00000000
,
00001000
00000000
00000000
00000100
00000000
00000000
00010000
00000000
00000000
00001000
00000000
00000000
00100000
00000000
00000000
00000000
,
00010000
00000000
00000000
01000000
00000000
00000000
10000000
00000000
00000000
01000000
00000000
00000000
00010000
00000000
00010000
00000000
,
10000000
01000000
00010000
00000000
00001000
00000100
00000001
00000000
,
00000100
00000010
00001000
00000001
00000010
00000100
00010000
00001000
,
00020000
00000000
00000000
00030000
;

//--------------- dance-double - Fred-104 ----------------
#NOTES:
     dance-double:
     Fred-104:
     Hard:
     12:
     :
00000000
00000000
00000000
00000000
,
00000000
00000000
00000000
00000000
,
00000000
00000000
00000000
00000000
,
00000000
00000000
00000000
00000000
,
00000000
00000000
00000000
00000000
,
00000000
00000000
00000000
00000000
,
00000000
00000000
00000000
00000000
,
00000000
00000000
00000000
00000000
,
00000000
00000000
00000000
00000000
,
00000000
00000000
00000000
00000000
,
00020000
00000000
00000000
00000000
,
00000000
00000000
20030000
32000000
,
03020000
00000000
00000000
00000000
00000000
00000000
00000000
00032000
,
00000000
00000000
00003200
00000302
,
00002003
00000000
00000000
00000000
,
00003100
00000000
00000020
00000032
,
00002003
00000000
00000000
00000000
,
00003002
00000000
00000023
00000000
00002030
00000000
00023000
00030000
,
00011000
00000000
00000000
00001000
00000000
00000000
00010000
00000000
00000000
01000000
00000000
00000000
10000000
00000000
00000000
00000000
,
00010000
00000000
00000000
00100000
00000000
00000000
10000000
00000000
00000000
00100000
00000000
00000000
00010000
00000000
10000000
00000000
,
01000000
00000000
00000000
00100000
00000000
00000000
00001000
00000000
00000000
00010000
00000000
00000000
01000000
00000000
00000000
00000000
,
00010000
00000000
00000000
00001000
00000000
00000000
00000100
00000000
00000000
00000010
00000000
00000000
00001000
00000000
00010000
00000000
,
00100000
00000000
00000000
01000000
00000000
00000000
10000000
00000000
00000000
00010000
00000000
00000000
01010000
00000000
00000000
00000000
,
10000000
00000000
00000000
00100000
00000000
00000000
00010000
00000000
00000000
00001000
00000000
00000000
00011000
00000000
00000000
00000000
,
00010000
00000000
00000000
00001000
00000000
00000000
00000100
00000000
00000000
00000001
00000000
00000000
00000011
00000000
00000000
00000000
,
00000001
00000000
00000000
00000100
00000000
00000000
00001000
00000000
00000000
00010000
00000000
00000000
00011000
00000000
00000000
00000000
,
00001000
00000000
00010000
00000000
00100000
00000000
00000000
01000000
00000000
00000000
00010000
00000000
10000000
00000000
00000000
00000000
,
00100000
00000000
01000000
00000000
00100000
00000000
00000000
00010000
00000000
00000000
00001000
00000000
00010000
00000000
00000000
00000000
,
00000010
00000000
00001000
00000000
00000001
00000000
00000000
00000010
00000000
00000000
00000001
00000000
00000100
00000000
00000000
00000000
,
00000010
00000000
00001000
00000000
00000100
00000000
00000000
00000010
00000000
00000000
00000001
00000000
00001000
00000000
00000000
00000000
,
00000001
00000100
00000001
00000100
00001000
00010000
00001000
00010000
,
00100000
10000000
00100000
10000000
01000000
00100000
00010000
10000000
,
00100000
10000000
00100000
00000000
01000000
00010000
01000000
00000000
00001000
00010000
00001000
00010000
00001000
00000000
00010000
00000000
,
00011000
00000000
00002000
00003020
,
00000031
00000000
00001000
00000010
00000000
00000100
00000010
00000000
00000000
00001000
00000000
00000000
00000100
00000000
00000000
00000010
,
00000001
00000000
00000100
00000010
00000000
00001000
00000100
00000000
00020000
00000000
00000000
00000000
00032000
00000000
00000000
00000000
,
00013000
00000000
01000000
00100000
00000000
00010000
10000000
00000000
00000000
00100000
00000000
00000000
01000000
00000000
00000000
00100000
,
10000000
00000000
01000000
00100000
00000000
00100000
00010000
00000000
02000000
00000000
00000000
00000000
03002000
00000000
00000000
00000000
,
00003100
00000000
00000010
00001000
00000000
00000001
00000010
00000000
00000000
00001000
00000000
00000000
00010000
00000000
00000000
00000100
,
00001000
00000000
00000001
00000100
00000000
00000010
00001000
00000000
00000200
00000000
00000000
00000000
00000320
00000000
00000000
00000000
,
00000031
00000000
00001000
00000010
00000000
00010000
00001000
00000000
00000000
00010000
00000000
00000000
00001000
00000000
00000000
00000010
,
00000100
00000000
00001000
00000100
00000000
00000010
00000001
00000000
00001000
00000000
00000001
00000000
00001001
00000000
00000000
00000000
,
00001000
00000000
00000001
00000100
00000000
00000001
00000010
00000000
00000000
00001000
00000000
00000000
00010000
00000000
00000000
00001000
,
00010000
00000000
00001000
00010000
00000000
01000000
00100000
00000000
00000000
00010000
00000000
00000000
00100000
00000000
01000000
00000000
,
10000000
00000000
00100000
01000000
00000000
01000000
00010000
00000000
00000000
10000000
00000000
00000000
01000000
00000000
00000000
00100000
,
00001000
00000000
00010000
00001000
00000000
00001000
01000000
00000000
00000000
00010000
00000000
00000000
00100000
00000000
01000000
00000000
,
10000000
00100000
01000000
00100000
00010000
00001000
00000010
00001000
,
00010000
00000100
00000010
00000001
00001000
00000010
00000100
00000001
,
00000010
00001000
00000010
00000000
00001000
00010000
00001000
00000000
00010000
00001000
00010000
00001000
00010000
00000000
00001000
00000000
,
00022000
00000000
00000000
00033000
,
00001000
00010000
00100000
00000000
01000000
00010000
10010000
00000000
,
10000000
01000000
00010000
00000000
00001000
00010000
00010010
00000000
,
00010000
00001000
00000100
00000000
00000001
00000010
00000110
00000000
,
00000001
00001000
00000100
00000000
00000010
00000001
00001001
00000000
,
00000001
00000100
00001000
00000100
00000001
00000100
00001000
00000000
,
00010000
01000000
10000000
01000000
00010000
01000000
10000000
00000000
,
00200000
20300000
32000000
03100000
,
00101000
00000000
00000000
00000000
00010010
00000000
00000000
00000000
00011000
00000000
00000000
00101000
00000000
00000000
00011000
00000000
,
00010000
00001000
00010000
00000000
00000010
00000000
00001000
00000100
00001000
00000000
00000100
00000000
00000010
00000000
00000001
00000000
,
00001000
00000001
00001000
00000000
00000001
00000000
00000100
00000010
00000100
00000000
00000001
00000000
00000010
00000000
00000100
00000000
,
00010000
00001000
00010000
00000000
00000010
00000000
00001000
00000100
00001000
00000000
00000010
00000000
00010000
00000000
00001000
00000000
,
00100000
00010000
00100000
00000000
00001000
00000000
01000000
00010000
01000000
00000000
00010000
00000000
00100000
00000000
00001000
00000000
,
00010000
00000000
00000000
00100000
00000000
00000000
01000000
00000000
00000000
10000000
00000000
00000000
01000000
00000000
00010000
01000000
,
00010000
00000000
00000000
10000000
00000000
00000000
01000000
00000000
00000000
00100000
00000000
00000000
00001000
00000000
00010000
00000100
,
00010000
00000000
00000000
00001000
00000000
00000000
00000010
00000000
00000000
00000100
00000000
00000000
00000010
00000000
00000001
00000010
,
00000100
00000000
00000000
00010000
00000000
00000000
00100000
00000000
00000000
01000000
00000000
00000000
00010000
00000000
10000000
00000000
,
20020000
00000000
00000000
30030000
;

//--------------- dance-double - Fred-104 ----------------
#NOTES:
     dance-double:
     Fred-104:
     Challenge:
     15:
     :
00000000
00000000
00000000
00000000
,
00000000
00000000
00000000
00000000
,
00000000
00000000
00000000
00000000
,
00000000
00000000
00000000
00000000
,
00000000
00000000
00000000
00000000
,
00000000
00000000
00000000
00000000
,
00000000
00000000
00000000
00000000
,
00000000
00000000
00000000
00000000
,
00000000
00000000
00000000
00000000
,
00000000
00000000
00000000
00000000
,
00000002
00000000
00000000
00000000
,
00000000
00000000
00000203
00002300
,
00023000
00000000
00000000
00000000
00000000
00000000
00000000
00032000
,
00000000
00000000
02003000
03020000
,
00230000
00000000
00000000
00000000
,
01300000
00000000
20000000
32000000
,
03020000
00000000
00000000
00000000
,
00032000
00000000
00023000
00000000
00030020
00000000
00020030
00030000
,
00011000
00000000
00000000
00010000
00000000
00000000
00001000
00000000
00000000
01000000
00000000
00000000
00010000
00000000
00000000
00100000
,
01000000
00000000
00000000
00100000
00000000
00000000
00001000
00000000
00000000
00010000
00000000
00000000
01000000
00000000
10000000
00000000
,
00010000
00000000
00000000
10000000
00000000
00000000
00100000
00000000
00000000
00010000
00000000
00000000
00000100
00000000
00000000
00001000
,
00000010
00000000
00000000
00000100
00000000
00000000
00000001
00000000
00000000
00000010
00000000
00000000
00000100
00000000
00001000
00000000
,
00000002
00000000
00000000
00000203
00000000
00000000
00000320
00000000
00000000
00000230
00000000
00000000
00000302
00000000
00000000
00002003
,
00003200
00000000
00000000
00000320
00000000
00000000
00000032
00000000
00000000
00000203
00000000
00000000
00002300
00000000
02003000
00000000
,
03020000
00000000
00000000
00230000
00000000
00000000
20300000
00000000
00000000
30200000
00000000
00000000
00302000
00000000
00000000
00023000
,
00030020
00000000
00000000
00002030
00000000
00000000
00003200
00000000
00000000
00020300
00000000
00000000
00032000
00000000
00000000
00203000
,
00310000
00000000
00100000
00000000
01000000
00000000
10000000
00100000
00000000
10000000
00100000
00000000
01000000
00000000
00001000
00010000
,
00001000
00000000
01000000
00000000
00001000
00000000
00010000
01000000
00000000
00100000
00010000
00000000
10000000
01000000
00000000
01000000
,
00100000
00000000
00001000
00000000
00010000
00000000
00000010
00010000
00000000
00000010
00001000
00000000
00000001
00000000
00001000
00000100
,
00001000
00000000
00000001
00000000
00000100
00000000
00000010
00010000
00000000
00010000
00001000
00000000
00011000
00000000
00000000
00000000
,
00001000
00000000
00010000
00000000
01000000
00100000
01000000
00100000
00010000
10000000
00010000
00000000
00100000
01000000
00000000
01000000
,
10000000
00000000
01000000
00000000
01100000
00000000
00100000
00001000
00000000
00010000
00001000
00000100
00000010
00000000
00001000
00000000
,
00000001
00000000
00000000
00000100
00000000
00000000
00000010
00000000
00000000
00000000
00000000
00000000
00001000
00000000
00000000
00000100
00000000
00000000
00000010
00000000
00000000
00000000
00000000
00000000
00000001
00000000
00000010
00000000
00000001
00000000
00000010
00000000
00000000
00000000
00000000
00000000
00000100
00000000
00001000
00000000
00000100
00000000
00001000
00000000
00000000
00000000
00000000
00000000
,
00001001
00000000
00020000
00032000
,
00013000
00000000
01000000
10000000
00000000
01000000
00100000
00000000
00001000
00010000
00000000
00000100
00010000
00000000
00000000
00010000
,
00001000
00000000
00010000
00000010
00000000
00001000
00000100
00000000
00000010
00000100
00000000
00000100
00001000
00000000
00000010
00000000
,
00000100
00000000
00000001
00001000
00000000
00000001
00000100
00000000
00000010
00000100
00000000
00001000
00010000
00000000
00000000
00010000
,
00001000
00000000
00010000
00000010
00000000
00001000
00000010
00000000
00010000
00001000
00000000
00100000
00001000
00000000
00001000
00000000
,
00010000
00000000
00001000
00010000
00000000
01000000
00100000
00000000
10000000
00100000
00000000
00010000
10000000
00000000
00010000
10000000
,
00010000
00000000
10000000
00100000
00000000
01000000
00100000
00000000
00010000
00100000
00000000
01000000
00100000
10000000
00010000
00000000
,
00100000
00000000
01000000
00010000
00000000
00001000
00010000
00000000
00000100
00001000
00000000
00000100
00000010
00000000
00000001
00000100
,
00000010
00000000
00000100
00001000
00000000
00010000
00001000
00000000
00010000
00001000
00000000
01000000
00001000
00010000
00001000
00000000
,
00010000
00000000
00001000
00000100
00000000
00000010
00000001
00000000
00000010
00000100
00000000
00000001
00001000
00000000
00000100
00010000
,
00001000
00000000
00010000
00100000
00000000
01000000
00100000
00000000
10000000
00100000
00000000
00100000
10000000
00010000
00100000
01000000
,
10000000
00000000
00100000
01000000
00000000
00100000
00010000
00000000
00001000
00000100
00000000
00000010
00001000
00000000
00000100
00000010
,
00000001
00000000
00001000
00000010
00000000
00010000
00001000
00000000
00010000
00000100
00000000
00000100
00001000
00000010
00000100
00000001
,
00001000
00001000
00000001
00000001
00000100
00000100
00010000
00010000
,
01000000
01000000
00100000
00100000
10000000
10000000
01000000
01000000
,
00010000
00000000
00000000
00001000
00000000
00000000
00010000
00000000
00000000
00000000
00000000
00000000
00000010
00000000
00000000
00001000
00000000
00000000
00000010
00000000
00000000
00000000
00000000
00000000
00001000
00000000
00000100
00000000
00001000
00000000
00000100
00000000
00000000
00000000
00000000
00000000
00000010
00000000
00000001
00000000
00000010
00000000
00000001
00000000
00000000
00000000
00000000
00000000
,
00002000
00000000
00000000
00003020
00000000
00000000
00000032
00000000
00000000
00000203
00000000
00000300
00001100
00000000
00000000
00000000
,
00000001
00000000
00000100
00000000
00001000
00000000
00000000
00010000
00000000
00000100
00000010
00000000
00001000
00000000
00010000
00000000
,
01000000
00000000
00100000
00000000
00001000
00000000
00010000
01000000
00000000
10000000
00100000
00000000
01000000
00100000
00000000
00100000
,
10000000
00000000
01000000
00000000
00010000
00000000
00000000
00001000
00000000
00100000
01000000
00000000
00010000
00000000
00001000
00000000
,
00000010
00000000
00000100
00000000
00010000
00000000
00001000
00000100
00000000
00000010
00001000
00000000
00000001
00001000
00000000
00000001
,
00001000
00000000
00000100
00000000
00000010
00000000
00000001
00000100
00000000
00000010
00000100
00000000
00001000
00010000
00000000
00001000
,
01000000
00000000
00001000
00000000
00010000
00000000
01000000
00100000
00000000
10000000
00100000
00000000
00010000
00000000
01000000
00000000
,
01002000
00013000
00020100
00031000
,
00011000
00000000
00000000
00000000
00001010
00000000
00000000
00000000
00000011
00000000
00000000
00001100
00000000
00000000
00001001
00000000
,
00000110
00000000
00000010
00000001
00001000
00000010
00010000
00000000
00001000
00100000
00010000
00100000
01000000
00000000
10000000
00010000
,
01000000
00000000
00100000
00010000
00001000
00010000
00000100
00000000
00010000
00001000
00000010
00000100
00000010
00000001
00001000
00000010
,
00010000
00000000
00001000
00010000
00100000
01000000
00010000
00000000
00100000
01000000
10000000
01000000
00100000
00000000
00010000
10000000
,
00100000
00000000
10000000
01000000
00100000
00010000
00100000
00000000
00001000
00010000
00000010
00001000
00000100
00000010
00000001
00001000
,
00000010
00000000
00010000
00001000
00010000
00000100
00001000
00000000
00000100
00010000
00001000
00010000
00100000
00000000
01000000
00010000
,
10000000
00000000
01000000
00100000
00001000
00010000
00000010
00000000
00000100
00000001
00000010
00000100
00001000
00000001
00001000
00000010
,
00010000
00000000
00001000
00010000
00001000
01000000
00010000
00000000
00100000
01000000
10000000
00010000
01000000
00000000
00100000
00010000
,
00001000
00000000
00010000
00001000
00000000
00000010
00000100
00000000
00010000
00001000
00000000
00000100
00000010
00000000
00010000
00000000
,
00022000
00000000
00000000
00033000
;
