#TITLE:Blows Up Everything;
#ARTIST:USAO;
#BANNER:Blows Up Everything.png;
#BACKGROUND:Blows Up Everything-bg.png;
#CDTITLE:./CDTitles/maimai DX.png;
#MUSIC:Blows Up Everything.ogg;
#SAMPLESTART:106.046;
#SAMPLELENGTH:15;
#BPMS:0=215,40=107.5,54=215,227=430,227.5=215,227.75=107.5,228=340.417,228.791667=268.75,229.416667=161.25,229.791667=89.583,230=53.75,230.25=107.5,230.5=215,276=107.5,290=215,338=107.5,339.5=215;
#STOPS:54=0.558,275=0.837,290=1.117,339.5=0.139;
#TIMESIGNATURES:0=4=4,228=3=4,231=4=4,271=5=4,276=4=4,288=6=4,294=4=4,338=2=4,340=4=4;

//--------------- dance-single - Fred-104 ----------------
#NOTES:
     dance-single:
     Fred-104:
     Beginner:
     7:
     :
0000
0000
0000
0000
,
0000
0000
0000
0000
,
0000
0000
0000
0000
,
0000
0000
0000
0000
,
0000
0000
0000
0000
,
0000
0000
0000
0000
,
1000
0000
0000
0000
,
0001
0000
0000
0000
,
1000
0000
0001
0000
,
2002
0000
0000
3003
,
0001
0001
0100
0000
,
0010
1000
0010
0000
,
1000
0000
0100
0000
,
0010
0001
1001
0000
,
1000
0000
0010
0000
,
1000
0000
0100
0100
,
0100
0000
1000
0000
,
0001
0001
0001
0001
,
0001
0000
1000
0000
,
0001
0000
0100
0100
,
0100
0000
0001
0000
,
1000
1000
1000
1000
,
1000
0000
0001
0000
,
1000
0000
0100
0000
,
1000
0000
0001
0000
,
0200
0300
0100
0100
,
0100
0000
0001
0000
,
1000
0000
0001
0001
,
0001
0000
1000
0000
,
1000
1000
2000
3000
,
0001
0000
0100
0000
,
0001
0001
0001
0000
,
0010
0000
0100
0000
,
1000
1000
2000
3000
,
0001
0000
1000
0000
,
0001
0000
0100
0000
,
0001
0000
1000
0000
,
0001
0001
0001
0001
,
0001
0000
0000
0001
,
0000
0000
0001
0000
,
1000
0000
0000
1000
,
0000
0000
1000
0001
,
1000
0000
0000
0010
,
0000
0000
0100
0000
,
0001
0000
0000
1000
,
0000
0000
0001
0000
,
1001
0000
0000
0000
,
0000
0000
0000
0000
,
0000
0000
0000
0000
,
0000
0000
0000
0000
,
1000
0000
0010
0000
,
0100
0000
0001
1000
,
0001
0000
1000
0000
,
0001
0001
1000
1000
,
1001
0000
0000
0000
,
0000
0000
0000
0000
,
0100
0000
0000
0100
0000
0000
0000
0000
,
0000
0000
0000
1001
,
0000
0000
0000
0110
,
0000
0000
0000
1001
,
0000
0000
0000
2002
,
0000
0000
3003
0110
,
0000
0000
0000
1001
,
0000
0000
0000
0110
,
0000
0000
0000
1001
,
0000
0000
0000
1000
,
0000
0010
0000
1000
,
0000
0001
0000
1000
,
1000
1000
1000
1001
,
0001
1000
0010
0100
,
0001
0000
1000
0000
1000
0100
0010
0001
,
0100
0000
0010
0000
0100
0100
0001
0000
,
0100
0010
1000
0001
1001
0000
0000
0000
,
0000
0000
0001
0000
,
0100
0000
0001
0000
,
0010
0010
0010
0000
,
0100
0000
1000
1000
,
1000
1000
1000
0000
,
0001
0000
0100
0000
,
0010
0010
0010
0000
,
0100
0000
0001
0001
,
0001
0001
0001
0000
,
1000
0000
0001
0000
,
0100
0000
0001
0000
,
1000
0000
1001
0000
,
2000
0000
3020
0000
,
0130
0100
0100
0000
,
0002
0000
0023
0000
,
0031
0001
0001
0001
,
0002
0000
0203
0000
,
0310
0100
0010
0000
,
2000
0000
3200
0000
,
1300
1000
1000
1000
,
1000
0000
0010
0000
,
0100
0000
0001
0000
,
1000
0000
0100
0000
,
0010
0010
0001
0001
,
0001
0000
1000
0000
,
0001
0001
0001
0000
,
0100
0100
0100
0000
,
0001
0001
1000
1000
,
0001
0001
0000
0100
,
0000
1000
0000
0010
,
0000
0001
0000
1000
,
0000
0001
1000
0001
,
1000
0000
0010
0000
,
0100
0000
0001
0000
,
1000
0000
0000
0001
0000
0000
1000
0000
,
1000
0000
0000
0000
,
2002
3003
0000
0000
0000
0000
0000
0000
;

//--------------- dance-single - Fred-104 ----------------
#NOTES:
     dance-single:
     Fred-104:
     Easy:
     11:
     :
0000
0000
0000
0000
,
0000
0000
0000
0000
,
0000
0000
0000
0000
,
0000
0000
0000
0000
,
0000
0000
0000
0000
,
0000
0000
0000
0000
,
1000
0010
0000
0010
,
0000
0100
0000
0100
,
0001
0010
0000
0100
,
2002
0000
0000
3003
,
0001
0000
0011
0000
1000
0100
1100
0000
,
0100
0000
0000
0000
0110
0000
0000
0000
0010
0000
0000
0100
0000
0000
0000
0000
,
2002
3003
0000
0000
0000
0000
0000
0000
0000
0000
0000
0000
0000
0000
0000
0000
0100
0000
0000
0000
0000
0000
0000
0000
0000
0000
0000
0000
0000
0000
0000
0000
2002
3003
0000
0000
0000
0000
0000
0000
0000
0000
0000
0000
0000
0000
0000
0000
0010
0000
0000
0000
0000
0000
0000
0000
0000
0000
0000
0000
0000
0000
0000
0000
,
2200
3300
0000
0000
0000
0000
0000
0000
0000
0000
0000
0000
0000
0000
0000
0000
0202
0303
0000
0000
0000
0000
0000
0000
0000
0000
0000
0000
0000
0000
0000
0000
1001
0000
0000
0000
0000
0000
0000
0000
0000
0000
0000
0000
0000
0000
0000
0000
0000
0000
0000
0000
0000
0000
0000
0000
0000
0000
0000
0000
0000
0000
0000
0000
,
1000
1000
0100
0100
,
0010
0000
0010
0000
0001
1000
0001
0000
,
0100
0000
0100
0000
0010
0000
0010
0100
,
0010
0100
0010
1001
,
1000
1000
1000
0000
0010
0000
0100
0000
,
0010
0000
1000
0000
0001
1000
0001
0000
,
0100
0100
0100
0000
0001
1000
0001
0000
,
0100
0010
1010
0101
,
1000
0001
1000
0000
0010
0000
1000
0000
,
0100
0000
0010
0001
0010
0000
0001
0000
,
0100
0000
0100
0000
0010
1000
0010
0000
,
1000
0100
1000
0100
1000
0000
1001
0000
,
0001
0000
0100
0001
0000
0010
0001
0000
,
0100
0010
0100
0000
0001
1000
0001
0000
,
1000
1000
0010
0010
,
1000
0100
0010
1001
,
1000
1100
0001
0101
,
1000
0000
1010
0000
0001
0100
0001
0000
,
1000
1001
0100
0110
,
0001
0000
0100
0000
0010
1000
0001
1000
,
0001
0100
0001
0010
,
0001
0000
0100
0000
0010
1000
0010
0000
,
1000
0000
0100
1000
0000
0001
1000
0000
,
0001
0100
0010
0110
,
1001
0000
0000
0001
0000
0000
1000
0000
,
0000
1000
0000
0000
0010
0000
0100
0000
,
0001
0000
0000
0010
0000
0000
0001
0000
,
1000
0000
0010
0100
0010
0000
1000
0000
,
1100
0000
0000
0100
0000
0000
0010
0000
,
0000
0001
0000
0000
0100
0000
0010
0000
,
0100
0000
0000
0001
0000
0000
0010
0000
,
0000
0001
0000
0000
1000
0000
0001
0000
,
1001
0000
0000
0000
,
0000
0000
0000
0000
,
0000
0000
0000
0000
,
0000
0000
0000
0000
,
1000
0100
1000
0010
,
0100
0000
0010
0000
0100
0001
0100
0000
,
0001
0000
0000
1000
0000
0000
0001
0000
,
0100
0010
0100
0001
,
1001
0000
0000
0000
,
0000
0000
0000
0000
,
0100
0000
0000
0000
0000
0000
0100
0000
0000
0000
0000
0000
0200
0000
0000
0300
,
0220
0000
0000
0000
0000
0000
0000
0000
0000
0000
0000
0000
0000
0000
0000
0000
0000
0000
0000
0000
0000
0000
0000
0000
0000
0000
0000
0000
0000
0000
0000
0000
0330
0000
0000
0000
0000
0000
0000
0000
0000
0000
0000
0000
0000
0000
0000
0000
2002
3003
0000
0000
0000
0000
0000
0000
0000
0000
0000
0000
0000
0000
0000
0000
,
0000
0000
0000
0000
0000
0000
0000
0000
0000
0000
0000
0000
0000
0000
0000
0000
0000
0000
0000
0000
0000
0000
0000
0000
0000
0000
0000
0000
0000
0000
0000
0000
0000
0000
0000
0000
0000
0000
0000
0000
0000
0000
0000
0000
0000
0000
0000
0000
0220
0330
0000
0000
0000
0000
0000
0000
0000
0000
0000
0000
0000
0000
0000
0000
,
0000
0000
0000
0000
0000
0000
0000
0000
0000
0000
0000
0000
0000
0000
0000
0000
0000
0000
0000
0000
0000
0000
0000
0000
0000
0000
0000
0000
0000
0000
0000
0000
0000
0000
0000
0000
0000
0000
0000
0000
0000
0000
0000
0000
0000
0000
0000
0000
2002
3003
0000
0000
0000
0000
0000
0000
0000
0000
0000
0000
0000
0000
0000
0000
,
0000
0000
0000
0000
0000
0000
0000
0000
0000
0000
0000
0000
0100
0000
0000
0100
,
0000
0000
0000
0000
0000
0000
0000
0000
0100
0000
0000
0000
0000
0000
0000
0000
0000
0000
0000
0000
0000
0000
0000
0000
0000
0000
0000
0000
0000
0000
0000
0000
0000
0000
0000
0000
0000
0000
0000
0000
0000
0000
0000
0000
0000
0000
0000
0000
0220
0330
0000
0000
0000
0000
0000
0000
0000
0000
0000
0000
0000
0000
0000
0000
,
0000
0000
0000
0000
0000
0000
0000
0000
0000
0000
0000
0000
0000
0000
0000
0000
0000
0000
0000
0000
0000
0000
0000
0000
0000
0000
0000
0000
0000
0000
0000
0000
0000
0000
0000
0000
0000
0000
0000
0000
0000
0000
0000
0000
0000
0000
0000
0000
2002
3003
0000
0000
0000
0000
0000
0000
0000
0000
0000
0000
0000
0000
0000
0000
,
0000
0000
0000
0000
0000
0000
0000
0000
0000
0000
0000
0000
0000
0000
0000
0000
0000
0000
0000
0000
0000
0000
0000
0000
0000
0000
0000
0000
0000
0000
0000
0000
0000
0000
0000
0000
0000
0000
0000
0000
0000
0000
0000
0000
0000
0000
0000
0000
0220
0330
0000
0000
0000
0000
0000
0000
0000
0000
0000
0000
0000
0000
0000
0000
,
0000
0000
0000
0000
0000
0000
0000
0000
0000
0000
0000
0000
0000
0000
0000
0000
0000
0000
0000
0000
0000
0000
0000
0000
0000
0000
0000
0000
0000
0000
0000
0000
0000
0000
0000
0000
0000
0000
0000
0000
0000
0000
0000
0000
0000
0000
0000
0000
0002
0003
0000
0000
0000
0000
0000
0000
0000
0000
0000
0000
0000
0000
0000
0000
,
0000
0000
0000
0000
0000
0000
0000
0000
0000
0000
0000
0000
0000
0000
0000
0000
1000
0000
0000
0000
0000
0000
0000
0000
0000
0000
0000
0000
0000
0000
0000
0000
0000
0000
0000
0000
0000
0000
0000
0000
0000
0000
0000
0000
0000
0000
0000
0000
0020
0030
0000
0000
0000
0000
0000
0000
0000
0000
0000
0000
0000
0000
0000
0000
,
0000
0000
0000
0000
0000
0000
0000
0000
0000
0000
0000
0000
0000
0000
0000
0000
0010
0000
0000
0000
0000
0000
0000
0000
0000
0000
0000
0000
0000
0000
0000
0000
0000
0000
0000
0000
0000
0000
0000
0000
0000
0000
0000
0000
0000
0000
0000
0000
0200
0300
0000
0000
0000
0000
0000
0000
0000
0000
0000
0000
0000
0000
0000
0000
,
0000
0000
0000
0000
0000
0000
0000
0000
0000
0000
0000
0000
0000
0000
0000
0000
0100
0000
0000
0000
0000
0000
0000
0000
0000
0000
0000
0000
0000
0000
0000
0000
0010
0000
0000
0000
0000
0000
0000
0000
0000
0000
0000
0000
0000
0000
0000
0000
2000
3000
0000
0000
0000
0000
0000
0000
0000
0000
0000
0000
0000
0000
0000
0000
,
1000
0001
0001
1001
,
1000
0000
0100
0000
1100
0000
0000
0000
1000
0000
0000
0010
0000
0000
0100
0000
,
0001
0010
0011
0000
1000
0100
0010
0001
,
1000
1000
0010
0010
0100
0100
0001
0010
,
0001
0000
0100
0000
0001
1000
0001
1000
1001
0000
0000
0000
0000
0000
0000
0000
,
0000
0000
1000
0010
,
1000
0100
0010
0001
,
0100
0100
0001
0000
0010
0000
0001
0000
,
0100
0010
1000
0010
,
0100
0100
0001
0000
1000
0000
0100
0000
,
1000
0100
0001
0010
,
0001
0010
1000
0100
,
0001
0100
1000
0010
,
1000
0001
1000
0000
0001
0000
0010
0000
,
0011
0000
1000
0010
,
1010
0000
0001
0001
,
1000
0001
1000
0001
2000
0000
0000
3000
,
0001
0000
0010
0001
0000
1000
0000
0000
,
0010
0000
1000
0100
0000
0010
0000
0000
,
0001
0000
0000
0100
0000
0000
0001
0000
,
0010
0000
0000
0100
0000
0000
1000
0000
,
0010
0100
0010
0000
0100
0000
0001
0000
,
0010
0000
0001
1000
,
0001
0001
1000
1000
,
0001
0100
0010
1001
,
1000
1000
1000
0010
,
0100
0000
0100
0000
0001
0010
0001
0000
,
0100
0100
0010
0010
,
0100
0010
0100
0000
0001
1000
0001
0000
,
1000
0100
1000
0000
0010
0000
1000
0100
,
1000
0000
0001
0000
0100
0010
0100
0000
,
0001
0100
0010
1000
,
0001
0010
0100
1000
,
0001
1001
0000
1000
,
0010
0000
0000
0100
0000
0000
0010
0000
,
1000
0000
0000
0100
0000
0000
0010
0000
,
0001
0000
0000
1000
0000
0000
0010
0000
,
0100
0010
1000
0010
,
0100
0000
0000
0001
0000
0000
0010
0000
,
0001
0000
0000
0001
0000
0000
1000
0000
0000
1000
0000
0000
0001
0000
0000
0000
,
0001
1000
0001
1001
,
0100
0100
0000
0000
0000
0000
0000
0000
;

//--------------- dance-single - Fred-104 ----------------
#NOTES:
     dance-single:
     Fred-104:
     Medium:
     15:
     :
0000
0000
0000
0000
,
0000
0000
0000
0000
,
0000
0000
0000
0000
,
0000
0000
0000
0000
,
0000
0000
0000
0000
,
0000
0000
0000
0000
,
1000
1100
0010
0101
,
0010
1010
0100
0011
,
1000
0110
0001
1001
,
0001
0010
0100
1000
0010
0100
0002
0000
,
1003
0010
1000
0100
1000
0010
0100
0000
0001
0010
0100
0100
0100
0000
1000
0001
,
1000
0000
0001
0010
0000
0100
1000
0010
0100
0001
0010
0001
1000
0001
0100
0000
,
0202
0303
0000
0000
0000
0000
0000
0000
0010
0000
0000
0000
0000
0000
0000
0000
1000
0000
0000
0000
0000
0000
0000
0000
0100
0000
0000
0000
0000
0000
0000
0000
0220
0330
0000
0000
0000
0000
0000
0000
0001
0000
0000
0000
0000
0000
0000
0000
1000
0000
0000
0000
0000
0000
0000
0000
0010
0000
0000
0000
0000
0000
0000
0000
,
2000
3000
0000
0000
0100
0000
0000
0000
0010
0000
0000
0000
0001
0000
0000
0000
2000
3000
0000
0000
0010
0000
0000
0000
0100
0000
0000
0000
0100
0000
0000
0000
0100
0000
0000
0000
0000
0000
0000
0000
0000
0000
0000
0000
0000
0000
0000
0000
0000
0000
0000
0000
0000
0000
0000
0000
0000
0000
0000
0000
0000
0000
0000
0000
,
1100
0110
1100
0101
,
1100
0000
1001
0000
0001
0100
0010
0000
,
1010
0000
0011
0000
1010
0000
0100
0010
,
1010
0000
0101
0000
1000
0001
1001
0000
,
0001
0100
0110
0000
1010
0000
0101
0000
,
1100
0000
0011
0000
1000
0001
0100
0010
,
0100
0000
0010
1000
0001
0100
0001
0010
,
0001
0000
0011
0000
0100
0010
1001
0000
,
1100
0000
1001
0000
1000
0100
0010
0000
,
0011
0000
1000
0001
0010
0001
0100
0010
,
1000
0000
1001
0000
0001
0100
0010
0100
,
0001
1000
0001
0000
1000
0001
1000
0000
0001
0000
0000
0000
1001
0000
0000
0000
,
1000
0000
0001
0010
1000
0010
0001
0100
,
0001
0010
0001
1000
0010
0100
0001
1000
,
0100
0010
0001
0100
0010
1000
0001
0010
,
0110
1100
1010
0101
,
1001
1100
1001
0101
,
1000
0000
0001
0000
0100
0000
0001
0000
0010
0000
0100
0000
0010
0001
0010
0000
,
0001
1000
1010
0000
1000
0001
0011
0000
,
0001
0001
1000
1000
0001
1000
1001
0000
,
0001
0010
0100
1000
0010
1000
0001
1000
,
0010
0100
0010
0001
0010
1000
0001
1000
,
0001
0010
0100
1000
0001
0001
1000
1000
,
1010
0101
0110
1001
,
1100
0000
1000
0100
0000
0100
0001
0000
,
0001
0010
0000
0010
1000
0001
0100
0010
,
1000
0000
0010
0100
0000
0001
1000
0000
,
0001
0100
0010
0010
0020
0000
1030
0000
,
1001
0000
0001
0010
0000
0010
1000
0000
,
1000
0100
0000
0100
0001
1000
0010
0100
,
0001
0000
0100
1000
0000
0001
0010
0000
,
1000
0001
0000
0100
1000
0001
0010
1000
,
0001
0000
0000
0000
,
0000
0000
0000
0000
,
0000
0000
0000
0000
,
0000
0000
0000
0000
,
1001
1010
1001
0101
,
1100
0000
0011
0000
0100
0010
1000
0001
,
1000
0000
0000
0100
0000
0000
0010
0000
0000
0001
0000
0000
0100
0000
0010
0100
,
0010
1000
0010
0100
0001
1000
0001
0000
,
1001
0000
0000
0000
,
0000
0000
0000
0000
,
0100
0000
0000
0000
0000
0000
0100
0000
0000
0000
0000
0000
0200
0000
0000
0300
,
0220
0000
0000
0000
0000
0000
0000
0000
0000
0000
0000
0000
0000
0000
0000
0000
0000
0000
0000
0000
0000
0000
0000
0000
0000
0000
0000
0000
0000
0000
0000
0000
0330
0000
0000
0000
0000
0000
0000
0000
0000
0000
0000
0000
0000
0000
0000
0000
2002
3003
0000
0000
0000
0000
0000
0000
0000
0000
0000
0000
0000
0000
0000
0000
,
0001
0000
0000
0000
0000
0000
0000
0000
0000
0000
0000
0000
0000
0000
0000
0000
0100
0000
0000
0000
0000
0000
0000
0000
0000
0000
0000
0000
0000
0000
0000
0000
0010
0000
0000
0000
0000
0000
0000
0000
0000
0000
0000
0000
0000
0000
0000
0000
2020
3030
0000
0000
0000
0000
0000
0000
0000
0000
0000
0000
0000
0000
0000
0000
,
0001
0000
0000
0000
0000
0000
0000
0000
0000
0000
0000
0000
0000
0000
0000
0000
0100
0000
0000
0000
0000
0000
0000
0000
0000
0000
0000
0000
0000
0000
0000
0000
0010
0000
0000
0000
0000
0000
0000
0000
0000
0000
0000
0000
0000
0000
0000
0000
2200
3300
0000
0000
0000
0000
0000
0000
0000
0000
0000
0000
0000
0000
0000
0000
,
0010
0000
0000
0000
0001
0000
0000
0000
1000
0000
0000
0000
1100
0000
0000
1100
,
0000
0000
0000
0000
0000
0000
0000
0000
1100
0000
0000
0000
0000
0000
0000
0000
0000
0000
0000
0000
0000
0000
0000
0000
0000
0000
0000
0000
0000
0000
0000
0000
1001
0000
0000
0000
0000
0000
0000
0000
0000
0000
0000
0000
0000
0000
0000
0000
0202
0303
0000
0000
0000
0000
0000
0000
0000
0000
0000
0000
0000
0000
0000
0000
,
0010
0000
0000
0000
0000
0000
0000
0000
0000
0000
0000
0000
0000
0000
0000
0000
1000
0000
0000
0000
0000
0000
0000
0000
0000
0000
0000
0000
0000
0000
0000
0000
0100
0000
0000
0000
0000
0000
0000
0000
0000
0000
0000
0000
0000
0000
0000
0000
0022
0033
0000
0000
0000
0000
0000
0000
0000
0000
0000
0000
0000
0000
0000
0000
,
0001
0000
0000
0000
0000
0000
0000
0000
0000
0000
0000
0000
0000
0000
0000
0000
1000
0000
0000
0000
0000
0000
0000
0000
0000
0000
0000
0000
0000
0000
0000
0000
0001
0000
0000
0000
0000
0000
0000
0000
0000
0000
0000
0000
0000
0000
0000
0000
0220
0330
0000
0000
0000
0000
0000
0000
0000
0000
0000
0000
0000
0000
0000
0000
,
1000
0000
0000
0000
0000
0000
0000
0000
0000
0000
0000
0000
0000
0000
0000
0000
0100
0000
0000
0000
0000
0000
0000
0000
0000
0000
0000
0000
0000
0000
0000
0000
0010
0000
0000
0000
0000
0000
0000
0000
0000
0000
0000
0000
0000
0000
0000
0000
2002
3003
0000
0000
0000
0000
0000
0000
0000
0000
0000
0000
0000
0000
0000
0000
,
0010
0000
0000
0000
0000
0000
0000
0000
0000
0000
0000
0000
0000
0000
0000
0000
0100
0000
0000
0000
0000
0000
0000
0000
1000
0000
0000
0000
0000
0000
0000
0000
0100
0000
0000
0000
0000
0000
0000
0000
0000
0000
0000
0000
0000
0000
0000
0000
2200
3300
0000
0000
0000
0000
0000
0000
0000
0000
0000
0000
0000
0000
0000
0000
,
0010
0000
0000
0000
0000
0000
0000
0000
0000
0000
0000
0000
0000
0000
0000
0000
0001
0000
0000
0000
0000
0000
0000
0000
0000
0000
0000
0000
0000
0000
0000
0000
0100
0000
0000
0000
0000
0000
0000
0000
0000
0000
0000
0000
0000
0000
0000
0000
0202
0303
0000
0000
0000
0000
0000
0000
0000
0000
0000
0000
0000
0000
0000
0000
,
0010
0000
0000
0000
0000
0000
0000
0000
0000
0000
0000
0000
0000
0000
0000
0000
1000
0000
0000
0000
0000
0000
0000
0000
0000
0000
0000
0000
0000
0000
0000
0000
0100
0000
0000
0000
0000
0000
0000
0000
0000
0000
0000
0000
0000
0000
0000
0000
2000
3000
0000
0000
0000
0000
0000
0000
0100
0000
0000
0000
0000
0000
0000
0000
,
0010
0000
0001
0000
1000
0000
0001
0000
1000
0001
1000
0001
1000
0000
0000
0000
,
1001
0000
0001
0100
0010
0000
1000
0001
0100
0000
0001
0010
0000
0100
0010
0000
,
0001
1000
0001
0100
0010
1000
0001
0000
2000
3000
0200
0300
0020
0030
2002
3003
,
1100
0000
0101
0000
1100
0000
1000
0100
0020
0000
0031
0010
0100
0001
0200
0000
,
1300
0100
0010
0001
0100
0010
0100
0100
0100
0000
0000
0000
0000
0000
0000
0000
,
0001
0000
0100
0000
0001
0000
1000
0001
1000
0000
0100
0000
1000
0000
0020
0000
,
0000
2030
0000
3002
0000
0013
0100
0010
,
0001
0100
1000
0100
0001
0100
0010
0200
,
0000
0000
0301
1000
0001
0000
0100
0000
0110
0000
0000
0000
1010
0000
0000
0000
,
0001
1000
1001
0000
1000
0000
0110
0000
,
0001
0110
1000
1010
,
0001
0000
0101
0000
1000
0001
1001
0000
,
0001
1000
0100
0010
0001
1000
0001
0100
,
0010
1000
2002
3003
1000
0010
1000
0100
,
0010
0000
0001
1000
1000
0001
0010
0100
,
0010
0000
0001
1000
1010
0000
0101
0000
,
1000
0000
0001
0000
1000
0001
1000
0001
2000
0000
0000
0000
0000
0000
3000
0000
,
0001
1000
0100
0020
0000
0230
0000
1300
,
0001
1000
0100
0020
0000
0130
1000
0001
,
1000
0010
0001
0020
0000
0130
0010
1000
,
0001
0010
0100
0001
0100
0010
0002
0000
,
1003
0010
1000
0002
0000
0013
0100
0010
,
0001
0000
1000
0000
0001
0000
0100
0010
0100
0000
0001
0000
1000
0000
0001
0000
,
1000
0100
0010
0001
1000
0010
0100
0010
,
0110
1100
0101
1001
,
1100
0000
0101
0000
1000
0010
0100
0000
,
0101
0000
1010
0000
0001
1000
0010
0000
,
0110
0000
1001
0000
1000
0001
0010
0000
,
0011
0000
1010
0000
0001
1000
0001
0000
,
1000
0000
1000
0000
1010
0000
0000
0000
0001
0000
0100
0000
0001
0000
0010
0100
,
0010
0001
1000
0001
1000
0001
0100
0010
,
1000
0100
0010
0001
0010
0100
1000
0010
,
0110
1010
0101
1001
,
0110
0000
1001
0002
0000
0103
0010
1000
,
0100
0010
0001
0200
0000
0310
0001
0010
,
1000
0001
0100
2000
0000
3100
0010
1000
,
0100
0010
0001
0100
0001
1000
1001
0000
,
1010
1100
1010
1100
,
0011
0101
0011
0101
,
1000
0000
0000
1100
0000
0000
0001
0000
0000
0011
0000
0000
1000
0000
0010
0100
,
0010
0100
0001
1000
0001
0000
1001
0000
,
0100
0100
0000
0000
0000
0000
0000
0000
;

//--------------- dance-single - Fred-104 ----------------
#NOTES:
     dance-single:
     Fred-104:
     Hard:
     17:
     :
0000
0000
0000
0000
,
0000
0000
0000
0000
,
0000
0000
0000
0000
,
0000
0000
0000
0000
,
0000
0000
0000
0000
,
0000
0000
0000
0000
,
1000
1100
0001
0011
,
1000
1010
0001
0101
,
1000
0110
0001
0110
,
1000
0000
0100
0000
0010
0000
0001
0000
0100
0000
0010
0000
1000
0001
2000
0000
,
3001
0000
0010
0000
0100
0000
0010
0000
0001
0000
0010
0000
0100
0000
0000
0000
1000
0000
0001
0000
1000
0010
1000
0010
1000
0000
0000
0000
0001
0100
0001
0100
,
0010
0000
1000
0000
0010
0000
1000
0000
0100
0000
0010
0000
0100
0000
1000
0001
1000
0000
0001
0000
0100
0000
0010
0000
1000
0000
0000
0000
0001
1000
0001
1000
,
0002
0003
0000
0000
0100
0000
0000
0000
0001
0000
0000
0000
0100
0000
0000
0000
0010
0000
0000
0000
1000
0000
0000
0000
0010
0000
0000
0000
1000
0000
0000
0000
0002
0003
0000
0000
0010
0000
0000
0000
0001
0000
0000
0000
0010
0000
0000
0000
0100
0000
0000
0000
1000
0000
0000
0000
0100
0000
0000
0000
1000
0000
0000
0000
,
0002
0003
0000
0000
0100
0000
0000
0000
0010
0000
0000
0000
1000
0000
0000
0000
0002
0003
1000
0000
0001
0000
1000
0000
0001
0000
1000
0000
0001
0000
1000
0000
0001
0000
0000
0000
0000
0000
0000
0000
0000
0000
0000
0000
0000
0000
0000
0000
0001
0000
0000
0000
1000
0000
0000
0000
0001
0000
0000
0000
1000
0000
0000
0000
,
0002
0103
0020
0130
0002
0103
0020
1030
,
0200
1300
0002
0103
2000
3200
0302
1003
,
0200
0000
0310
0000
0002
0000
0103
0000
0020
0000
0031
0000
0020
0000
2030
3000
,
2002
3003
0220
0330
0100
0010
1001
0000
,
1100
1000
1001
0000
0002
1003
0200
0310
,
0002
0000
0103
0000
0002
0000
2003
0000
3020
0000
1030
0000
0001
0100
0001
0100
,
0010
0000
1000
0000
1001
0000
0000
0000
1000
0000
0100
0000
0010
0100
0010
0100
,
1000
0010
0001
1000
0100
0001
1000
0000
,
1001
0001
0100
0000
0010
1000
0010
0100
,
0001
0000
0010
0000
0001
0100
0001
0100
0001
0000
0000
0000
1000
0000
0100
1000
,
0100
0000
0010
0000
0001
0000
0100
0000
0010
0000
1000
0000
0100
0000
1000
0001
,
1000
0010
0100
0010
1000
0010
0100
0010
1000
0000
0000
0000
1001
0000
0000
0000
,
0101
0000
0002
0023
1030
0002
0103
2000
,
3001
0000
0010
0000
0100
0000
0010
0000
0001
0000
0100
0000
0001
0000
1000
0001
,
2000
3010
0200
0302
0013
0002
1003
0010
,
1010
0101
1100
0011
,
1000
0001
0101
0000
0001
1000
1100
0000
,
1000
0000
0100
0000
0010
0000
0001
0010
0001
0000
0100
0000
0010
1000
0001
1000
,
0100
0010
0011
0000
0100
0010
1010
0000
,
1000
0000
1000
0000
0001
0000
0001
0000
1000
0000
0001
0000
1000
0001
1000
0001
,
1000
0100
1000
0010
1000
0100
0010
0001
,
0100
0000
0001
0000
0100
0000
0010
1000
0010
0000
0100
0000
0001
0000
1000
0001
,
1000
0100
0010
0100
1000
1000
0001
0001
,
0101
0000
0100
0000
0110
0000
0010
0000
1000
0000
0001
1000
0002
0000
0000
0000
,
1003
0001
0010
0100
0001
1000
0010
0001
,
1000
0000
0010
0000
0100
0000
1000
0000
0100
0000
0001
0000
0010
0001
0010
0001
,
1000
0001
0100
0010
0001
1000
0100
0001
,
1000
0001
1000
0001
1000
0001
1000
0001
2000
0000
0000
0000
3002
0000
0000
0000
,
1003
0010
0001
1000
0100
0001
1000
0010
,
0001
0000
1000
0000
0100
0000
0001
0000
1000
0000
0001
0000
1000
0001
1000
0001
,
1000
0010
0100
1000
0100
0010
1000
0001
,
0010
0000
0100
0000
0001
0000
0100
0000
0010
0000
0001
0000
1000
0001
1000
0001
,
1000
0000
0000
0000
,
0000
0000
0000
0000
,
0000
0000
0000
0000
,
0000
0000
0000
0000
,
0110
1010
0011
1100
,
0101
0000
1001
0000
0001
1000
0010
0100
,
0001
0000
0000
0101
0000
0000
1000
0000
0000
1010
0000
0000
0001
0010
0100
1000
,
0100
1000
0010
0100
0001
1000
1001
0000
,
0110
0000
0000
0000
,
0000
0000
0000
0000
,
1000
0000
0000
0000
0000
0000
0000
0000
0000
0100
0000
0000
0000
0000
0000
0000
0000
0000
2000
0000
0000
0000
0000
3000
,
2002
0000
0000
0000
0000
0000
0000
0000
0000
0000
0000
0000
0000
0000
0000
0000
0000
0000
0000
0000
0000
0000
0000
0000
0000
0000
0000
0000
0000
0000
0000
0000
3003
0000
0000
0000
0000
0000
0000
0000
0000
0000
0000
0000
0000
0000
0000
0000
2002
3003
0000
0000
0000
0000
0000
0000
0000
0000
0000
0000
0000
0000
0000
0000
,
0001
0000
0000
0000
0000
0000
0000
0000
0100
0000
0000
0000
0000
0000
0000
0000
0010
0000
0000
0000
0000
0000
0000
0000
1000
0000
0000
0000
0000
0000
0000
0000
0100
0000
0000
0000
0000
0000
0000
0000
0010
0000
0000
0000
0000
0000
0000
0000
0002
0003
0000
0000
0000
0000
0000
0000
0000
0000
0000
0000
0000
0000
0000
0000
,
1000
0000
0000
0000
0000
0000
0000
0000
0001
0000
0000
0000
0000
0000
0000
0000
0100
0000
0000
0000
0000
0000
0000
0000
0010
0000
0000
0000
0000
0000
0000
0000
1010
0000
0000
0000
0000
0000
0000
0000
0000
0000
0000
0000
0000
0000
0000
0000
2200
3300
0000
0000
0000
0000
0000
0000
0000
0000
0000
0000
0000
0000
0000
0000
,
1000
0000
0100
0000
0001
0000
0100
0000
0010
0000
0001
1000
0010
0000
0000
0010
,
0000
0000
0000
0000
0000
0000
0000
0000
0010
0000
0000
0000
0000
0000
0000
0000
0000
0000
0000
0000
0000
0000
0000
0000
0000
0000
0000
0000
0000
0000
0000
0000
1001
0000
0000
0000
0000
0000
0000
0000
0000
0000
0000
0000
0000
0000
0000
0000
2020
3030
0000
0000
0000
0000
0000
0000
0000
0000
0000
0000
0000
0000
0000
0000
,
1000
0000
0000
0000
0000
0000
0000
0000
0100
0000
0000
0000
0000
0000
0000
0000
0000
0000
0000
0000
0000
0000
0000
0000
0010
0000
0000
0000
0000
0000
0000
0000
0001
0000
0000
0000
0000
0000
0000
0000
0010
0000
0000
0000
0000
0000
0000
0000
0022
0033
0000
0000
0000
0000
0000
0000
0000
0000
0000
0000
0000
0000
0000
0000
,
0001
0000
0000
0000
0000
0000
0000
0000
0100
0000
0000
0000
0000
0000
0000
0000
0000
0000
0000
0000
0000
0000
0000
0000
0010
0000
0000
0000
0000
0000
0000
0000
1000
0000
0000
0000
0000
0000
0000
0000
0001
0000
0000
0000
0000
0000
0000
0000
0202
0303
0000
0000
0000
0000
0000
0000
0001
0000
0000
0000
0000
0000
0000
0000
,
0000
0000
0000
0000
0000
0000
0000
0000
0100
0000
0000
0000
0000
0000
0000
0000
0000
0000
0000
0000
0000
0000
0000
0000
0010
0000
0000
0000
0000
0000
0000
0000
1000
0000
0000
0000
0000
0000
0000
0000
0100
0000
0000
0000
0000
0000
0000
0000
2200
3300
0000
0000
0000
0000
0000
0000
1000
0000
0000
0000
0000
0000
0000
0000
,
0000
0000
0000
0000
0000
0000
0000
0000
0001
0000
0000
0000
0000
0000
0000
0000
0100
0000
0000
0000
0000
0000
0000
0000
0010
0000
0000
0000
0000
0000
0000
0000
0100
0000
0000
0000
0000
0000
0000
0000
0001
0000
0000
0000
0000
0000
0000
0000
2002
3003
0000
0000
0000
0000
0000
0000
0000
0000
0000
0000
0000
0000
0000
0000
,
0100
0000
0000
0000
0000
0000
0000
0000
0000
0000
0000
0000
0000
0000
0000
0000
0110
0000
0000
0000
0000
0000
0000
0000
0000
0000
0000
0000
0000
0000
0000
0000
0100
0000
0000
0000
0000
0000
0000
0000
0000
0000
0000
0000
0000
0000
0000
0000
2002
3003
0000
0000
0000
0000
0000
0000
0000
0000
0000
0000
0000
0000
0000
0000
,
0010
0000
0000
0000
0000
0000
0000
0000
0000
0000
0000
0000
0000
0000
0000
0000
0110
0000
0000
0000
0000
0000
0000
0000
0000
0000
0000
0000
0000
0000
0000
0000
0010
0000
0000
0000
0000
0000
0000
0000
0000
0000
0000
0000
0000
0000
0000
0000
2020
3030
0000
0000
0000
0000
0000
0000
0000
0000
0000
0000
0000
0000
0000
0000
,
0101
0000
0000
0000
1000
0000
0001
0000
1000
0100
0010
0001
1000
0000
0000
0000
,
1001
0000
0001
1000
0001
0100
0010
1000
0001
0000
0100
1000
0000
0100
0020
0000
,
1030
0000
0001
0000
0010
0000
0001
0000
0100
0000
0100
0000
0100
0000
0001
1000
0002
0000
0003
0000
0200
0000
0300
0000
0020
0000
0030
0000
2020
0000
3030
0000
,
1100
0000
0101
0000
1100
0000
0001
0100
0002
0000
1003
0010
0100
0001
0200
0300
,
0101
0000
0001
0000
0010
0000
0002
0000
2003
0000
3200
0000
1300
0010
0100
0001
1000
0000
0000
0000
0000
0000
0000
0000
0000
0000
0000
0000
0000
0000
0000
0000
,
0000
0000
1000
0000
0001
0000
1000
0001
2000
0000
3100
0000
0020
0000
0032
0000
,
0103
0020
1030
0002
1003
0020
2030
3200
,
0310
0002
0203
0320
0130
0100
0100
0001
,
1000
0000
0001
1000
0001
0000
1000
0000
1100
0000
0000
0000
0110
0000
0000
0000
,
0011
0001
1001
0000
1000
0100
1100
0000
,
0001
0100
0101
0000
1000
0010
1010
0000
,
0001
0010
0011
0000
1000
0001
1001
0000
,
0001
0000
0100
0010
0100
0000
0001
0000
1000
0000
0100
0000
0001
0000
0100
0000
,
1000
0001
2002
3003
1000
0100
0010
0001
,
0100
0000
0010
0000
1000
0000
0001
0010
0001
0000
1000
0000
0010
0000
0100
0000
,
0001
0000
1000
0000
0100
0000
1000
0010
1000
0000
0001
0100
0001
0000
1000
0001
,
1000
0000
0001
0010
0001
1000
0001
1000
0002
0000
0000
0000
0000
0000
0003
0000
,
2000
3100
0020
2030
3010
0002
0103
0002
,
2003
3010
0002
0023
0130
0002
1003
0002
,
0023
0000
0230
0000
0301
0000
0200
0000
1300
0000
0002
0000
1003
0010
0100
0010
,
2000
0000
3200
0000
0301
0000
2000
0000
3010
0000
0002
0003
2002
0000
3003
0000
,
2000
0000
3001
0000
0200
0000
2300
0000
3100
0000
0020
0000
1030
0000
0001
1000
,
0002
0000
1003
0000
0100
0010
0001
0010
0200
0000
2300
0000
3020
0000
0230
0000
,
0302
0000
2003
0000
3001
0000
0200
0000
0310
1000
0010
0000
1000
0001
1000
0000
,
1100
0000
0000
0000
0101
0000
0000
0000
0100
0010
0100
0000
0001
1000
0001
1000
,
0100
0000
0000
0000
0110
0000
0000
0000
1000
0000
0100
0010
0100
0000
0010
0000
,
0011
0000
0000
0000
0101
0000
0000
0000
0001
1000
0001
0100
0010
0000
0000
0000
,
1010
0000
0000
0000
0101
0000
0000
0000
1000
0000
0001
0010
0100
0000
0010
0000
,
0001
0000
0100
0000
0010
0000
0001
0000
0010
0100
0010
0100
0002
0000
0003
0000
,
1001
0000
1000
0000
1100
0000
0000
0000
0110
0000
0010
0000
0001
0100
0001
0100
,
0001
0000
0010
0000
0100
1000
0100
1000
0100
0000
1000
0000
0001
1000
0001
1000
,
0001
0000
0100
0010
0100
0000
0001
0010
0001
0000
1000
0010
0100
0001
1000
0000
,
1100
0110
0011
1001
,
1010
0000
0010
0000
0110
0000
0200
0000
0000
0000
0301
0000
0010
0000
0001
1000
,
0001
0000
0100
0000
0010
0100
0010
0100
0010
0000
0100
0000
0001
0100
0001
1000
,
0100
1000
0010
0200
0000
0301
0010
0001
,
1000
0000
0100
0000
1000
0010
1000
0010
1000
0000
0001
0000
1001
0000
0000
0000
,
0001
0100
0001
0010
0100
0010
0001
1000
,
0010
0100
0001
1000
0100
0010
0001
0010
,
0011
0000
0000
1010
0000
0000
0101
0000
0000
1100
0000
0000
0001
1000
0001
1000
,
0001
0010
0100
1000
0001
0001
1001
0000
,
1100
0010
0000
0000
0000
0000
0000
0000
;

//--------------- dance-double - Fred-104 ----------------
#NOTES:
     dance-double:
     Fred-104:
     Easy:
     11:
     :
00000000
00000000
00000000
00000000
,
00000000
00000000
00000000
00000000
,
00000000
00000000
00000000
00000000
,
00000000
00000000
00000000
00000000
,
00000000
00000000
00000000
00000000
,
00000000
00000000
00000000
00000000
,
00010000
00001000
00000000
00001000
,
00000000
00100000
00000000
00100000
,
00010000
01000000
00000000
00001000
,
00022000
00000000
00000000
00033000
,
00010000
00000000
00011000
00000000
00010000
00000100
00001100
00000000
,
00000010
00000000
00000000
00000000
00000110
00000000
00000000
00000000
00000100
00000000
00000000
00000100
00000000
00000000
00000000
00000000
,
00002002
00003003
00000000
00000000
00000000
00000000
00000000
00000000
00000000
00000000
00000000
00000000
00000000
00000000
00000000
00000000
00000100
00000000
00000000
00000000
00000000
00000000
00000000
00000000
00000000
00000000
00000000
00000000
00000000
00000000
00000000
00000000
00022000
00033000
00000000
00000000
00000000
00000000
00000000
00000000
00000000
00000000
00000000
00000000
00000000
00000000
00000000
00000000
00100000
00000000
00000000
00000000
00000000
00000000
00000000
00000000
00000000
00000000
00000000
00000000
00000000
00000000
00000000
00000000
,
20020000
30030000
00000000
00000000
00000000
00000000
00000000
00000000
00000000
00000000
00000000
00000000
00000000
00000000
00000000
00000000
02200000
03300000
00000000
00000000
00000000
00000000
00000000
00000000
00000000
00000000
00000000
00000000
00000000
00000000
00000000
00000000
10010000
00000000
00000000
00000000
00000000
00000000
00000000
00000000
00000000
00000000
00000000
00000000
00000000
00000000
00000000
00000000
00000000
00000000
00000000
00000000
00000000
00000000
00000000
00000000
00000000
00000000
00000000
00000000
00000000
00000000
00000000
00000000
,
10000000
10000000
01000000
01000000
,
00100000
00000000
00100000
00000000
00001000
00010000
00001000
00000000
,
01000000
00000000
01000000
00000000
00001000
00000000
00001000
00010000
,
00001000
00010000
00000010
00001010
,
00001000
00001000
00001000
00000000
00000001
00000000
00000100
00000000
,
00000010
00000000
00000100
00000000
00001000
00010000
00001000
00000000
,
00010000
00100000
01000000
00000000
00010000
00100000
01000000
00000000
,
10000000
00100000
01000000
00001000
,
00010000
00001000
00010000
00000000
00001000
00000000
00000100
00000000
,
00000001
00000000
00001000
00000001
00001000
00000000
00000001
00000000
,
00000010
00000000
00000100
00000000
00010000
00001000
00010000
00000000
,
00001000
00010000
00001000
00010000
00001000
00000000
00011000
00000000
,
00001000
00000000
00100000
00010000
00000000
10000000
00010000
00000000
,
01000000
00100000
10000000
00000000
00100000
01000000
00100000
00000000
,
10000000
01000000
00100000
00001000
,
00010000
00100000
10000000
10010000
,
01000000
01100000
00001000
00011000
,
00000100
00000000
00000110
00000000
00000001
00001000
00000001
00000000
,
00000100
00000110
00010000
00011000
,
01000000
00000000
00100000
00000000
10000000
00010000
10000000
00010000
,
00100000
01000000
00100000
00001000
,
00010000
00000000
00001000
00000000
00000010
00000100
00001000
00000000
,
00000100
00000000
00000010
00000001
00000000
00001000
00000001
00000000
,
00000100
00001000
00010000
00011000
,
00101000
00000000
00000000
00001000
00000000
00000000
00010000
00000000
,
00000000
00000010
00000000
00000000
00010000
00000000
00001000
00000000
,
01000000
00000000
00000000
00001000
00000000
00000000
00010000
00000000
,
00000100
00000000
00010000
00001000
00010000
00000000
00001000
00000000
,
00011000
00000000
00000000
01000000
00000000
00000000
00001000
00000000
,
00000000
00010000
00000000
00000000
00000100
00000000
00010000
00000000
,
00001000
00000000
00000000
00100000
00000000
00000000
00001000
00000000
,
00000000
00010000
00000000
00000000
00000010
00000000
00010000
00000000
,
00011000
00000000
00000000
00000000
,
00000000
00000000
00000000
00000000
,
00000000
00000000
00000000
00000000
,
00000000
00000000
00000000
00000000
,
00010000
00010000
00001000
00001000
,
00000010
00000000
00000010
00000000
00000001
00000100
00000001
00000000
,
00001000
00000000
00000000
00000010
00000000
00000000
00010000
00000000
,
00001000
00100000
00001000
00010000
,
00011000
00000000
00000000
00000000
,
00000000
00000000
00000000
00000000
,
01000000
00000000
00000000
00000000
00000000
00000000
01000000
00000000
00000000
00000000
00000000
00000000
02000000
00000000
00000000
03000000
,
20020000
00000000
00000000
00000000
00000000
00000000
00000000
00000000
00000000
00000000
00000000
00000000
00000000
00000000
00000000
00000000
00000000
00000000
00000000
00000000
00000000
00000000
00000000
00000000
00000000
00000000
00000000
00000000
00000000
00000000
00000000
00000000
30030000
00000000
00000000
00000000
00000000
00000000
00000000
00000000
00000000
00000000
00000000
00000000
00000000
00000000
00000000
00000000
22000000
33000000
00000000
00000000
00000000
00000000
00000000
00000000
00000000
00000000
00000000
00000000
00000000
00000000
00000000
00000000
,
00000000
00000000
00000000
00000000
00000000
00000000
00000000
00000000
00000000
00000000
00000000
00000000
00000000
00000000
00000000
00000000
00000000
00000000
00000000
00000000
00000000
00000000
00000000
00000000
00000000
00000000
00000000
00000000
00000000
00000000
00000000
00000000
00000000
00000000
00000000
00000000
00000000
00000000
00000000
00000000
00000000
00000000
00000000
00000000
00000000
00000000
00000000
00000000
02200000
03300000
00000000
00000000
00000000
00000000
00000000
00000000
00000000
00000000
00000000
00000000
00000000
00000000
00000000
00000000
,
00000000
00000000
00000000
00000000
00000000
00000000
00000000
00000000
00000000
00000000
00000000
00000000
00000000
00000000
00000000
00000000
00000000
00000000
00000000
00000000
00000000
00000000
00000000
00000000
00000000
00000000
00000000
00000000
00000000
00000000
00000000
00000000
00000000
00000000
00000000
00000000
00000000
00000000
00000000
00000000
00000000
00000000
00000000
00000000
00000000
00000000
00000000
00000000
00220000
00330000
00000000
00000000
00000000
00000000
00000000
00000000
00000000
00000000
00000000
00000000
00000000
00000000
00000000
00000000
,
00000000
00000000
00000000
00000000
00000000
00000000
00000000
00000000
00000000
00000000
00000000
00000000
00001000
00000000
00000000
00001000
,
00000000
00000000
00000000
00000000
00000000
00000000
00000000
00000000
00001000
00000000
00000000
00000000
00000000
00000000
00000000
00000000
00000000
00000000
00000000
00000000
00000000
00000000
00000000
00000000
00000000
00000000
00000000
00000000
00000000
00000000
00000000
00000000
00000000
00000000
00000000
00000000
00000000
00000000
00000000
00000000
00000000
00000000
00000000
00000000
00000000
00000000
00000000
00000000
00022000
00033000
00000000
00000000
00000000
00000000
00000000
00000000
00000000
00000000
00000000
00000000
00000000
00000000
00000000
00000000
,
00000000
00000000
00000000
00000000
00000000
00000000
00000000
00000000
00000000
00000000
00000000
00000000
00000000
00000000
00000000
00000000
00000000
00000000
00000000
00000000
00000000
00000000
00000000
00000000
00000000
00000000
00000000
00000000
00000000
00000000
00000000
00000000
00000000
00000000
00000000
00000000
00000000
00000000
00000000
00000000
00000000
00000000
00000000
00000000
00000000
00000000
00000000
00000000
00002200
00003300
00000000
00000000
00000000
00000000
00000000
00000000
00000000
00000000
00000000
00000000
00000000
00000000
00000000
00000000
,
00000000
00000000
00000000
00000000
00000000
00000000
00000000
00000000
00000000
00000000
00000000
00000000
00000000
00000000
00000000
00000000
00000000
00000000
00000000
00000000
00000000
00000000
00000000
00000000
00000000
00000000
00000000
00000000
00000000
00000000
00000000
00000000
00000000
00000000
00000000
00000000
00000000
00000000
00000000
00000000
00000000
00000000
00000000
00000000
00000000
00000000
00000000
00000000
00000220
00000330
00000000
00000000
00000000
00000000
00000000
00000000
00000000
00000000
00000000
00000000
00000000
00000000
00000000
00000000
,
00000000
00000000
00000000
00000000
00000000
00000000
00000000
00000000
00000000
00000000
00000000
00000000
00000000
00000000
00000000
00000000
00000000
00000000
00000000
00000000
00000000
00000000
00000000
00000000
00000000
00000000
00000000
00000000
00000000
00000000
00000000
00000000
00000000
00000000
00000000
00000000
00000000
00000000
00000000
00000000
00000000
00000000
00000000
00000000
00000000
00000000
00000000
00000000
00000022
00000033
00000000
00000000
00000000
00000000
00000000
00000000
00000000
00000000
00000000
00000000
00000000
00000000
00000000
00000000
,
00000000
00000000
00000000
00000000
00000000
00000000
00000000
00000000
00000000
00000000
00000000
00000000
00000000
00000000
00000000
00000000
00001000
00000000
00000000
00000000
00000000
00000000
00000000
00000000
00000000
00000000
00000000
00000000
00000000
00000000
00000000
00000000
00000000
00000000
00000000
00000000
00000000
00000000
00000000
00000000
00000000
00000000
00000000
00000000
00000000
00000000
00000000
00000000
00002002
00003003
00000000
00000000
00000000
00000000
00000000
00000000
00000000
00000000
00000000
00000000
00000000
00000000
00000000
00000000
,
00000000
00000000
00000000
00000000
00000000
00000000
00000000
00000000
00000000
00000000
00000000
00000000
00000000
00000000
00000000
00000000
00000010
00000000
00000000
00000000
00000000
00000000
00000000
00000000
00000000
00000000
00000000
00000000
00000000
00000000
00000000
00000000
00000000
00000000
00000000
00000000
00000000
00000000
00000000
00000000
00000000
00000000
00000000
00000000
00000000
00000000
00000000
00000000
00022000
00033000
00000000
00000000
00000000
00000000
00000000
00000000
00000000
00000000
00000000
00000000
00000000
00000000
00000000
00000000
,
00000000
00000000
00000000
00000000
00000000
00000000
00000000
00000000
00000000
00000000
00000000
00000000
00010000
00000000
00000000
00000000
00000000
00000000
00000000
00000000
00000000
00000000
00000000
00000000
00001000
00000000
00000000
00000000
00000000
00000000
00000000
00000000
00000000
00000000
00000000
00000000
00020000
00030000
00000000
00000000
00000000
00000000
00000000
00000000
00000000
00000000
00000000
00000000
,
00010000
00001000
00001000
00011000
,
01000000
00000000
00100000
00000000
01100000
00000000
00000000
00000000
00010000
00000000
00000000
10000000
00000000
00000000
00010000
00000000
,
01000000
00001000
00011000
00000000
00100000
00001000
00010000
00001000
,
00000010
00000100
00001000
00000001
00000010
00000100
00001000
00000100
,
00010000
00000000
00001000
00000000
00010000
00001000
00010000
00001000
00010000
00000000
00000000
00000000
00000000
00000000
00000000
00000000
,
00000000
00000000
00010000
00001000
,
00100000
00001000
00010000
00001000
,
01000000
01000000
01000000
00000000
00010000
00000000
00100000
00000000
,
01000000
10000000
00010000
10000000
,
01000000
01000000
00010000
00000000
01000000
00000000
01000000
00000000
,
10000000
01000000
00010000
00001000
,
00000100
00000010
00001000
00000010
,
00000100
00000010
00001000
00000001
,
00000010
00000100
00000010
00000000
00000001
00000000
00000100
00000000
,
00000110
00000000
00010000
00001000
,
00011000
00000000
00010000
00001000
,
00000100
00000001
00001000
00000001
00002000
00000000
00000000
00003000
,
00000001
00000000
00000100
00000010
00000000
00001000
00000000
00000000
,
00000010
00000000
00001000
00000100
00000000
00010000
00000000
00000000
,
00001000
00000000
00000000
01000000
00000000
00000000
00010000
00000000
,
10000000
00000000
00000000
01000000
00000000
00000000
00100000
00000000
,
00001000
00010000
00001000
00000000
01000000
00000000
00001000
00000000
,
00010000
00000000
00001000
00000100
,
00000010
00001000
00000001
00000100
,
00000010
00001000
00000100
00011000
,
00001000
00001000
00001000
00100000
,
00010000
00000000
00010000
00000000
01000000
00100000
01000000
00000000
,
00010000
00010000
10000000
10000000
,
01000000
00100000
00001000
00000000
00010000
00001000
00010000
00000000
,
00001000
01000000
00001000
00000000
00010000
00000000
00000010
00001000
,
00000010
00000000
00001000
00000000
00000100
00000010
00000100
00000000
,
00000010
00000001
00000100
00001000
,
00010000
00100000
10000000
00010000
,
10000000
10010000
00000000
01000000
,
00100000
00000000
00000000
00001000
00000000
00000000
00010000
00000000
,
01000000
00000000
00000000
00010000
00000000
00000000
00001000
00000000
,
00010000
00000000
00000000
00000100
00000000
00000000
00010000
00000000
,
00001000
00010000
00000010
00010000
,
00001000
00000000
00000000
00010000
00000000
00000000
00001000
00000000
,
00010000
00000000
00000000
00001000
00000000
00000000
00010000
00000000
00000000
00001000
00000000
00000000
00010000
00000000
00000000
00000000
,
00010000
00001000
00100000
10010000
,
01000000
01000000
00000000
00000000
00000000
00000000
00000000
00000000
;

//--------------- dance-double - Fred-104 ----------------
#NOTES:
     dance-double:
     Fred-104:
     Medium:
     15:
     :
00000000
00000000
00000000
00000000
,
00000000
00000000
00000000
00000000
,
00000000
00000000
00000000
00000000
,
00000000
00000000
00000000
00000000
,
00000000
00000000
00000000
00000000
,
00000000
00000000
00000000
00000000
,
00000001
00000011
00001000
00001010
,
00010000
00011000
00001000
00101000
,
00010000
00010010
00001000
00011000
,
00001000
00010000
01000000
10000000
00010000
01000000
00200000
00000000
,
10300000
01000000
10000000
01000000
00100000
00010000
00100000
00000000
00001000
00010000
00000100
00000100
00000100
00000000
00001000
00000001
,
00001000
00000000
00000001
00000100
00000000
00000010
00000100
00001000
00010000
00100000
01000000
00010000
10000000
00010000
01000000
00000000
,
02200000
03300000
00000000
00000000
00000000
00000000
00000000
00000000
00100000
00000000
00000000
00000000
00000000
00000000
00000000
00000000
10000000
00000000
00000000
00000000
00000000
00000000
00000000
00000000
00010000
00000000
00000000
00000000
00000000
00000000
00000000
00000000
02020000
03030000
00000000
00000000
00000000
00000000
00000000
00000000
00100000
00000000
00000000
00000000
00000000
00000000
00000000
00000000
00001000
00000000
00000000
00000000
00000000
00000000
00000000
00000000
00010000
00000000
00000000
00000000
00000000
00000000
00000000
00000000
,
00000010
00001000
00000100
00000010
00000001
00000100
00000010
00000010
00000010
00000000
00000000
00000000
00000000
00000000
00000000
00000000
,
00001100
00000101
00001100
00001010
,
00010100
00000000
01001000
00000000
00010000
00001000
00010000
00000000
,
00011000
00000000
00101000
00000000
00010010
00000000
00001000
00010000
,
00011000
00000000
01001000
00000000
00010000
01000000
01100000
00000000
,
10000000
01000000
01100000
00000000
00110000
00000000
00101000
00000000
,
00010010
00000000
00011000
00000000
00010000
00001000
00000010
00000001
,
00001000
00000000
00000100
00000010
00000001
00000100
00001000
00010000
,
00001000
00000000
00011000
00000000
00010000
01000000
00100000
00000000
,
00110000
00000000
10010000
00000000
10000000
00100000
01000000
00000000
,
01010000
00000000
10000000
01000000
00010000
00001000
00010000
00000100
,
00000010
00000000
00001001
00000000
00000001
00000010
00001000
00000010
,
00000001
00000100
00001000
00000100
00000001
00000000
00001001
00000000
,
00001000
00000000
00000001
00000010
00000100
00000010
00001000
00010000
,
01000000
00100000
00010000
10000000
00100000
00010000
00001000
01000000
,
00001000
00010000
00001000
00000100
00000010
00010000
00001000
00010000
,
00011000
00010010
01001000
00011000
,
00101000
00010100
00001100
00001001
,
00000001
00000010
00000100
00010000
00001000
00000010
00000001
00000100
,
00000010
00001000
00001100
00000000
00000001
00000100
00000110
00000000
,
00000001
00000100
00000010
00010000
00001000
00000100
00000001
00001000
,
00000001
00000010
00000100
00000010
00000100
00010000
00001000
00010000
,
01000000
00100000
00010000
01000000
00001000
00010000
00001000
00100000
,
00001000
00010000
00000010
00010000
00001000
00001000
00010000
00010000
,
00011000
00101000
00010100
00011000
,
00011000
00000000
00010000
00001000
00000000
00000010
00000001
00000000
,
00001000
00000100
00000000
00000010
00000001
00001000
00000001
00000100
,
00000010
00000000
00001000
00000001
00000000
00000010
00000100
00000000
,
00001000
00000100
00010000
00010000
00020000
00000000
00032000
00000000
,
00103000
00000000
00001000
00010000
00000000
00001000
01000000
00000000
,
00001000
00010000
00000000
00001000
00100000
00000000
00010000
10000000
,
00010000
00000000
00100000
01000000
00000000
10000000
01000000
00000000
,
00100000
00001000
00000000
00010000
00001000
00000010
00000100
00001000
,
00000100
00000000
00000000
00000000
,
00000000
00000000
00000000
00000000
,
00000000
00000000
00000000
00000000
,
00000000
00000000
00000000
00000000
,
00001001
00001100
00010010
00011000
,
01001000
00000000
00110000
00000000
00100000
00010000
10000000
00100000
,
01000000
00000000
00000000
00100000
00000000
00000000
10000000
00000000
00000000
00010000
00000000
00000000
10000000
00000000
00100000
01000000
,
00100000
00010000
00001000
00000100
00000010
00001000
00000001
00000000
,
00001001
00000000
00000000
00000000
,
00000000
00000000
00000000
00000000
,
00000100
00000000
00000000
00000000
00000000
00000000
01000000
00000000
00000000
00000000
00000000
00000000
00002000
00000000
00000000
00003000
,
00022000
00000000
00000000
00000000
00000000
00000000
00000000
00000000
00000000
00000000
00000000
00000000
00000000
00000000
00000000
00000000
00000000
00000000
00000000
00000000
00000000
00000000
00000000
00000000
00000000
00000000
00000000
00000000
00000000
00000000
00000000
00000000
00033000
00000000
00000000
00000000
00000000
00000000
00000000
00000000
00000000
00000000
00000000
00000000
00000000
00000000
00000000
00000000
00022000
00033000
00000000
00000000
00000000
00000000
00000000
00000000
00000000
00000000
00000000
00000000
00000000
00000000
00000000
00000000
,
00001000
00000000
00000000
00000000
00000000
00000000
00000000
00000000
00000000
00000000
00000000
00000000
00000000
00000000
00000000
00000000
00010000
00000000
00000000
00000000
00000000
00000000
00000000
00000000
00000000
00000000
00000000
00000000
00000000
00000000
00000000
00000000
01000000
00000000
00000000
00000000
00000000
00000000
00000000
00000000
00000000
00000000
00000000
00000000
00000000
00000000
00000000
00000000
02200000
03300000
00000000
00000000
00000000
00000000
00000000
00000000
00000000
00000000
00000000
00000000
00000000
00000000
00000000
00000000
,
00100000
00000000
00000000
00000000
00000000
00000000
00000000
00000000
00000000
00000000
00000000
00000000
00000000
00000000
00000000
00000000
10000000
00000000
00000000
00000000
00000000
00000000
00000000
00000000
00000000
00000000
00000000
00000000
00000000
00000000
00000000
00000000
01000000
00000000
00000000
00000000
00000000
00000000
00000000
00000000
00000000
00000000
00000000
00000000
00000000
00000000
00000000
00000000
02200000
03300000
00000000
00000000
00000000
00000000
00000000
00000000
00000000
00000000
00000000
00000000
00000000
00000000
00000000
00000000
,
00100000
00000000
00000000
00000000
00001000
00000000
00000000
00000000
00010000
00000000
00000000
00000000
00001000
00000000
00000000
00010000
,
00000000
00000000
00000000
00000000
00000000
00000000
00000000
00000000
00011000
00000000
00000000
00000000
00000000
00000000
00000000
00000000
00000000
00000000
00000000
00000000
00000000
00000000
00000000
00000000
00000000
00000000
00000000
00000000
00000000
00000000
00000000
00000000
00011000
00000000
00000000
00000000
00000000
00000000
00000000
00000000
00000000
00000000
00000000
00000000
00000000
00000000
00000000
00000000
00020020
00030030
00000000
00000000
00000000
00000000
00000000
00000000
00000000
00000000
00000000
00000000
00000000
00000000
00000000
00000000
,
00010000
00000000
00000000
00000000
00000000
00000000
00000000
00000000
00000000
00000000
00000000
00000000
00000000
00000000
00000000
00000000
00000100
00000000
00000000
00000000
00000000
00000000
00000000
00000000
00000000
00000000
00000000
00000000
00000000
00000000
00000000
00000000
00001000
00000000
00000000
00000000
00000000
00000000
00000000
00000000
00000000
00000000
00000000
00000000
00000000
00000000
00000000
00000000
00002200
00003300
00000000
00000000
00000000
00000000
00000000
00000000
00000000
00000000
00000000
00000000
00000000
00000000
00000000
00000000
,
00000001
00000000
00000000
00000000
00000000
00000000
00000000
00000000
00000000
00000000
00000000
00000000
00000000
00000000
00000000
00000000
00000100
00000000
00000000
00000000
00000000
00000000
00000000
00000000
00000000
00000000
00000000
00000000
00000000
00000000
00000000
00000000
00000010
00000000
00000000
00000000
00000000
00000000
00000000
00000000
00000000
00000000
00000000
00000000
00000000
00000000
00000000
00000000
00002002
00003003
00000000
00000000
00000000
00000000
00000000
00000000
00000000
00000000
00000000
00000000
00000000
00000000
00000000
00000000
,
00001000
00000000
00000000
00000000
00000000
00000000
00000000
00000000
00000000
00000000
00000000
00000000
00000000
00000000
00000000
00000000
00000100
00000000
00000000
00000000
00000000
00000000
00000000
00000000
00000000
00000000
00000000
00000000
00000000
00000000
00000000
00000000
00010000
00000000
00000000
00000000
00000000
00000000
00000000
00000000
00000000
00000000
00000000
00000000
00000000
00000000
00000000
00000000
00022000
00033000
00000000
00000000
00000000
00000000
00000000
00000000
00000000
00000000
00000000
00000000
00000000
00000000
00000000
00000000
,
00001000
00000000
00000000
00000000
00000000
00000000
00000000
00000000
00000000
00000000
00000000
00000000
00000000
00000000
00000000
00000000
00100000
00000000
00000000
00000000
00000000
00000000
00000000
00000000
00010000
00000000
00000000
00000000
00000000
00000000
00000000
00000000
00100000
00000000
00000000
00000000
00000000
00000000
00000000
00000000
00000000
00000000
00000000
00000000
00000000
00000000
00000000
00000000
20020000
30030000
00000000
00000000
00000000
00000000
00000000
00000000
00000000
00000000
00000000
00000000
00000000
00000000
00000000
00000000
,
10000000
00000000
00000000
00000000
00000000
00000000
00000000
00000000
00000000
00000000
00000000
00000000
00000000
00000000
00000000
00000000
00100000
00000000
00000000
00000000
00000000
00000000
00000000
00000000
00000000
00000000
00000000
00000000
00000000
00000000
00000000
00000000
01000000
00000000
00000000
00000000
00000000
00000000
00000000
00000000
00000000
00000000
00000000
00000000
00000000
00000000
00000000
00000000
02020000
03030000
00000000
00000000
00000000
00000000
00000000
00000000
00000000
00000000
00000000
00000000
00000000
00000000
00000000
00000000
,
00001000
00000000
00000000
00000000
00000000
00000000
00000000
00000000
00000000
00000000
00000000
00000000
00000000
00000000
00000000
00000000
00010000
00000000
00000000
00000000
00000000
00000000
00000000
00000000
00000000
00000000
00000000
00000000
00000000
00000000
00000000
00000000
00001000
00000000
00000000
00000000
00000000
00000000
00000000
00000000
00000000
00000000
00000000
00000000
00000000
00000000
00000000
00000000
00200000
00300000
00000000
00000000
00000000
00000000
00000000
00000000
00000000
00000000
00000000
00000000
00000000
00000000
00000000
00000000
,
00001000
00000000
00000000
00000000
00010000
00000000
00001000
00000000
00010000
00001000
00010000
00001000
00010000
00000000
00000000
00000000
,
00001001
00000000
00000001
00001000
00000010
00000000
00000100
00000010
00001000
00000000
00000100
00010000
00000000
00010000
01000000
00000000
,
00001000
00100000
00001000
00100000
00010000
10000000
00010000
00000000
20000000
30000000
02000000
03000000
00200000
00300000
20020000
30030000
,
01010000
00000000
01001000
00000000
00011000
00000000
00010000
00001000
00000020
00000000
00000130
00001000
00000000
00000001
00001000
00000000
,
00000001
00000010
00000100
00001000
00000010
00010000
00001000
00001000
00001000
00000000
00000000
00000000
00000000
00000000
00000000
00000000
,
00010000
00000000
00001000
00000000
00010000
00000000
00000010
00001000
00000010
00000000
00001000
00000000
00000100
00000000
00000020
00000000
,
00000000
00000230
00000000
00002300
00000000
00003001
00000100
00000010
,
00000100
00001000
00010000
00000000
00100000
01000000
00010000
20000000
,
00000000
00000000
30100000
10000000
00100000
00000000
01000000
00000000
01010000
00000000
00000000
00000000
01001000
00000000
00000000
00000000
,
00001000
00010000
00011000
00000000
00010000
00000000
00101000
00000000
,
00001000
00010010
00010000
01001000
,
00001000
00010100
00010000
00011000
,
00010000
00001000
00000100
00000010
00001000
00000010
00000100
00000001
,
00000010
00000100
00002200
00003300
00010000
00001000
00000010
00001000
,
00000000
00010000
00001000
00100000
00010000
01000000
00100000
10000000
,
00000000
01000000
00100000
00010000
00110000
00000000
00101000
00000000
,
00001000
00000000
00010000
00000000
00001000
00010000
00001000
00010000
00002000
00000000
00000000
00000000
00000000
00000000
00003000
00000000
,
00010000
00001000
00000010
00000200
00000000
00002300
00000000
00003001
,
00000100
00000010
00000100
00002000
00000000
00013000
00100000
01000000
,
00010000
00100000
01000000
20000000
00000000
31000000
00100000
01000000
,
00010000
00001000
00000010
00000100
00001000
00000010
00000200
00000000
,
00000301
00000100
00001000
00020000
00000000
00031000
01000000
00100000
,
01000000
00000000
00010000
00000000
00100000
00000000
01000000
00100000
01000000
00000000
10000000
00000000
00100000
00000000
00010000
00000000
,
00001000
00010000
00000100
00000010
00000001
00001000
00000100
00000010
,
00000011
00001010
00000101
00001100
,
00001001
00000000
00001010
00000000
00000010
00010000
00001000
00000000
,
00101000
00000000
00010010
00000000
00001000
01000000
00010000
00000000
,
00110000
00000000
01001000
00000000
00001000
00010000
00000100
00000000
,
00010100
00000000
00011000
00000000
00010000
00001000
00000100
00000000
,
00000001
00000000
00000001
00000000
00001001
00000000
00000000
00000000
00000001
00000000
00000010
00000000
00000100
00000000
00001000
00000100
,
00001000
00000100
00010000
00001000
00100000
00010000
00100000
01000000
,
10000000
00010000
01000000
10000000
01000000
00100000
10000000
00010000
,
10010000
11000000
00110000
01001000
,
00011000
00000000
00010000
00000200
00000000
00010300
00001000
00010000
,
00000010
00001000
00000100
00020000
00000000
00031000
01000000
00010000
,
00100000
00001000
00010000
00002000
00000000
00003010
00000001
00000100
,
00001000
00010000
00001000
00100000
01000000
10000000
00010000
00000000
,
10000000
01000000
01100000
00000000
00100000
00001000
00011000
00000000
,
00010000
00000010
00001010
00000000
00001000
00000100
00000110
00000000
,
00000001
00000000
00000000
00000100
00000000
00000000
00001000
00000000
00000000
00010000
00000000
00000000
00100000
00000000
01000000
00000000
,
00010000
00100000
01000000
10000000
00010000
01000000
01100000
00000000
,
00001000
00010000
00000000
00000000
00000000
00000000
00000000
00000000
;

//--------------- dance-double - Fred-104 ----------------
#NOTES:
     dance-double:
     Fred-104:
     Hard:
     17:
     :
00000000
00000000
00000000
00000000
,
00000000
00000000
00000000
00000000
,
00000000
00000000
00000000
00000000
,
00000000
00000000
00000000
00000000
,
00000000
00000000
00000000
00000000
,
00000000
00000000
00000000
00000000
,
00010000
00101000
00010000
00010010
,
00001000
01001000
00010000
00010100
,
00010000
00011000
00001000
00011000
,
00010000
00001000
00000010
00000001
00001000
00000100
00000010
00000002
,
00001003
00000000
00000001
00000000
00000100
00000000
00000001
00000000
00001000
00000000
00000001
00000000
00000010
00000000
00000000
00000000
00000100
00000000
00010000
00000000
00001000
00010000
00001000
00010000
00001000
00000000
00000000
00000000
00100000
00010000
00100000
00010000
,
01000000
00000000
00010000
00000000
10000000
00000000
01000000
00000000
00100000
00000000
00010000
00000000
01000000
00000000
00001000
00010000
00001000
00000000
00000010
00000000
00000100
00000000
00001000
00000000
00000001
00000000
00000000
00000000
00000100
00000010
00000100
00000010
,
00000200
00000300
00000000
00000000
00000001
00000000
00000000
00000000
00000100
00000000
00000000
00000000
00000001
00000000
00000000
00000000
00000100
00000000
00000000
00000000
00000010
00000000
00000000
00000000
00001000
00000000
00000000
00000000
00000010
00000000
00000000
00000000
00002000
00003000
00000000
00000000
00000100
00000000
00000000
00000000
00010000
00000000
00000000
00000000
00000100
00000000
00000000
00000000
00010000
00000000
00000000
00000000
00001000
00000000
00000000
00000000
00100000
00000000
00000000
00000000
00001000
00000000
00000000
00000000
,
00200000
00300000
00000000
00000000
00010000
00000000
00000000
00000000
10000000
00000000
00000000
00000000
00010000
00000000
00000000
00000000
00200000
00300000
01000000
00000000
00100000
00000000
01000000
00000000
00100000
00000000
01000000
00000000
00100000
00000000
01000000
00000000
00100000
00000000
00000000
00000000
00000000
00000000
00000000
00000000
00000000
00000000
00000000
00000000
00000000
00000000
00000000
00000000
00010000
00000000
00000000
00000000
10000000
00000000
00000000
00000000
00010000
00000000
00000000
00000000
10000000
00000000
00000000
00000000
,
00020000
00130000
02000000
13000000
00020000
00130000
02000000
03100000
,
00002000
00013000
00002000
00003010
00000002
00002003
00003002
00000000
,
00002003
00000000
00003100
00000000
00000020
00000000
00000130
00000000
00020000
00000000
00031000
00000000
00000020
00000000
00000032
00000003
,
00002002
00003003
00000220
00000330
00000001
00000100
00000110
00000000
,
00001000
00000100
00000110
00000000
00000002
00000103
00002000
00013000
,
00002000
00000000
00103000
00000000
02000000
00000000
23000000
00000000
30020000
00000000
01030000
00000000
00100000
10000000
00100000
10000000
,
00100000
00000000
10000000
00000000
10010000
00000000
00000000
00000000
10000000
00000000
01000000
00000000
00100000
01000000
00100000
01000000
,
10000000
01000000
00010000
00001000
00000010
00000100
00001100
00000000
,
00001010
00001000
00000001
00000000
00000100
00000010
00000100
00001000
,
00010000
00000000
00100000
00000000
01000000
00010000
01000000
00010000
10000000
00000000
00000000
00000000
00010000
00000000
10000000
01000000
,
10000000
00000000
00100000
00000000
00010000
00000000
00001000
00000000
00010000
00000000
00100000
00000000
10000000
00000000
00010000
10000000
,
00010000
01000000
00010000
01000000
00010000
01000000
00010000
01000000
00010000
00000000
00000000
00000000
00101000
00000000
00000000
00000000
,
00010010
00000000
00020000
00032000
00003010
00000002
00001003
00000010
,
00000100
00000000
00001000
00000000
00000100
00000000
00000001
00000000
00001000
00000000
00000100
00000000
00000010
00000000
00000001
00001000
,
00000002
00000013
00000200
00020300
00031000
00000020
00000031
00001000
,
00001001
00001010
00000101
00001100
,
00000001
00000100
00001000
00000000
00010000
00100000
10000000
00000000
,
00010000
00000000
01000000
00000000
00100000
00000000
10000000
01000000
10000000
00000000
01000000
00000000
00100000
00001000
00100000
00001000
,
00010000
00001000
00101000
00000000
00001000
00010000
00010010
00000000
,
00010000
00000000
00001000
00000000
00000100
00000000
00000001
00000000
00001000
00000000
00000100
00000000
00000010
00000100
00000010
00000100
,
00000010
00000001
00000100
00001000
00010000
00001000
00100000
01000000
,
10000000
00000000
00100000
00000000
01000000
00000000
00001000
00010000
00001000
00000000
00100000
00000000
00001000
00000000
00010000
00000010
,
00010000
00001000
00000100
00000001
00001000
00000100
00000010
00000001
,
00000101
00000100
00000110
00000010
00001000
00000001
00001001
00000000
,
00000010
00000000
00000000
00000000
00000000
00000000
00000000
00000000
00020000
00030000
00000000
00000000
00000000
00000000
00000000
00000000
00020000
00030000
00000000
00000000
00000000
00000000
00000000
00000000
00100000
00000000
00000000
00000000
00000000
00000000
00000000
00000000
00002000
00003000
00000000
00000000
00000000
00000000
00000000
00000000
00002000
00003000
00000000
00000000
00000000
00000000
00000000
00000000
00000010
00000000
00000000
00000000
00000000
00000000
00000000
00000000
00020000
00030000
00000000
00000000
00000000
00000000
00000000
00000000
,
00020000
00030000
00000000
00000000
00000000
00000000
00000000
00000000
00100000
00000000
00000000
00000000
00000000
00000000
00000000
00000000
00002000
00003000
00000000
00000000
00000000
00000000
00000000
00000000
00002000
00003000
00000000
00000000
00000000
00000000
00000000
00000000
00000010
00000000
00000000
00000000
00000000
00000000
00000000
00000000
00010000
00000000
00000000
00000000
00000000
00000000
00000000
00000000
00001000
00000000
00000000
00000000
00100000
00000000
00000000
00000000
00001000
00000000
00000000
00000000
00000000
00000000
00000000
00000000
,
01000000
00000000
00000000
00000000
00000000
00000000
00000000
00000000
00020000
00030000
00000000
00000000
00000000
00000000
00000000
00000000
00020000
00030000
00000000
00000000
00000000
00000000
00000000
00000000
00000100
00000000
00000000
00000000
00000000
00000000
00000000
00000000
00002000
00003000
00000000
00000000
00000000
00000000
00000000
00000000
00002000
00003000
00000000
00000000
00000000
00000000
00000000
00000000
01000000
00000000
00000000
00000000
00000000
00000000
00000000
00000000
00001000
00000000
00000000
00000000
00000000
00000000
00000000
00000000
,
00010000
00000100
00010000
00000100
00001000
00000001
00001000
00000001
00000020
00000000
00000000
00000000
00000032
00000000
00000000
00000000
,
00001003
00000001
00000010
00001000
00010000
01000000
00100000
00010000
,
10000000
00000000
01000000
00000000
00010000
00000000
00001000
00000000
00000010
00000000
00000001
00000000
00001000
00000001
00001000
00000001
,
00001000
00000100
00000010
00000001
00000100
00001000
00010000
00100000
,
01000000
00000000
00010000
00000000
01000000
00000000
00100000
00000000
10000000
00000000
00010000
00000000
10000000
00010000
10000000
00010000
,
10000000
00000000
00000000
00000000
,
00000000
00000000
00000000
00000000
,
00000000
00000000
00000000
00000000
,
00000000
00000000
00000000
00000000
,
11000000
01010000
00011000
00001010
,
00000011
00000000
00001001
00000000
00000100
00000010
00000100
00000000
,
00000001
00000000
00000000
00000101
00000000
00000000
00001000
00000000
00000000
00001010
00000000
00000000
00000001
00000010
00000001
00000100
,
00000010
00001000
00000100
00010000
00001000
01000000
01100000
00000000
,
10010000
00000000
00000000
00000000
,
00000000
00000000
00000000
00000000
,
01000000
00000000
00000000
00000000
00000000
00000000
00000100
00000000
00000000
00000000
00000000
00000000
00020000
00000000
00000000
00030000
,
00022000
00000000
00000000
00000000
00000000
00000000
00000000
00000000
00000000
00000000
00000000
00000000
00000000
00000000
00000000
00000000
00000000
00000000
00000000
00000000
00000000
00000000
00000000
00000000
00000000
00000000
00000000
00000000
00000000
00000000
00000000
00000000
00033000
00000000
00000000
00000000
00000000
00000000
00000000
00000000
00000000
00000000
00000000
00000000
00000000
00000000
00000000
00000000
00022000
00033000
00000000
00000000
00000000
00000000
00000000
00000000
00000000
00000000
00000000
00000000
00000000
00000000
00000000
00000000
,
00010000
00000000
00000000
00000000
00000000
00000000
00000000
00000000
00001000
00000000
00000000
00000000
00000000
00000000
00000000
00000000
00000100
00000000
00000000
00000000
00000000
00000000
00000000
00000000
00000010
00000000
00000000
00000000
00000000
00000000
00000000
00000000
00001000
00000000
00000000
00000000
00000000
00000000
00000000
00000000
00000001
00000000
00000000
00000000
00000000
00000000
00000000
00000000
00000202
00000303
00000000
00000000
00000000
00000000
00000000
00000000
00000000
00000000
00000000
00000000
00000000
00000000
00000000
00000000
,
00000001
00000000
00000000
00000000
00000000
00000000
00000000
00000000
00000010
00000000
00000000
00000000
00000000
00000000
00000000
00000000
00001000
00000000
00000000
00000000
00000000
00000000
00000000
00000000
00010000
00000000
00000000
00000000
00000000
00000000
00000000
00000000
00001000
00000000
00000000
00000000
00000000
00000000
00000000
00000000
00000000
00000000
00000000
00000000
00000000
00000000
00000000
00000000
00022000
00033000
00000000
00000000
00000000
00000000
00000000
00000000
00000000
00000000
00000000
00000000
00000000
00000000
00000000
00000000
,
00001000
00000000
00010000
00000000
01000000
00000000
00100000
00000000
00010000
00000000
10000000
00000000
00100000
00000000
00000000
00100000
,
00000000
00000000
00000000
00000000
00000000
00000000
00000000
00000000
00100000
00000000
00000000
00000000
00000000
00000000
00000000
00000000
00000000
00000000
00000000
00000000
00000000
00000000
00000000
00000000
00000000
00000000
00000000
00000000
00000000
00000000
00000000
00000000
10010000
00000000
00000000
00000000
00000000
00000000
00000000
00000000
00000000
00000000
00000000
00000000
00000000
00000000
00000000
00000000
22000000
33000000
00000000
00000000
00000000
00000000
00000000
00000000
00000000
00000000
00000000
00000000
00000000
00000000
00000000
00000000
,
01000000
00000000
00000000
00000000
00000000
00000000
00000000
00000000
00100000
00000000
00000000
00000000
00000000
00000000
00000000
00000000
00000000
00000000
00000000
00000000
00000000
00000000
00000000
00000000
00001000
00000000
00000000
00000000
00000000
00000000
00000000
00000000
00010000
00000000
00000000
00000000
00000000
00000000
00000000
00000000
00001000
00000000
00000000
00000000
00000000
00000000
00000000
00000000
00022000
00033000
00000000
00000000
00000000
00000000
00000000
00000000
00000000
00000000
00000000
00000000
00000000
00000000
00000000
00000000
,
00010000
00000000
00000000
00000000
00000000
00000000
00000000
00000000
00001000
00000000
00000000
00000000
00000000
00000000
00000000
00000000
00000000
00000000
00000000
00000000
00000000
00000000
00000000
00000000
00000010
00000000
00000000
00000000
00000000
00000000
00000000
00000000
00000001
00000000
00000000
00000000
00000000
00000000
00000000
00000000
00001000
00000000
00000000
00000000
00000000
00000000
00000000
00000000
00002020
00003030
00000000
00000000
00000000
00000000
00000000
00000000
00000010
00000000
00000000
00000000
00000000
00000000
00000000
00000000
,
00000000
00000000
00000000
00000000
00000000
00000000
00000000
00000000
00000100
00000000
00000000
00000000
00000000
00000000
00000000
00000000
00000000
00000000
00000000
00000000
00000000
00000000
00000000
00000000
00000001
00000000
00000000
00000000
00000000
00000000
00000000
00000000
00000010
00000000
00000000
00000000
00000000
00000000
00000000
00000000
00000001
00000000
00000000
00000000
00000000
00000000
00000000
00000000
00000202
00000303
00000000
00000000
00000000
00000000
00000000
00000000
00000100
00000000
00000000
00000000
00000000
00000000
00000000
00000000
,
00000000
00000000
00000000
00000000
00000000
00000000
00000000
00000000
00000010
00000000
00000000
00000000
00000000
00000000
00000000
00000000
00001000
00000000
00000000
00000000
00000000
00000000
00000000
00000000
00000100
00000000
00000000
00000000
00000000
00000000
00000000
00000000
00010000
00000000
00000000
00000000
00000000
00000000
00000000
00000000
00001000
00000000
00000000
00000000
00000000
00000000
00000000
00000000
00022000
00033000
00000000
00000000
00000000
00000000
00000000
00000000
00000000
00000000
00000000
00000000
00000000
00000000
00000000
00000000
,
00000010
00000000
00000000
00000000
00000000
00000000
00000000
00000000
00000000
00000000
00000000
00000000
00000000
00000000
00000000
00000000
00010000
00000000
00000000
00000000
00000000
00000000
00000000
00000000
00000000
00000000
00000000
00000000
00000000
00000000
00000000
00000000
00001000
00000000
00000000
00000000
00000000
00000000
00000000
00000000
00000000
00000000
00000000
00000000
00000000
00000000
00000000
00000000
00022000
00033000
00000000
00000000
00000000
00000000
00000000
00000000
00000000
00000000
00000000
00000000
00000000
00000000
00000000
00000000
,
00100000
00000000
00000000
00000000
00000000
00000000
00000000
00000000
00000000
00000000
00000000
00000000
00000000
00000000
00000000
00000000
00001000
00000000
00000000
00000000
00000000
00000000
00000000
00000000
00000000
00000000
00000000
00000000
00000000
00000000
00000000
00000000
00010000
00000000
00000000
00000000
00000000
00000000
00000000
00000000
00000000
00000000
00000000
00000000
00000000
00000000
00000000
00000000
00022000
00033000
00000000
00000000
00000000
00000000
00000000
00000000
00000000
00000000
00000000
00000000
00000000
00000000
00000000
00000000
,
01100000
00000000
00000000
00000000
00010000
00000000
01000000
00000000
00010000
10000000
00010000
10000000
00010000
00000000
00000000
00000000
,
11000000
00000000
10000000
01000000
00100000
00001000
00010000
01000000
10000000
00000000
00100000
00010000
00000000
00001000
00000100
00000000
,
00000010
00000000
00001000
00000000
00000100
00000000
00001000
00000000
00000010
00000000
00000010
00000000
00000010
00000000
00001000
00000001
00002000
00000000
00003000
00000000
00000020
00000000
00000030
00000000
00020000
00000000
00030000
00000000
00022000
00000000
00033000
00000000
,
00101000
00000000
00010010
00000000
01001000
00000000
00010000
00001000
00000200
00000000
00000301
00001000
00000100
00000010
00000002
00000003
,
00000101
00000000
00000001
00000000
00000010
00000000
00000200
00000000
00002300
00000000
00003200
00000000
00010300
00001000
00010000
00001000
00010000
00000000
00000000
00000000
00000000
00000000
00000000
00000000
00000000
00000000
00000000
00000000
00000000
00000000
00000000
00000000
,
01000000
00000000
00100000
00000000
00010000
00000000
10000000
00010000
20000000
00000000
30010000
00000000
00200000
00000000
02300000
00000000
,
03010000
20000000
30100000
00020000
10030000
02000000
03200000
00302000
,
00013000
00002000
00003020
00000230
00001300
00000100
00000010
00000001
,
00000100
00000000
00000010
00001000
00000010
00000000
00000100
00000000
00000101
00000000
00000000
00000000
00001010
00000000
00000000
00000000
,
00001000
00000100
00000110
00000000
00000001
00000100
00000110
00000000
,
00001000
00000100
00010100
00000000
00010000
00001000
01001000
00000000
,
01000000
00010000
10010000
00000000
10000000
01000000
01100000
00000000
,
00100000
00000000
00001000
00010000
00001000
00000000
01000000
00000000
00001000
00000000
00010000
00000000
00001000
00000000
00000010
00000000
,
00000001
00001000
00002002
00003003
00001000
00000001
00000010
00000100
,
00000001
00001000
00000010
00000001
00001000
00000001
00000010
00001000
,
00010000
00001000
00100000
01000000
00100000
00010000
00100000
00001000
,
01000000
00000000
00010000
00000000
10000000
00010000
10000000
00010000
20000000
00000000
00000000
00000000
00000000
00000000
30000000
00000000
,
00020000
00130000
02000000
23000000
30010000
00200000
00301000
00020000
,
00032000
00003010
00000200
00002300
00003010
00020000
00031000
00200000
,
02300000
00000000
03200000
00000000
00310000
00000000
02000000
00000000
03100000
00000000
20000000
00000000
30010000
10000000
00010000
10000000
,
02000000
00000000
03020000
00000000
00031000
00000000
00000020
00000000
00000130
00000000
00002000
00003000
00002002
00000000
00003003
00000000
,
00000002
00000000
00000013
00000000
00000200
00000000
00020300
00000000
00031000
00000000
00000020
00000000
00000031
00000000
00001000
00000100
,
00002000
00000000
00003010
00000000
00010000
00001000
00010000
00001000
00020000
00000000
02030000
00000000
03200000
00000000
00320000
00000000
,
02030000
00000000
03200000
00000000
10300000
00000000
00020000
00000000
01030000
00010000
01000000
00000000
00001000
00010000
00001000
00000000
,
00011000
00000000
00000000
00000000
00010010
00000000
00000000
00000000
00010000
00001000
00010000
00000000
00000100
00001000
00000100
00001000
,
00000001
00000000
00000000
00000000
00000101
00000000
00000000
00000000
00000010
00000000
00010000
00001000
00010000
00000000
00000000
00000000
,
00101000
00000000
00000000
00000000
00010010
00000000
00000000
00000000
00001000
00100000
00010000
01000000
00100000
00000000
00000000
00000000
,
10100000
00000000
00000000
00000000
01010000
00000000
00000000
00000000
10000000
00000000
00100000
10000000
00100000
00000000
01000000
00000000
,
00010000
00000000
00100000
00000000
00010000
00000000
01000000
00000000
00001000
00010000
00001000
00010000
00002000
00000000
00003000
00000000
,
00011000
00000000
00010000
00000000
00010100
00000000
00000000
00000000
00001100
00000000
00001000
00000000
00000010
00001000
00000010
00001000
,
00000100
00000000
00000010
00000000
00000001
00000100
00000001
00000100
00000010
00000000
00001000
00000000
00000100
00010000
00000100
00000000
,
00010000
00000000
00001000
01000000
00001000
00000000
00100000
00010000
00100000
00000000
01000000
00000000
10000000
00010000
10000000
00000000
,
10100000
01010000
11000000
00110000
,
01001000
00000000
00001000
00000000
00011000
00000000
00020000
00000000
00000000
00000000
00030100
00000000
00010000
00000000
00001000
00010000
,
00001000
00000000
00010000
00000000
00000010
00001000
00000010
00000100
00000001
00000000
00001000
00000000
00000100
00000010
00000001
00001000
,
00000010
00001000
00000100
00020100
00000000
00030010
00010000
00001000
,
00010000
00000000
00100000
00000000
01000000
00010000
10000000
00000000
01000000
00000000
10000000
00000000
10010000
00000000
00000000
00000000
,
10000000
01000000
00100000
00001000
00010000
00000100
00000010
00000001
,
00000100
00001000
00010000
00001000
01000000
00100000
10000000
00010000
,
01010000
00000000
00000000
11000000
00000000
00000000
00110000
00000000
00000000
10100000
00000000
00000000
10000000
01000000
10000000
01000000
,
00100000
00001000
00010000
00000100
00000010
00000010
00000110
00000000
,
00001001
00000100
00000000
00000000
00000000
00000000
00000000
00000000
;
