#VERSION:0.83;
#TITLE:Bloody Iron Maiden;
#ARTIST:BEMANI Sound Team "Loz";
#ARTISTTRANSLIT:Loz;
#BANNER:Bloody Iron Maiden.png;
#BACKGROUND:Bloody Iron Maiden-bg.png;
#CDTITLE:./CDTitles/GITADORA FUZZ-UP.png;
#MUSIC:Bloody Iron Maiden.ogg;
#SAMPLESTART:69.531;
#SAMPLELENGTH:15;
#BPMS:0=195;
#TIMESIGNATURES:0=4=4,304=5=4,309=4=4,361=3=4,364=4=4;
#STAGE:29;

//--------------- dance-single - Fred-104 ----------------
#NOTEDATA:;
#STEPSTYPE:dance-single;
#DESCRIPTION:Fred-104;
#DIFFICULTY:Beginner;
#METER:4;
#CREDIT:Fred-104;
#NOTES:
0000
0000
0000
0000
,
0000
0000
0000
0000
,
0000
0000
0000
0000
,
1000
0000
0001
0000
,
1000
0000
0000
0000
0001
0000
0000
0001
,
0000
0000
1000
0000
,
0010
0000
0000
0000
1000
0000
0000
1000
,
0000
0000
0010
0000
,
1000
0000
0000
0000
0001
0000
0000
0001
,
0000
0000
1000
0000
,
0001
0000
0200
0000
,
0300
0100
0000
0000
,
0100
0000
0010
0000
,
0100
0000
0100
0000
,
0001
0000
1000
0000
,
0001
0000
1000
0000
,
0001
0000
0000
0000
0001
0000
0000
0001
,
0000
0000
0100
0000
,
0100
0000
0000
0000
0010
0000
0000
0010
,
0000
0000
1000
0000
,
0010
0000
0000
0000
1000
0000
0000
1000
,
0000
0000
0001
0000
,
1000
0000
0000
0000
0001
0000
0000
0001
,
0000
0000
1000
0000
,
0001
0000
0000
0000
0100
0000
0000
0100
,
0000
0000
0010
0000
,
1000
0000
0000
0000
0010
0000
0000
0010
,
0000
0000
1000
0000
,
0001
0000
0000
0000
1000
0000
0000
1000
,
0000
0000
0001
0000
,
1000
0000
0000
0000
0001
0000
0000
0001
,
0000
0000
1000
0000
,
1000
0000
0000
0000
0001
0000
0000
0001
,
0000
0000
1000
0000
,
0010
0000
0000
0000
0100
0000
0000
0100
,
0000
0000
0001
0000
,
0100
0000
0000
0000
0010
0000
0000
0010
,
0000
0000
0100
0000
,
0010
0000
0010
0000
,
0200
0000
0000
0000
,
0300
0000
0000
0000
,
0002
0000
0000
0000
,
0003
0000
0000
0000
,
1001
0000
0000
0000
,
0100
0000
0000
0000
,
0001
0000
0000
1000
,
0000
0000
0001
0000
,
1000
0000
0000
0000
0001
0000
0000
1000
,
0000
0000
0010
0000
,
0100
0000
0100
0000
,
0100
0000
0020
0030
,
1000
0000
0001
0000
,
1000
0000
1001
0000
,
0000
0001
0000
0000
1000
0000
0000
0001
,
0000
1000
0000
1001
,
0000
0000
0000
0000
,
0000
0000
0000
0000
0000
0000
0000
0100
,
0000
0000
0000
0000
0001
0000
0000
0001
,
0000
0000
0000
0000
1000
0000
0000
1000
,
0000
0000
0000
0000
0001
0000
0000
0001
,
0000
0000
0000
0000
0100
0000
0000
0100
,
0000
0000
0000
0000
0010
0000
0000
0010
,
0000
0000
0000
0000
1000
0000
0000
1000
,
0000
0000
0001
0000
,
1000
0000
0000
0000
0001
0000
0000
1000
,
0000
0000
0000
0000
0010
0000
0000
1000
,
0000
0000
0000
0000
0001
0000
0000
0100
,
0000
0000
0000
0000
0001
0000
0000
0100
,
0000
0000
0000
0010
0000
0000
0000
1000
,
0000
0000
0000
0000
0001
0000
0000
1000
,
0000
0000
0000
0000
0100
0000
0000
0010
,
0000
0000
0000
0000
0001
0000
0000
1000
,
0000
0000
0001
0000
0000
0000
0000
1000
,
0000
0000
0000
0000
0010
0000
0000
0100
,
0000
0000
0000
0000
0001
0000
0000
0001
,
0000
0000
0000
0000
1000
0000
0000
0001
,
0000
0000
0000
0000
,
0000
1000
0000
0000
0001
0000
0000
0000
,
0001
0000
0001
0000
,
0000
0001
0000
0000
1000
0000
0000
0000
,
1000
1000
0000
0001
,
0000
0001
0000
0000
1000
0000
0000
0000
,
0001
0000
1000
0000
,
0000
1000
0000
0000
0000
0000
0001
0000
,
0000
1000
0000
0001
,
0000
1000
0000
0000
0000
0000
0001
0000
,
0000
1000
0000
0010
,
0000
0100
0000
0000
0000
0000
0001
0000
,
0000
1000
0000
0001
,
0000
0001
0000
0000
0000
0000
1000
0000
,
0000
0000
0001
0000
0000
1000
0000
0000
,
0001
0000
1000
0000
,
0001
0000
0000
0000
1000
0000
0000
1001
;

//--------------- dance-single - Fred-104 ----------------
#NOTEDATA:;
#STEPSTYPE:dance-single;
#DESCRIPTION:Fred-104;
#DIFFICULTY:Easy;
#METER:10;
#CREDIT:Fred-104;
#NOTES:
0000
0000
0000
0000
,
0000
0000
0000
0000
,
0000
0000
0000
0000
0000
0000
0000
0001
,
0000
1000
1000
0010
,
0100
0000
0100
0000
0001
0000
0000
1000
,
0000
0001
0001
1000
,
0010
0000
0100
0000
0010
0000
0000
0010
,
0000
1000
0100
1000
,
0001
0000
0001
0000
1000
0000
0000
0100
,
0000
1000
1000
0001
,
0100
0000
0000
0000
0010
0000
0000
0000
0100
0000
0000
0100
0000
0000
0100
0000
,
0000
0000
0001
0000
1000
1000
0000
0000
,
1001
0000
0000
0100
0000
0010
0000
0100
,
0000
0000
0001
0000
1000
0001
0000
0000
,
1001
0000
0000
0100
0000
0010
0100
0010
,
0000
1000
0010
0100
,
0001
0000
1000
0000
0001
0001
0000
1000
,
0000
0010
1000
0010
,
0010
0000
0100
0000
0010
0100
0010
0100
,
0000
0001
1000
0010
,
0010
0000
1000
0000
0001
0100
0000
0001
,
0000
1000
0010
0100
,
0001
0000
1000
0000
0010
1000
0000
1010
,
0000
0001
1000
1000
,
0010
0000
0100
0000
0001
0100
0000
0101
,
0000
0100
0010
0010
,
1000
0000
0100
0000
1000
0001
1000
0001
,
0000
1000
0010
0100
,
0100
0000
0010
0000
1000
0001
0000
0101
,
0000
0100
0010
1000
,
0001
0000
0001
0000
1000
0100
1000
0010
,
0000
0100
0100
0010
,
1000
0000
0001
0000
0100
0100
0001
0100
,
0000
0001
0001
1000
,
0010
0000
0100
0000
0010
1000
0010
0010
,
0000
1000
0100
0100
,
1000
0000
0001
0000
1000
1000
0100
1000
,
0000
0001
1000
0100
,
0010
0000
0100
0000
0010
0000
0000
0000
0001
0000
0000
0001
0000
0000
1000
0000
,
2001
0000
3020
0000
,
0230
0000
0000
0302
0000
0000
2003
0000
,
3200
0000
0000
0320
0000
0000
0032
0000
,
2003
0000
0000
3002
0000
0000
0103
0000
,
0110
0000
0000
0020
0000
2030
0000
3002
,
0000
1003
0001
0000
1000
0000
1000
0000
,
1001
0000
0000
0110
0000
0000
1001
0000
,
0000
0001
0000
0000
1000
0000
1000
0000
,
0010
0000
1000
0000
0010
0100
0010
0100
,
0000
0001
1000
0001
,
0100
0100
0000
0010
0000
1000
0000
0001
,
0000
1000
0000
0001
0000
2002
0000
3003
,
1000
0000
0010
0000
,
1000
1000
0010
0100
,
0000
0001
0000
0000
1000
0000
0000
0001
,
0000
0000
1000
0000
0000
0001
0100
0010
,
0000
0000
0000
0000
,
0000
0000
0000
0000
1000
0100
1000
0100
,
0000
0000
0010
0000
0001
0000
1000
0001
,
0000
0000
0100
0000
0010
0000
0100
0010
,
0000
0000
1000
0000
0100
0000
1000
0001
,
0000
0000
0001
0000
0100
0010
0000
0100
,
0000
0000
0010
0000
1000
0010
1000
0010
,
0000
0000
0100
0000
0001
1000
0001
1000
,
0000
0001
1000
0010
,
0100
0000
0100
0000
0010
0010
0000
0100
,
0000
0000
0001
0000
1000
0010
1000
0010
,
0000
0000
0100
0000
0001
1000
0001
1000
,
0000
0000
0010
0000
0100
0010
0010
0100
,
0000
0100
0000
0010
0000
0001
0000
1001
,
0000
0000
0010
0000
1000
0000
0010
0100
,
0000
0000
0001
0000
1000
0001
1000
0001
,
0000
1000
0000
0000
0010
0000
0000
0100
,
0000
0000
0001
0000
1000
0001
1000
0001
,
0000
0000
1000
0000
0010
0100
0010
1000
,
0000
0000
0001
0000
1000
0001
1000
0000
,
0000
1100
0000
0000
0011
0000
0000
2002
,
0000
0000
0000
3003
,
0000
0000
1000
0010
,
0010
1000
0001
0100
,
0000
0100
0000
0000
0010
0000
0010
0000
,
1000
0001
0000
1000
,
0000
0001
0000
0000
1000
0000
1000
0000
,
0100
0000
1000
0000
0010
0000
1000
0001
,
0000
0001
0000
0000
0100
0000
0100
0000
,
0010
0000
1000
0000
0001
0000
1000
0100
,
0000
0010
0000
0000
0001
0000
1000
0000
,
1000
0000
0010
0000
0000
1000
0000
0001
,
0000
1001
0000
0000
0001
0000
0001
0000
,
0100
0010
0000
2002
,
3003
0000
1000
0000
0000
0010
0000
0000
,
1000
0000
0000
0001
0000
0100
0000
0000
,
0020
0000
0230
0000
,
0301
0000
1000
0000
0001
0100
0001
1000
;

//--------------- dance-single - Fred-104 ----------------
#NOTEDATA:;
#STEPSTYPE:dance-single;
#DESCRIPTION:Fred-104;
#DIFFICULTY:Medium;
#METER:14;
#CREDIT:Fred-104;
#NOTES:
0000
0000
0000
0000
,
0000
0000
0000
0000
,
0000
0000
0000
0000
0000
0000
0000
1001
,
0000
0001
1000
0010
0100
0020
0000
1030
,
0100
2000
0000
3001
0100
0001
0000
1001
,
0000
1000
0010
0100
0001
0000
0100
0100
,
0000
0010
1000
0010
1000
0001
1000
1000
,
0000
0001
0000
0100
0010
2000
0000
3100
,
0010
0001
1000
0001
0100
0010
0100
0100
,
0000
0001
0100
0001
0100
0010
1000
2000
,
0000
0000
3100
0000
1000
0000
0001
0000
0100
0000
0000
0010
0000
0000
0110
0000
,
0000
0000
1000
0000
0010
1000
0000
0001
,
0001
1000
0001
0100
0000
0110
0000
1010
,
0000
0001
1000
0100
1000
0100
0010
0010
,
0001
1000
0010
0100
0000
0001
1000
1001
,
0000
0010
0200
0000
0310
0001
1000
0010
,
1010
0000
0101
0000
1000
1000
0001
0100
,
0000
0100
0010
0000
1000
0100
1000
1000
,
0100
1000
0100
1000
0001
0100
0010
0010
,
0000
1000
0001
0100
0001
0100
0001
0010
,
0011
0000
1010
0000
0001
1000
0100
0100
,
0000
0010
1010
0000
0101
0000
1100
0000
,
0011
0000
1001
0000
0100
0100
0000
0110
,
0000
0001
0010
0001
0010
0100
0010
0100
,
1100
0000
1001
0000
0001
0100
0000
0110
,
0000
0010
1000
0010
0100
0010
1000
1000
,
0001
0100
0010
1000
0001
0010
0100
0100
,
0000
0001
0100
1000
0010
0100
0001
0100
,
0110
0000
1001
0000
0100
0010
0000
1010
,
0000
0001
1000
0100
1100
0000
0110
0000
,
0011
0000
1001
0000
0001
0001
1000
0001
,
0000
1000
0010
0100
0010
0000
1000
0000
,
0001
0100
0010
0100
1000
0100
0001
1000
,
0000
1001
0000
0010
0100
0000
0010
1000
,
0001
0100
0010
1000
0010
0001
1000
1000
,
0000
0010
0100
0001
0001
0000
1000
0100
,
0010
0001
1000
0100
0001
0100
0010
0010
,
0000
1000
0010
0100
0101
0000
1100
0000
,
0100
0000
0001
0000
1000
0000
0100
0000
0010
0000
0000
1100
0000
0000
0101
0000
,
0020
0000
0000
1030
0001
0200
0000
0000
,
0320
0000
0000
2030
0000
3100
0010
0001
,
1000
1000
0010
0200
0000
0301
1000
0001
,
0100
0000
0010
0010
0000
1000
0001
0001
,
0100
0010
1000
0200
0000
0320
0000
0032
,
0000
1003
0010
0200
0000
0301
0001
1000
,
0001
0000
1000
1100
0000
0001
0101
0000
,
1000
0010
0100
0001
1000
0100
0010
0000
,
1001
0000
0001
0100
0001
0100
0010
0010
,
0000
1000
1000
0010
0100
0010
1000
0001
,
1000
1100
0000
0110
0000
0011
0000
1001
,
0000
1000
0100
0010
0001
2000
0000
3000
,
1000
0000
1000
0100
1000
0000
0001
0100
,
0001
0000
1000
0010
1000
0010
0100
0001
,
0000
1100
0000
0100
0010
0000
0010
0001
,
0000
0001
1000
0000
0000
0001
1000
1001
,
0000
0000
0000
0000
,
0000
0000
0000
0000
0001
0001
1000
0010
,
0000
1000
0100
1000
0010
0100
0001
0001
,
0000
1000
0100
0010
0001
1000
0100
0100
,
0000
0001
1000
0010
0100
0001
1000
1000
,
0000
0010
0100
1000
0001
0100
0000
0110
,
0000
0010
0010
1000
0010
0100
0001
0001
,
0000
1000
0100
0010
0001
1000
0010
0010
,
0000
0001
1000
0100
0010
0100
1000
0001
,
1000
0100
1000
0000
0001
0100
0001
0000
1000
0000
0010
0000
0000
0000
1001
0000
,
0000
0100
0010
1000
0010
0100
0010
0010
,
0000
1000
0100
0010
0100
1000
0001
0001
,
0000
1000
1000
0010
0100
0001
1000
1000
,
0000
1010
0000
0101
0000
0110
0000
1001
,
0000
1000
1000
0100
0010
0001
1000
0002
,
0000
1003
0010
0100
0001
0001
1000
0100
,
0000
0110
0000
0001
1000
0000
0100
0010
,
0000
0001
1000
0000
0001
0100
0010
0020
,
0000
1030
0100
1000
0001
0100
0100
0200
,
0000
0000
0310
0000
1000
0000
0001
0000
1000
0000
0100
0000
1000
0001
1000
0000
,
0000
1001
0000
0100
0010
0000
0010
0220
,
0000
0000
0000
0330
,
0000
1001
0000
0010
0100
0001
0010
1000
,
0010
0001
1000
0010
0100
0001
0000
0011
,
0000
1001
0000
0010
1000
0100
0001
0100
,
1000
0010
0100
0100
0001
1000
0001
0100
,
0000
0110
0000
0010
1000
0100
1000
0010
,
0100
0001
0010
0100
1000
0001
0000
0110
,
0000
0000
1001
0000
0000
0000
0001
0000
1000
0000
0100
0000
1000
0010
1000
0000
,
0001
0010
0001
0000
0100
0000
0100
0000
0010
0000
1000
0000
0001
0000
2001
0000
,
0000
3001
0100
0100
0010
0000
1000
0100
,
1000
0000
0001
0100
0001
0100
0010
1000
,
0000
1010
0000
0010
0100
0100
0010
1000
,
0001
1000
0100
0100
0100
0000
1000
0001
,
0000
0001
0100
0000
0100
0010
0000
1000
,
0100
0010
0000
0011
0000
1010
0000
0101
,
0000
0100
0020
0000
1030
0001
0200
0000
,
0310
0000
1000
0000
0001
0100
0001
0000
1000
0000
0001
0000
0010
0000
0010
0000
;

//--------------- dance-single - Fred-104 ----------------
#NOTEDATA:;
#STEPSTYPE:dance-single;
#DESCRIPTION:Fred-104;
#DIFFICULTY:Hard;
#METER:17;
#CREDIT:Fred-104;
#NOTES:
0000
0000
0000
0000
,
0000
0000
0000
0000
,
0000
0000
0000
0000
0000
0000
0000
0110
,
0000
0010
1000
0001
1000
0100
0010
0001
,
1000
0000
0010
0000
0100
0000
0001
0010
0001
0010
0001
0000
1000
0000
1001
0000
,
0000
0000
0001
0000
1000
0000
0010
0000
0010
0000
0100
0000
0100
0000
0001
1000
,
0001
1000
0001
1000
0001
0000
1000
0000
0010
0000
0100
0010
0100
0010
0100
0000
,
0000
0001
0100
0001
0010
0100
1000
0010
,
0100
0000
0010
0000
1000
0000
0010
0100
0010
0100
0010
0100
0001
0100
0002
0000
,
0000
0000
1003
0100
1000
0000
0001
0000
0100
0000
0010
0000
1000
0000
1020
0000
,
0000
0000
0130
0000
0001
0000
1000
0000
0100
0000
0000
0110
0000
0000
0110
0000
,
0000
0010
0001
0000
0100
0110
0000
0010
,
1010
0000
1000
1100
0000
0110
0000
0101
,
0000
0000
0001
1000
0001
1000
0001
1000
0001
0000
0001
0000
0100
0010
0100
0000
,
0010
1000
0100
1100
0000
1000
0001
1001
,
0000
0001
0011
0010
0100
1000
0010
0100
,
0102
0003
2100
3000
0001
0100
0010
1010
,
0000
0000
0001
0000
1000
0000
0100
0000
1000
0000
1000
0000
0001
0100
0001
0100
,
0010
0000
1000
0000
0100
0000
0010
0000
0001
1000
0001
1000
0001
0000
1001
0000
,
0000
0010
1000
0100
0110
0010
0001
1000
,
2100
0000
0000
3000
0102
0000
0000
0003
1000
0000
0001
0100
0001
0000
0012
0000
,
0000
0000
0103
0000
0100
0000
0010
0000
2000
0000
0100
3000
0002
0000
0100
0003
,
1000
0010
1000
0010
0100
0001
0100
0001
0100
0000
0010
0100
0010
0000
1001
0000
,
0000
0000
0001
0000
1000
0000
0010
1000
0010
0000
1000
0000
0100
0000
0010
0000
,
0012
0000
0000
0003
2010
0000
0000
3000
0001
1000
0001
1000
0001
0000
1001
0000
,
0000
0000
0010
0000
0100
0000
0010
0000
1000
0010
1000
0000
0001
0010
0001
0000
,
2000
0000
3200
0000
0320
0000
0031
0100
0001
0100
0010
0100
0001
0000
0101
0000
,
0000
0000
0100
0010
0100
0000
0020
0000
2030
0000
3200
0000
0320
0000
0130
0000
,
2100
0000
0000
3000
0102
0000
0000
0003
1000
0000
0001
0100
0001
0000
1001
0000
,
0000
0100
0010
0001
0011
0000
1010
0000
,
0011
0000
0001
0000
1000
0010
1000
0010
0100
0000
0001
0000
1000
0000
1100
0000
,
0000
0100
0100
0010
1000
0100
0010
0001
,
0100
0000
0010
0000
1000
0000
0010
0000
0100
0000
0001
1000
0100
0000
0110
0000
,
0000
0011
0001
1000
0010
0100
0001
0100
,
0001
0100
1000
0001
0010
1000
0001
1001
,
0000
1100
0100
0010
0001
0100
0010
0100
,
0001
0000
1000
0000
0100
0000
1000
0000
0100
0000
0010
0100
0010
0000
0110
0000
,
0000
0000
0011
0000
0001
0000
1000
0000
0001
0000
0100
0000
0010
1000
0010
1000
,
0010
0000
1000
0000
0001
0100
0010
0000
0100
0000
0000
1010
0000
0000
0011
0000
,
0200
0000
0000
2300
3020
0230
0000
0000
,
0302
0000
0000
0000
0000
0000
2003
0000
0000
0000
3001
0000
0100
0000
0010
0100
,
0010
1000
0001
2000
0000
3100
0010
0001
,
1000
0000
0000
0000
0010
0000
0110
0000
0000
0000
0001
0000
0100
0010
1000
0001
,
0010
0010
0001
2000
0000
3020
0000
0230
,
0301
0000
0000
0100
0000
0000
0001
0000
0000
0100
0000
0000
0001
0000
0000
1000
0000
0000
0001
0000
0000
1000
0000
0000
0001
0000
0000
0000
0010
0000
0000
0000
0100
0000
0000
0000
1000
0000
0000
0010
0000
0000
0100
0000
0000
0001
0000
0000
,
1000
0000
0001
0101
0000
1000
1100
0000
,
0001
0000
1000
0010
0100
0010
1000
0010
0100
0010
1000
0001
1000
0100
0010
0001
,
1000
0000
0001
0100
0010
1000
0100
0210
,
0000
0000
0301
0000
1000
0000
0100
0000
0010
0001
1000
0010
0100
0001
1000
0010
,
0100
0110
0000
1100
0000
0101
0000
1001
,
0000
0001
1000
0010
0100
0020
0000
0030
,
1100
0101
1100
0101
,
1010
0000
0000
0000
0011
0000
0000
0000
1001
0000
0000
0000
0001
0100
0010
0000
,
0000
1010
0000
0001
0101
0000
1000
1100
,
0000
0001
1001
0000
0000
1100
0110
0110
,
0000
0000
0000
0000
,
0000
0000
0000
0000
0000
0000
0000
0000
1000
0000
0010
1000
0001
0010
0100
0000
,
0000
0000
0100
0000
0010
0000
1000
0000
0001
0000
0010
0000
0100
0010
0001
0000
,
0000
0000
1000
0000
0001
0000
0100
0000
0001
0000
1000
0000
0100
0010
0001
0000
,
0000
0000
0001
0000
0100
0000
0010
0000
1000
0100
0010
0000
0001
0100
0010
0000
,
0000
1000
1000
0001
0100
0110
0000
1001
,
0000
0000
1000
0000
0010
0000
0100
0000
0010
0000
1000
0001
0100
0000
0101
0000
,
0000
0000
0100
0000
0010
0100
1000
0001
0100
0000
0010
0000
0100
0000
1100
0000
,
0000
0000
0100
0000
0010
0000
0001
0000
1000
0100
1000
0000
0001
0100
0001
0000
,
1000
0010
0100
0010
1000
0001
0100
0010
1000
0000
1100
0000
0000
0000
1001
0000
,
0000
0001
0100
1000
0001
0010
1000
1001
,
0000
0000
0001
0000
0100
0000
0010
0000
1000
0100
1000
0100
0010
0000
0011
0000
,
0000
0000
0001
0000
1000
0000
0001
0000
0100
0010
0100
0010
0100
0000
0110
0000
,
0000
1010
0000
0011
0000
1100
0000
1001
,
0000
0001
0100
0010
1000
1000
0010
0200
,
0000
0000
0301
0000
1000
0000
0010
0000
0100
0001
1000
0001
0100
0010
0100
0000
,
0000
0110
0000
1000
1010
0000
0001
0011
,
0000
1000
1100
0000
0001
0100
0010
0210
,
0000
0000
0310
0000
1000
0000
0100
0000
0010
0000
0001
1000
0010
0100
0002
0000
,
0000
0000
0103
0000
0010
1000
0010
0100
0001
0010
0100
1000
0010
0100
0001
0000
,
0000
1100
0000
1001
0101
0000
1100
2002
,
0000
0000
0000
3003
,
0000
1010
0000
0010
0100
0001
0100
0010
,
1000
0100
0010
0001
1000
1100
0000
0101
,
0000
1001
0000
0001
0100
0010
0100
0010
,
1000
0000
0001
0000
1000
0100
1000
0000
0010
0000
0100
0000
0001
0000
1001
0000
,
0000
0110
0000
0010
0010
1000
0001
0010
,
0100
1000
0001
0100
0001
1001
0000
1100
,
0000
0000
0110
0000
0000
0000
0002
0000
0203
0000
0320
0000
1030
0010
1000
0001
,
0010
0001
0100
0010
1000
0000
0100
0000
0010
0000
0001
0000
0100
0000
0210
0000
,
0000
0000
0000
0000
0000
0000
0301
0000
0000
1000
0000
0000
0001
0000
0000
0000
0000
0000
1000
0000
0000
0000
0000
0000
0100
0000
0000
0000
0000
0000
0000
0000
0000
0000
0000
0000
0010
0000
0000
0000
0001
0000
0000
0000
0010
0000
0000
0000
,
0001
0000
0000
0000
0010
0000
0000
0000
0100
0000
0000
0000
1000
0000
0000
0010
0000
0000
0100
0000
0000
0001
0000
0000
1000
0000
0000
0100
0000
0000
0010
0000
0000
0001
0000
0000
1000
0000
0000
0000
0000
0000
1100
0000
0000
0000
0000
0000
,
0000
0000
0110
0000
0000
0000
0001
0000
1000
0000
0100
1000
0100
0000
0010
0000
,
0001
0000
1000
0010
0100
0001
1000
0001
0100
0000
0000
0000
0010
0000
1100
0000
,
0000
0010
0001
0000
0100
0010
0000
0010
,
1000
1100
0000
0101
0000
0011
0000
1020
,
0000
0000
2030
0000
3001
0100
0010
1000
0010
0000
0000
0000
1000
0001
0100
0010
,
1000
0000
0100
0000
0001
0100
0010
0000
1000
0000
0001
0000
0010
0000
0110
0000
;

//--------------- dance-double - Fred-104 ----------------
#NOTEDATA:;
#STEPSTYPE:dance-double;
#DESCRIPTION:Fred-104;
#DIFFICULTY:Easy;
#METER:9;
#CREDIT:Fred-104;
#NOTES:
00000000
00000000
00000000
00000000
,
00000000
00000000
00000000
00000000
,
00000000
00000000
00000000
00000000
00000000
00000000
00000000
00001000
,
00000000
00010000
00001000
00000000
,
00100000
00000000
00001000
00000000
00100000
00000000
00000000
00010000
,
00000000
01000000
00100000
00000000
,
10000000
00000000
01000000
00000000
10000000
00000000
00000000
00010000
,
00000000
01000000
01000000
00000000
,
00010000
00000000
00001000
00000000
00010000
00000000
00000000
00001000
,
00000000
00010000
00001000
00000100
,
00000010
00000000
00000000
00000000
00010000
00000000
00000000
00000000
00001000
00000000
00000000
00001000
00000000
00000000
00001000
00000000
,
00000000
00000000
00100000
00000000
00010000
00010000
00000000
00000000
,
01000000
00000000
00000000
00100000
00000000
01000000
00000000
01000000
,
00000000
00000000
00100000
00000000
00001000
00010000
00000000
00000000
,
00011000
00000000
00000000
00001000
00000000
00000100
00001000
00000100
,
00000000
00000010
00000001
00000000
,
00001000
00000000
00000001
00000000
00000100
00000100
00000000
00000010
,
00000000
00001000
00000001
00000000
,
00000100
00000000
00000100
00000000
00010000
00001000
00010000
00001000
,
00000000
00001000
00100000
00000000
,
00001000
00000000
00010000
00000000
00001000
00100000
00000000
00010000
,
00000000
01000000
00100000
00000000
,
01000000
00000000
00100000
00000000
10000000
00010000
00000000
10010000
,
00000000
01000000
01000000
00100000
,
00010000
00000000
00001000
00000000
00010000
00001000
00000000
00011000
,
00000000
00001000
00000010
00000010
,
00000100
00000000
00000001
00000000
00001000
00000001
00001000
00000001
,
00000000
00000100
00000100
00000000
,
00000001
00000000
00000100
00000000
00000010
00001000
00000000
00001001
,
00000000
00000010
00010000
00001000
,
00010000
00000000
00001000
00000000
00100000
00010000
00100000
00010000
,
00000000
01000000
00100000
01000000
,
00010000
00000000
10000000
00000000
00010000
10000000
01000000
10000000
,
00000000
00100000
00100000
00000000
,
01000000
00000000
00100000
00000000
01000000
00010000
01000000
00010000
,
00000000
00100000
00001000
00000000
,
00010000
00000000
00000010
00000000
00001000
00000010
00001000
00000010
,
00000000
00010000
00001000
00000000
,
00100000
00000000
00000000
00000000
00010000
00000000
00000000
00000000
01000000
00000000
00000000
01000000
00000000
00000000
01000000
00000000
,
00200000
00000000
20300000
00000000
,
30020000
00000000
00000000
02030000
00000000
00000000
03002000
00000000
,
00023000
00000000
00000000
00030200
00000000
00000000
00002300
00000000
,
00003002
00000000
00000000
00000203
00000000
00000000
00000310
00000000
,
00001001
00000000
00000000
00000002
00000000
00002003
00000000
00003020
,
00000000
00000130
00000010
00000000
00001000
00000000
00000001
00000000
,
00001001
00000000
00000000
00000110
00000000
00000000
00001001
00000000
,
00000000
00000100
00000000
00000000
00010000
00000000
00001000
00000000
,
00100000
00000000
00010000
00000000
01000000
00100000
01000000
00100000
,
00000000
10000000
01000000
10000000
,
00010000
00010000
00000000
10000000
00000000
01000000
00000000
01000000
,
00000000
00100000
00000000
00001000
00000000
00022000
00000000
00033000
,
00010000
00000000
00000010
00000000
,
00010000
00010000
00001000
00000100
,
00000000
00000001
00000000
00000000
00001000
00000000
00000000
00000010
,
00000000
00000000
00000100
00000000
00000000
00000001
00001000
00000001
,
00000000
00000000
00000000
00000000
,
00000000
00000000
00000000
00000000
00010000
00001000
00010000
00001000
,
00000000
00000000
01000000
00000000
00100000
00000000
01000000
00100000
,
00000000
00000000
10000000
00000000
01000000
00000000
10000000
01000000
,
00000000
00000000
01000000
00000000
00100000
00000000
01000000
00010000
,
00000000
00000000
00100000
00000000
00001000
00010000
00000000
00010000
,
00000000
00000000
00001000
00000000
00010000
00000100
00010000
00000100
,
00000000
00000000
00001000
00000000
00000001
00000100
00000001
00000100
,
00000000
00000010
00000100
00000100
,
00000010
00000000
00001000
00000000
00000001
00000100
00000000
00000010
,
00000000
00000000
00001000
00000000
00000100
00010000
00000100
00010000
,
00000000
00000000
00001000
00000000
00100000
00010000
00100000
00010000
,
00000000
00000000
01000000
00000000
00100000
01000000
00100000
01000000
,
00000000
00100000
00000000
00010000
00000000
10000000
00000000
10010000
,
00000000
00000000
00010000
00000000
01000000
00000000
00010000
10000000
,
00000000
00000000
01000000
00000000
00100000
01000000
00100000
01000000
,
00000000
00100000
00000000
00000000
00001000
00000000
00000000
00010000
,
00000000
00000000
00000100
00000000
00001000
00000001
00001000
00000001
,
00000000
00000000
00000100
00000000
00000010
00000100
00000010
00000100
,
00000000
00000001
00001000
00000010
,
00000000
00000100
00000000
00000000
00000010
00000000
00000000
00000220
,
00000000
00000000
00000000
00000330
,
00000000
00000000
00010000
00010000
,
00000100
00010000
00001000
00010000
,
00000000
00000010
00000000
00000000
00010000
00000000
00010000
00000000
,
00001000
00100000
00000000
00010000
,
00000000
10000000
00000000
00000000
00010000
00000000
00010000
00000000
,
01000000
00000000
00100000
00000000
10000000
00000000
00010000
10000000
,
00000000
00010000
00000000
00000000
01000000
00000000
00100000
00000000
,
10000000
00000000
01000000
00000000
00100000
00000000
01000000
00100000
,
00000000
01000000
00000000
00000000
00010000
00000000
00100000
00000000
,
00001000
00000000
00010000
00000000
00000000
00001000
00000000
00010000
,
00000000
00011000
00000000
00000000
00010000
00000000
00000010
00000000
,
00001000
00000001
00000000
00002002
,
00003003
00000000
00001000
00000000
00000000
00000100
00000000
00000000
,
00000001
00000000
00000000
00000010
00000000
00000010
00000000
00000000
,
00002000
00000000
00023000
00000000
,
00130000
00000000
10000000
00000000
00010000
10000000
00010000
10000000
;

//--------------- dance-double - Fred-104 ----------------
#NOTEDATA:;
#STEPSTYPE:dance-double;
#DESCRIPTION:Fred-104;
#DIFFICULTY:Medium;
#METER:14;
#CREDIT:Fred-104;
#NOTES:
00000000
00000000
00000000
00000000
,
00000000
00000000
00000000
00000000
,
00000000
00000000
00000000
00000000
00000000
00000000
00000000
00001001
,
00000000
00000001
00000100
00000010
00001000
00000002
00000000
00000103
,
00000010
00002000
00000000
00003100
00010000
00001000
00000000
00011000
,
00000000
00001000
00010000
01000000
10000000
00000000
01000000
00010000
,
00000000
01000000
10000000
01000000
00100000
00001000
00010000
00010000
,
00000000
00001000
00000000
00000100
00000010
00000200
00000000
00000310
,
00001000
00000001
00000100
00000001
00000100
00000010
00001000
00001000
,
00000000
00000010
00000100
00000010
00001000
00000001
00000010
00000200
,
00000000
00000000
00000310
00000000
00000001
00000000
00001000
00000000
00000010
00000000
00000000
00010000
00000000
00000000
00011000
00000000
,
00000000
00000000
01000000
00000000
00100000
00100000
00000000
01000000
,
00100000
10000000
00100000
10000000
00000000
11000000
00000000
01100000
,
00000000
00100000
00001000
00010000
00000010
00010000
00001000
00000000
,
00010000
00000010
00001000
00000100
00010000
00000010
00001000
00001010
,
00000000
00000001
00002000
00000000
00003010
00000100
00000001
00000000
,
00000101
00000000
00001100
00000000
00001000
00010000
00100000
01000000
,
00000000
00100000
00010000
00000000
01000000
00100000
01000000
00000000
,
00010000
00001000
00010000
00001000
00000100
00010000
00001000
00001000
,
00000000
00010000
00000010
00001000
00000100
00010000
00001000
00010000
,
00011000
00000000
01010000
00000000
01000000
00100000
00010000
10000000
,
00000000
10000000
00100000
00000000
01100000
00000000
00101000
00000000
,
00011000
00000000
00010100
00000000
00001000
00000100
00000000
00000110
,
00000000
00000001
00000100
00000010
00001000
00000010
00000100
00000000
,
00001001
00000000
00000110
00000000
00000001
00000100
00000000
00000110
,
00000000
00000010
00010000
00001000
00100000
00010000
01000000
00000000
,
00100000
10000000
00100000
10000000
01000000
00100000
01000000
01000000
,
00000000
00100000
00001000
00100000
00001000
00010000
00001000
00000000
,
00101000
00000000
00011000
00000000
00000100
00000010
00000000
00000110
,
00000000
00010000
00001000
00000000
00101000
00000000
00110000
00000000
,
01000000
00000000
01000000
00000000
00010000
00001000
00000100
00000010
,
00000000
00001000
00000001
00000100
00000010
00000000
00001000
00000000
,
00000001
00000100
00000001
00000100
00001000
00010000
00001000
00010000
,
00000000
00011000
00000000
01000000
00100000
00000000
00010000
01000000
,
00010000
01000000
10000000
01000000
00100000
01000000
00010000
10000000
,
00000000
01000000
00100000
00010000
10000000
00000000
00100000
01000000
,
00100000
01000000
00100000
00001000
00010000
00001000
00010000
00010000
,
00000000
00001000
00000100
00000010
00000110
00000000
00001001
00000000
,
00001000
00000000
00000010
00000000
00000100
00000000
00000000
00000000
00000001
00000000
00000000
00000100
00000000
00000000
00001000
00000000
,
00020000
00000000
00000000
00130000
01000000
00200000
00000000
00000000
,
00302000
00000000
00000000
00023000
00000000
00031000
00000100
00000010
,
00001000
00000100
00010000
00002000
00000000
00103000
00010000
00100000
,
01000000
00000000
00010000
01000000
00000000
00100000
00100000
01000000
,
00100000
00010000
00001000
00000020
00000000
00020030
00000000
00032000
,
00000000
00013000
01000000
00002000
00000000
00013000
00001000
00000100
,
00000010
00000000
00000100
00001000
00000000
00010000
00100000
00000000
,
01000000
00010000
00100000
00001000
00010000
00000010
00010000
00000000
,
00011000
00000000
00010000
00100000
01000000
10000000
00100000
01000000
,
00000000
00010000
10000000
01000000
00100000
01000000
00010000
00100000
,
00001000
00101000
00000000
00011000
00000000
00001010
00000000
00001001
,
00000000
00000001
00000100
00000010
00001000
00000002
00000000
00000003
,
00001000
00000001
00000010
00001000
,
00010000
00000000
00100000
00000000
10000000
00100000
01000000
00010000
,
00000000
01010000
00000000
00001000
00010000
00000000
00000100
00001000
,
00000000
00000001
00000100
00000000
00000000
00000010
00000100
00000110
,
00000000
00000000
00000000
00000000
,
00000000
00000000
00000000
00000000
00001000
00010000
00100000
01000000
,
00000000
00100000
00010000
01000000
00010000
01000000
00100000
10000000
,
00000000
10000000
01000000
00100000
00001000
00010000
00001000
00001000
,
00000000
00010000
00001000
00000100
00000001
00001000
00000010
00000010
,
00000000
00000100
00000001
00001000
00000100
00000010
00000000
00001001
,
00000000
00000001
00000010
00000001
00000010
00001000
00010000
00001000
,
00000000
00010000
00100000
00010000
00100000
10000000
00100000
10000000
,
00000000
00010000
10000000
00010000
10000000
00100000
01000000
00010000
,
10000000
00100000
10000000
00000000
00010000
00100000
00010000
00000000
00100000
00000000
00001000
00000000
00000000
00000000
00011000
00000000
,
00000000
00001000
00000100
00000001
00001000
00000100
00000010
00000010
,
00000000
00000001
00000100
00001000
00000100
00000001
00001000
00001000
,
00000000
00000010
00000100
00000010
00001000
00000001
00000010
00000100
,
00000000
00001010
00000000
00011000
00000000
00110000
00000000
10010000
,
00000000
00010000
01000000
00010000
01000000
00100000
10000000
02000000
,
00000000
03100000
00001000
00010000
00000100
00001000
00000100
00000010
,
00000000
00000011
00000000
00000100
00000010
00000000
00010000
00001000
,
00000000
01000000
00100000
00000000
00010000
10000000
00010000
20000000
,
00000000
30100000
01000000
10000000
00100000
01000000
00010000
00200000
,
00000000
00000000
01300000
00000000
00100000
00000000
00010000
00000000
00001000
00000000
00000100
00000000
00000010
00000100
00000010
00000000
,
00000000
00001001
00000000
00000100
00000010
00000000
00010000
00022000
,
00000000
00000000
00000000
00033000
,
00000000
00011000
00000000
00001000
00010000
00001000
00100000
00001000
,
00100000
00010000
01000000
00100000
10000000
01000000
00000000
01100000
,
00000000
01010000
00000000
00010000
00001000
00010000
00001000
00000100
,
00000001
00001000
00000001
00000100
00000010
00001000
00000001
00000010
,
00000100
00001000
00000000
00001000
00010000
01000000
10000000
01000000
,
00010000
01000000
00100000
10000000
01000000
00100000
00000000
00110000
,
00000000
00000000
00101000
00000000
00000000
00000000
00001000
00000000
00010000
00000000
00000100
00000000
00001000
00000100
00001000
00000000
,
00000010
00000100
00000010
00000000
00001000
00000000
00000100
00000000
00000010
00000000
00000001
00000000
00001000
00000000
00001020
00000000
,
00000000
00010030
00001000
00010000
00000010
00000000
00010000
00001000
,
00100000
00000000
00001000
00010000
01000000
00001000
00010000
00001000
,
00000000
00011000
00000000
00010000
00001000
00000100
00000010
00010000
,
00001000
00100000
00010000
00010000
00010000
00000000
01000000
00100000
,
00000000
01000000
00100000
00000000
10000000
01000000
00000000
01000000
,
00100000
00010000
00000000
00110000
00000000
00011000
00000000
00001100
,
00000000
00000010
00000200
00000000
00000301
00001000
00000200
00000000
,
00001300
00000000
00000001
00000000
00000100
00000010
00000100
00000000
00000001
00000000
00000100
00000000
00001000
00000000
00010000
00000000
;

//--------------- dance-double - Fred-104 ----------------
#NOTEDATA:;
#STEPSTYPE:dance-double;
#DESCRIPTION:Fred-104;
#DIFFICULTY:Hard;
#METER:17;
#CREDIT:Fred-104;
#NOTES:
00000000
00000000
00000000
00000000
,
00000000
00000000
00000000
00000000
,
00000000
00000000
00000000
00000000
00000000
00000000
00000000
00010010
,
00000000
00010000
00001000
00100000
00001000
00010000
00001000
00100000
,
00010000
00000000
01000000
00000000
00100000
00000000
10000000
01000000
10000000
00000000
01000000
00000000
00100000
00000000
00110000
00000000
,
00000000
00001000
00010000
00100000
00001000
00000010
00001000
00010000
,
00100000
00000000
00001000
00000000
00010000
00000000
00000010
00000000
00001000
00000010
00001000
00000000
00000001
00000000
00001001
00000000
,
00000000
00001000
00000100
00000001
00000100
00001000
00010000
01000000
,
00001000
00000000
00010000
00000000
00001000
00000000
00000100
00000000
00010000
00001000
00010000
00001000
00010000
00000000
00011000
00000000
,
00000000
00000000
00100000
00001000
00100000
00000000
00010000
00000000
01000000
00000000
10000000
00000000
01000000
00000000
01200000
00000000
,
00000000
00000000
00310000
00000000
00100000
00000000
10000000
00000000
00100000
00000000
00000000
00010000
00000000
00000000
10010000
00000000
,
00000000
00100000
00010000
00000000
00001000
00011000
00000000
00000010
,
00001010
00000000
00001000
00001001
00000000
00000110
00000000
00001001
,
00000000
00000000
00000001
00000100
00000001
00000100
00000001
00000000
00000100
00000000
00000010
00000000
00001000
00000100
00001000
00000000
,
00000010
00000100
00000001
00001001
00000000
00000010
00001000
00001100
,
00000000
00000100
00000010
00000100
00010000
00001000
01000000
00010000
,
00021000
00000000
00000000
00030000
00012000
00000000
00000000
00003000
00000010
00000000
00010000
00000000
00001000
00000000
00101000
00000000
,
00000000
00000000
00001000
00000000
00010000
00000000
00001000
00000000
00100000
00000000
01000000
00000000
00100000
01000000
00100000
01000000
,
00100000
00000000
00010000
00000000
00001000
00000000
00000100
00000000
00000010
00000100
00000010
00000000
00000100
00000000
00000110
00000000
,
00000000
00001000
00000100
00000010
00001000
00010000
00100000
01000000
,
02010000
00000000
00000000
03000000
00021000
00000000
00000000
00030000
00001000
00000000
00000100
00000010
00000100
00000000
00000120
00000000
,
00000000
00000000
00001030
00000000
00000100
00000000
00010000
00000000
00002000
00000000
00000100
00003000
00020000
00000000
01000000
00030000
,
00001000
00010000
00001000
00010000
00001000
00010000
00001000
00000000
00100000
00000000
00010000
01000000
00100000
00000000
01100000
00000000
,
00000000
00000000
00001000
00000000
00010000
00000000
00000100
00010000
00000100
00000000
00010000
00000000
00001000
00000000
00000100
00000000
,
00000120
00000000
00000000
00000030
00002001
00000000
00000000
00003000
00000001
00000100
00000001
00000000
00000100
00000000
00000110
00000000
,
00000000
00000000
00001000
00000000
00010000
00000000
00100000
00000000
01000000
00100000
01000000
00000000
00010000
10000000
00010000
00000000
,
01000000
00000000
00010000
00000000
00001000
00000000
00010000
00001000
00010000
00000000
00000010
00001000
00000010
00000000
00001001
00000000
,
00000000
00000000
00000010
00000100
00000010
00000000
00001000
00000000
00000001
00000000
00000010
00000000
00000100
00000000
00001000
00000000
,
00001020
00000000
00000000
00000030
00012000
00000000
00000000
00003000
00100000
00000000
00010000
01000000
00100000
00000000
01100000
00000000
,
00000000
00010000
01000000
00100000
10100000
00000000
00101000
00000000
,
00001000
00000000
00010000
00000000
00000010
00001000
00000100
00010000
00001000
00000000
00010000
00000000
00001000
00000000
00011000
00000000
,
00000000
00010000
00010000
00000100
00010000
00001000
01000000
00100000
,
00010000
00000000
00000100
00000000
00000010
00000000
00001000
00000000
00000100
00000000
00010000
00001000
00010000
00000000
00011000
00000000
,
00000000
00001000
00010000
01000000
00001000
00010000
00000100
00010000
,
00100000
00010000
00001000
00000010
00010000
00001000
00010000
00011000
,
00000000
00001010
00000010
00000100
00001000
00010000
00100000
01000000
,
00001000
00000000
00010000
00000000
00000100
00000000
00000010
00000000
00000100
00000000
00001000
00010000
00001000
00000000
00011000
00000000
,
00000000
00000000
01001000
00000000
00001000
00000000
00100000
00000000
00010000
00000000
01000000
00000000
00100000
01000000
00100000
01000000
,
00100000
00000000
00001000
00000000
00010000
00001000
00010000
00000000
00001000
00000000
00000000
00011000
00000000
00000000
00011000
00000000
,
00020000
00000000
00000000
00031000
00100000
02000000
00000000
00000000
,
03200000
00000000
00000000
00000000
00000000
00000000
20300000
00000000
00000000
00000000
31000000
00000000
00100000
00000000
00010000
00001000
,
00010000
00001000
00000010
00000002
00000000
00001003
00000100
00000001
,
00000100
00000000
00000000
00000000
00000010
00000000
00000200
00000000
00000000
00000000
00000310
00000000
00001000
00000001
00000100
00000001
,
00000100
00000010
00001000
00000002
00000000
00000203
00000000
00002300
,
00013000
00000000
00000000
00001000
00000000
00000000
00010000
00000000
00000000
00000000
00000000
00000000
00001000
00000000
00000000
00100000
00000000
00000000
00001000
00000000
00000000
00000000
00000000
00000000
00100000
00000000
00000000
00000000
00010000
00000000
00000000
00000000
10000000
00000000
00000000
00000000
00100000
00000000
00000000
01000000
00000000
00000000
00100000
00000000
00000000
00000000
00000000
00000000
,
10000000
00000000
01000000
01100000
00000000
00001000
00011000
00000000
,
00001000
00000000
00010000
00001000
00010000
00000000
00000100
00001000
00000100
00000000
00000010
00000100
00000010
00000100
00000010
00000000
,
00000001
00000000
00001000
00000100
00000010
00000100
00010000
02000000
,
00000000
00000000
03001000
00000000
00010000
00000000
00000100
00000000
00000010
00000100
00000010
00000000
00001000
00000100
00001000
00000000
,
00000100
00010100
00000000
01001000
00000000
00010010
00000000
00101000
,
00000000
00001000
00010000
01000000
00001000
00020000
00000000
00030000
,
00010000
01000000
10000000
00000000
10000000
01000000
00010000
00000000
,
00001000
00000000
00000100
00000000
00000001
00000000
00000000
00000000
00000001
00000000
00000100
00000000
00001000
00000001
00000100
00000000
,
00000000
00001001
00000000
00000010
00001010
00000000
00010000
00011000
,
00000000
00100000
00110000
00000000
00000000
10100000
01100000
01100000
,
00000000
00000000
00000000
00000000
,
00000000
00000000
00000000
00000000
00000000
00000000
00000000
00000000
00001000
00000000
00000010
00000100
00000001
00001000
00000100
00000000
,
00000000
00000000
00000001
00000000
00000100
00000000
00001000
00000000
00000100
00000000
00000010
00000000
00001000
00000001
00000100
00000000
,
00000000
00000000
00000100
00000000
00001000
00000000
00010000
00000000
00001000
00000000
00010000
00000000
01000000
00100000
01000000
00000000
,
00000000
00000000
00100000
00000000
10000000
00000000
00100000
00000000
00001000
00000000
00010000
00000010
00001000
00000010
00001000
00000000
,
00000000
00000010
00001000
00000001
00000100
00000110
00000000
00001001
,
00000000
00000000
00000001
00000000
00000100
00000000
00000001
00000000
00000100
00000000
00000010
00001000
00000001
00000000
00001001
00000000
,
00000000
00000000
00001000
00000000
00000010
00001000
00000010
00010000
00001000
00000000
00010000
00000000
00001000
00000000
00011000
00000000
,
00000000
00000000
00001000
00000000
00100000
00000000
00010000
00000000
01000000
00100000
01000000
00000000
00010000
01000000
00010000
00000000
,
10000000
01000000
10000000
00000000
01000000
00100000
01000000
00000000
00001000
00000000
00011000
00000000
00000000
00000000
00001100
00000000
,
00000000
00001000
00000100
00000001
00001000
00000010
00000001
00001001
,
00000000
00000000
00000001
00000000
00000100
00000000
00000010
00000000
00001000
00000010
00001000
00000010
00000100
00000000
00000110
00000000
,
00000000
00000000
00000010
00000000
00010000
00000000
00001000
00000000
00010000
00001000
00010000
00001000
00010000
00000000
00011000
00000000
,
00000000
00101000
00000000
00010010
00000000
01001000
00000000
00010100
,
00000000
00001000
00010000
01000000
00001000
00010000
00100000
00200000
,
00000000
00000000
01300000
00000000
00100000
00000000
00010000
00000000
00001000
00010000
00000100
00001000
00000010
00000100
00000010
00000000
,
00000000
00000110
00000000
00010000
00011000
00000000
01000000
01100000
,
00000000
00001000
00011000
00000000
00000010
00010000
00001000
00021000
,
00000000
00000000
00031000
00000000
00010000
00000000
00100000
00000000
01000000
00000000
00010000
01000000
00010000
01000000
00200000
00000000
,
00000000
00000000
00310000
00000000
00001000
00010000
00001000
00010000
00000100
00001000
00000100
00001000
00000010
00000000
00000100
00000000
,
00000000
00000110
00000000
00001000
00011000
00000000
01000000
02200000
,
00000000
00000000
00000000
03300000
,
00000000
10010000
00000000
00010000
01000000
10000000
01000000
00010000
,
01000000
00100000
10000000
01000000
00100000
00101000
00000000
00011000
,
00000000
00010010
00000000
00001000
00000100
00000001
00001000
00000100
,
00000010
00000000
00000001
00000000
00001000
00000010
00000100
00000000
00000001
00000000
00000100
00000000
00001000
00000000
00011000
00000000
,
00000000
01010000
00000000
01000000
10000000
00010000
01000000
00100000
,
10000000
01000000
00100000
00001000
00010000
00011000
00000000
00001010
,
00000000
00000000
00001001
00000000
00000000
00000000
00000001
00000000
00001000
00000000
00000010
00000000
00000100
00000010
00000100
00000010
,
00001000
00000010
00001000
00000010
00000100
00000000
00000001
00000000
00001000
00000000
00000100
00000000
00000010
00000000
00000012
00000000
,
00000000
00000000
00000000
00000000
00000000
00000000
00001003
00000000
00000000
00000010
00000000
00000000
00000100
00000000
00000000
00000000
00000000
00000000
00000010
00000000
00000000
00000000
00000000
00000000
00001000
00000000
00000000
00000000
00000000
00000000
00000000
00000000
00000000
00000000
00000000
00000000
00000010
00000000
00000000
00000000
00010000
00000000
00000000
00000000
00001000
00000000
00000000
00000000
,
00100000
00000000
00000000
00000000
00010000
00000000
00000000
00000000
01000000
00000000
00000000
00000000
00100000
00000000
00000000
01000000
00000000
00000000
00100000
00000000
00000000
00000000
00000000
00000000
00001000
00000000
00000000
00010000
00000000
00000000
00001000
00000000
00000000
00000000
00000000
00000000
00010000
00000000
00000000
00000000
00000000
00000000
00011000
00000000
00000000
00000000
00000000
00000000
,
00000000
00000000
00001010
00000000
00000000
00000000
00001000
00000000
00010000
00000000
00001000
01000000
00001000
00000000
00010000
00000000
,
00100000
00000000
01000000
00100000
01000000
00100000
01000000
00000000
00100000
00000000
00000000
00000000
00010000
00000000
00101000
00000000
,
00000000
00010000
00000010
00000000
00001000
00000100
00000000
00000100
,
00000001
00000011
00000000
00000110
00000000
00001100
00000000
00010100
,
00000000
00000000
00010000
00000000
00001000
00100000
00010000
01000000
00100000
00000000
00000000
00000000
10000000
00100000
01000000
00010000
,
10000000
00000000
01000000
00000000
00100000
00010000
01000000
00000000
00001000
00000000
00010000
00000000
00001000
00000000
00011000
00000000
;
