#VERSION:0.83;
#TITLE:Blind Justice ~Torn souls, Hurt Faiths~;
#ARTIST:Zektbach;
#TITLETRANSLIT:Blind Justice ~Torn souls, Hurt Faiths~;
#GENRE:EPIC POETRY;
#BANNER:Blind Justice ~Torn souls, Hurt Faiths~.png;
#BACKGROUND:Blind Justice ~Torn souls, Hurt Faiths~-bg.png;
#CDTITLE:./CDTitles/bm IIDX 14 GOLD.png;
#MUSIC:Blind Justice ~Torn souls, Hurt Faiths~.ogg;
#SAMPLESTART:34.917;
#SAMPLELENGTH:15;
#BPMS:0=165,328=156,330=137;
#BGSTAGE:23;

//--------------- dance-single - Fred-104 ----------------
#NOTEDATA:;
#STEPSTYPE:dance-single;
#DESCRIPTION:Fred-104;
#DIFFICULTY:Beginner;
#METER:2;
#CREDIT:Fred-104;
#NOTES:
0000
0000
0000
0000
,
0000
0000
0000
0000
,
0000
0000
0000
0000
,
0000
0000
0000
0000
,
0000
0000
0000
0000
,
0000
0000
0000
0000
,
0000
0000
0000
0000
,
0000
0000
0000
0000
,
0000
0000
0000
0000
,
1000
0000
0000
0000
,
0000
0000
0000
0000
,
0001
0000
0000
0000
,
0000
0000
0000
0000
,
2000
0000
0000
0000
,
0000
0000
0000
0000
,
3000
0000
0000
0000
,
0000
0000
0000
0000
,
0001
0000
0000
0000
,
0000
0000
0000
0000
,
0000
0000
0000
0000
,
1000
0000
0000
0000
,
0001
0000
0000
0000
,
1000
0000
0000
0000
,
0001
0000
0000
0000
,
1000
0000
0000
0000
,
0010
0000
0010
0000
,
0100
0000
0000
0000
,
0001
0000
0010
0000
,
0001
0000
0000
0000
,
1000
0000
0001
0000
,
1000
0000
0000
0000
,
0100
0000
1000
0000
,
0001
0000
0000
0000
,
1000
0000
0000
0000
,
0001
0000
0000
0000
,
0010
0000
0000
0000
,
0001
0000
1000
0000
,
0001
0000
0000
0000
,
0100
0000
0100
0000
,
0200
0000
0000
0300
,
0010
0000
0000
0000
,
1000
0000
0000
0000
,
0001
0000
0000
0000
,
1000
0000
0000
0000
,
0010
0000
0000
0000
,
1000
0000
0000
0000
,
0001
0000
0000
0000
,
0100
0000
0000
0000
,
0001
0000
0000
0000
,
1000
0000
0000
0000
,
0001
0000
0000
0000
,
1000
0000
0000
0000
,
1001
0000
0000
0000
,
0001
0000
0000
0000
,
1000
0000
0000
0000
,
0001
0000
0000
0000
,
1001
0000
1000
0000
,
0010
0000
0000
0000
,
0100
0000
0001
0000
,
0010
0000
0000
0000
,
0001
0000
1000
0000
,
0001
0000
0000
0000
,
1000
0000
0010
0000
,
2000
0000
0000
3000
,
0001
0000
1000
0000
,
0001
0000
0100
0000
,
0001
0000
0001
0000
,
0020
0000
0030
0000
,
0001
0000
1000
0000
,
0001
0000
1000
0000
,
0100
0000
0100
0000
,
2000
0000
0000
3000
,
0001
0000
0000
0000
,
1000
0000
0010
0000
,
1000
0000
0000
0000
,
0001
0000
1000
0000
,
0001
0000
0000
0000
,
0100
0000
0010
0000
,
0100
0000
0000
0000
,
0002
0000
2003
0000
,
3001
0000
0000
0000
,
1000
0000
0000
0000
,
0002
0000
0000
0003
,
2000
0000
0000
3000
,
0002
0000
0000
0003
,
2002
0000
0000
0000
,
0000
0000
0000
0000
,
3003
0000
0000
0000
;

//--------------- dance-single - Fred-104 ----------------
#NOTEDATA:;
#STEPSTYPE:dance-single;
#DESCRIPTION:Fred-104;
#DIFFICULTY:Easy;
#METER:5;
#CREDIT:Fred-104;
#NOTES:
0000
0000
0000
0000
,
0000
0000
0000
0000
,
0000
0000
0000
0000
,
0000
0000
0000
0000
,
0000
0000
0000
0000
,
0000
0000
0000
0000
,
0000
0000
0000
0000
,
0000
0000
0000
0000
,
0000
0000
0000
0000
,
2000
3000
0200
0300
,
0020
0030
0002
0003
,
0200
0300
0020
0030
,
0200
0300
0002
0003
,
2000
0000
0000
3000
,
0000
0000
0002
0003
,
0200
0000
0000
0300
,
0010
0000
0010
0000
,
1001
0000
0000
0000
,
0000
0000
0001
0000
,
0000
0000
1000
0000
,
0001
0000
0000
0000
,
0000
0000
0000
1000
,
2002
0000
0000
3003
,
1001
0000
0000
0000
,
0002
0000
2003
0000
,
3100
0010
0001
1000
,
0020
0000
0230
0000
,
0301
1000
0001
0100
,
0020
0000
1030
0100
,
0010
0001
1000
0001
,
0200
0000
0310
0100
,
0001
1000
0010
1000
,
0200
0000
2300
0000
,
3001
0100
0001
0100
,
0020
0000
0230
0000
,
0301
0010
0001
1000
,
0002
0000
1003
0100
,
0010
0100
1000
0010
,
0200
0000
0301
1000
,
2002
0000
0000
3003
,
1000
0000
0010
0000
,
1000
0000
0001
0100
,
0001
0000
0010
0000
,
0100
0000
1000
0001
,
0010
0000
0001
0000
,
1000
0000
0100
1000
,
0010
0000
0100
0000
,
0001
0000
1000
0001
,
1000
1000
0100
0000
,
0010
0001
1000
0000
,
0001
0001
0100
0000
,
0010
1000
0001
0000
,
1000
0000
0001
0000
,
0100
0000
0010
0000
,
0100
0100
0001
0001
,
2002
0000
0000
3003
,
1000
0000
0010
1000
,
0100
1000
0001
0000
,
0100
0001
0010
0000
,
0001
1000
0001
1000
,
0001
0000
1000
0000
,
0100
1000
0100
0000
,
1000
0010
0100
0000
,
0001
1000
0001
1000
,
0001
0000
0100
0001
,
0010
0000
0001
0000
,
0100
0000
0010
0000
,
1000
0000
1001
0000
,
0001
0100
0001
0100
,
0010
0000
1000
0100
,
1000
0000
0010
1000
,
0002
0000
2003
3000
,
1001
0000
0001
0000
,
0100
0000
0010
0010
,
0010
0000
0100
0000
,
0001
0000
1000
1000
,
1000
0000
0001
0000
,
1000
0000
0100
0100
,
0100
0000
0010
0000
,
0002
0003
2000
3000
,
0001
0000
0100
0000
,
0010
0000
1000
0000
,
2002
3003
1000
0001
,
2002
0000
0000
3003
,
0220
0000
0000
0330
,
2002
0000
0000
0000
,
0000
0000
0000
0000
,
3003
0000
0000
0000
;

//--------------- dance-single - Fred-104 ----------------
#NOTEDATA:;
#STEPSTYPE:dance-single;
#DESCRIPTION:Fred-104;
#DIFFICULTY:Medium;
#METER:10;
#CREDIT:Fred-104;
#NOTES:
0000
0000
0000
0000
,
0000
0000
0000
0000
,
0000
0000
0000
0000
,
0000
0000
0000
0000
,
0000
0000
0000
0000
,
0000
0000
0000
0000
,
0000
0000
0000
0000
,
0000
0000
0000
0000
,
0000
0000
0000
0000
,
2000
0100
3200
0010
,
0320
0001
0032
0100
,
0203
0010
0320
1000
,
2030
0001
0002
3003
,
2000
0000
0001
3000
,
0002
0000
0103
0001
,
0200
0010
0010
0310
,
1000
0010
0100
0000
0001
1000
0001
0000
,
1001
0000
0000
0000
,
0000
0000
0000
0000
1010
0000
0000
0101
,
0000
1100
0000
0000
0011
0000
0000
0000
,
0110
0000
0000
1001
0000
0000
0000
1100
,
0000
0000
0000
0011
0000
0000
1010
0000
,
2002
0000
0000
3003
,
1000
0100
1000
0000
0001
0100
0001
0000
,
0200
0010
0320
1000
,
1030
0010
0100
0000
0010
1000
0001
0000
,
0020
0001
0032
0100
,
0103
0001
0010
0000
0100
1000
0001
0000
,
0200
0000
0001
0000
0301
0000
1000
0001
,
0020
0230
2300
3002
,
0103
0010
1000
0000
0001
1000
0010
0000
,
1000
0000
0100
0000
1000
0010
0100
0001
,
2000
0010
3020
0100
,
0130
0001
1000
0000
0010
1000
0100
0000
,
0020
0001
0032
1000
,
1003
0001
0010
0000
0001
0000
0100
0010
,
0200
0000
0001
0000
0301
0000
0010
0001
,
0200
0001
0302
1000
,
1003
0010
0100
0000
0010
1000
0001
0000
,
1000
0100
0010
0001
0010
0100
1000
0000
,
0001
0100
0001
0000
0100
0001
0010
0000
,
0001
1000
0010
0100
0001
1000
0100
0000
,
1000
0010
1000
0000
0010
1000
0100
0000
,
1000
0001
0010
0100
0010
0001
0100
0000
,
0010
1000
0001
0000
0100
0001
0010
0000
,
0100
1000
0010
1000
0100
1000
0001
0000
,
0100
0001
0010
0000
0100
0010
0001
0000
,
0010
0100
1000
0010
0100
0001
1000
0000
,
1100
0010
0101
0010
,
1000
0000
0001
0010
0100
0000
1000
0000
,
1001
0000
0001
0100
0010
0000
0100
0000
,
0020
2030
0002
3003
,
1000
0100
1000
0000
0001
0100
0001
0000
,
0100
0000
0010
0100
0001
0010
0001
0000
,
0100
0010
1000
0010
1000
0010
0100
0010
,
0100
0001
0010
0001
1000
0001
0100
0000
,
0001
0000
0010
0010
0001
0000
1000
0000
,
0001
0000
0100
0100
0010
0000
0100
0000
,
0001
0000
1000
1000
0010
0100
0010
1000
,
0200
0000
0320
0000
0031
1000
0001
0000
,
0100
0000
0001
0001
0010
0000
0001
0000
,
0100
0000
0010
0010
1000
0000
0100
0000
,
1000
0000
0010
0010
1000
0100
1000
0001
,
0100
0010
0100
0000
0001
1000
0001
0000
,
1001
0000
0001
1000
0010
0000
0100
0001
,
0010
0000
0001
0000
0100
0010
0100
0000
,
0001
0000
0010
0001
1000
0000
0010
1000
,
0100
0000
1000
0000
0001
0100
0010
0000
,
1000
0010
0001
0100
,
1000
0000
0001
1000
0010
0100
0001
0000
,
0100
0000
0010
1000
0010
0000
0100
0000
,
0001
0010
0001
0100
0010
1000
0001
0000
,
1000
0100
1000
0010
0000
0100
0000
0100
,
0001
0000
1000
0001
0010
0001
0100
0000
,
0001
0010
0001
1000
0000
0001
0000
0010
,
0001
1000
0010
0000
0100
0001
1000
0000
,
0001
0010
0100
1000
0000
0010
0000
1000
,
0010
0000
0100
0010
1000
0010
0100
0000
,
0001
1000
0010
1000
0000
0100
0000
0010
,
0001
1000
0010
0000
0100
0001
1000
0000
,
0001
0000
1000
0100
0001
0000
1000
0010
,
0001
0000
1000
0100
0010
0000
0001
1000
,
0020
0000
0230
0302
,
2000
0000
0000
3003
,
0220
0000
0000
0330
,
2002
0000
0000
0000
,
0000
0000
0000
0000
,
3003
0000
0000
0000
;

//--------------- dance-single - Fred-104 ----------------
#NOTEDATA:;
#STEPSTYPE:dance-single;
#DESCRIPTION:Fred-104;
#DIFFICULTY:Hard;
#METER:15;
#CREDIT:Fred-104;
#NOTES:
0000
0000
0000
0000
,
0000
0000
0000
0000
,
0000
0000
0000
0000
,
0000
0000
0000
0000
,
0000
0000
0000
0000
,
0000
0000
0000
0000
,
0000
0000
0000
0000
,
0000
0000
0000
0000
,
0000
0000
0000
0000
,
1000
0100
1000
0001
0100
0000
0001
0010
,
0100
0010
0001
1000
0010
1000
0010
1000
,
0100
0010
0001
0010
0001
0000
0100
0001
,
0010
0001
0100
0010
0100
0000
0001
1000
,
0001
0010
0100
1000
0100
0010
0100
0010
,
0001
1000
0010
1000
0001
0100
0010
1000
,
0100
0010
0001
0100
0010
0100
0001
1000
,
0001
0100
1000
0100
0001
0010
0100
0000
,
1001
0000
0000
0000
,
0000
0000
0000
0000
1100
0000
0000
0011
,
0000
0110
0000
0000
1010
0000
0000
0000
,
0101
0000
0000
1100
0000
0000
0000
0011
,
0000
0000
0000
0110
0000
0000
1100
0000
,
2002
0000
0000
3003
,
0001
1000
0100
0001
0100
0010
0100
1000
,
0002
0000
0100
0000
1003
0001
0010
0001
,
0200
0000
0010
0000
0301
0100
1000
0100
,
0002
0000
0100
0000
0013
0001
1000
0001
,
0020
0000
0100
0000
0031
0010
0100
0010
,
0002
0000
0100
0000
2003
0000
3010
1000
,
0200
0000
1000
0000
0310
0100
1000
0001
,
0200
0000
0010
0000
0301
0100
0010
1000
,
0001
0010
0100
1000
0010
0100
0001
1000
,
0001
0010
1000
0000
0001
0100
1000
0000
,
0001
0010
0100
0001
0100
1000
0001
0100
,
0010
0001
0010
0000
1000
0010
0100
0000
,
0001
1000
0100
0010
0001
0100
0010
0000
,
2000
0000
0010
0000
3200
0000
0310
0100
,
2000
0010
3002
0100
,
0023
0001
0230
1000
,
0310
0001
1000
0001
0100
0100
0010
0010
,
1100
1000
0001
1000
0100
0010
0100
0001
,
0100
1000
0001
0010
1000
0010
0100
0001
,
0101
0100
0010
1000
0001
0100
1000
0100
,
0010
0100
0001
1000
0100
0010
0001
1000
,
1001
0001
0100
0010
0001
0010
1000
0001
,
0100
1000
0100
0010
1000
0100
0010
0001
,
0011
0001
1000
0010
0001
0010
0100
0010
,
1000
0010
0100
1000
0100
0010
1000
0001
,
2000
3200
0302
0023
,
2030
0000
3100
0010
0002
0000
2003
0000
,
3002
0000
0013
1000
0020
0000
0032
0000
,
0103
0010
2000
0000
3100
0010
0001
0000
,
1001
0000
0001
0000
1000
0010
0001
0100
,
1000
0000
0001
0010
0001
0000
0100
0000
0010
0000
1000
0100
1000
0000
0001
0000
,
0100
0010
0100
0000
0001
0010
0001
0000
1000
0100
1000
0000
0001
0100
0001
0000
,
1000
0001
1000
0001
1000
0001
1000
0001
1000
0001
1000
0001
1000
0001
1000
0001
,
1000
0000
0100
0000
0010
0001
0010
0001
0100
0000
0010
0000
0100
0000
0001
0000
,
0010
1000
0010
0001
1000
0001
0100
0010
,
0100
1000
0100
0010
1000
0100
0010
0001
,
0011
0001
0101
0000
1010
1000
1100
0000
,
0100
0000
0010
0000
0001
1000
0001
1000
0100
0000
0010
0000
1000
0000
0010
0000
,
0001
1000
0001
0100
1000
0100
0010
1000
,
0100
0010
0100
1000
0001
0100
0010
1000
,
0010
0100
0010
0100
0010
0100
0010
0100
0010
0100
0010
0100
0010
0100
0010
0100
,
0001
0010
0100
1000
0001
0100
1000
0100
,
0001
1000
0100
0010
1000
0010
0100
1000
,
0001
0100
0010
0100
0001
0010
0001
1000
,
0100
0010
0001
1000
0010
1000
0100
0000
,
1000
0000
0001
0010
0001
0000
0100
0000
0010
0000
0100
0000
0001
0000
1000
0000
,
0100
0000
0010
0100
0010
0000
0001
0000
1000
0000
0001
0000
0100
0000
0010
0000
,
1000
0000
0010
1000
0010
0000
0100
0000
0001
0000
1000
0000
0100
0000
0010
0000
,
0001
0100
0001
0100
0001
0100
0001
0100
0001
0100
0001
0100
0001
0100
0001
0100
,
0002
2003
3200
0320
0000
0032
0000
0203
,
0320
0000
1030
0100
0001
1000
0010
0001
,
1000
0010
0100
0001
0010
0100
1000
0001
,
0100
0010
0001
0010
2000
0000
3002
0000
,
0023
0032
0203
0302
0000
2003
0000
3020
,
1030
0010
0100
1000
0100
0010
0001
0010
,
0100
0001
0010
0100
0001
0100
1000
0001
,
1000
0100
1000
0100
1000
0100
1000
0100
0010
0001
0010
0001
0010
0001
0010
0001
,
1000
0010
1000
0100
0010
0001
1000
0001
,
0100
0010
0100
0001
0010
0100
1000
0001
,
0200
0000
0320
2030
,
0002
0000
0000
3003
,
0220
0000
0000
0330
,
2002
0000
0000
0000
,
0000
0000
0000
0000
,
3003
0000
0000
0000
;

//--------------- dance-double - Fred-104 ----------------
#NOTEDATA:;
#STEPSTYPE:dance-double;
#DESCRIPTION:Fred-104;
#DIFFICULTY:Easy;
#METER:5;
#CREDIT:Fred-104;
#NOTES:
00000000
00000000
00000000
00000000
,
00000000
00000000
00000000
00000000
,
00000000
00000000
00000000
00000000
,
00000000
00000000
00000000
00000000
,
00000000
00000000
00000000
00000000
,
00000000
00000000
00000000
00000000
,
00000000
00000000
00000000
00000000
,
00000000
00000000
00000000
00000000
,
00000000
00000000
00000000
00000000
,
20000000
30000000
00020000
00030000
,
20000000
30000000
00200000
00300000
,
02000000
03000000
00020000
00030000
,
00200000
00300000
00002000
00003000
,
00020000
00000000
00000000
00030000
,
00000000
00000000
00002000
00003000
,
00000020
00000000
00000000
00000030
,
00000100
00000000
00001000
00000000
,
00001001
00000000
00000000
00000000
,
00000000
00000000
00000010
00000000
,
00000000
00000000
00010000
00000000
,
00001000
00000000
00000000
00000000
,
00000000
00000000
00000000
01000000
,
02200000
00000000
00000000
03300000
,
10010000
00000000
00000000
00000000
,
20000000
00000000
30020000
00000000
,
10030000
01000000
00100000
00010000
,
00200000
00000000
00302000
00000000
,
00013000
00000100
00010000
00000100
,
00002000
00000000
00003010
00001000
,
00000010
00001000
00000001
00001000
,
00000200
00000000
00000310
00000001
,
00000100
00001000
00010000
00100000
,
02000000
00000000
03020000
00000000
,
10030000
01000000
00100000
01000000
,
20000000
00000000
30020000
00000000
,
01030000
00001000
00010000
00001000
,
00200000
00000000
00310000
01000000
,
00001000
00010000
00001000
00100000
,
00002000
00000000
00013000
00001000
,
00022000
00000000
00000000
00033000
,
00010000
00000000
00001000
00000000
,
00000010
00000000
00000100
00010000
,
00001000
00000000
00010000
00000000
,
00001000
00000000
00100000
00010000
,
01000000
00000000
00001000
00000000
,
00010000
00000000
00001000
00000100
,
00000001
00000000
00001000
00000000
,
00000100
00000000
00000010
00000001
,
00001000
00001000
00000100
00000000
,
00000010
00000001
00000010
00000000
,
00000100
00010000
00001000
00000000
,
00010000
00010000
00001000
00000000
,
00100000
00000000
00010000
00000000
,
10000000
00000000
00100000
00000000
,
01000000
00001000
00010000
00001000
,
00022000
00000000
00000000
00033000
,
00010000
00000000
00001000
00000010
,
00000001
00001000
00000100
00000000
,
00000010
00000001
00001000
00000000
,
00000001
00000100
00000001
00000100
,
00000010
00000000
00010000
00000000
,
00000100
00010000
00001000
00000000
,
00100000
00010000
10000000
00000000
,
00100000
10000000
00100000
10000000
,
00010000
00000000
10000000
01000000
,
00100000
00000000
00001000
00000000
,
00010000
00000000
00000100
00000000
,
00001000
00000000
00001001
00000000
,
00000100
00001000
00000100
00000010
,
00000001
00000000
00001000
00000001
,
00001000
00000000
00000010
00000100
,
00000020
00000000
00020030
00030000
,
00011000
00000000
00001000
00000000
,
00100000
00000000
00010000
00010000
,
00010000
00000000
10000000
00000000
,
00100000
00000000
01000000
01000000
,
01000000
00000000
00010000
00000000
,
10000000
00000000
01000000
01000000
,
01000000
00000000
00100000
00000000
,
00002000
00003000
00020000
00030000
,
00001000
00000000
00000010
00000000
,
00000100
00000000
00001000
00000000
,
00002002
00003003
00000001
00000100
,
00000220
00000000
00000000
00000330
,
00022000
00000000
00000000
00033000
,
02200000
00000000
00000000
00000000
,
00000000
00000000
00000000
00000000
,
03300000
00000000
00000000
00000000
;

//--------------- dance-double - Fred-104 ----------------
#NOTEDATA:;
#STEPSTYPE:dance-double;
#DESCRIPTION:Fred-104;
#DIFFICULTY:Medium;
#METER:11;
#CREDIT:Fred-104;
#NOTES:
00000000
00000000
00000000
00000000
,
00000000
00000000
00000000
00000000
,
00000000
00000000
00000000
00000000
,
00000000
00000000
00000000
00000000
,
00000000
00000000
00000000
00000000
,
00000000
00000000
00000000
00000000
,
00000000
00000000
00000000
00000000
,
00000000
00000000
00000000
00000000
,
00000000
00000000
00000000
00000000
,
00000002
00000000
00002003
00000000
,
00003002
00000000
00002003
00000000
,
00003020
00000000
00020030
00000000
,
00032000
00000000
00023000
00000000
,
00030200
00000000
00000000
00000300
,
00020000
00000000
00032000
00000000
,
00203000
00000000
00000000
00000000
,
00310000
10000000
01000000
00100000
,
10010000
00000000
00000000
00000000
,
00000000
00000000
00000000
00000000
00101000
00000000
00000000
00010100
,
00000000
00011000
00000000
00000000
01001000
00000000
00000000
00000000
,
00010010
00000000
00000000
00001010
00000000
00000000
00000000
00001001
,
00000000
00000000
00000000
00001100
00000000
00000000
00010010
00000000
,
00022000
00000000
00000000
00033000
,
00001000
00010000
00100000
00000000
01000000
00010000
00100000
00000000
,
00002000
00010000
00023000
00000100
,
00030100
00001000
00000001
00000000
00000100
00000010
00001000
00000000
,
00000002
00000010
00000023
00000100
,
00000130
00001000
00000010
00000000
00010000
00001000
00010000
00000000
,
00002000
00000000
00100000
00000000
00103000
00000000
00010000
01000000
,
00200000
01000000
02300000
00010000
,
03010000
10000000
00100000
00000000
01000000
00100000
10000000
00000000
,
01000000
00010000
00001000
00000000
00000010
00000100
00001000
00000001
,
00000200
00000310
00002000
00003100
,
00000010
00000001
00000100
00000000
00001000
00010000
00001000
00000000
,
00200000
00000000
01300000
00000000
20000000
00000000
30010000
01000000
,
00200000
00000000
10300000
00000000
02000000
00000000
03100000
00001000
,
00020000
00000000
00032000
00000000
00203000
00000000
00310000
10000000
,
00200000
00000000
02300000
00000000
03020000
00000000
10030000
01000000
,
00020000
00000000
00031000
00010000
00000020
00000000
00000130
00000001
,
00001000
00000100
00000020
00000000
00000031
00001000
00000001
00000000
,
00000100
00000010
00000100
00000000
00000001
00000100
00000001
00000000
,
00001000
00000001
00000010
00000100
00001000
00000100
00010000
00000000
,
00000010
00001000
00000010
00000000
00010000
00001000
00010000
00000000
,
00001000
00100000
00010000
01000000
00010000
00100000
01000000
00000000
,
10000000
00010000
00100000
00000000
00010000
10000000
00100000
00000000
,
10000000
01000000
00010000
00001000
00000010
00000100
00001000
00000000
,
00000001
00000010
00000001
00000000
00001000
00000010
00000100
00000000
,
00000001
00000010
00001000
00010000
01000000
00100000
00010000
01000000
,
01100000
10000000
01000000
00100000
,
00001000
00000000
00010000
00001000
00000010
00000000
00000001
00000000
,
00001001
00000000
00000001
00000000
00000100
00000010
00000100
00000000
,
00000001
00000000
00000010
00001000
00010000
01000000
10000000
00000000
,
00010000
01000000
00010000
00000000
10000000
01000000
10000000
00000000
,
00010000
00100000
00010000
00000000
01000000
00001000
01000000
00000000
,
00001000
00010000
00000010
00010000
00001000
00010000
00000100
00001000
,
00000001
00000100
00000010
00001000
00000010
00000100
00000001
00000000
,
00001000
00000000
00000001
00000100
00000010
00000000
00000100
00000000
,
00000001
00000000
00000010
00001000
00010000
00000000
00001000
00000000
,
00100000
00000000
01000000
10000000
00010000
01000000
00100000
00000000
,
02000000
00000000
03020000
00000000
10030000
00010000
10000000
00000000
,
00100000
00000000
10000000
01000000
00100000
01000000
00010000
00000000
,
00001000
00000000
00000010
00000100
00001000
00000000
00000001
00000000
,
00000100
00000000
00000001
00000010
00000100
00000000
00000010
00001000
,
00010000
01000000
00100000
00000000
00010000
10000000
00010000
00000000
,
10010000
00000000
10000000
01000000
00010000
00000000
00001000
00000000
,
00010000
00000000
00001000
00000100
00000001
00000000
00001000
00000000
,
00000001
00000000
00000010
00000001
00001000
00000010
00000100
00000000
,
00000001
00000000
00000010
00001000
00010000
00001000
00000100
00000000
,
00000001
00000010
00001000
00000100
,
00000001
00000000
00000010
00000001
00001000
00000010
00010000
00000000
,
00001000
00010000
00000010
00010000
00001000
00100000
00010000
01000000
,
00010000
00100000
01000000
10000000
00100000
01000000
00010000
00000000
,
10000000
01000000
10000000
02000000
00000000
03200000
00000000
00301000
,
00010000
00000000
00000100
00010000
00001000
00000000
00010000
00000010
,
00001000
00000010
00000100
00000020
00000000
00002030
00000000
00003010
,
00000100
00000001
00001000
00000000
00000001
00000010
00000100
00000000
,
00000010
00000001
00000010
00000002
00000000
00002003
00000000
00003001
,
00000010
00000000
00001000
00010000
01000000
00100000
00010000
00000000
,
01000000
00001000
00010000
00002000
00000000
00203000
00000000
00310000
,
00100000
01000000
10000000
00100000
01000000
00010000
10000000
00000000
,
00010000
00100000
01000000
10000000
00100000
00010000
00001000
00010000
,
00000010
00001000
00000100
00000010
00000001
00000100
00001000
00010000
,
00002000
00000000
00203000
01300000
,
20020000
00000000
00000000
30030000
,
02002000
00000000
00000000
03003000
,
00022000
00000000
00000000
00000000
,
00000000
00000000
00000000
00000000
,
00033000
00000000
00000000
00000000
;

//--------------- dance-double - Fred-104 ----------------
#NOTEDATA:;
#STEPSTYPE:dance-double;
#DESCRIPTION:Fred-104;
#DIFFICULTY:Hard;
#METER:15;
#CREDIT:Fred-104;
#NOTES:
00000000
00000000
00000000
00000000
,
00000000
00000000
00000000
00000000
,
00000000
00000000
00000000
00000000
,
00000000
00000000
00000000
00000000
,
00000000
00000000
00000000
00000000
,
00000000
00000000
00000000
00000000
,
00000000
00000000
00000000
00000000
,
00000000
00000000
00000000
00000000
,
00000000
00000000
00000000
00000000
,
00001000
00100000
01000000
00100000
00010000
00000000
01000000
00001000
,
00010000
00001000
00000010
00000100
00001000
00000001
00000010
00000000
,
00000100
00001000
00000001
00000010
00000001
00000000
00001000
00000010
,
00010000
00001000
00010000
00100000
01000000
00000000
00010000
10000000
,
00010000
00100000
00010000
10000000
00010000
01000000
00010000
00100000
,
00001000
00010000
00001000
00100000
00010000
01000000
00001000
00010000
,
00000100
00001000
00000010
00001000
00000100
00010000
00001000
00100000
,
00001000
00010000
00000010
00001000
00000100
00010000
00001000
00000000
,
00011000
00000000
00000000
00000000
,
00000000
00000000
00000000
00000000
00010010
00000000
00000000
00101000
,
00000000
00010100
00000000
00000000
01001000
00000000
00000000
00000000
,
00011000
00000000
00000000
00001010
00000000
00000000
00000000
00000011
,
00000000
00000000
00000000
00001100
00000000
00000000
00000101
00000000
,
00002002
00000000
00000000
00003003
,
00000001
00000010
00000100
00010000
00001000
00100000
01000000
10000000
,
00020000
01000000
20030000
00100000
,
32000000
00000000
10000000
00000000
03100000
00010000
00100000
00001000
,
00020000
00001000
00030020
00001000
,
00020030
00000000
00000100
00000000
00031000
00010000
01000000
00100000
,
00020000
00000000
10000000
00000000
02030000
00000000
03010000
01000000
,
00002000
00010000
00000010
00023000
,
00030200
00000000
00001000
00000000
00000010
00000000
00001300
00000001
,
00000100
00000010
00001000
00000100
00000010
00000001
00001000
00000001
,
00000010
00010000
00100000
00000000
00010000
00001000
00000100
00000000
,
00000010
00000001
00000100
00000010
00001000
00000010
00000100
00000001
,
00000100
00010000
01000000
00000000
00100000
00010000
00000010
00000000
,
00010000
00001000
00000010
00000001
00001000
00000010
00000100
00000001
,
00002000
00000000
00000010
00000000
00003200
00000000
00010300
00000100
,
00002000
00000000
00000100
00000000
00000010
00000000
00003100
00010000
,
00002000
00010000
00100000
00010000
,
01003000
00001000
00010000
00001000
00100000
00010000
10000000
01000000
,
01100000
00100000
00010000
10000000
01000000
00100000
00001000
00010000
,
00100000
10000000
01000000
00010000
00001000
00010000
00000100
00000010
,
00000011
00000001
00001000
00000001
00000010
00001000
00010000
01000000
,
00100000
00010000
10000000
01000000
00010000
00001000
00010000
00000010
,
00001010
00001000
00000010
00000100
00000001
00000010
00000100
00000010
,
00001000
00010000
01000000
00100000
00010000
01000000
00100000
10000000
,
11000000
01000000
00100000
00001000
00010000
00001000
00000100
00000010
,
00001000
00000010
00000100
00000001
00001000
00000001
00000010
00000100
,
00002000
00003200
00000302
00000023
,
00002030
00000000
00003001
00000100
00002000
00000000
00023000
00000000
,
00230000
00000000
01300000
00010000
20000000
00000000
30200000
00000000
,
10300000
01000000
00020000
00000000
00031000
00000010
00000001
00000000
,
00001001
00000000
00000001
00000100
00001000
00000100
00000001
00000000
,
00000100
00000000
00000001
00000010
00000001
00000000
00001000
00000000
00000100
00000000
00010000
00001000
00010000
00000000
00001000
00000000
,
00100000
00000000
00010000
10000000
00010000
00000000
01000000
00000000
00100000
00000000
10000000
01000000
10000000
00000000
01000000
00000000
,
00100000
00010000
00100000
00010000
00100000
00010000
00100000
00010000
00100000
00010000
00100000
00010000
00100000
00010000
00100000
00001000
,
00010000
00000000
00000100
00000000
00001000
00000010
00001000
00000000
00000001
00000000
00000010
00000000
00000100
00000000
00000010
00000000
,
00000001
00000100
00001000
00010000
00100000
01000000
00001000
00000000
,
00010000
00001000
00000010
00000001
00000100
00001000
00010000
00001000
,
00011000
00010000
00010010
00000000
00011000
00001000
00101000
00000000
,
00001000
00000000
00100000
00000000
00010000
10000000
00010000
00000000
00100000
00000000
01000000
00000000
00010000
00000000
01000000
00000000
,
10000000
00010000
01000000
00100000
00010000
00001000
00000100
00000010
,
00001000
00000100
00000010
00000001
00001000
00000100
00010000
00000010
,
00010000
00001000
00010000
00001000
00010000
00001000
00010000
00001000
00010000
00001000
00010000
00001000
00010000
00001000
00010000
00001000
,
00010000
00001000
00100000
00010000
10000000
00010000
00100000
01000000
,
00100000
00010000
10000000
00100000
00010000
00001000
00010000
00000010
,
00000100
00000001
00001000
00000100
00000010
00010000
00100000
01000000
,
00010000
00001000
00000010
00000100
00001000
00000001
00000100
00000000
,
00000001
00000010
00001000
00010000
00001000
00100000
01000000
10000000
,
00100000
01000000
00100000
00010000
00001000
00000100
00000010
00001000
,
00000010
00000100
00000001
00000010
00001000
00010000
01000000
00100000
,
00010000
10000000
00010000
10000000
00010000
10000000
00010000
10000000
00010000
10000000
00010000
10000000
00010000
10000000
00010000
10000000
,
00020000
20030000
32000000
03020000
00000000
00032000
00000000
00003200
,
00000302
00000000
00001003
00000001
00000010
00000100
00010000
00001000
,
00010000
00000010
00001000
00000100
00010000
00000100
00001000
00000010
,
00010000
00001000
00100000
00001000
00020000
00000000
00032000
00000000
,
02003000
03002000
00023000
00032000
00000000
00003020
00000000
00000230
,
00001300
00000001
00000100
00001000
00010000
00100000
01000000
00010000
,
01000000
00100000
10000000
01000000
00100000
00010000
01000000
00001000
,
00010000
00001000
00010000
00001000
00010000
00001000
00010000
00000010
00001000
00000010
00001000
00000010
00001000
00000010
00001000
00000010
,
00000100
00000001
00000010
00000100
00000010
00000100
00010000
00001000
,
00010000
01000000
00100000
00010000
10000000
01000000
00100000
00010000
,
02000000
00000000
03002000
00023000
,
00002000
00000000
00000000
00033000
,
00000220
00000000
00000000
00000330
,
00002002
00000000
00000000
00000000
,
00000000
00000000
00000000
00000000
,
00003003
00000000
00000000
00000000
;
