#TITLE:Blade;
#ARTIST:青龍;
#ARTISTTRANSLIT:Seiryu;
#CREDIT:Plan 8 (2013);
#BANNER:Blade.png;
#BACKGROUND:Blade-bg.png;
#CDTITLE:./CDTitles/Plan 8.png;
#MUSIC:Blade.ogg;
#SAMPLESTART:61.571;
#SAMPLELENGTH:15;
#BPMS:0=191;
#BGSTAGE:29;

//--------------- dance-single - Fred-104 ----------------
#NOTES:
     dance-single:
     Fred-104:
     Beginner:
     3:
     :
0000
0000
0000
0000
,
0000
0000
0000
0000
,
0000
0000
0000
0000
,
0000
0000
0000
0000
,
0000
0000
0000
0000
,
1000
0000
0000
0000
,
0001
0000
0000
0000
,
2000
0000
0000
0000
,
3000
0000
0000
0000
,
0001
0000
0000
0000
,
0010
0000
0000
0000
,
0100
0000
0000
0000
,
1000
0000
1000
0000
,
0001
0000
0000
0000
,
1000
0000
0000
0000
,
0010
0000
0010
0000
,
0010
0000
0000
0000
,
0100
0000
0100
0000
,
0001
0000
0000
0000
,
1000
0000
1000
0000
,
0002
0000
0000
0003
,
1000
0000
1000
0000
,
0001
0000
0001
0000
,
1000
0000
1000
0000
,
0002
0000
0000
0003
,
2000
0000
0000
0000
,
0000
0000
3000
0000
,
0002
0000
0000
0000
,
0000
0000
0003
0000
,
0020
0000
0000
0000
,
0000
0000
0030
0000
,
0200
0000
0000
0000
,
0000
0000
0300
0000
,
2000
0000
0000
3000
,
0002
0000
0000
0003
,
0200
0000
0000
0300
,
0020
0000
0000
0030
,
0200
0000
0000
0300
,
0002
0000
0000
0003
,
2000
0000
0000
3000
,
0002
0000
0003
0000
,
1000
0000
1000
0000
,
0100
0000
0100
0000
,
0001
0000
0001
0000
,
0010
0000
0010
0000
,
1000
0000
1000
0000
,
0001
0000
0001
0000
,
1000
0000
1000
0000
,
2000
0000
0000
3000
,
0001
0000
0001
0000
,
0010
0000
0000
0000
,
0100
0000
0100
0000
,
0010
0000
0000
0000
,
0001
0000
1000
0000
,
0001
0000
0000
0000
,
1000
0000
0001
0000
,
2000
0000
0000
3000
,
0001
0000
1000
0000
,
0010
0000
0000
0000
,
0010
0000
0001
0000
,
0001
0000
0000
0000
,
0100
0000
0100
0000
,
1000
0000
0000
0000
,
0001
0000
1000
0000
,
0002
0000
0000
0003
,
1000
0000
1000
0000
,
0100
0000
0100
0000
,
0010
0000
0010
0000
,
0002
0000
0003
0000
,
1000
0000
0001
0000
,
1000
0000
0001
0000
,
0100
0000
0010
0000
,
0200
0000
0000
0300
,
0001
0000
0001
0000
,
1000
0000
1000
0000
,
0100
0000
0100
0000
,
0010
0000
0010
0000
,
0001
0000
0001
0000
,
1000
0000
1000
0000
,
0001
0000
1000
0000
,
0002
0000
0000
0003
,
1000
0000
0100
0000
,
0001
0000
0001
0000
,
0100
0000
1000
0000
,
0002
0000
0000
0003
,
1000
0000
1000
0000
,
0001
0000
0001
0000
,
1000
1000
1000
1000
,
2000
0000
0000
3000
,
2002
0000
0000
0000
,
3003
0000
0000
0000
;

//--------------- dance-single - Fred-104 ----------------
#NOTES:
     dance-single:
     Fred-104:
     Easy:
     9:
     :
0000
0000
0000
0000
,
0000
0000
0000
0000
,
0000
0000
0000
0000
,
0000
0000
0000
0000
,
0000
0000
0000
0000
,
1000
1000
0100
0100
,
0001
0001
0100
0100
,
1000
0001
1000
0000
0001
1000
0001
0000
,
2000
0000
0000
3000
,
0001
0001
0010
0100
,
0100
1000
0001
1000
,
0010
0010
0100
0001
,
1000
0001
2002
3003
,
1000
1000
0100
0001
,
0100
0100
0010
0100
,
1000
0001
1000
0000
0010
0100
0010
0000
,
2000
0000
0000
3000
,
0001
0000
0001
0000
0010
0100
0010
0000
,
0001
0000
0001
0000
1000
0010
1000
0000
,
0001
0000
0001
0000
1000
0100
1000
0000
,
0100
0010
2002
3003
,
0011
0000
1010
0000
,
0101
0000
1100
0000
,
0001
0001
1000
1000
,
0002
0000
0000
0003
,
2000
0000
0000
0000
,
3200
0000
0000
0000
,
0320
0000
0000
0000
,
0032
0000
0003
0000
,
2000
0000
0000
0000
,
3020
0000
0000
0000
,
0230
0000
0000
0000
,
0302
0000
0003
0000
,
1000
1000
0100
0100
,
0010
0001
0010
0000
0011
0000
0000
0000
,
0001
0001
0100
0100
,
0010
1000
0010
0000
1010
0000
0000
0000
,
1000
1000
0001
0001
,
0100
0010
0100
0000
0010
1000
0010
0000
,
1000
1000
0001
0001
,
1000
0001
1000
0000
2002
0000
3003
0000
,
1000
0100
1100
0000
,
0001
0010
0011
0000
,
1000
0010
1010
0000
,
0001
0100
0101
0000
,
1000
1000
0100
0100
,
0010
0010
0001
0001
,
1000
0010
1000
0000
0001
0100
0001
0000
,
2000
0000
0000
3000
,
0001
0001
0010
0010
,
0100
1000
0001
0001
,
0100
0010
0100
1000
,
0100
0100
0002
0003
,
1000
1000
0100
0010
,
0001
0001
1000
0010
,
0001
0010
0100
0100
,
0001
1000
2002
3003
,
1000
1000
0100
1000
,
0001
0001
0100
1000
,
0100
0010
0100
0100
,
0001
1000
2002
3003
,
1000
1000
0100
0100
,
0001
0001
0100
0010
,
0001
1000
0001
0000
0100
0010
0100
0000
,
0001
1000
2002
3003
,
1000
1000
0100
0100
,
0010
0001
0010
0000
0002
0000
0003
0000
,
1000
1000
0001
0001
,
0100
0010
0100
0000
0002
0000
0003
0000
,
0100
0100
0010
0010
,
1000
0100
1000
0000
0001
0010
0001
0000
,
1000
0010
0100
0001
,
1000
0001
2002
3003
,
1000
0000
1000
0000
0100
0010
0100
0000
,
0010
0001
0010
0000
0001
0000
0001
0000
,
1000
0000
0010
0000
0100
0001
0100
0000
,
0010
1000
0010
0000
1000
0000
0001
0000
,
0010
0000
0010
0000
0100
0010
0100
0000
,
1000
0100
1000
0000
0001
0010
0001
0000
,
0100
0000
0010
0000
0100
0010
0100
0000
,
2002
0000
0000
3003
,
1000
0000
1000
0000
0100
0010
0100
0000
,
0010
0000
0010
0000
0001
1000
0001
0000
,
0100
0000
0100
0000
0010
1000
0010
0000
,
0220
0000
0000
0330
,
0001
0010
0100
0000
1000
0100
0010
0000
,
0001
0100
0010
0000
1000
0100
0010
0000
,
0001
1000
0001
1000
0001
1000
0001
1000
,
0002
0000
0000
0003
,
2002
0000
0000
0000
,
3003
0000
0000
0000
;

//--------------- dance-single - Fred-104 ----------------
#NOTES:
     dance-single:
     Fred-104:
     Medium:
     12:
     :
0000
0000
0000
0000
,
0000
0000
0000
0000
,
0000
0000
0000
0000
,
0000
0000
0000
0000
,
0000
0000
0000
0000
,
1000
0100
1000
0000
0100
0010
0100
0000
,
0010
0001
0010
0000
0001
1000
0001
0000
,
0100
0010
0100
0010
0100
0010
0100
0010
,
0200
0000
0000
0300
,
0001
1000
0001
0000
0100
0000
0010
0000
,
1000
0001
0010
0000
0100
0000
1000
0000
,
0010
1000
0001
0000
0100
0000
0010
0000
,
0100
0001
0100
0000
0010
1000
0001
0000
,
0010
0100
1000
0000
0001
0000
0100
0000
,
0001
0010
0100
0000
1000
0000
0100
0000
,
0010
0001
1000
0000
0010
0100
0001
0000
,
2000
0000
0000
3000
,
0110
0000
1001
0000
0001
0010
0100
0000
,
1100
0000
1001
0000
0001
0100
0010
0000
,
1010
0000
0101
0000
0001
0010
0100
0000
,
2000
0001
3100
1001
,
1100
1001
0101
1001
,
1010
1001
0011
1001
,
1000
0100
0010
0001
1000
0100
0010
0001
,
2000
0000
0000
3000
,
0002
0000
0023
0000
,
0230
0000
2300
0000
,
3002
0000
0203
0000
,
0320
2030
0002
3003
,
2000
0000
3200
0000
,
0320
0032
2003
3002
,
0203
0000
0320
0000
,
2030
3002
2000
3003
,
0001
0000
0010
0000
0100
1000
0100
0000
,
1000
0001
1000
0001
1000
0000
0001
0000
,
1000
0000
0010
0000
0100
0001
0100
0000
,
0001
1000
0001
1000
0002
0000
0003
0000
,
1000
0000
0100
0000
0010
0001
0010
0000
,
0001
1000
0001
1000
0010
0100
0010
0100
,
0001
0000
1000
0000
0100
0010
0100
0000
,
1000
0001
1000
0001
2000
0000
3000
0000
,
0011
1010
0202
0303
,
1100
0101
2020
3030
,
1100
0011
2020
3030
,
0101
1010
2002
3003
,
0001
0010
0100
0000
1000
0010
0100
0000
,
0001
0100
0010
0000
1000
0100
0010
0000
,
0001
1000
0001
1000
0001
1000
0001
1000
,
0002
0000
0000
0003
,
1000
0000
0100
0000
0010
0001
1000
0000
,
0010
1000
0010
0100
0010
0000
1000
0000
,
0001
0000
0010
0000
0100
0010
0001
0000
,
1000
0001
0100
0001
1000
0000
1001
0000
,
0001
0000
0010
0000
0100
1000
0010
0000
,
0100
0010
1000
0010
0100
0010
1000
0001
,
0010
0000
0100
0000
0010
0001
1000
0000
,
0001
0100
0010
1000
0001
0000
1001
0000
,
1000
0000
0010
0000
0100
0010
1000
0000
,
0001
0010
0001
0010
1000
0000
0010
0001
,
0010
0000
0001
0000
0100
0010
1000
0000
,
0001
0100
0001
0100
1000
0000
1100
0000
,
0100
0001
1000
0000
0100
0010
0001
0000
,
1000
0010
0100
0010
1000
0001
0010
0100
,
0010
0100
1000
0001
0100
0010
1000
0100
,
0010
0100
0010
0100
1000
0000
1001
0000
,
1010
0000
0101
0000
1000
0100
0010
0000
,
0001
1000
0010
0100
0001
0000
1000
0001
,
0010
0000
0110
0000
0100
1000
0001
0000
,
1000
0100
0001
0100
1000
0000
1001
0000
,
1010
0000
0101
0000
0001
0010
0100
0000
,
0010
0001
0100
0010
1000
0100
0010
0100
,
0010
0000
0011
0000
1000
0001
0100
0000
,
1000
0100
0001
0010
0100
0000
1001
0000
,
1100
0000
0101
0000
0001
0010
0100
0000
,
1000
0010
0100
0010
1000
0001
1000
0100
,
0010
0000
0011
0000
0001
1000
0010
0000
,
0100
0010
1000
0100
0010
0000
0011
0000
,
0101
0000
1010
0000
1000
0100
1000
0000
,
0001
0100
0010
1000
0001
0100
0010
1000
,
0100
0010
0001
0100
0010
1000
0001
0010
,
0200
0000
0300
1001
,
0001
0010
0001
0010
0100
1000
0001
0000
,
1000
0010
1000
0010
0100
0001
1000
0000
,
0001
0010
0100
1000
0100
0010
0001
0000
,
0100
0010
0110
1001
,
1000
0100
0001
0000
0001
0100
1000
0000
,
0001
0100
1000
0000
1000
0100
0001
0000
,
1000
0100
0010
0001
1000
0100
0010
0001
,
0200
0000
0000
0300
,
2002
0000
0000
0000
,
3003
0000
0000
0000
;

//--------------- dance-single - Fred-104 ----------------
#NOTES:
     dance-single:
     Fred-104:
     Hard:
     15:
     :
0000
0000
0000
0000
,
0000
0000
0000
0000
,
0000
0000
0000
0000
,
0000
0000
0000
0000
,
0000
0000
0000
0000
,
0001
0010
0100
1000
0001
0100
0010
1000
,
0001
1000
0010
0100
0001
1000
0100
0010
,
0001
0001
1000
1000
0010
0010
0100
0100
,
0020
0100
0130
1001
,
0001
0000
0010
0000
0100
0000
1000
0000
0001
1000
0001
0000
0100
0000
0010
0000
,
0100
0000
0001
0000
1000
0000
0100
0000
0010
0001
0010
0000
0001
0000
1000
0000
,
0010
0000
0100
0000
0010
0000
1000
0000
0001
0010
0001
0000
0010
0000
0100
0000
,
0010
0000
0001
0000
1000
0000
0001
0000
1000
0010
1000
0010
0100
0000
0000
0000
,
0001
0000
1000
0000
0100
0000
0010
0000
0001
1000
0001
0000
0100
0000
0010
0000
,
0100
0000
0001
0000
1000
0000
0001
0000
0010
0100
0010
0000
0100
0000
1000
0000
,
0001
0100
0001
0000
1000
0000
0100
0000
0010
0001
0010
0000
0001
0000
0100
0000
,
0020
0100
0130
1001
,
1100
0000
0101
0000
1000
0001
0100
0010
,
0011
0000
1010
0000
0001
0010
0100
0010
,
1010
0000
0011
0000
0001
1000
0001
0100
,
0110
1010
0101
1001
,
1100
0100
0010
0000
0101
0100
0010
0000
,
1010
0010
0100
0000
0011
0010
0100
0000
,
1000
1000
0001
0001
0010
0010
0100
0100
,
0020
0100
0130
0110
,
2001
0000
0000
0000
,
3002
0000
0023
0000
,
0230
0000
0000
0000
,
2300
3002
0200
0303
,
0020
0000
2030
0000
,
3002
0023
0230
2300
,
3002
0000
0203
0000
,
2300
3200
0002
0303
,
1000
0000
0200
0000
0301
0100
0010
0000
,
0001
1000
0010
0100
0001
0000
1000
0001
,
0010
0000
0200
0000
0301
0100
0010
0000
,
0001
0100
0010
1000
0200
0000
0300
0000
,
0010
0000
0200
0000
1300
0010
0100
0000
,
1000
0100
0010
0001
0010
0100
1000
0100
,
0001
0000
0020
0000
0130
1000
0001
0000
,
1000
0010
0001
0010
2000
0000
3000
0000
,
0011
0000
1100
0000
0001
0001
0100
0010
,
0110
0100
0101
0001
1001
0000
0001
0010
,
0110
0000
1100
0000
1000
0001
0100
0100
,
0101
0001
1001
1000
1001
0000
0110
0000
,
0001
1000
0001
0010
0100
1000
0100
1000
,
0001
0100
0010
1000
0010
0100
0001
1000
,
0001
1000
0001
1000
0001
1000
0001
1000
0001
1000
0001
1000
0001
1000
0001
1000
,
0002
0000
0000
0003
,
0110
0000
1001
0000
0001
0010
0100
1000
,
0001
0100
1000
0100
0001
1000
0100
0010
,
0011
0000
1001
0000
1000
0001
0010
0100
,
0001
1000
0010
0001
0100
0000
1001
0000
,
1100
0000
0011
0000
0001
1000
0001
0100
,
1000
0001
0010
0100
1000
0001
0010
1000
,
1100
0000
0101
0000
1000
0100
0010
0001
,
0100
0010
0001
1000
0100
0000
0101
0000
,
0001
0000
0010
0000
0100
0000
1000
0000
0010
1000
0010
0000
0100
0000
0001
0000
,
1000
0000
0100
0000
0010
0000
0100
0000
1000
0001
1000
0000
0001
0000
0100
0000
,
0010
0000
1000
0000
0001
0000
0010
0000
0100
0010
0100
0000
1000
0000
0001
0000
,
0010
1000
0001
0100
1000
0000
1001
0000
,
1000
0100
0001
0100
0010
0001
1000
0010
,
0100
0001
0100
0000
0010
0000
1000
0000
0001
0010
0001
0000
0010
0000
0100
0000
,
1000
0000
0001
0000
0100
0000
0010
0000
0100
0001
0100
0001
0100
0000
0010
0000
,
1000
0100
0010
0001
1000
0000
1001
0000
,
0011
0000
1100
0000
0001
0100
0110
0000
,
1001
1000
0100
0001
0100
0010
0001
1000
,
1001
0000
0110
0000
0001
0100
0110
0000
,
1010
1000
0001
0010
1000
0010
0100
0000
,
1100
0000
1001
0000
0001
1000
1010
0000
,
1001
1000
0100
0001
1000
0010
0001
0100
,
0110
0000
1010
0000
0001
0010
0110
0000
,
1000
0100
0001
1000
0010
0000
0011
0000
,
1010
0000
0101
0000
1100
0100
0110
0000
,
1001
1000
0010
0001
0010
1000
0001
0010
,
0110
0000
0101
0000
1100
1000
1001
0000
,
0101
0100
0010
1000
1100
0000
1001
0000
,
0011
0000
0010
0000
0100
0000
1000
0000
0001
0100
0001
0000
1000
0000
0100
0000
,
0010
0100
0010
0000
0001
0000
1000
0000
0010
0100
0010
0000
1000
0000
0001
0000
,
0010
0000
0100
0000
1000
0000
0001
0000
1000
0010
1000
0000
0001
0000
0010
0000
,
1000
0001
0100
0010
0001
0000
1001
0000
,
0001
0000
0100
0000
0010
0000
1000
0000
0001
0000
0010
0100
0010
0000
0001
0000
,
1000
0000
0010
0000
0100
0000
0010
0000
1000
0000
0001
0010
0100
0000
1000
0000
,
0001
0000
1000
0000
0010
0000
0100
0000
0010
0000
1000
0100
1000
0000
0001
0000
,
0200
0001
0310
1001
,
1000
0100
1000
0000
0001
0000
1000
0000
0010
0100
0010
0000
1000
0000
0001
0000
,
0010
0100
0010
0000
0001
0000
1000
0000
0001
0100
0001
0000
1000
0000
0100
0000
,
0010
0010
0100
0100
1000
1000
0001
0001
,
0200
0000
0000
0300
,
2002
0000
0000
0000
,
3003
0000
0000
0000
;

//--------------- dance-single - Fred-104† ----------------
#NOTES:
     dance-single:
     Fred-104†:
     Challenge:
     17:
     :
0000
0000
0000
0000
,
0000
0000
0000
0000
,
0000
0000
0000
0000
,
0000
0000
0000
0000
,
0000
0000
0000
0000
,
1000
0001
1000
0000
0100
0000
0010
0000
0001
1000
0001
0000
0100
0000
0010
0000
,
1000
0100
1000
0000
0100
0000
0010
0000
0001
0100
0001
0000
0100
0000
0010
0000
,
1010
1000
1001
0001
0011
0010
0110
0100
,
2100
0001
3001
1001
,
1000
0100
1000
0000
0001
0000
0100
0000
0010
1000
0010
1000
0010
0000
1000
0000
,
0001
0010
0001
0010
0100
0000
1000
0000
0001
0000
0100
0010
0100
0000
0001
0000
,
1000
0100
0010
0100
0010
0000
0100
0000
1000
0001
1000
0001
0100
0000
0010
0000
,
1000
0001
1000
0000
0001
0100
0001
0000
1000
0100
0010
0001
0010
0000
0000
0000
,
0001
0000
1000
0000
0010
0000
0001
0000
1000
0000
0100
0010
0100
0000
0001
0000
,
1000
0000
0100
0000
0010
0000
1000
0000
0001
0000
0100
0010
0100
0000
1000
0000
,
0001
0100
0001
1000
0100
0010
0001
1000
0010
0100
0001
0010
0100
1000
0001
0100
,
0020
1000
0130
1001
,
1000
0100
0010
0000
0001
0000
1000
0000
0010
0100
0001
0000
0100
0000
0001
0000
,
1000
0001
0010
0000
0100
0000
0010
0000
0001
1000
0010
0000
1000
0000
0010
0000
,
0100
0001
1000
0000
0100
0000
0010
0000
0100
1000
0001
0000
1000
0000
0001
0000
,
1000
0010
1000
0000
0001
0100
0001
0000
1000
0100
0010
0001
2000
0000
0000
0000
,
3001
0010
0100
0000
1000
0000
0001
0000
1000
0010
0100
0000
0001
0000
1000
0000
,
0100
0010
0001
0000
1000
0000
0001
0000
0100
0010
1000
0000
0001
0000
1000
0000
,
1100
0100
0110
0010
0011
0001
1001
1000
,
0002
1000
1003
1001
,
0001
0000
2000
0000
3001
0010
0001
0000
,
1000
0010
0100
0001
0010
0000
0100
0010
,
0001
0000
2000
0000
3010
1000
0001
0000
,
0100
0010
0001
1000
0200
0000
0300
0000
,
0001
0000
2000
0000
3001
0100
0010
0000
,
1000
0100
0010
0100
1000
0010
0100
0001
,
1000
0000
0002
0000
0013
0100
0010
0000
,
1000
0001
0100
0010
0002
0000
0003
0000
,
1000
0000
0200
0000
0301
0100
1000
0000
,
0001
0100
1000
0100
0001
0000
1000
0001
,
1000
0000
0020
0000
0031
0010
1000
0000
,
0001
0010
1000
0010
0002
0000
0003
0000
,
1000
0000
0200
0000
0301
0100
1000
0000
,
0001
0100
1000
0100
0010
0001
0010
1000
,
0001
0000
0020
0000
1030
0010
0001
0000
,
1000
0010
0001
0010
2000
0000
3000
0000
,
1010
0000
0000
0000
0101
0000
0000
0000
1100
0000
0100
0000
0010
0001
0010
0001
,
0010
0000
0001
0000
1001
0000
0100
0000
0110
0000
0000
0000
1000
0001
1000
0001
,
0010
0000
0000
0000
0110
0000
0000
0000
1100
0000
1000
0000
0001
0100
0001
0100
,
0010
1000
1001
0010
0011
0000
1000
1000
,
0001
0010
0100
1000
0001
0100
0010
1000
,
0100
0001
0100
0010
1000
0010
0001
1000
,
0010
1000
0001
0010
0100
1000
0001
0100
0001
0010
0100
1000
0010
0100
0010
1000
,
0002
1000
1003
1001
,
1000
0000
0100
0000
0010
0000
0001
0000
1000
0010
0100
0001
2000
0000
0000
0000
,
3001
0010
0001
0000
1000
0100
1000
0000
0002
0000
0000
0000
0103
0000
0010
0000
,
0100
0000
0001
0000
1000
0000
0100
0000
0010
0001
1000
0001
0200
0000
0000
0000
,
0310
1000
0010
0000
0100
0001
0100
0000
0002
0000
0000
0000
1003
0000
0100
0000
,
0010
0000
0100
0000
1000
0000
0001
0000
0100
0010
1000
0001
0020
0000
0000
0000
,
0130
1000
0100
0000
0010
0001
0010
0000
0001
0000
0100
0000
1000
0000
0100
0000
,
0010
0000
1000
0000
0001
0000
1000
0000
0100
0010
0100
1000
0002
0000
0000
0000
,
1003
0010
1000
0000
0001
0100
0001
0000
1000
0000
0100
0000
0110
0000
0000
0000
,
0200
0000
0000
0000
0000
0000
0000
0000
1000
0000
0000
0000
0001
0000
0000
0300
0200
0000
0000
0000
0000
0000
0000
0000
0001
0000
0000
0000
1000
0000
0000
0300
0100
0000
0000
0000
0000
0000
0000
0000
0010
0000
0000
0000
0000
0000
0000
0000
0001
0000
0000
0000
0000
0000
0000
0000
1000
0000
0000
0000
0000
0000
0000
0000
,
0010
0100
0001
0000
0010
0001
0100
0000
0010
0000
1000
0000
0001
0000
0100
0000
,
0020
0000
0000
0000
0000
0000
0000
0000
1000
0000
0000
0000
0001
0000
0000
0030
0020
0000
0000
0000
0000
0000
0000
0000
0001
0000
0000
0000
1000
0000
0000
0030
0010
0000
0000
0000
0000
0000
0000
0000
0100
0000
0000
0000
0000
0000
0000
0000
0001
0000
0000
0000
0000
0000
0000
0000
1000
0000
0000
0000
0000
0000
0000
0000
,
0100
1000
0010
0000
0100
0010
1000
0000
0001
0000
0010
0000
0100
0000
1000
0000
,
0200
0000
0000
0000
0000
0000
0000
0000
0010
0000
0000
0000
0001
0000
0000
0300
0200
0000
0000
0000
0000
0000
0000
0000
0010
0000
0000
0000
1000
0000
0000
0300
0100
0000
0000
0000
0000
0000
0000
0000
1000
0000
0000
0000
0000
0000
0000
0000
0001
0000
0000
0000
0000
0000
0000
0000
1000
0000
0000
0000
0000
0000
0000
0000
,
0010
1000
0001
0000
0010
0100
1000
0000
0001
0100
0010
0000
1000
0001
0010
0000
,
0100
1000
0001
1000
0010
1000
0001
1000
0100
1000
0001
1000
0010
1000
0001
1000
,
0100
0010
0001
0100
0020
0000
0030
0000
,
1010
0000
0101
0000
1000
0100
0110
0000
,
0010
0001
1000
0000
0010
1000
0001
0000
0010
0000
0100
0000
0001
0000
0100
0000
,
1100
0000
0011
0000
0001
0100
0110
0000
,
0010
1000
0001
0000
0010
0100
1000
0000
0100
0000
0010
0000
0001
0000
1000
0000
,
1010
0000
0011
0000
0010
0100
0101
0000
,
1000
0100
0010
0000
0001
1000
0010
0000
0100
0001
1000
0000
0100
0010
0001
0000
,
0011
0000
1010
0000
0010
0100
1100
0000
,
0001
0100
1000
0100
0001
0000
1001
0000
,
1000
0100
1000
0000
0001
0100
0001
0000
1000
0001
1000
0010
0100
0000
0001
0000
,
1000
0100
0010
0000
0001
1000
0001
0000
0101
0000
0000
0000
1010
0000
0001
0000
,
1000
0010
1000
0000
0001
0010
0001
0000
0100
0010
1000
0001
0010
0000
0100
0000
,
0010
0001
1000
0000
0010
1000
0001
0000
0110
0000
0000
0000
1001
0000
0000
0000
,
0001
0010
0100
0000
1000
0100
0010
0000
0001
1000
0010
0100
0010
0000
1000
0000
,
0100
0010
0001
0000
0100
0010
1000
0000
0001
0010
0100
0000
1000
0010
0100
0000
,
0001
1000
0100
0000
0010
0100
1000
0000
0001
1000
0010
0100
0001
0000
1000
0000
,
0001
0100
1000
0100
0001
0000
1001
0000
,
1000
0010
1000
0001
0010
0000
0100
0000
0010
0001
1000
0010
0100
0000
0001
0000
,
0100
0001
1000
0001
0010
0000
0100
0000
1000
0100
0010
0001
1000
0000
0001
0000
,
0100
0010
1000
0001
0010
0000
0100
0000
1000
0100
1000
0001
0100
0000
0001
0000
,
0100
0010
1000
0001
0010
0000
0100
0000
0010
0001
0100
0010
1000
0000
0000
0000
,
0001
0010
0100
1000
0001
0000
1000
0000
0001
0100
0010
1000
0001
0000
1000
0000
,
0001
1000
0100
0010
0001
0000
1000
0000
0001
1000
0010
0100
0001
0000
1000
0000
,
0010
1000
0100
1000
0001
0100
0010
1000
0001
0010
0100
1000
0010
0100
0001
1000
,
0200
0000
0000
0300
,
2002
0000
0000
0000
,
3003
0000
0000
0000
;

//--------------- dance-double - Fred-104 ----------------
#NOTES:
     dance-double:
     Fred-104:
     Easy:
     9:
     :
00000000
00000000
00000000
00000000
,
00000000
00000000
00000000
00000000
,
00000000
00000000
00000000
00000000
,
00000000
00000000
00000000
00000000
,
00000000
00000000
00000000
00000000
,
00011000
00000000
00001010
00000000
,
00011000
00000000
00001100
00000000
,
00001000
00010000
00001000
00000000
00010000
00001000
00010000
00000000
,
00002000
00000000
00000000
00003000
,
00010000
00010000
00001000
00001000
,
00000100
00000100
00000001
00000010
,
00000100
00001000
00000010
00010000
,
00001000
00100000
02200000
03300000
,
10000000
00100000
00010000
00001000
,
00010000
01000000
00010000
00001000
,
00010000
00000100
00010000
00000000
00000100
00001000
00000100
00000000
,
00020000
00000000
00000000
00030000
,
00001000
00000000
00001000
00000000
00010000
00000100
00010000
00000000
,
00001000
00000000
00001000
00000000
01000000
00010000
01000000
00000000
,
00001000
00000000
00001000
00000000
00010000
00000100
00010000
00000000
,
00001000
00000100
00000202
00000303
,
00000011
00000000
00010100
00000000
,
00101000
00000000
11000000
00000000
,
00010000
01000000
00010000
00000000
10000000
00100000
10000000
00000000
,
00020000
00000000
00000000
00030000
,
20000000
00000000
00000000
00000000
,
32000000
00000000
00000000
00000000
,
03020000
00000000
00000000
00000000
,
00032000
00000000
00003000
00000000
,
00020000
00000000
00000000
00000000
,
00030200
00000000
00000000
00000000
,
00000320
00000000
00000000
00000000
,
00000032
00000000
00000003
00000000
,
00001000
00000000
00001000
00000000
00000001
00001000
00000001
00000000
,
00000100
00001000
00000100
00000000
00001000
00010000
00001000
00000000
,
00001000
00000000
00010000
00000000
00100000
01000000
00100000
00000000
,
10000000
01000000
00200000
00300000
,
00100000
00000000
00100000
00000000
00001000
00010000
00001000
00000000
,
00010000
00000100
00010000
00000000
00000100
00001000
00000100
00000000
,
00000010
00000000
00000010
00000000
00000001
00001000
00000001
00000000
,
00000100
00001000
00000100
00000000
00002000
00000000
00003000
00000000
,
00001000
00010000
00010100
00000000
,
00010000
00001000
01001000
00000000
,
00001000
00010000
00010010
00000000
,
00010000
00001000
00101000
00000000
,
00001000
00001000
00010000
00010000
,
00000100
00000100
00000010
00000010
,
00000001
00000100
00000001
00000000
00001000
00000100
00001000
00000000
,
00002002
00000000
00000000
00003003
,
00000001
00000100
00001000
00010000
,
00001000
00010000
00001000
00000000
00100000
00000000
00010000
00000000
,
10000000
00100000
01000000
00010000
,
10000000
01000000
10000000
00000000
10010000
00000000
00000000
00000000
,
00010000
01000000
10000000
01000000
,
00100000
01000000
00100000
00000000
01000000
00001000
01000000
00000000
,
00010000
00100000
01000000
00010000
,
00001000
00010000
00001000
00000000
00011000
00000000
00000000
00000000
,
00010000
00000100
00000010
00000001
,
00001000
00000010
00001000
00000000
00000100
00010000
00000100
00000000
,
00010000
00001000
01000000
00010000
,
00100000
00001000
00100000
00000000
00011000
00000000
00000000
00000000
,
00001000
00010000
00000100
00000010
,
00000001
00001000
00000001
00000000
00000100
00000010
00000100
00000000
,
00001000
00010000
01000000
00010000
,
00001000
00010000
00022000
00033000
,
00001000
00010000
00100000
10000000
,
01000000
00000000
00010000
00001000
00010000
00000000
00001000
00000000
,
00010000
00001000
00000100
00000001
,
00001000
00000000
00000100
00000010
00000200
00000000
00000300
00000000
,
00001000
00000001
00000100
00001000
,
00010000
00000000
00001000
00010000
00001000
00000000
00100000
00000000
,
01000000
10000000
00010000
01000000
,
00100000
01000000
20020000
30030000
,
10000000
00000000
01000000
00000000
00100000
00010000
00100000
00000000
,
00001000
00010000
00001000
00000000
00010000
00000000
00000100
00000000
,
00000010
00000000
00000001
00000000
00001000
00000010
00001000
00000000
,
00000010
00000100
00000010
00000000
00000100
00000000
00001000
00000000
,
00010000
00000000
00001000
00000000
00100000
00010000
00100000
00000000
,
00001000
00010000
00001000
00000000
01000000
00010000
01000000
00000000
,
00001000
00000000
00001000
00000000
00010000
00001000
00010000
00000000
,
00022000
00000000
00000000
00033000
,
00010000
00000000
00010000
00000000
00001000
00100000
00010000
00000000
,
01000000
00000000
01000000
00000000
00100000
10000000
00010000
00000000
,
00100000
00000000
00100000
00000000
01000000
00010000
00001000
00000000
,
00010000
00001000
00022000
00033000
,
00010000
00001000
00010000
00000000
00000010
00001000
00000010
00000000
,
00010000
00001000
00010000
00000000
00000100
00001000
00000100
00000000
,
00010000
00001000
00010000
00001000
00010000
00001000
00010000
00001000
,
00020000
00000000
00000000
00030000
,
00022000
00000000
00000000
00000000
,
00033000
00000000
00000000
00000000
;

//--------------- dance-double - Fred-104 ----------------
#NOTES:
     dance-double:
     Fred-104:
     Medium:
     12:
     :
00000000
00000000
00000000
00000000
,
00000000
00000000
00000000
00000000
,
00000000
00000000
00000000
00000000
,
00000000
00000000
00000000
00000000
,
00000000
00000000
00000000
00000000
,
00001000
00010000
00001000
00000000
00010000
01000000
00010000
00000000
,
00001000
00010000
00001000
00000000
00010000
00100000
00010000
00000000
,
00001000
00010000
00001000
00010000
00000010
00001000
00000010
00010000
,
00002000
00000000
00000000
00003000
,
00010000
00001000
00100000
00000000
00010000
10000000
00100000
00000000
,
01000000
00001000
00010000
00000000
00000100
00001000
00000001
00000000
,
00000100
00000010
00001000
00000000
00000001
00000010
00000100
00000000
,
00010000
00001000
00010000
00000000
00001000
00001000
00001000
00000000
,
00100000
00010000
10000000
00000000
00100000
01000000
00100000
00000000
,
00010000
00001000
00000100
00000000
00000010
00001000
00000001
00000000
,
00000010
00000100
00001000
00000000
00000010
00000100
00001000
00000000
,
00020000
00000000
00000000
00030000
,
00011000
00000000
01001000
00000000
01000000
00010000
10000000
00000000
,
10100000
00000000
01010000
00000000
01000000
00001000
00010000
00000000
,
00011000
00000000
00001100
00000000
00000100
00000001
00000010
00000000
,
00000200
00010000
00010300
00011000
,
00011000
00001010
00011000
00110000
,
00011000
00001100
00011000
01010000
,
00010000
00001000
00010000
00001000
00010000
00000100
00010000
00001000
,
00020000
00000000
00000000
00030000
,
00002000
00000000
00023000
00000000
,
00230000
00000000
20300000
00000000
,
30020000
00000000
00230000
00000000
,
02300000
03020000
00002000
00033000
,
00020000
00000000
00030200
00000000
,
00000320
00000032
00002003
00003002
,
00000203
00000000
00002300
00000000
,
00023000
00032000
00020000
00033000
,
00001000
00000000
00100000
00000000
00010000
10000000
00010000
00000000
,
01000000
00100000
10000000
00100000
01000000
00000000
00010000
00000000
,
10000000
00000000
01000000
00000000
00100000
00001000
00010000
00000000
,
00001000
00010000
00001000
00000100
00000020
00000000
00000030
00000000
,
00001000
00000000
00000100
00000000
00000010
00000001
00001000
00000000
,
00000001
00000100
00000001
00000100
00000010
00010000
00000010
00010000
,
00001000
00000000
00100000
00000000
00010000
10000000
00100000
00000000
,
01000000
00100000
00010000
00001000
00020000
00000000
00030000
00000000
,
00011000
00001010
00000022
00000033
,
00000101
00001100
00022000
00033000
,
00110000
10100000
20020000
30030000
,
11000000
01010000
00022000
00033000
,
00010000
00000100
00001000
00000000
00000001
00001000
00000100
00000000
,
00000010
00000001
00000100
00000000
00001000
00010000
00100000
00000000
,
10000000
00010000
00100000
00001000
00100000
00001000
00010000
00000010
,
00020000
00000000
00000000
00030000
,
00001000
00000000
00010000
00000000
00000100
00001000
00000001
00000000
,
00000100
00000010
00001000
00000010
00000100
00000000
00001000
00000000
,
00010000
00000000
00001000
00000000
00100000
00010000
10000000
00000000
,
00100000
01000000
00100000
00010000
00001000
00000000
00011000
00000000
,
00010000
00000000
00000100
00000000
00000010
00000001
00001000
00000000
,
00000001
00000010
00000001
00000010
00000100
00010000
00001000
00010000
,
00100000
00000000
10000000
00000000
01000000
00100000
00010000
00000000
,
10000000
00100000
00010000
00001000
00010000
00000000
00011000
00000000
,
00001000
00000000
00010000
00000000
00100000
01000000
00010000
00000000
,
00100000
01000000
10000000
01000000
00100000
00000000
00001000
00010000
,
00001000
00000000
01000000
00000000
00001000
00010000
00000100
00000000
,
00000010
00000001
00001000
00000010
00000100
00000000
00001100
00000000
,
00001000
00000000
00010000
00000000
00001000
00100000
00010000
00000000
,
10000000
00100000
01000000
00100000
10000000
01000000
00100000
00001000
,
00010000
00000100
00010000
00000100
00001000
00000001
00000100
00000010
,
00001000
00000001
00000010
00000100
00010000
00000000
00011000
00000000
,
00101000
00000000
10010000
00000000
01000000
00100000
01000000
00000000
,
00010000
10000000
01000000
00100000
00001000
00000000
00010000
00000100
,
00000010
00000000
00001001
00000000
00000001
00001000
00000010
00000000
,
00000100
00001000
00010000
00001000
00010000
00000000
00011000
00000000
,
00101000
00000000
10010000
00000000
00010000
01000000
00100000
00000000
,
10000000
00010000
00100000
01000000
00100000
00010000
00100000
00001000
,
00010000
00000000
00001010
00000000
00010000
00000010
00001000
00000000
,
00000010
00010000
00001000
00100000
01000000
00000000
10010000
00000000
,
01001000
00000000
00011000
00000000
00010000
00000100
00001000
00000000
,
00000001
00001000
00000100
00000010
00001000
00000000
00010000
00001000
,
00100000
00000000
00110000
00000000
00010000
10000000
00100000
00000000
,
10000000
00010000
00100000
01000000
00100000
00000000
00101000
00000000
,
00001000
00010000
00000010
00000000
00001000
00000100
00000010
00000000
,
00000001
00000010
00000100
00001000
00000010
00000100
00001000
00010000
,
00001000
00100000
00010000
10000000
00100000
01000000
00100000
00010000
,
00002000
00000000
00003000
00011000
,
00010000
00001000
00010000
00000000
00000100
00001000
00000001
00000000
,
00000100
00000010
00001000
00000000
00000010
00000100
00001000
00000000
,
00010000
00001000
01000000
00000000
00100000
10000000
01000000
00000000
,
00010000
00001000
00010000
00011000
,
00010000
00000100
00001000
00001000
00000001
00000010
00000100
00000000
,
00010000
00001000
00100000
00100000
00010000
10000000
00100000
00000000
,
10000000
01000000
00100000
00010000
00100000
00001000
01000000
00100000
,
02000000
00000000
00000000
03000000
,
20020000
00000000
00000000
00000000
,
30030000
00000000
00000000
00000000
;

//--------------- dance-double - Fred-104 ----------------
#NOTES:
     dance-double:
     Fred-104:
     Hard:
     15:
     :
00000000
00000000
00000000
00000000
,
00000000
00000000
00000000
00000000
,
00000000
00000000
00000000
00000000
,
00000000
00000000
00000000
00000000
,
00000000
00000000
00000000
00000000
,
00010000
00001000
00000100
00000001
00001000
00000100
00000010
00000001
,
00001000
00000001
00000100
00001000
00010000
00001000
01000000
00100000
,
10000000
10000000
01000000
01000000
00010000
00010000
00000100
00000100
,
00000020
00000001
00000031
00001001
,
00000001
00000000
00001000
00000000
00000010
00000000
00000100
00000000
00001000
00000000
00010000
00001000
00010000
00000000
00001000
00000000
,
00100000
00000000
00010000
00000000
10000000
00000000
00100000
00000000
01000000
00000000
00010000
10000000
00010000
00000000
00100000
00000000
,
01000000
00000000
00010000
00000000
00001000
00000000
00010000
00000000
00000100
00000000
00001000
00000001
00001000
00000000
00000001
00000000
,
00000010
00000000
00000100
00000000
00000010
00000000
00001000
00000000
00010000
00001000
00010000
00001000
00010000
00000000
00000000
00000000
,
00001000
00000000
00100000
00000000
00010000
00000000
10000000
00000000
00100000
01000000
00100000
00000000
10000000
00000000
01000000
00000000
,
00010000
00000000
00001000
00000000
00010000
00000000
00000010
00000000
00010000
00001000
00010000
00000000
00000100
00000000
00000010
00000000
,
00000001
00001000
00000001
00000000
00001000
00000000
00000010
00000000
00010000
00001000
00010000
00000000
00000100
00000000
00000010
00000000
,
00000002
00001000
00001003
00001001
,
00000001
00000010
00000100
00010000
00001000
00001000
00100000
00100000
,
00010000
10000000
00100000
00010000
00001000
00001000
00010000
00010000
,
00000100
00000010
00000001
00000100
00001000
00001000
00010000
00010000
,
00011000
00110000
10100000
10010000
,
11000000
01000000
00100000
00000000
00101000
00001000
00010000
00000000
,
00010010
00000010
00001000
00000000
00001001
00001000
00000010
00000000
,
00000100
00000100
00000001
00000001
00000010
00000010
00001000
00001000
,
00020000
00001000
00031000
00011000
,
00002000
00000000
00023000
00000000
,
00230000
20300000
00020000
30030000
,
20000000
00000000
32000000
00000000
,
03200000
00302000
00020000
00033000
,
00020000
00000000
00032000
00000000
,
00003200
00000302
00002003
00003200
,
00000320
00000000
00000032
00000000
,
00000203
00002300
00020000
00033000
,
00020000
00000000
00032000
00000000
00003100
00000001
00001000
00000000
,
00000100
00000010
00000001
00001000
00000010
00000000
00000100
00001000
,
00010000
00000000
00002000
00000000
01003000
00010000
10000000
00000000
,
01000000
00100000
00001000
00010000
00002000
00000000
00003000
00000000
,
00010000
00000000
00002000
00000000
00013000
00000100
00001000
00000000
,
00000100
00000010
00000001
00001000
00000010
00000100
00001000
00010000
,
00001000
00000000
00200000
00000000
01300000
10000000
00010000
00000000
,
10000000
00100000
00010000
00001000
00020000
00000000
00030000
00000000
,
00011000
00000000
00001010
00000000
00000010
00000010
00000001
00001000
,
00001010
00000010
00010010
00010000
00011000
00000000
00001000
00100000
,
00110000
00000000
10010000
00000000
01000000
00001000
00010000
00010000
,
00010100
00000100
00000110
00000010
00000011
00000000
00001001
00000000
,
00000001
00000010
00000100
00001000
00000010
00000100
00001000
00010000
,
00001000
00100000
00010000
10000000
00100000
01000000
00010000
10000000
,
01000000
00100000
01000000
00100000
01000000
00100000
01000000
00100000
01000000
00100000
01000000
00100000
01000000
00100000
01000000
00100000
,
02000000
00000000
03000000
10010000
,
00010000
10000000
00100000
01000000
00010000
10000000
01000000
00010000
,
00001000
00010000
00000100
00000010
00000100
00001000
00000001
00000100
,
00001000
00010000
00100000
00001000
00000010
00000100
00000001
00001000
,
00000100
00000010
00001000
00010000
01000000
00000000
11000000
00000000
,
00010000
10000000
01000000
00010000
00001000
00010000
00000100
00000010
,
00000001
00000100
00000010
00001000
00010000
01000000
00100000
10000000
,
00010000
00100000
01000000
00010000
00001000
00000010
00000001
00001000
,
00000010
00000100
00001000
00010000
00001000
00000000
00011000
00000000
,
00101000
00000000
00000000
00000000
00010010
00000000
00000000
00000000
00000010
00001000
00000010
00000000
00000100
00000000
00000001
00000000
,
00001000
00000000
00000100
00000010
00000100
00000000
00010000
00000000
00001000
00000000
01000000
00010000
01000000
00000000
00100000
00000000
,
10100000
00000000
00000000
00000000
01010000
00000000
00000000
00000000
10000000
01000000
10000000
00000000
00010000
00000000
01000000
00000000
,
00100000
00000000
00010000
00001000
00010000
00000000
00000010
00001000
00000010
00000000
00000100
00000000
00001000
00000000
00010000
00000000
,
00011000
00000000
00000000
00000000
00001010
00000000
00000000
00000000
00000010
00000001
00000010
00000000
00000001
00000000
00001000
00000000
,
00000010
00010000
00000010
00000000
00010000
00000000
00001000
00000000
00100000
01000000
00100000
00000000
00010000
00000000
10000000
00000000
,
00100000
00000000
00010000
00000000
00001000
00000000
00010000
00000000
00000010
00001000
00000010
00001000
00000010
00000000
00010000
00000000
,
00001000
00100000
01000000
10000000
00010000
00000000
10010000
00000000
,
10100000
00000000
01001000
00000000
00001000
00010000
00010100
00000000
,
00000110
00000010
00000001
00001000
00001010
00000000
00000010
00010000
,
00011000
00000000
01100000
00000000
10000000
00100000
01100000
00000000
,
10010000
10000000
01000000
00010000
00011000
00000000
00001010
00000000
,
00000011
00000000
00001001
00000000
00000001
00000100
00000110
00000000
,
00001010
00001000
00000001
00000010
00000100
00010000
00001000
01000000
,
01010000
00000000
01001000
00000000
00001000
00010000
00010100
00000000
,
00000100
00000010
00000001
00000100
00001000
00000000
00011000
00000000
,
00101000
00000000
10010000
00000000
01010000
01000000
01100000
00000000
,
10010000
10000000
01000000
00010000
00001000
01000000
00001000
00000100
,
00000110
00000000
00001010
00000000
00001000
00000001
00000011
00000000
,
00000110
00000100
00001000
00000001
00000101
00000000
00001100
00000000
,
00011000
00000000
00010000
00000000
00001000
00000000
00100000
00000000
00010000
10000000
00010000
00000000
01000000
00000000
00100000
00000000
,
10000000
00010000
10000000
00000000
01000000
00000000
00100000
00000000
00001000
00010000
00001000
00000000
00010000
00000000
00000010
00000000
,
00001000
00000000
00000100
00000000
00000010
00000000
00000001
00000000
00001000
00000010
00001000
00000000
00000001
00000000
00000010
00000000
,
00001000
00010000
01000000
10000000
00100000
00000000
10010000
00000000
,
10000000
00000000
01000000
00000000
00100000
00000000
00001000
00000000
00010000
00000100
00010000
00000000
00000100
00000000
00001000
00000000
,
00010000
00000000
00100000
00000000
00001000
00000000
00010000
00000000
00000010
00001000
00000010
00000000
00000100
00000000
00000001
00000000
,
00001000
00000000
00000100
00000000
00000010
00000000
00001000
00000000
00010000
00001000
00010000
00000000
00001000
00000000
01000000
00000000
,
00200000
10000000
00310000
00011000
,
00001000
00001000
00010000
00100000
10000000
10000000
01000000
00010000
,
00001000
00001000
00000010
00000001
00000100
00000100
00001000
00010000
,
00001000
00001000
00010000
00010000
00000100
00000100
00000010
00000010
,
00000002
00000000
00000000
00000003
,
00002002
00000000
00000000
00000000
,
00003003
00000000
00000000
00000000
;

//--------------- dance-double - Fred-104† ----------------
#NOTES:
     dance-double:
     Fred-104†:
     Challenge:
     17:
     :
00000000
00000000
00000000
00000000
,
00000000
00000000
00000000
00000000
,
00000000
00000000
00000000
00000000
,
00000000
00000000
00000000
00000000
,
00000000
00000000
00000000
00000000
,
00001000
00010000
00001000
00000000
00100000
00000000
00010000
00000000
10000000
00100000
10000000
00000000
00100000
00000000
00010000
00000000
,
00001000
00010000
00001000
00000000
00000100
00000000
00000010
00000000
00001000
00000001
00001000
00000000
00000001
00000000
00000010
00000000
,
00000110
00000100
00010100
00010000
00011000
00001000
01001000
01000000
,
01020000
10000000
00130000
10010000
,
10000000
01000000
00100000
00000000
00001000
00000000
00010000
00000000
00000010
00001000
00000010
00000100
00000010
00000000
00010000
00000000
,
00001000
00010000
00000100
00001000
00000100
00000000
00000010
00000000
00000001
00001000
00000010
00000000
00000100
00000000
00001000
00000000
,
00010000
00001000
00100000
00000000
00010000
10000000
00100000
00000000
01000000
00010000
10000000
00000000
01000000
00100000
00001000
00000000
,
00010000
00001000
00000100
00000000
00000010
00001000
00000100
00000000
00000010
00000001
00000100
00000010
00001000
00000000
00000000
00000000
,
00000001
00000000
00000010
00000000
00001000
00000000
00100000
00000000
01000000
00000000
10000000
00010000
10000000
00000000
00010000
00000000
,
10000000
00000000
00100000
00000000
00010000
00000000
00000010
00000000
00000100
00000000
00000001
00001000
00000001
00000000
00001000
00000000
,
00000001
00000010
00000100
00001000
00000100
00010000
00001000
00100000
00010000
00100000
01000000
10000000
00010000
10000000
00100000
01000000
,
00200000
10000000
00310000
00011000
,
00001000
00010000
00000010
00000000
00001000
00000000
00000100
00000000
00000010
00000001
00001000
00000000
00000001
00000000
00001000
00000000
,
00000010
00000100
00001000
00000000
00010000
00000000
00001000
00000000
00100000
00010000
10000000
00000000
00010000
00000000
10000000
00000000
,
00100000
01000000
00100000
00000000
00010000
00000000
00001000
00000000
00010000
00000010
00001000
00000000
00000010
00000000
00001000
00000000
,
00000100
00000010
00000001
00000000
00000100
00000010
00001000
00000000
00000100
00010000
00001000
00100000
00001000
00000000
00000000
00000000
,
00010000
00001000
00010000
00000000
00001000
00000000
00000010
00000000
00000001
00001000
00000001
00000000
00000100
00000000
00001000
00000000
,
00010000
00001000
00010000
00000000
00100000
00000000
10000000
00000000
00010000
10000000
00010000
00000000
10000000
00000000
01000000
00000000
,
01100000
00100000
00101000
00001000
00011000
00010000
00010010
00000010
,
00002010
00000001
00003100
00011000
,
00010000
00000000
00002000
00000000
00003010
00001000
00010000
00000000
,
00001000
00010000
00100000
00010000
00001000
00000000
00010000
00001000
,
00010000
00000000
00002000
00000000
00003100
00001000
00010000
00000000
,
00001000
00010000
01000000
00010000
00002000
00000000
00003000
00000000
,
00010000
00000000
00002000
00000000
00003010
00000001
00001000
00000000
,
00000001
00000100
00000010
00001000
00010000
01000000
00100000
10000000
,
00010000
00000000
02000000
00000000
13000000
01000000
00010000
00000000
,
10000000
01000000
00010000
00001000
00000200
00000000
00000300
00000000
,
00000001
00000000
00000020
00000000
00001030
00000010
00000001
00000000
,
00000100
00001000
00010000
00100000
10000000
00000000
00010000
10000000
,
00010000
00000000
02000000
00000000
13000000
01000000
00010000
00000000
,
10000000
01000000
00010000
00001000
00020000
00000000
00030000
00000000
,
00001000
00000000
00020000
00000000
00130000
10000000
00010000
00000000
,
10000000
01000000
00100000
00010000
00001000
00000100
00000010
00000001
,
00001000
00000000
00000020
00000000
00000130
00001000
00010000
00000000
,
00100000
10000000
01000000
00010000
00002000
00000000
00003000
00000000
,
00011000
00000000
00000000
00000000
00001010
00000000
00000000
00000000
00000011
00000000
00000001
00000000
00001000
00000001
00001000
00000001
,
00000100
00000000
00000010
00000000
00001010
00000000
00001000
00000000
00010010
00000000
00000000
00000000
00010000
00001000
00010000
00001000
,
00010000
00000000
00000000
00000000
00011000
00000000
00000000
00000000
00101000
00000000
00100000
00000000
00010000
10000000
00010000
10000000
,
00100000
01000000
01010000
00010000
01001000
00000000
00001000
00001000
,
00010000
00001000
00000100
00000010
00010000
00001000
00000100
00000010
,
00010000
00001000
00000010
00000100
00000010
00000001
00000010
00001000
,
00010000
00001000
00100000
00010000
00100000
01000000
10000000
00010000
01000000
00001000
00010000
00000100
00001000
00000001
00000100
00000010
,
00000200
00001000
00000301
00001001
,
00000001
00000000
00000100
00000000
00001000
00000000
00010000
00000000
00001000
00100000
00010000
10000000
00010000
00000000
01000000
00000000
,
00100000
10000000
01000000
00000000
00100000
00010000
01000000
00000000
00100000
00000000
00010000
00000000
00001000
00000000
00000000
00000000
,
00010000
00000000
00001000
00000000
00000010
00000000
00000100
00000000
00010000
00001000
00100000
00010000
01000000
00000000
00100000
00000000
,
10000000
01000000
00100000
00000000
00001000
00010000
00000100
00000000
00000010
00000000
00000001
00000000
00001000
00000000
00000000
00000000
,
00000100
00000000
00000010
00000000
00001000
00000000
00010000
00000000
00001000
01000000
00010000
00100000
00001000
00000000
00010000
00000000
,
00001000
00100000
00010000
00000000
01000000
00010000
10000000
00000000
01000000
00000000
00010000
00000000
00001000
00000000
00000100
00000000
,
00000001
00000000
00000010
00000000
00000100
00000000
00001000
00000000
00000100
00010000
00001000
00010000
00100000
00000000
01000000
00000000
,
00100000
10000000
01000000
00000000
00100000
00010000
01000000
00000000
00100000
00000000
00010000
00000000
00011000
00000000
00000000
00000000
,
00020000
00000000
00000000
00000000
00000000
00000000
00000000
00000000
00001000
00000000
00000000
00000000
00100000
00000000
00000000
00030000
00020000
00000000
00000000
00000000
00000000
00000000
00000000
00000000
00100000
00000000
00000000
00000000
00001000
00000000
00000000
00030000
00010000
00000000
00000000
00000000
00000000
00000000
00000000
00000000
00001000
00000000
00000000
00000000
00000000
00000000
00000000
00000000
00000100
00000000
00000000
00000000
00000000
00000000
00000000
00000000
00000001
00000000
00000000
00000000
00000000
00000000
00000000
00000000
,
00001000
00000100
00000010
00000000
00000100
00001000
00000010
00000000
00000100
00000000
00001000
00000000
00010000
00000000
00001000
00000000
,
00200000
00000000
00000000
00000000
00000000
00000000
00000000
00000000
00010000
00000000
00000000
00000000
10000000
00000000
00000000
00300000
00200000
00000000
00000000
00000000
00000000
00000000
00000000
00000000
10000000
00000000
00000000
00000000
00010000
00000000
00000000
00300000
00100000
00000000
00000000
00000000
00000000
00000000
00000000
00000000
01000000
00000000
00000000
00000000
00000000
00000000
00000000
00000000
00010000
00000000
00000000
00000000
00000000
00000000
00000000
00000000
00001000
00000000
00000000
00000000
00000000
00000000
00000000
00000000
,
00010000
00000010
00001000
00000000
00000100
00010000
00001000
00000000
00010000
00000000
00100000
00000000
01000000
00000000
00100000
00000000
,
00020000
00000000
00000000
00000000
00000000
00000000
00000000
00000000
00001000
00000000
00000000
00000000
01000000
00000000
00000000
00030000
00020000
00000000
00000000
00000000
00000000
00000000
00000000
00000000
01000000
00000000
00000000
00000000
00001000
00000000
00000000
00030000
00010000
00000000
00000000
00000000
00000000
00000000
00000000
00000000
00001000
00000000
00000000
00000000
00000000
00000000
00000000
00000000
00000100
00000000
00000000
00000000
00000000
00000000
00000000
00000000
00000010
00000000
00000000
00000000
00000000
00000000
00000000
00000000
,
00001000
00000100
00000010
00000000
00000001
00000010
00000100
00000000
00001000
00000100
00010000
00000000
00001000
01000000
00010000
00000000
,
01000000
00100000
10000000
00100000
01000000
00100000
10000000
00010000
00100000
00001000
00010000
00000010
00001000
00000001
00000010
00000100
,
00001000
00000001
00000100
00001000
00020000
00000000
00030000
00000000
,
00011000
00000000
00110000
00000000
00100000
10000000
10010000
00000000
,
10000000
01000000
00100000
00000000
01000000
00100000
00001000
00000000
00010000
00000000
00100000
00000000
10000000
00000000
01000000
00000000
,
01010000
00000000
00011000
00000000
00010000
00000100
00000110
00000000
,
00000010
00000001
00000100
00000000
00000010
00001000
00000100
00000000
00000010
00000000
00001000
00000000
00010000
00000000
00001000
00000000
,
00101000
00000000
10010000
00000000
10000000
01000000
01100000
00000000
,
00100000
00001000
00010000
00000000
00001000
00000100
00000010
00000000
00001000
00000001
00000010
00000000
00000100
00010000
00001000
00000000
,
00011000
00000000
00001010
00000000
00001000
00010000
00011000
00000000
,
00001000
00000100
00000001
00000010
00001000
00000000
00011000
00000000
,
00001000
00000000
00100000
00010000
10000000
00000000
00100000
01000000
00010000
00000000
10000000
01000000
00100000
00000000
00001000
00000000
,
00010000
00000100
00001000
00000100
00000010
00000000
00000001
00000000
00000100
00000000
00001000
00000000
00010000
00000000
00001000
00000000
,
00100000
00000000
00010000
10000000
01000000
00000000
00100000
00001000
00010000
00000000
00001000
00010000
00100000
00000000
01000000
00000000
,
00010000
10000000
01000000
00100000
00010000
00000000
00100000
00000000
00001000
00000000
00010000
00000000
00011000
00000000
00000000
00000000
,
00010000
00000100
00001000
00000000
00000100
00000010
00000001
00000000
00001000
00000010
00000100
00000010
00001000
00000000
00000001
00000000
,
00000010
00000100
00001000
00000000
00000010
00000100
00001000
00000000
00010000
00100000
01000000
00000000
00010000
00100000
01000000
00000000
,
10000000
00010000
01000000
00000000
00100000
10000000
00010000
00000000
00100000
01000000
10000000
00010000
01000000
00000000
00001000
00000000
,
00010000
00001000
00000100
00000001
00000010
00000000
00001001
00000000
,
00000001
00000010
00000100
00000000
00001000
00000100
00010000
00000000
00001000
00100000
00010000
00000000
10000000
00100000
01000000
00000000
,
00010000
10000000
01000000
00000000
00100000
00001000
00010000
00000000
00000100
00001000
00000010
00000000
00000100
00000001
00001000
00000000
,
00000100
00000010
00000001
00000000
00001000
00000010
00010000
00000000
00001000
00100000
00010000
00000000
01000000
00100000
10000000
00000000
,
00010000
00100000
01000000
00000000
00100000
00001000
00010000
00000000
00001000
00000100
00000010
00000100
00000001
00000000
00000000
00000000
,
00001000
00000100
00001000
00000100
00000010
00000000
00000001
00000000
00001000
00000010
00001000
00000010
00000100
00000000
00001000
00000000
,
00010000
00001000
00010000
00001000
01000000
00000000
00100000
00000000
10000000
00010000
10000000
00010000
00100000
00000000
01000000
00000000
,
10000000
00010000
10000000
00100000
01000000
00010000
01000000
00001000
00010000
00000100
00001000
00000001
00000100
00000010
00001000
00000100
,
00020000
00000000
00000000
00030000
,
00022000
00000000
00000000
00000000
,
00033000
00000000
00000000
00000000
;
