#TITLE:Bad Routine;
#ARTIST:D.J. Spugna;
#GENRE:FILTER HOUSE;
#BANNER:Bad Routine.png;
#BACKGROUND:Bad Routine-bg.png;
#CDTITLE:./CDTitles/bm IIDX 7th style.png;
#MUSIC:Bad Routine.ogg;
#SAMPLESTART:46.154;
#SAMPLELENGTH:15;
#BPMS:0=130;
#BGSTAGE:4;

//--------------- dance-single - Fred-104 ----------------
#NOTES:
     dance-single:
     Fred-104:
     Beginner:
     2:
     :
0000
0000
0000
0000
,
0000
0000
0000
0000
,
0000
0000
0000
0000
,
0000
0000
0000
0000
,
0000
0000
0000
0000
,
1000
0000
0000
0000
,
0000
0000
0000
0000
,
0001
0000
0000
0000
,
0000
0000
0000
0000
,
1000
0000
0000
0000
,
0000
0000
0000
0000
,
0010
0000
0000
0000
,
0000
0000
0000
0000
,
1000
0000
0000
0000
,
0001
0000
0000
0000
,
0010
0000
0000
0000
,
0100
0000
0000
0000
,
1000
0000
0000
0000
,
0000
0000
0000
0000
,
0001
0000
0000
0000
,
0100
0000
0000
0000
,
0001
0000
0000
0000
,
0000
0000
0000
0000
,
1000
0000
0000
0000
,
0100
0000
0000
0000
,
0010
0000
0000
0000
,
0000
0000
0000
0000
,
0001
0000
0000
0000
,
1000
0000
0000
0000
,
0010
0000
0000
0000
,
0000
0000
0000
0000
,
0100
0000
0000
0000
,
0001
0000
0000
0000
,
1000
0000
0000
0000
,
0000
0000
0000
0000
,
0001
0000
0000
0000
,
0000
0000
0000
0000
,
1000
0000
0000
0000
,
0001
0000
0000
0000
,
1000
0000
0000
0000
,
0001
0000
0000
0000
,
0000
0000
0000
0000
,
0000
0000
0000
0000
,
0000
0000
0000
0000
,
1000
0000
0000
0000
,
0000
0000
0000
0000
,
0100
0000
0000
0000
,
0000
0000
0000
0000
,
0010
0000
0000
0000
,
0001
0000
0000
0000
,
1000
0000
0000
0000
,
0001
0000
0000
0000
,
1000
0000
0000
0000
,
0000
0000
0000
0000
,
0010
0000
0000
0000
,
1000
0000
0000
0000
,
0001
0000
0000
0000
,
0000
0000
0000
0000
,
0010
0000
0000
0000
,
0100
0000
0000
0000
,
1000
0000
0000
0000
,
0000
0000
0000
0000
,
0001
0000
0000
0000
,
1000
0000
0000
0000
,
0001
0000
0000
0000
;

//--------------- dance-single - Fred-104 ----------------
#NOTES:
     dance-single:
     Fred-104:
     Easy:
     5:
     :
0000
0000
0000
0000
,
0000
0000
0000
0000
,
0000
0000
0000
0000
,
0000
0000
0000
0000
,
0000
0000
0000
0000
,
1000
1000
0001
0100
,
0100
0010
1000
0001
,
0010
0010
0100
1000
,
0000
0001
0100
0010
,
0200
0000
0000
0000
,
0302
0000
0000
0000
,
2003
0000
0000
0000
,
3200
0000
0320
0032
,
2003
0000
3002
0000
,
0203
0000
0320
0000
,
0130
0100
0100
0100
,
0001
1000
2002
3003
,
2000
3200
0310
0001
,
1000
0001
0100
0000
,
0002
0203
0320
2030
,
3001
0010
0100
0000
,
2000
3020
0130
0010
,
1000
0001
0010
0000
,
0200
0320
0032
2003
,
3000
0001
0100
0001
,
1001
0000
1000
0001
,
0100
0100
0010
0100
,
0100
0001
1000
0100
,
0020
0032
2003
3001
,
1001
0000
0001
1000
,
0100
0100
0010
0001
,
0002
2003
3002
0203
,
0300
0010
0100
0001
,
2000
3000
0200
0300
,
0002
0003
0200
2300
,
3002
0003
0020
0030
,
0200
0000
0300
0000
2000
3000
2000
3000
,
0001
1000
0001
0200
,
0310
0100
0001
2000
,
3100
0010
0001
1001
,
0000
0100
0100
0110
,
0000
0010
0010
0110
,
0000
0100
0100
0110
,
0000
0000
0000
0000
,
0002
0000
0000
0000
,
2003
3002
0203
0320
,
0230
0302
2003
0000
,
3100
0010
0110
0000
,
1001
0000
0110
0000
,
1001
0000
0110
0000
,
1001
0000
0001
0000
,
1000
1000
0001
0100
,
0110
0000
0010
1000
,
0002
0023
0230
2300
,
3002
0203
0320
0230
,
0301
1000
0100
0010
,
1001
0000
1000
0001
,
0200
0320
0230
0302
,
0023
0230
2300
3002
,
0003
0100
0100
0100
,
0110
0000
0010
1000
,
0002
0023
0230
2300
,
3200
0320
0032
2003
,
3020
0230
0302
1003
,
1001
0000
0000
0000
;

//--------------- dance-single - Fred-104 ----------------
#NOTES:
     dance-single:
     Fred-104:
     Medium:
     8:
     :
0000
0000
0000
0000
,
0000
0000
0000
0000
,
0000
0000
0000
0000
,
0000
0000
0000
0000
,
0000
0000
0000
0000
,
0001
0100
0001
0100
0001
0000
1000
0100
,
1000
0100
1000
0000
0001
0100
0100
0001
,
0010
0000
0100
1000
0001
0000
1000
1000
,
0000
0001
0010
0100
1000
0100
1000
0001
,
1000
0100
0000
0100
,
0000
0100
0000
0100
,
1000
0010
0000
0010
,
1000
0001
0010
0100
,
1000
0001
1000
0000
0001
0100
0001
0000
,
1000
0100
1000
0000
0001
0010
0001
0000
,
0100
0100
0010
0010
,
1000
0001
1000
0001
1000
0000
1001
0000
,
0002
0000
0023
0000
0130
1000
0001
0000
,
0100
0000
0010
0000
0100
0010
1000
0001
,
2000
3002
0023
0230
,
1300
0001
0100
0000
0001
1000
0100
0000
,
0020
0000
0230
0000
1300
0001
0100
0000
,
0010
0000
0100
0000
0001
1000
0001
1000
,
0200
0000
0320
0000
0230
0000
1300
1001
,
0000
0001
0100
0010
1000
0001
0010
0000
,
0110
0000
1001
0000
1000
0100
0010
0000
,
0001
1000
0010
0100
0001
1000
0100
1000
,
0200
0320
0032
2003
,
3001
0100
0010
0000
1000
0100
0010
0000
,
0011
0000
1001
0000
0001
1000
0010
0000
,
0100
0001
1000
0001
0010
0100
1000
0010
,
0200
0000
0302
0000
2003
0000
3001
1001
,
0000
1000
0001
0100
0010
1000
0001
0000
,
1000
0100
0001
0000
0001
0100
1000
0000
,
1000
0100
0010
0000
0001
0010
0100
0000
,
1000
0010
1000
0010
0001
0000
0001
0010
,
1000
0000
0010
0000
1000
0000
0000
0000
2000
3000
0000
0000
2000
3000
0000
0000
,
0001
0010
0100
0000
1000
1000
0002
0000
,
0103
0010
0100
0000
0001
0001
0020
0000
,
0130
1000
0100
0000
1000
0000
0001
1001
,
0000
1000
0100
0000
0010
0001
0010
0001
,
0000
1000
0010
0000
0100
0001
0100
0001
,
0000
1000
0001
0000
0010
0100
0010
0100
,
0000
1000
0001
0100
0010
1000
0001
0010
,
0200
1000
0000
1300
,
0002
0203
2300
3200
,
0301
1000
0001
1000
0000
0200
0000
0320
,
0000
0031
0100
0110
,
1000
1100
0001
0101
,
1000
1010
0001
0011
,
1000
0000
1001
0000
0100
0000
0010
0110
,
0000
0001
1000
0002
0013
0200
1300
0002
,
0103
0000
0110
0000
0001
1000
0010
0100
,
0002
0000
2003
0000
3100
0010
0001
1000
,
0020
0000
0230
0000
0310
1000
0001
0000
,
0010
0100
1000
0001
0100
0010
0100
0000
,
0110
0000
1001
0000
1000
0001
0100
0000
,
0001
1000
0100
0010
0001
0100
0010
1000
,
0002
0000
2003
0000
3100
0010
0100
0010
,
0000
0001
0100
0010
1000
0100
0010
0000
,
0011
0000
1010
0000
0001
1000
0010
1000
,
0001
0100
0010
0100
0001
0010
0100
1000
,
0002
0000
2003
0000
3100
0010
0100
0000
,
1000
0001
0100
0010
1000
0100
0010
0001
,
1001
0000
0000
0000
;

//--------------- dance-single - Fred-104 ----------------
#NOTES:
     dance-single:
     Fred-104:
     Hard:
     11:
     :
0000
0000
0000
0000
,
0000
0000
0000
0000
,
0000
0000
0000
0000
,
0000
0000
0000
0000
,
0000
0000
0000
0000
,
1000
0000
0100
1000
0100
0000
0010
0001
0010
0000
0001
0000
1000
0000
0001
0100
,
0001
0000
1000
0010
1000
0000
0001
0000
0010
0000
0100
0000
1000
0001
0000
0000
,
0001
0100
0001
0100
0010
1000
0010
1000
,
0000
0001
0010
1000
0010
0001
1000
1000
,
1001
0000
0000
0000
0001
0000
0000
0001
0010
0000
0000
0000
0100
0000
0000
0100
,
1000
0000
0000
0000
0001
0000
0000
0001
0100
0000
0000
0000
0010
0000
0000
0010
,
0100
0000
0000
0000
0010
0000
0000
0010
1000
0000
0000
0000
1000
0000
0000
1000
,
0001
0000
0000
0000
0001
0000
0000
0001
0010
0000
0000
0010
0100
0000
1000
0000
,
0001
0000
0100
0000
0001
0000
0000
0001
1000
0000
0100
0000
0010
0000
0000
0010
,
0001
0000
1000
0000
0010
0000
0000
0010
0100
0000
0001
0000
1000
0000
0000
1000
,
0010
0000
0000
0010
0100
0000
0000
0100
0001
0000
0000
0001
0010
0000
0000
0010
,
0100
1000
0001
0100
0010
0000
0110
0000
,
1000
0001
0200
0000
0310
0100
0001
1000
,
0100
0010
0002
0000
0103
0020
1030
0001
,
0020
0000
0230
0000
1300
0001
1001
0000
,
1000
0000
0010
0000
0100
0000
0001
0010
0000
0100
1000
0000
0001
0000
0100
0000
,
0120
0000
2030
0000
3001
1000
0100
0010
,
0001
1000
0020
0000
0130
0001
0010
0100
,
0020
0000
0032
0000
1003
0001
1000
1001
,
0000
0000
0001
0000
0100
0000
0010
1000
0010
0000
1000
0001
1000
0000
0001
0010
,
0001
0000
1000
0000
1100
0000
0000
0000
1000
0000
0001
0000
0100
0010
0100
0000
,
0001
1000
0100
0010
0001
1000
0010
0100
,
0002
0023
2030
3200
,
0301
0000
1000
0000
0100
0000
0010
0001
0000
0010
0001
0000
1000
0000
0001
0000
,
0100
0000
0010
0000
2010
0000
0000
0000
3001
0000
0010
0000
0100
0010
0100
0000
,
1000
0001
0100
0010
1000
0001
0010
0100
,
2000
0000
3020
0000
0032
0000
0103
1000
,
0001
0100
0010
1000
0100
0010
0001
0001
,
1000
0100
0001
0000
1000
0010
0001
0000
,
1000
0000
0100
0000
0010
0000
0000
0000
0001
0000
0100
0000
0010
1000
0000
0000
,
0001
0200
1300
0200
0301
1000
1000
0200
,
0301
0000
0200
0000
1300
0000
0001
0000
1000
0100
0000
0000
0010
0001
0000
0000
,
1000
0001
0100
0010
1000
0001
0020
0000
,
0130
0010
0001
0100
0010
1000
0002
0000
,
0013
0100
1000
0001
0100
0010
0100
0110
,
0000
0000
0001
0100
0001
0000
1000
0100
1000
0000
0001
1000
0001
0000
1001
0000
,
0000
0000
1000
0010
1000
0000
0001
0010
0001
0000
1000
0001
1000
0000
1001
0000
,
0000
0000
0001
0100
0001
0000
1000
0100
1000
0000
0001
1000
0001
1000
0001
1000
,
0000
0000
1000
0010
1000
0000
0001
0010
0001
0000
1000
0000
0001
0000
0000
0000
,
2000
0010
0000
3010
,
0200
0320
2030
3002
,
0013
0010
0100
0200
0000
2300
0000
3002
,
0000
0103
0010
1001
,
1000
0100
1100
0000
0001
0100
0101
0000
,
1000
0010
1010
0000
0001
0010
0011
0000
,
0100
1000
1100
0000
0001
0100
0001
1001
,
0000
0000
0001
0000
0010
0000
0100
1000
0100
0000
0020
0000
0130
0000
0020
0000
,
0031
0000
1000
0000
0020
0000
0000
0000
0130
0000
0001
0000
1000
0100
1000
0000
,
0001
0100
0010
0100
0001
0010
0100
0010
,
0002
0100
1003
1001
,
1000
0000
0001
0000
0010
0000
0100
0010
0000
0001
0010
0000
0001
0000
1000
0000
,
0010
0000
0100
0000
0102
0000
0000
0000
1003
0000
0100
0000
0010
0100
0010
0000
,
0001
1000
0100
0010
0001
0100
0010
1000
,
0002
0000
0203
0000
0301
1000
0100
0110
,
0000
0000
0001
0010
0001
0000
1000
0010
1000
0000
0001
0100
0001
0000
1000
0000
,
0001
0000
0000
0000
1001
0000
0000
0000
0001
0000
0010
0000
0100
0010
0100
0000
,
1000
0001
1000
0010
0001
0010
1000
0001
,
0020
0000
0230
0000
1300
0001
1000
0010
,
0100
0000
0001
0000
1000
0000
0001
0010
0000
0100
1000
0000
0001
0000
0100
0000
,
0110
0000
0000
0000
;

//--------------- dance-double - Fred-104 ----------------
#NOTES:
     dance-double:
     Fred-104:
     Easy:
     5:
     :
00000000
00000000
00000000
00000000
,
00000000
00000000
00000000
00000000
,
00000000
00000000
00000000
00000000
,
00000000
00000000
00000000
00000000
,
00000000
00000000
00000000
00000000
,
00001000
00000001
00001000
00000000
,
00000010
00010000
00000010
00000000
,
00010000
00010000
00001000
00010000
,
00000000
00001000
00010000
00100000
,
02000000
00000000
00000000
00000000
,
03020000
00000000
00000000
00000000
,
20030000
00000000
00000000
00000000
,
32000000
00000000
03200000
00302000
,
00023000
00000000
00032000
00000000
,
00023000
00000000
00032000
00000000
,
00013000
00010000
00010000
00010000
,
00001000
00010000
00022000
00033000
,
00020000
00032000
00003100
00000000
,
00000001
00001000
00000001
00000000
,
00000020
00000230
00002300
00003200
,
00010300
00001000
00010000
00000000
,
00002000
00023000
01030000
00000000
,
10000000
00010000
10000000
00000000
,
02000000
03200000
00302000
00023000
,
00030000
00001000
00010000
00000000
,
00011000
00000000
00010000
00001000
,
00010000
00010000
00000010
00010000
,
00010000
00000100
00001000
00000000
,
00000002
00000203
00002300
00013000
,
00011000
00000000
00001000
00010000
,
00001000
00001000
00100000
00001000
,
00002000
00023000
00230000
20300000
,
30000000
00010000
10000000
00000000
,
02000000
03000000
00200000
00300000
,
00002000
00003000
00020000
00032000
,
00023000
00030000
00000020
00000030
,
00002000
00000000
00003000
00000000
00000002
00000003
00000002
00000003
,
00001000
00000010
00020000
00030000
,
00001000
00100000
00020000
00030000
,
10000000
01000000
00100000
10010000
,
00000000
00001000
00001000
00011000
,
00000000
00010000
00010000
00011000
,
00000000
00001000
00010000
00011000
,
00000000
00000000
00000000
00000000
,
00002000
00000000
00000000
00000000
,
00023000
00030200
00020300
00030200
,
00002300
00003002
00002003
00000000
,
00003001
00000100
00000110
00000000
,
00001001
00000000
00000110
00000000
,
00011000
00000000
01100000
00000000
,
10010000
00000000
10000000
00000000
,
01000000
01000000
00100000
00001000
,
00011000
00000000
00010000
00000010
,
00020000
00032000
00023000
00030200
,
00002300
00003200
00000320
00000230
,
00000310
00000001
00001000
00000100
,
00000110
00000000
00000001
00000100
,
00002000
00023000
00032000
00023000
,
00230000
02300000
03020000
20030000
,
30000000
00100000
00100000
00001000
,
00011000
00000000
00100000
00001000
,
00020000
00032000
00203000
00302000
,
00023000
00030020
00020030
00032000
,
00023000
00030200
00020300
00031000
,
00011000
00000000
00000000
00000000
;

//--------------- dance-double - Fred-104 ----------------
#NOTES:
     dance-double:
     Fred-104:
     Medium:
     8:
     :
00000000
00000000
00000000
00000000
,
00000000
00000000
00000000
00000000
,
00000000
00000000
00000000
00000000
,
00000000
00000000
00000000
00000000
,
00000000
00000000
00000000
00000000
,
00001000
00010000
00001000
00010000
00001000
00000000
01000000
00010000
,
01000000
00010000
01000000
00000000
00010000
10000000
00010000
00000000
,
10000000
01000000
00100000
00000000
00001000
00000000
00010000
00010000
,
00000000
00001000
00010000
00000010
00001000
00000010
00000100
00000001
,
00001000
00000100
00000000
00000100
,
00000000
00000100
00000000
00000100
,
00001000
00000001
00000000
00000001
,
00001000
00000100
00010000
00001000
,
00100000
00010000
00100000
00000000
00010000
10000000
00010000
00000000
,
10000000
00100000
10000000
00000000
00010000
01000000
00010000
00000000
,
00100000
00100000
00001000
00001000
,
00010000
00001000
00010000
00001000
00010000
00000000
00011000
00000000
,
00020000
00000000
00030020
00000000
00001030
00000001
00000010
00000000
,
00000100
00000000
00010000
00000000
00001000
00010000
00100000
01000000
,
00020000
20030000
30200000
00320000
,
00031000
00010000
00001000
00000000
00010000
00000000
00000010
00000000
,
00002000
00000000
00003002
00000000
00000013
00000100
00001000
00000000
,
00000100
00000000
00010000
00000000
00001000
00100000
00010000
10000000
,
00200000
00000000
02300000
00000000
03002000
00000000
00013000
00011000
,
00000000
00010000
00001000
00000100
00000010
00001000
00000001
00000000
,
00000110
00000000
00001001
00000000
00000001
00000100
00001000
00000000
,
00010000
00001000
00010000
00000000
01000000
10000000
00010000
00100000
,
02000000
03200000
00302000
00023000
,
00031000
00010000
00100000
00000000
10000000
00000000
01000000
00000000
,
01100000
00000000
00011000
00000000
00010000
00000100
00001000
00000000
,
00000001
00001000
00000100
00000000
00000010
00000001
00000100
00001000
,
00020000
00000000
02030000
00000000
03200000
00000000
01300000
01100000
,
00000000
10000000
01000000
00100000
00001000
00010000
00001000
00000000
,
00010000
00001000
00000100
00000000
00000001
00001000
00000100
00000000
,
00000010
00000001
00001000
00000000
00000010
00010000
00001000
00000000
,
00100000
00001000
00010000
00001000
00100000
00000000
00010000
01000000
,
00100000
00000000
01000000
00000000
00010000
00000000
00000000
00000000
20000000
30000000
00000000
00000000
20000000
30000000
00000000
00000000
,
01000000
00100000
00001000
00000000
00010000
00010000
00002000
00000000
,
00013000
00001000
00000100
00000000
00000001
00000001
00000020
00000000
,
00000130
00001000
00000100
00000000
00010000
00000000
00001000
00011000
,
00000000
00001000
00100000
00000000
00010000
10000000
00010000
10000000
,
00000000
01000000
00100000
00000000
00001000
00010000
00001000
00010000
,
00000000
00000010
00001000
00000000
00000001
00000100
00000001
00000100
,
00000000
00000010
00010000
00001000
00100000
00010000
10000000
00100000
,
02000000
00010000
00000000
03010000
,
20000000
32000000
03020000
00032000
,
00013000
00001000
00010000
00001000
00000000
00000200
00000000
00000302
,
00000000
00001003
00000100
00000110
,
00000001
00000100
00001000
00000000
00010000
01000000
10000000
00000000
,
10000000
00100000
00010000
00000000
00001000
00000010
00000001
00000000
,
00000001
00000100
00001000
00000000
00010000
00100000
10000000
10010000
,
00000000
00010000
10000000
02000000
03100000
00002000
00013000
00002000
,
00013000
00000000
00011000
00000000
00010000
00001000
00000010
00000100
,
00002000
00000000
00003002
00000000
00001003
00000010
00001000
00000010
,
00020000
00032000
00203000
00320000
,
10030000
01000000
10000000
01000000
00010000
00001000
00010000
00000000
,
00011000
00000000
00010100
00000000
00010000
00000100
00001000
00000000
,
00000100
00010000
00001000
00010000
00000010
00001000
00000001
00000010
,
00000200
00000000
00020300
00000000
00031000
00010000
00001000
00010000
,
00000000
00100000
01000000
00010000
10000000
01000000
00100000
00000000
,
00110000
00000000
10100000
00000000
10000000
01000000
00100000
00010000
,
00100000
00001000
00010000
00001000
00100000
00001000
00010000
00000010
,
00002000
00000000
00003002
00000000
00000103
00001000
00010000
00000000
,
00001000
00010000
01000000
00100000
00010000
10000000
00010000
00000000
,
10010000
00000000
00000000
00000000
;

//--------------- dance-double - Fred-104 ----------------
#NOTES:
     dance-double:
     Fred-104:
     Hard:
     11:
     :
00000000
00000000
00000000
00000000
,
00000000
00000000
00000000
00000000
,
00000000
00000000
00000000
00000000
,
00000000
00000000
00000000
00000000
,
00000000
00000000
00000000
00000000
,
00010000
00002000
00003010
00000002
00001003
00000100
00000010
00000002
,
00000103
00000000
00002000
00000000
00013000
00000000
00100000
00000000
01000000
00000000
00010000
00000000
10000000
01000000
00000000
00000000
,
10000000
00100000
10000000
00100000
00010000
00001000
00010000
00001000
,
00000000
00000010
00000001
00000010
00000100
00000100
00010000
00010000
,
00011000
00000000
00000000
00000000
01000000
00000000
00000000
00010000
10000000
00000000
00000000
00000000
01000000
00000000
00000000
00100000
,
00001000
00000000
00000000
00000000
00010000
00000000
00000000
00000010
00001000
00000000
00000000
00000000
00000100
00000000
00000000
00000010
,
00000001
00000000
00000000
00000000
00001000
00000000
00000000
00000001
00000010
00000000
00000000
00000000
00000100
00000000
00000000
00010000
,
00001000
00000000
00000000
00000000
00100000
00000000
00000000
00010000
10000000
00000000
00000000
00100000
01000000
00000000
00010000
00000000
,
10000000
00000000
01000000
00000000
00100000
00001000
00000000
00000000
00001000
00000000
00010000
00000000
00000010
00001000
00000000
00000000
,
00001000
00000000
00000001
00000000
00000010
00000100
00000000
00000000
00000100
00000000
00010000
00000000
00001000
00100000
00000000
00000000
,
00100000
00000000
00000000
00010000
01000000
00000000
00000000
00100000
10000000
00000000
00000000
10000000
00010000
00000000
00100000
00000000
,
00001000
00010000
00001000
00000100
00000010
00000000
00001001
00000000
,
00000001
00000010
00002000
00000000
00013000
00001000
00000100
00000010
,
00001000
00000001
00000010
00000000
00000100
00010000
00001000
00010000
,
00200000
02300000
03020000
20030000
,
30010000
00000000
10000000
00000000
01000000
00000000
00100000
00010000
00000000
00100000
00001000
00000000
00010000
00000000
00001000
00000000
,
01000000
00001000
00020000
00000000
00031000
00000100
00000010
00010000
,
00001000
00000100
00000002
00000000
00000103
00000010
00001000
00000100
,
00020000
00000000
00032000
00000000
01003000
00100000
01000000
01100000
,
00000000
00000000
00010000
00000000
10000000
00000000
01000000
00100000
01000000
00000000
00100000
00001000
00100000
00000000
00001000
00000000
,
00010000
00000000
00001000
00000000
00011000
00000000
00000000
00000000
00010000
00000000
00000100
00000000
00001000
00000001
00001000
00000000
,
00000001
00000100
00001000
00000000
00010000
00001000
00010000
01000000
,
20000000
00000000
30020000
00000000
00130000
00001000
00011000
00000000
,
00010000
00000000
00001000
00000000
00000100
00000000
00000010
00001000
00000000
00000010
00001000
00000000
00000001
00000000
00000010
00000000
,
00000100
00000000
00001000
00000000
00001001
00000000
00000000
00000000
00000001
00000000
00000100
00000000
00000010
00001000
00000010
00000000
,
00010000
00001000
00200000
00000000
00310000
10000000
01000000
00010000
,
00002000
00000000
00003200
00000000
00000310
00001000
00000001
00000010
,
00000100
00001000
00000100
00001000
00000100
00010000
00001000
00010000
,
00100000
10000000
00010000
00000000
10000000
01000000
00010000
00000000
,
00001000
00000000
00000100
00000000
00000001
00000000
00000000
00000000
00001000
00000000
00000100
00000000
00000010
00000001
00000000
00000000
,
00001000
00000002
00000103
00000002
00001003
00000100
00010000
00002000
,
01003000
00000000
00002000
00000000
00013000
00000000
00000100
00000000
00001000
00000001
00000000
00000000
00000010
00000100
00000000
00000000
,
00010000
00001000
00100000
00000000
00010000
10000000
02000000
00000000
,
13000000
00100000
00010000
00000000
00001000
00000100
00000020
00000000
,
00001030
00000001
00000010
00000100
00001000
00000100
00010000
00011000
,
00000000
00000000
00001000
00100000
00001000
00000000
00010000
00000010
00010000
00000000
00001000
00000000
00010000
00000000
00011000
00000000
,
00000000
00000000
00001000
01000000
00001000
00000000
00010000
00000100
00010000
00000000
00001000
00000000
00010000
00000000
00011000
00000000
,
00000000
00000000
00001000
00100000
00001000
00000000
00100000
00010000
00100000
00000000
00010000
10000000
00010000
10000000
00010000
10000000
,
00000000
10000000
01000000
00010000
00001000
00000100
00000001
00000000
,
00000020
00000100
00000000
00000130
,
00002000
00003002
00000023
00002030
,
00013000
00100000
01000000
00200000
00000000
20300000
00000000
30020000
,
00000000
00130000
00001000
00011000
,
00010000
00001000
00000100
00000001
00000100
00001000
00010000
00000000
,
00001000
00010000
01000000
10000000
01000000
00010000
00001000
00000000
,
00010000
00001000
00000010
00000001
00001000
00000100
00000010
00000001
,
00000000
00000000
00001000
00000000
00000001
00000000
00000100
00000010
00000100
00000000
00000001
00000000
00001000
00000000
00000100
00000000
,
00010000
00000000
00000000
00000000
00011000
00000000
00000000
00000000
00001000
00000000
00100000
00000000
00010000
10000000
00010000
00000000
,
10000000
01000000
00010000
00001000
00010000
00100000
01000000
00001000
,
00020000
00000000
00032000
00000000
00003100
00000001
00001000
00000000
,
00000001
00000000
00000010
00000000
00000100
00000000
00001000
00000100
00000000
00010000
00000100
00000000
00001000
00000000
00000001
00000000
,
00000100
00000000
00000000
00000000
00000110
00000000
00000000
00000000
00001000
00000000
00000001
00000000
00000010
00000100
00000010
00000000
,
00000100
00010000
00001000
00010000
00100000
10000000
01000000
00100000
,
00020000
00000000
00230000
00000000
00301000
00010000
00001000
00011000
,
00000000
00000000
00010000
00000010
00010000
00000000
00000010
00001000
00000010
00000000
00010000
00001000
00010000
00000000
00000100
00000000
,
00001000
00000000
00000001
00000000
00001001
00000000
00000000
00000000
00000001
00000000
00000100
00000000
00000010
00001000
00000010
00000000
,
00001000
00000001
00000010
00001000
00010000
01000000
00100000
01000000
,
20000000
00000000
32000000
00000000
03010000
00001000
00011000
00000000
,
00010000
00000000
00001000
00000000
00000010
00000000
00000100
00001000
00000000
00000001
00001000
00000000
00000010
00000000
00000100
00000000
,
00000110
00000000
00000000
00000000
;
