#TITLE:Bad Maniacs;
#ARTIST:kors k feat. teranoid;
#GENRE:INDUSTRIAL;
#BANNER:Bad Maniacs.png;
#BACKGROUND:Bad Maniacs-bg.png;
#CDTITLE:./CDTitles/bm IIDX 17 SIRIUS.png;
#MUSIC:Bad Maniacs.ogg;
#SAMPLESTART:86.152;
#SAMPLELENGTH:15;
#BPMS:0=195,115.5=97.5,116=195,173=97.5,173.25=48.75,173.5=97.5,174=195,204=97.5,208=48.75,209=97.5,209.375=48.75,209.5=97.5,210=195,214=48.75,215=195,219=48.75,220=195,251=390,251.5=195,251.75=97.5,252=195,352=390,360=195;
#STOPS:112=0.115,112.375=0.116,112.75=0.115,113.125=0.115,113.5=0.116,113.875=0.115,114.25=0.116,114.625=0.116,115=0.153,144=0.923,173=0.038,173.0625=0.039,173.125=0.038,173.1875=0.039,173.5=0.154,173.75=0.154,202=0.077,202.25=0.077,202.5=0.077,202.75=0.077,203=0.077,203.25=0.076,203.5=0.077,203.75=0.077,209=0.038,209.0625=0.039,209.125=0.038,209.1875=0.039,209.25=0.039,209.3125=0.039,209.5=0.153,209.75=0.154;
#TIMESIGNATURES:0=4=4,112=2=4,116=4=4,140=5=4,145=4=4,173=1=4,174=4=4,202=2=4,204=4=4,208=2=4,210=4=4,214=1=4,215=4=4,219=1=4,220=4=4;
#BGSTAGE:33;

//--------------- dance-single - Fred-104 ----------------
#NOTES:
     dance-single:
     Fred-104:
     Beginner:
     6:
     :
0000
0000
0000
0000
,
0000
0000
0000
0000
,
0000
0000
0000
0000
,
0001
0000
0000
0000
,
0000
0000
0000
0000
,
0000
0000
0000
0000
,
0000
0000
0000
0000
,
1000
0000
0000
0000
,
0000
0000
0000
0000
,
0001
0000
0000
0000
,
0000
0000
0000
1000
,
0000
0000
0001
0000
,
0000
0000
2002
0000
,
0000
3003
0000
0000
,
1000
0000
0001
0000
,
1000
0000
0100
0100
,
0100
0000
0010
0000
,
0001
0000
1000
1000
,
1000
0000
0001
0000
,
0100
0000
0010
0010
,
0010
0000
0100
0000
,
0001
0001
0001
0000
,
1000
0000
0001
0000
,
0100
0100
0100
0000
,
0001
0000
1000
0000
,
0010
0010
0010
0000
,
1000
0000
0001
0000
,
0010
0010
0010
0000
,
0002
0000
0000
0003
,
2000
0000
0000
0000
,
0000
0000
0000
0000
,
3002
0000
0000
0000
,
0000
0000
0000
0000
,
2003
0000
0000
0000
,
0000
0000
0000
0000
,
3002
0000
0000
0000
,
0003
1000
0000
0001
,
0000
0100
0100
0200
,
0300
0001
0000
1000
,
0000
0100
0100
0200
,
0300
0010
0000
0001
,
0000
0010
0010
0020
,
0030
0100
0000
0010
,
0000
1001
1000
0000
,
0001
0000
0100
0100
,
0110
0000
0100
0000
,
0001
0000
1000
1000
,
1001
0000
0001
0000
,
0010
0000
0001
0001
,
2002
3003
1000
0000
,
0001
0000
2002
0000
,
3003
0000
0000
0000
,
0000
0000
1000
1000
,
0001
0000
0001
0000
2000
3000
0001
0000
,
0001
0000
0100
0000
0100
0000
0020
0030
,
1010
0000
0000
0000
,
0101
0000
0000
0000
,
1100
0000
0000
0000
,
0011
0000
0000
0000
,
1001
0000
0110
0000
,
1001
0000
0110
0000
,
1000
1000
1000
1000
,
2002
0000
0000
3003
,
0002
0000
0003
0000
,
1000
0000
0001
0000
,
0200
0000
0300
0000
,
0001
0000
1000
1000
,
2000
0000
3000
0000
,
0010
0000
0100
0000
,
0002
0000
0003
0000
,
1000
0000
0100
0100
,
0100
0000
0010
0000
,
0001
0000
1000
1000
,
1000
0000
0001
0000
,
0100
0000
0010
0010
,
0010
0000
0100
0000
,
0001
0000
1000
1000
,
1000
0000
0100
0000
,
1000
1000
1000
1000
,
2002
0000
0000
0000
,
0000
0000
0000
0000
,
0000
0000
0000
0000
,
0000
0000
0000
0000
,
0000
0000
0000
0000
,
0000
0000
0000
0000
,
0000
0000
0000
0000
,
0000
0000
0000
0000
,
0000
3003
0000
0000
,
2002
0000
0000
0000
,
0000
0000
0000
0000
,
3003
0000
0000
0000
;

//--------------- dance-single - Fred-104 ----------------
#NOTES:
     dance-single:
     Fred-104:
     Easy:
     11:
     :
0000
0000
0000
0000
,
0000
0000
0000
0000
,
0000
0000
0000
0000
,
0001
0000
0000
0000
,
0000
0000
1000
0000
,
0000
0000
0000
0000
0000
0000
0000
0001
,
0000
0000
0000
0000
,
1000
0000
0000
0000
,
0001
0000
0000
0000
,
1000
0000
0000
0000
0000
0000
0000
0001
,
0000
0000
0000
1000
,
0000
0000
0001
0000
,
1000
0000
2002
0000
,
0000
3003
0000
0000
,
1000
1000
0001
0001
,
0100
0010
0110
0000
,
0100
0100
0001
0001
,
1000
0100
1000
0000
0001
0000
0100
0000
,
0001
0000
0001
0000
0010
0100
0010
0000
,
0001
1000
2002
3003
,
0001
0001
1000
1000
,
0100
0000
0100
0000
1000
0001
1000
0000
,
0001
0000
0001
0000
0100
0010
0100
0000
,
0001
1000
2002
3003
,
1000
0000
0100
0000
1000
0001
1000
0000
,
0001
0100
0220
0330
,
1000
0000
0001
0000
0100
0010
0100
0000
,
0001
1000
0001
0010
,
0200
0000
0000
0300
,
2000
0000
3002
0000
,
0203
0000
0320
0000
,
2030
0000
3002
0000
,
0023
0000
0230
0000
,
2300
0000
3002
0000
,
0103
0010
0100
0001
,
2000
0000
3002
0000
,
0003
1000
1000
0001
,
0100
0010
0100
0101
,
0000
0001
0001
1000
,
1000
0000
0010
0100
0010
0000
1001
0000
,
0000
0001
1000
0001
,
0100
0000
0001
1000
0001
0000
1001
0000
,
0000
1000
0100
0010
,
0001
0000
2000
3000
0001
0000
1000
0000
,
0001
0000
0100
0000
0010
0010
0010
0000
,
0110
0000
0001
1000
,
0100
0100
0100
0000
1000
0000
0001
0000
,
0110
0000
1000
0100
,
0010
0010
0010
0000
0001
0000
1000
0000
,
0001
0000
0010
0010
0010
0000
0001
0000
,
1000
0000
0001
0000
1000
0000
0000
0000
0002
0000
0000
0003
2000
0000
0000
3000
,
2002
0000
0000
0000
,
3003
0000
0001
0100
,
0001
1000
0100
0010
0002
0000
1003
0000
,
0001
0000
0100
0010
1000
0010
0200
0000
,
0301
0000
0100
0000
1000
0100
0001
0000
,
1000
0000
0100
0000
0001
0100
1000
0000
,
0001
0000
0010
0000
1000
0010
0001
0000
,
1000
0000
0010
0000
0001
0010
1000
0000
,
1001
0000
0110
0000
,
1001
0000
0110
0000
,
1000
1000
0001
0001
,
0200
0000
0000
0300
,
0001
0000
1000
0000
0001
0000
0100
0010
,
0100
0000
0001
0000
0010
0100
1000
0001
,
0100
0000
0010
0000
0100
0000
0001
1000
,
0001
0000
1001
0000
1000
0100
0010
0001
,
1000
0000
0001
0000
0100
0000
0010
1000
,
0010
0000
0100
0000
0001
0010
0001
1000
,
0010
0000
0100
0000
0001
0000
1000
0100
,
0010
0000
0011
0000
0001
1000
0001
0000
,
0101
1001
0101
1001
,
1100
0000
0110
0000
0001
1000
0001
0000
,
0011
1001
1010
1001
,
0110
0000
1001
0000
0001
1000
0100
0000
,
1100
1001
0101
1001
,
1100
0000
0110
0000
0001
1000
0001
0000
,
0110
1001
0110
1001
,
0001
0010
0100
1000
0001
0100
0010
0000
,
2002
0000
0000
0000
,
0000
0000
0000
0000
,
0000
0000
0000
0000
,
0000
0000
0000
0000
,
0000
0000
0000
0000
,
0000
0000
0000
0000
,
0000
0000
0000
0000
,
0000
0000
0000
0000
,
0000
3003
0000
0000
,
2002
0000
0000
0000
,
0000
0000
0000
0000
,
3003
0000
0000
0000
;

//--------------- dance-single - Fred-104 ----------------
#NOTES:
     dance-single:
     Fred-104:
     Medium:
     14:
     :
0000
0000
0000
0000
,
0000
0000
0000
0000
,
0000
0000
0000
0000
,
0001
0000
0000
0000
,
0000
0000
1000
0000
,
0000
0000
0000
0000
0000
0000
0000
0001
,
0000
0000
0000
0000
,
1000
0000
0000
0000
,
0001
0000
0000
0000
,
1000
0000
0000
0000
0000
0000
0000
0001
,
0000
0000
0000
1000
,
0000
0000
0001
0000
,
1000
0000
2002
0000
,
0000
3003
0000
0000
,
1100
1100
0110
0110
,
1100
0000
1100
0000
0100
0010
0001
0000
,
0101
0101
0110
0110
,
0100
0001
1000
0001
0100
0010
1000
0000
,
1010
1010
0101
0101
,
1100
0000
0011
0000
1001
0000
0001
1000
,
0100
0110
0011
0110
,
0100
1000
0001
0100
0010
1000
0002
0003
,
0010
0001
1000
0001
0100
0010
0100
0000
,
0001
0100
0010
1000
0001
0010
0100
0000
,
1000
0001
0100
0010
1010
0000
0101
0000
,
1100
0000
0001
1000
0001
0100
0220
0330
,
1000
1000
1000
0001
0100
0010
0100
0000
,
0001
1000
0010
0000
0100
0000
0001
1000
,
0001
0000
0000
0001
0000
0000
1000
0000
0000
1000
0000
0000
0010
0000
0000
0010
0000
0000
0100
0000
0000
0100
0000
0000
1001
0000
0000
0000
0000
0000
0000
0000
,
2000
0000
3002
0000
,
0103
0010
0100
0001
,
2000
0000
3200
0000
,
0310
0001
1000
0010
,
0100
0001
1000
0000
0100
0010
0001
0000
,
1000
0001
0010
0000
0100
1000
0001
0000
,
0100
0010
1000
0000
0001
0010
0100
1000
,
0000
0000
0001
0100
0001
1000
0001
0000
,
0110
0000
1000
0100
1000
0000
1010
0000
,
1001
0000
0001
0100
0010
1000
0001
0010
,
0100
1000
0001
0100
0001
0100
0001
0000
,
1000
0100
1000
0001
0100
0010
1000
0010
,
0100
0101
1100
0101
,
0001
1000
0001
0100
0010
1000
0010
0100
,
0001
0000
1000
0000
0200
0000
0310
0010
0001
0000
1000
0000
0001
0000
0100
0000
,
0001
1000
0001
0010
0100
1000
0001
0100
,
0110
0000
1001
0000
1000
0100
1000
0001
,
0100
0100
0100
0100
0001
0010
0100
0000
,
1000
0100
0001
0100
1000
0001
0100
0010
,
1000
0010
0100
0001
1000
0100
0010
0001
,
1000
0001
0101
0000
0100
0010
1000
0001
,
0010
0000
0010
0000
0100
0000
0100
0000
1000
0010
1000
0010
0100
0001
0100
0001
,
2002
0000
0000
0000
,
3003
0000
0000
0000
1000
0001
0100
0000
,
0010
0000
1000
0000
0001
1000
0001
1000
0002
0000
0000
0000
1003
0000
0100
0000
,
0010
0000
0000
0000
0001
0000
1000
0000
0010
0100
0010
0100
0002
0000
0000
0000
,
1003
0100
0001
0100
1000
0100
0001
0000
,
0001
0100
1000
0100
0001
0100
1000
0000
,
1000
0010
0001
0010
1000
0010
0001
0000
,
0001
0010
1000
0010
0001
0010
1000
0000
,
1000
0010
0001
0000
0001
0010
1000
0000
,
1000
0100
0001
0000
0001
0100
1000
0000
,
0001
0000
0000
0100
0000
0000
0010
0000
0000
1000
0000
0000
0001
0000
0010
0000
0100
0000
1000
0000
0001
0000
0100
0000
,
0020
0000
0200
0330
,
0001
1000
0010
0000
0100
0001
1000
0100
,
0010
1000
0010
0100
1000
0001
0100
0000
,
0010
1000
0001
0000
1000
0001
0010
0100
,
0010
0000
0001
1000
0100
0100
0001
0010
,
0100
1000
0001
0000
0100
0000
0010
1000
,
0001
1000
0100
1000
0001
0100
0010
1000
,
0001
0010
0100
0000
1000
0000
0001
0100
,
0010
1000
0100
0010
0001
1000
0001
0000
,
1100
0000
1001
0000
1100
0000
1000
0001
,
0100
0001
1000
0001
0010
0100
1000
0000
,
1010
0000
1001
0000
1010
0000
1000
0001
,
0100
0010
1000
0010
0100
0001
1000
0100
,
0110
0000
1100
0000
0110
0000
1000
0001
,
0010
0001
1000
0001
0100
0010
0100
0001
,
0011
0000
1010
0000
0011
0000
0001
0100
,
0010
1000
0100
0010
0001
0100
0010
1000
,
2002
0000
0000
0000
,
0000
0000
0000
0000
,
0000
0000
0000
0000
,
0000
0000
0000
0000
,
0000
0000
0000
0000
,
0000
0000
0000
0000
,
0000
0000
0000
0000
,
0000
0000
0000
0000
,
0000
3003
0000
0000
,
2002
0000
0000
0000
,
0000
0000
0000
0000
,
3003
0000
0000
0000
;

//--------------- dance-single - Fred-104 ----------------
#NOTES:
     dance-single:
     Fred-104:
     Hard:
     18:
     :
0000
0000
0000
0000
,
0000
0000
0000
0000
,
0000
0000
0000
0000
,
0001
0000
0000
0000
,
0000
0000
1000
0000
,
0000
0000
0000
0000
0000
0000
0000
0001
,
0000
0000
0000
0000
,
1000
0000
0000
0000
,
0001
0000
0000
0000
,
1000
0000
0000
0000
0000
0000
0000
0001
,
0000
0000
0000
1000
,
0000
0000
0001
0000
,
1000
0000
2002
0000
,
0000
3003
0000
0000
,
1100
0110
1100
0110
,
1010
0000
0000
0000
0101
0000
0000
0000
1100
0000
1000
0000
0001
0100
0010
0100
,
0110
1010
0101
1001
,
0011
0000
0000
0000
0001
0000
0100
0000
0010
0000
1000
0000
0001
0010
0100
0010
,
0011
1010
0101
1100
,
0110
0000
0000
0000
1001
0000
0001
0000
0100
0000
0010
0000
1000
0010
1000
0010
,
0110
1010
0101
1001
,
1200
0000
0310
0000
0001
0000
1000
0000
1002
0000
0103
0000
0001
0100
0010
1000
,
0001
0000
0010
0000
0100
0000
1000
0001
0100
0000
0001
1000
0010
0000
0100
0000
,
0110
0000
0010
1000
0001
0000
1000
0100
0010
0000
0001
0000
0011
0000
0000
0000
,
0110
0000
0110
0000
0110
0000
0001
1000
0010
0000
1100
0000
0100
0000
0110
0000
,
0011
0000
0001
0000
0101
0000
0001
0000
1010
0000
0101
0000
2002
0000
0000
3003
,
1100
0000
1000
0010
0100
0000
0010
1000
0001
0000
0100
0001
0010
0000
0001
0000
,
0101
0000
0100
0000
0110
0000
0010
0000
1010
0000
0000
0000
1000
0100
0010
0001
,
1000
0000
0000
0100
0000
0000
0001
0000
0000
0010
0000
0000
1000
0000
0000
0100
0000
0000
0001
0000
0000
0010
0000
0000
1001
0000
0000
0000
0002
0000
2003
0000
,
3001
0010
0100
1000
0001
0000
0100
0000
0010
1000
0100
0000
1000
0001
0100
0001
,
1000
0100
0020
0000
0032
0000
2003
0000
,
3001
1000
0010
0100
0001
0000
1000
0000
0010
1000
0100
0000
1000
0001
0010
0001
,
0100
0010
0200
0000
0302
0000
2003
0000
,
3001
0010
0100
0010
0001
0000
1000
0000
0010
0100
1000
0000
0100
0010
1000
0100
,
0010
0100
2000
0000
3200
0000
0320
0000
,
0031
0100
0010
0001
0010
0000
0100
0000
0001
0010
0100
0000
1000
0001
0100
0010
,
0000
0000
0000
0000
1000
0001
0100
0010
1000
0000
0100
0000
0010
0001
1000
0000
,
0001
0100
0010
0100
0001
0000
0010
0000
0210
0000
0000
0000
1000
0000
0000
0000
,
0001
0000
0000
0000
1300
0001
0010
0001
0100
0000
0010
0000
1000
0001
0010
0000
,
0100
0010
0001
1000
0010
0000
0100
0000
0101
0000
0100
0000
0110
0000
0000
0000
,
0010
0000
1000
0000
0001
0010
0100
0010
0001
0000
0100
0000
0010
1000
0100
0000
,
1000
0001
0010
0001
0100
0000
0010
0000
1020
0000
0000
0000
0001
0000
0000
0000
,
1000
0000
0000
0000
0031
0100
0010
0100
1000
0000
0100
0000
0010
1000
0001
0000
,
1000
0000
0000
0000
0100
0000
0000
0000
0010
0000
0000
0000
0001
0000
0000
0000
1000
0000
0001
0000
2000
0000
0000
0000
3002
0003
0000
0000
2002
3003
0000
0000
1100
0000
0000
0000
0000
0000
0000
0000
0100
0000
0000
0000
0000
0000
0000
0000
0010
0000
0000
0000
0000
0000
0000
0000
0001
0000
0000
0000
0000
0000
0000
0000
,
0101
0100
0110
0010
2010
3100
1020
0130
,
2010
3001
1001
0000
0011
0001
0100
0010
,
1010
1000
1001
0001
0101
0001
0012
0000
,
0013
0001
1000
0100
0110
0010
0001
1000
,
2100
3010
0102
0013
2001
3100
1002
0013
,
2001
3100
0220
0330
0011
0001
1000
0010
,
0100
0000
0000
0000
0001
0000
0000
0000
0100
0000
0000
0000
0001
0000
0000
0000
1000
0000
0000
0000
0010
0000
0000
0000
1000
0000
0000
0000
0010
0000
0000
0000
2000
3000
0000
0000
0200
0300
0000
0000
0002
0003
0000
0000
0200
0300
0000
0000
2000
3000
0000
0000
0020
0030
0000
0000
0002
0003
0000
0000
0020
0030
0000
0000
,
2002
0000
0000
0000
,
0000
0000
0000
0000
0000
0000
0000
0000
0000
0000
0000
0000
3003
0000
0000
0000
0002
0000
0000
0000
0000
0000
0000
0003
0220
0330
0000
0000
2002
3003
0000
0000
1100
0000
0000
0000
0000
0000
0000
0000
0100
0000
0000
0000
0000
0000
0000
0000
0010
0000
0000
0000
0000
0000
0000
0000
0000
0000
0000
0000
0000
0000
0000
0000
,
0001
0000
0000
0000
0100
0000
0000
0000
0001
0000
0000
0000
0000
0000
0000
0000
1000
0000
0000
0000
0010
0000
0000
0000
0100
0000
0000
0000
0001
0000
0000
0000
2000
0000
0000
0000
0000
0000
0000
0000
0000
0000
0000
0000
0000
0000
0000
3000
1010
0000
0000
0000
0000
0000
0000
0000
0010
0000
0000
0000
0000
0000
0000
0000
,
0100
0000
0000
0000
0001
0010
0001
0000
1000
0100
0010
0001
2000
0000
0000
0000
,
3001
0100
0001
0100
0010
0000
1000
0100
0010
0001
1000
0000
0010
0100
0001
1000
,
0100
1000
0100
1000
0001
0000
0100
0001
1000
0001
0010
0000
0100
0010
0001
1000
,
0010
0100
0001
0010
0100
0000
0010
0001
1000
0010
0100
0000
0001
0010
0100
1000
,
0010
0100
0010
1000
0001
0000
0010
0100
1000
0001
0010
0000
0001
1000
0010
1000
,
0001
0100
0001
0000
1000
0100
1000
0000
0001
0010
0001
0000
1000
0010
1000
0000
,
0001
0010
0100
0000
1000
0010
0100
0000
0001
0100
0010
0000
1000
0100
0010
0000
,
0001
0000
0000
0101
0000
0000
1000
0000
0000
1010
0000
0000
0001
0000
0010
0000
0100
0000
1000
0000
0100
0000
0010
0000
,
0002
0000
0000
0000
0000
0000
0000
0000
0000
0000
0000
0000
2000
0000
0000
3003
,
1000
0000
0010
0000
0110
0000
0000
0000
0100
0000
0001
0000
1000
0001
0010
0100
,
1000
0001
0100
0001
1000
0001
0010
0100
0010
0001
1000
0010
0100
0001
1000
0000
,
0001
0000
0100
0000
0101
0000
0000
0000
0100
0000
0010
0000
1000
0001
0010
0100
,
1000
0000
0000
0000
0000
0000
0000
0000
0000
0000
0000
0000
1100
0000
0000
0000
0000
0000
0001
0000
1000
0000
0001
0000
0100
0000
0000
0010
0000
0000
1000
0000
0000
0001
0000
0000
0010
0000
0000
0000
0000
0000
0100
0000
1000
0000
0001
0000
,
1000
0000
0001
0000
0101
0000
0000
0000
0001
0000
1000
0000
0100
1000
0001
1000
,
0100
0010
0001
1000
0010
0100
0001
0100
0010
1000
0001
0010
0100
1000
0001
0000
,
0100
0000
0010
0000
1010
0000
0000
0000
0001
0000
1000
0000
0010
0100
0001
1000
,
0100
0000
0110
0000
0010
0000
0011
0000
0001
0010
0100
1000
0001
0100
0010
0000
,
1000
0001
0100
0000
0010
0000
1000
0000
0100
0000
0010
0000
0001
0010
0100
1000
,
0010
1000
0100
1000
0001
0100
0010
1000
0100
1000
0001
0100
0010
0100
0001
0000
,
1000
0001
0010
0000
0100
0000
0010
0000
0001
0000
1000
0000
0001
1000
0100
1000
,
0001
0010
0100
1000
0010
0100
0010
1000
0001
0010
0100
0010
0001
1000
0010
0000
,
1000
0100
0010
0000
0100
0000
1000
0000
0001
0000
0100
0000
0001
0010
0100
1000
,
0001
1000
0010
1000
0100
0010
0001
0100
0001
0010
0100
1000
0010
1000
0001
0000
,
1000
0001
0010
0000
0001
0000
0100
0000
0010
0000
1000
0000
0001
0100
0010
1000
,
0100
1000
0010
0100
0001
0010
0001
0100
0010
1000
0100
1000
0010
0100
0001
2000
,
0002
0000
0000
0000
,
0000
0000
0000
0000
,
0000
0000
0000
0000
,
0000
0000
0000
0000
,
0000
0000
0000
0000
,
0000
0000
0000
0000
,
0000
0000
0000
0000
,
0000
0000
0000
0000
,
0000
3003
0000
0000
,
0001
1000
0001
1000
0001
1000
0001
1000
,
0001
1000
0001
1000
0001
1000
0001
1000
,
0001
0000
0000
0000
;

//--------------- dance-single - Fred-104 as †mad_centurion† ----------------
#NOTES:
     dance-single:
     Fred-104 as †mad_centurion†:
     Challenge:
     19:
     :
0000
0000
0000
0000
,
0000
0000
0000
0000
,
0000
0000
0000
0000
,
1000
0000
0000
0000
0000
0000
0000
0000
0000
0000
0000
0000
0000
0000
0000
0000
0000
0000
0000
0000
0000
0000
0000
0000
0000
0000
0000
0000
0000
0000
0000
0000
0000
0000
0100
0000
0000
0000
0000
0000
0000
0000
0000
0000
0000
0000
0000
0000
0000
0000
0000
0000
0000
0000
0000
0000
0000
0000
0000
0000
0000
0000
0000
0000
0000
0000
0000
0000
0000
0010
0000
0000
0000
0000
0000
0000
0000
0000
0000
0000
0000
0000
0000
0000
0000
0000
0000
0000
0000
0000
0000
0000
0000
0000
0000
0000
0000
0000
0000
0000
0000
0001
0000
0000
0000
0000
0000
0000
0000
0000
0000
0000
0000
0000
0000
0000
0000
0000
0000
0000
0000
0000
0000
0000
0000
0000
0000
0000
0000
0000
0000
0000
0000
0000
0000
0000
0000
0000
0000
0000
0000
0000
0000
0000
0000
0000
0000
0000
0000
0000
0000
0000
0000
0000
0000
0000
0000
0000
0000
0000
0000
0000
0000
0000
0000
0000
0000
0000
0000
0000
0000
0000
0000
0000
0000
0000
0000
0000
0000
0000
0000
0000
0000
0000
0000
0000
0000
0000
0000
0000
0000
0000
,
0000
0000
0000
0000
0000
0000
0000
0000
0000
0000
0000
0000
0000
0001
0000
0000
0000
0000
0000
0000
0000
0100
0000
0000
0000
0000
0010
0000
0000
0000
0000
0000
,
0000
0000
0000
0000
0000
0000
0000
0000
0000
0000
0000
0000
0000
0000
0000
0000
0000
0000
0000
0000
0000
0000
0000
0000
0000
0000
0000
0000
0000
0000
0000
0000
0000
0000
0000
0000
0000
0000
0000
0000
0000
0000
0000
0000
0000
0000
0000
0000
1000
0000
0000
0000
0000
0000
0000
0000
0000
0000
0000
0000
0000
0000
0000
0000
0000
0000
0000
0000
0000
0000
0000
0000
0000
0000
0000
0000
0000
0000
0001
0000
0000
0000
0000
0000
0000
0000
0000
0000
0000
0000
0000
0000
0000
0000
0000
0000
0000
0000
0000
0000
0000
0000
0000
0000
0000
0000
0000
0000
0000
0000
0000
0000
0000
0000
0000
0000
0000
0000
0000
0000
0000
0000
0000
0010
0000
0000
0000
0000
0000
0000
0000
0000
0000
0000
0000
0000
0000
0000
0000
0000
0000
0000
0000
0000
0000
0000
0000
0000
0100
0000
0000
0000
0000
0000
0000
0000
0000
0000
0000
0000
0000
0000
0000
0000
0000
0000
0000
0000
0000
0000
0000
0000
0000
0000
0000
0000
0000
0000
0000
0000
0000
0000
0000
0000
0000
0000
0000
0000
0000
0000
0000
0000
,
0000
0000
0000
0000
0000
0000
0000
0000
0000
0000
0000
0000
0000
0000
0000
0000
0000
0000
0000
0000
0000
0000
0000
0000
0000
0000
0000
0000
0000
0000
0000
0000
1000
0000
0000
0000
0000
0000
0000
0000
0000
0000
0000
0000
0000
0000
0000
0000
0000
0000
0000
0000
0000
0000
0000
0000
0000
0000
0000
0000
0000
0000
0000
0000
0000
0000
0000
0000
0000
0000
0000
0000
0001
0000
0000
0000
0000
0000
0000
0000
0000
0000
0000
0000
0000
0000
0000
0000
0000
0000
0000
0000
0000
0000
0000
0000
0000
0000
0000
0000
0000
0000
0000
0000
0000
0100
0000
0000
0000
0000
0000
0000
0000
0000
0000
0000
0000
0000
0000
0000
0000
0000
0000
0000
0000
0000
0000
0000
0000
0000
0000
0000
0000
0000
0000
0000
0000
0000
0000
0000
0000
0000
0000
0000
0000
0000
0000
0010
0000
0000
0000
0000
0000
0000
0000
0000
0000
0000
0000
0000
0000
0000
0000
0000
0000
0000
0000
0000
0000
0000
0000
0000
0000
0000
0000
0000
0000
0000
0000
0000
0100
0000
0000
0000
0000
0000
0000
0000
0000
0000
0000
0000
,
0000
0000
0000
0000
0000
0000
0000
0000
0000
0000
0000
0000
0000
0000
0000
0000
0000
0000
0000
0000
0000
0000
0000
0000
0000
0000
0000
0000
0000
0000
0000
0000
0000
0000
0001
0000
0000
0000
0000
0000
0000
0000
0000
0000
0000
0000
0000
0000
0000
0000
0000
0000
0000
0000
0000
0000
0000
0000
0000
0000
0000
0000
0000
0000
0000
0000
0000
0000
0000
0000
0000
0000
0000
0000
0000
1000
0000
0000
0000
0000
0000
0000
0000
0000
0000
0000
0000
0000
0000
0000
0000
0000
0000
0000
0000
0000
0000
0000
0000
0000
0000
0000
0000
0000
0000
0000
0000
0000
0000
0000
0000
0000
0000
0000
0000
0000
0000
0100
0000
0000
0000
0000
0000
0000
0000
0000
0000
0000
0000
0000
0000
0000
0000
0000
0000
0000
0000
0000
0000
0000
0000
0000
0000
0000
0000
0000
0000
0000
0000
0000
0000
0000
0000
0000
0000
0000
0000
0000
0010
0000
0000
0000
0000
0000
0000
0000
0000
0000
0000
0000
0000
0000
0000
0000
0000
0000
0000
0000
0000
0000
0000
0000
0000
0000
0000
0000
0000
0000
0000
0000
0000
0000
,
0000
0000
0000
0000
0000
0000
0000
0000
0000
0000
0000
0000
0000
0000
0000
0000
0000
0000
0000
0000
0000
0000
0000
0000
0000
0000
0000
0000
0001
0000
0000
0000
0000
0000
0000
0000
0000
0000
0000
0000
0000
0000
0000
0000
0000
0000
0000
0000
0000
0000
0000
0000
0100
0000
0000
0000
0000
0000
0000
0000
0000
0000
0000
0000
0000
0000
0000
0000
0000
0000
0000
0000
0000
0000
0000
0000
0000
0000
0000
0000
0000
0000
0000
0000
0000
0000
0000
0000
0000
0000
0010
0000
0000
0000
0000
0000
0000
0000
0000
0000
0000
0000
0000
0000
0000
0000
0000
0000
0000
0000
0000
0000
0000
0000
0000
0000
0000
0000
0000
0000
0000
0000
0000
0000
0000
0000
0000
0000
0000
0000
0000
0000
0000
0000
0000
0000
0000
0000
0000
0000
0000
1000
0000
0000
0000
0000
0000
0000
0000
0000
0000
0000
0000
0000
0000
0000
0000
0000
0000
0000
0000
0000
0000
0000
0000
0000
0000
0000
0000
0000
0000
0000
0000
0000
0000
0000
0000
0000
0000
0000
0000
0000
0000
0000
0000
0000
0000
0000
0000
0000
0000
0000
,
0000
0000
0000
0000
0000
0000
0000
0001
0000
0000
0000
0000
0000
0100
0000
0000
0000
0000
0000
1000
0000
0000
0000
0000
0000
0100
0000
0000
0000
0000
0000
0002
,
0000
0000
0000
1003
,
0000
0000
0001
0000
,
1000
0000
0000
0000
0000
0000
0000
0001
0000
0000
0000
0000
0000
0000
0000
0000
0000
0000
0000
0000
0000
0000
0000
0000
2002
0000
0000
0000
0000
0000
0000
0000
0000
0000
0000
0000
0000
0000
0000
0000
0000
0000
0000
0000
0000
0000
0000
0000
,
0000
0000
0000
0000
3003
0000
0000
0000
0000
0000
0000
0000
1000
0001
1000
0001
,
1001
0000
0000
0000
1100
0000
0100
0010
0001
0000
0000
0000
1100
0000
0000
0000
,
1010
0000
0000
0000
0101
0000
0100
0010
1000
0000
0001
0000
0010
0100
1000
0001
,
0011
0000
0000
0000
1010
0000
0001
1000
0100
0000
0000
0000
0110
0000
0000
0000
,
0011
0000
0000
0000
0000
0000
1001
0000
0000
0110
0000
0000
1010
0000
0000
1100
0000
0000
1000
0100
0010
0001
0010
0100
,
1000
0000
0000
0000
0110
0000
0010
1000
0100
0000
0000
0000
0110
0000
0000
0000
,
0011
0000
0000
0000
1010
0000
0001
1000
0010
0000
0100
0000
0001
0100
0010
1000
,
1010
0000
0000
0000
1100
0000
0100
0010
0001
0000
0000
0000
0011
0000
0000
0000
,
0101
0000
0000
0010
0000
0000
1000
0000
0000
0100
0000
0000
0110
0000
0000
0001
0000
0000
1000
0010
0100
0001
0100
0010
,
1000
0000
0010
1000
0001
0000
0100
0001
0010
0000
0001
0000
0101
0000
0100
0000
,
0110
0000
0010
1000
0001
0000
1000
0100
0010
0000
0001
0000
0101
0000
0000
0000
,
1010
0000
0101
0000
1001
0000
1000
0100
0010
0000
0011
0000
1100
0000
0110
0000
,
0011
0000
1010
0000
0110
0000
0101
0000
1001
0000
0110
0000
2002
0000
0000
3003
,
1010
0000
1000
0100
0001
0000
1000
0010
0001
1000
0100
0010
0001
0000
0100
0000
,
0110
0000
0010
1000
0100
0000
0110
0000
0011
0000
0000
0000
0001
0100
0010
1000
,
1100
0000
0000
0101
0000
0000
0011
0000
0000
1010
0000
0000
1100
0000
0000
0101
0000
0000
0011
0000
0000
1010
0000
0000
1001
0000
0000
0000
1000
0001
1000
0000
,
0001
0100
0001
0100
0010
0000
0001
0000
0010
0100
0001
0000
1000
0100
0010
0001
,
1000
0010
0002
0000
0023
0000
0230
0000
,
0301
1000
0100
1000
0100
0000
0010
0000
1000
0010
0100
0000
1000
0001
0100
0010
,
1000
0100
0002
0000
0203
0000
0320
0000
,
0031
0100
1000
0100
0001
0000
0010
0000
0100
0001
0100
0000
0010
0001
1000
0010
,
0100
1000
0200
0000
0302
0000
2003
0000
,
3001
0010
1000
0010
0001
0000
0010
0000
0100
0001
0100
0000
0010
0001
1000
0010
,
0000
0000
0000
0000
1000
0001
0100
0010
1000
0100
1000
0000
0001
0010
0100
0000
,
1000
0001
0100
0010
1000
0000
0100
0000
0120
0000
0000
0000
0032
0000
0000
0000
,
2003
0000
0000
0000
3001
0100
0010
0100
0001
1000
0100
0000
0010
0001
1000
0000
,
0010
1000
0001
1000
1100
0000
0100
0000
0110
0000
0010
0000
0011
0000
0000
0000
,
1010
0000
0101
0000
1000
0100
0010
0001
1000
0001
1000
0000
0100
0010
0001
0000
,
1000
0010
0100
0010
1010
0000
1000
0000
1200
0000
0000
0000
0320
0000
0000
0000
,
0130
0000
1000
0000
0001
0100
0010
1000
0001
0000
1000
0000
0100
0010
0001
0000
,
0100
0000
0000
0000
0001
0000
0000
0000
0010
0000
0000
0000
0001
0000
0000
0000
1000
0001
1000
0001
2000
0000
0000
3000
0220
0330
0000
0000
2002
3003
0000
0000
1100
0000
0000
0000
0000
0000
0000
0000
1000
0000
0000
0000
0001
0000
0000
0000
0010
0000
0000
0000
0000
0000
0000
0000
0100
0000
0000
0000
0000
0000
0000
0000
,
1100
1000
1010
1000
1001
0001
0011
0001
,
0101
0000
0110
0000
1010
0000
0000
0000
1001
0000
0001
1000
0010
0000
0100
0000
,
0101
0100
0110
0100
1001
0001
0200
0000
,
0301
0000
1000
0000
0100
0000
0010
0000
0110
0000
0100
1000
0001
0000
0100
0000
,
0001
0010
0100
0000
0010
0001
0100
0000
0010
1000
0100
0000
1000
0100
0010
0000
,
0100
1000
0001
1000
0010
0000
0100
0000
0101
0000
0100
0000
0010
1000
0001
0000
,
1000
0000
0000
0000
0100
0000
0000
0000
0010
0000
0000
0000
0001
0000
0000
0000
0010
0000
0000
0000
0100
0000
0000
0000
1000
0000
0000
0000
0001
0000
0000
0000
2000
3000
0000
0000
0020
0030
0000
0000
0200
0300
0000
0000
2000
3000
0000
0000
0002
0003
0000
0000
0020
0030
0000
0000
2000
3000
0000
0000
0002
0003
0000
0000
,
2002
0000
0000
0000
,
0000
0000
0000
0000
0000
0000
0000
0000
0000
0000
0000
0000
3003
0000
0000
0000
0001
1000
0001
1000
0001
1000
0001
0000
0022
0033
0000
0000
2200
3300
0000
0000
1001
0000
0000
0000
0000
0000
0000
0000
1000
0000
0000
0000
0000
0000
0000
0000
0100
0000
0000
0000
0000
0000
0000
0000
0000
0000
0000
0000
0000
0000
0000
0000
,
1000
0000
0000
0000
0010
0000
0000
0000
1000
0000
0000
0000
0010
0000
0000
0000
1000
0000
0000
0000
0001
0000
0000
0000
0100
0000
0000
0000
0010
0000
0000
0000
2000
0000
0000
0000
0000
0000
0000
0000
0002
0000
0000
0000
0000
0000
0000
3003
1001
0000
0000
0000
0000
0000
0000
0000
0001
0000
0000
0000
0000
0000
0000
0000
,
0100
0000
0000
0000
0000
0000
0000
0000
0000
0000
0000
0000
0000
0000
0000
0000
0001
0000
0000
0000
0010
0000
0000
0000
0001
0000
0000
0000
0010
0000
0000
0000
0001
0000
0000
0000
1000
0000
0000
0000
0100
0000
0000
0000
0010
0000
0000
0000
0002
0000
0000
0000
0000
0000
0000
0000
2000
0000
0000
0000
0000
0000
0000
3003
,
1000
0010
0100
0010
1000
0000
0010
0100
1000
0100
0010
1000
0100
0010
0100
1000
,
0001
0100
0010
0100
0001
0000
0100
0010
0001
0010
0100
0001
0010
0100
0010
0001
,
1000
0100
0010
0100
1000
0000
0100
0010
1000
0010
0100
1000
0010
0100
0010
1000
,
0001
0010
0100
0010
0001
0000
0010
0100
0001
0100
0010
0001
0100
0010
0100
0001
,
1000
0100
0010
0001
0010
0100
1000
0000
0001
0100
0010
1000
0010
0100
0001
0000
,
1000
0010
0100
0001
0100
0010
1000
0000
0001
0010
0100
1000
0100
0010
0001
0000
,
2100
0000
0000
3010
0000
0000
0102
0000
0000
0013
0000
0000
1000
0000
0100
0000
0010
0000
0001
0000
0100
0000
0010
0000
,
1000
0001
0010
0100
1000
0010
0100
0001
0100
0010
1000
0001
2000
0000
0000
0000
,
3001
0010
0100
0000
0010
0000
0001
0000
1000
0000
0001
0000
1000
0010
0100
0001
,
1000
0100
0010
1000
0010
0100
1000
0010
0100
1000
0100
0010
1000
0001
0100
0001
,
1000
0001
0010
0000
0001
0000
1000
0000
0010
0000
0100
0000
0001
0100
0010
1000
,
0001
0000
0000
0100
0000
0000
0010
0000
0000
0001
0000
0000
0010
0000
0000
0100
0000
0000
0001
0000
1000
0000
0100
0000
1000
0000
0000
0001
0000
0000
0100
0000
0000
0001
0000
0000
1000
0000
0000
0100
0000
0000
0010
0000
0001
0000
1000
0000
,
0001
1000
0010
0000
0100
0000
0001
0000
1000
0000
0001
0000
0100
0010
0100
0001
,
1000
0010
0100
1000
0100
0010
1000
0100
0010
1000
0010
0100
1000
0001
0010
0001
,
1000
0001
0100
0000
0001
0000
1000
0000
0001
0000
0010
0000
0100
1000
0001
0010
,
0110
0000
0100
0000
1100
0000
1000
0001
0100
0001
1000
0100
1000
0010
0100
0001
,
1000
0001
0100
0000
1000
0000
0100
0000
0010
1000
0100
0000
0010
0001
1000
0001
,
1000
0100
0010
0100
0001
0100
1000
0001
0100
0010
0100
1000
0100
0001
1000
0100
,
0010
0001
0100
0000
0010
0000
0001
0000
0010
1000
0001
0000
0010
0100
1000
0001
,
0100
1000
0100
0010
1000
0100
0001
0100
0010
0001
1000
0010
0100
0001
0010
0100
,
0010
0001
1000
0000
0001
1000
0010
0000
0100
0001
1000
0000
0001
0100
0010
0100
,
1000
0100
0010
1000
0100
0010
0100
0001
0100
0010
0001
1000
0010
0001
0010
0100
,
0001
0100
0010
0000
0100
0010
1000
0000
0010
1000
0001
0000
0100
0001
1000
0010
,
0100
0000
0000
0001
0000
0000
0100
0000
0000
0010
0000
0000
1000
0000
0000
0100
0000
0000
0010
0000
0000
0001
0000
0000
0010
0000
0000
0100
0000
0000
1000
0000
0000
0010
0000
0000
0100
0000
0001
0000
0010
0000
0100
0000
1000
0000
0002
0000
,
2000
0000
0000
0000
,
0000
0000
0000
0000
,
0000
0000
0000
0000
,
0000
0000
0000
0000
,
0000
0000
0000
0000
,
0000
0000
0000
0000
,
0000
0000
0000
0000
,
0000
0000
0000
0000
,
0000
3003
0000
0000
,
1000
0001
1000
0001
1000
0001
1000
0001
,
1000
0001
1000
0001
1000
0001
1000
0001
,
1000
0000
0000
0000
;

//--------------- dance-double - Fred-104 ----------------
#NOTES:
     dance-double:
     Fred-104:
     Easy:
     12:
     :
00000000
00000000
00000000
00000000
,
00000000
00000000
00000000
00000000
,
00000000
00000000
00000000
00000000
,
00001000
00000000
00000000
00000000
,
00000000
00000000
00010000
00000000
,
00000000
00000000
00000000
00000000
00000000
00000000
00000000
00001000
,
00000000
00000000
00000000
00000000
,
00010000
00000000
00000000
00000000
,
00001000
00000000
00000000
00000000
,
00010000
00000000
00000000
00000000
00000000
00000000
00000000
00001000
,
00000000
00000000
00000000
00010000
,
00000000
00000000
00001000
00000000
,
00010000
00000000
00022000
00000000
,
00000000
00033000
00000000
00000000
,
00010000
00010000
00001000
00001000
,
00010000
00000100
00001100
00000000
,
00001000
00001000
00000001
00000001
,
00000100
00000010
00000100
00000000
00000001
00000000
00001000
00000000
,
00000100
00000000
00000100
00000000
00010000
00001000
00010000
00000000
,
00001000
01000000
02200000
03300000
,
00010000
00010000
10000000
10000000
,
01000000
00000000
01000000
00000000
00100000
00010000
00100000
00000000
,
00001000
00000000
00001000
00000000
00010000
00000010
00010000
00000000
,
00001000
00010000
00022000
00033000
,
00010000
00000000
00001000
00000000
00000010
00000100
00000010
00000000
,
00000001
00001000
00002002
00003003
,
00000001
00000000
00000100
00000000
00001000
00010000
00001000
00000000
,
00010000
00001000
00000100
00000001
,
00002000
00000000
00000000
00003000
,
00000002
00000000
00000023
00000000
,
00000230
00000000
00020300
00000000
,
00032000
00000000
00203000
00000000
,
00302000
00000000
00023000
00000000
,
00032000
00000000
00023000
00000000
,
00130000
01000000
00010000
10000000
,
02000000
00000000
23000000
00000000
,
30000000
00010000
00010000
10000000
,
10000000
00000000
01000000
00100000
01000000
00000000
01100000
00000000
,
00000000
00100000
00100000
00001000
,
00001000
00000000
00010000
00000010
00010000
00000000
00011000
00000000
,
00000000
00010000
00001000
00000100
,
00000010
00000000
00001000
00000001
00001000
00000000
00001001
00000000
,
00000000
00000001
00000100
00001000
,
00010000
00000000
00002000
00003000
00010000
00000000
00100000
00000000
,
01000000
00010000
10000000
01000000
,
01100000
00000000
00100000
00001000
,
00010000
00010000
00010000
00000000
00001000
00000000
00010000
00000000
,
00011000
00000000
00010000
00001000
,
00000100
00000100
00000100
00000000
00000010
00000000
00000100
00000000
,
00000001
00000000
00001000
00001000
00001000
00000000
00000010
00000000
,
00010000
00000000
00001000
00000000
00010000
00000000
00000000
00000000
00020000
00000000
00000000
00030000
00002000
00000000
00000000
00003000
,
00022000
00000000
00000000
00000000
,
00033000
00000000
00001000
00100000
,
00010000
10000000
00100000
01000000
00020000
00000000
10030000
00000000
,
01000000
00000000
00100000
00001000
00010000
00000010
00002000
00000000
,
00003001
00000100
00001000
00010000
,
00100000
10000000
01000000
00010000
,
00001000
00000010
00000001
00000100
,
00001000
00010000
00100000
10000000
,
00010000
10000000
01000000
00000000
00100000
00001000
00010000
00000000
,
00000010
00001000
00000001
00000000
00000010
00000100
00001000
00000000
,
00000001
00000100
00001000
00010000
00100000
10000000
00010000
10000000
,
02000000
00000000
00000000
03000000
,
00010000
00000000
10000000
00000000
01000000
00000000
00100000
00001000
,
00010000
00000000
00000010
00000000
00001000
00000001
00000010
00000001
,
00001000
00000000
00000001
00000000
00000010
00000000
00000100
00001000
,
00000100
00000000
00011000
00000000
00010000
00001000
00010000
00000010
,
00010000
00000000
00001000
00000000
00100000
00000000
00010000
10000000
,
00010000
00000000
00100000
00000000
01000000
00100000
00010000
10000000
,
00100000
00000000
01000000
00000000
00100000
00000000
00010000
00001000
,
00000100
00000010
00001000
00000100
00000010
00000001
00001000
00000000
,
00001100
00001001
00001100
00001010
,
00010010
00011000
00101000
00011000
,
00010100
00011000
01001000
01010000
,
11000000
01010000
01100000
10010000
,
11000000
00000000
01100000
00000000
11000000
00000000
10000000
01000000
,
00100000
00001000
00010000
00000000
00001000
00010000
00000010
00000000
,
00001010
00000000
00000101
00000000
00001100
00000000
00000001
00000010
,
00000100
00000010
00000001
00000000
00000100
00001000
00010000
00000000
,
00022000
00000000
00000000
00000000
,
00000000
00000000
00000000
00000000
,
00000000
00000000
00000000
00000000
,
00000000
00000000
00000000
00000000
,
00000000
00000000
00000000
00000000
,
00000000
00000000
00000000
00000000
,
00000000
00000000
00000000
00000000
,
00000000
00000000
00000000
00000000
,
00000000
00033000
00000000
00000000
,
00022000
00000000
00000000
00000000
,
00000000
00000000
00000000
00000000
,
00033000
00000000
00000000
00000000
;

//--------------- dance-double - Fred-104 ----------------
#NOTES:
     dance-double:
     Fred-104:
     Medium:
     15:
     :
00000000
00000000
00000000
00000000
,
00000000
00000000
00000000
00000000
,
00000000
00000000
00000000
00000000
,
00001000
00000000
00000000
00000000
,
00000000
00000000
00010000
00000000
,
00000000
00000000
00000000
00000000
00000000
00000000
00000000
00001000
,
00000000
00000000
00000000
00000000
,
00010000
00000000
00000000
00000000
,
00001000
00000000
00000000
00000000
,
00010000
00000000
00000000
00000000
00000000
00000000
00000000
00001000
,
00000000
00000000
00000000
00010000
,
00000000
00000000
00001000
00000000
,
00010000
00000000
00022000
00000000
,
00000000
00033000
00000000
00000000
,
00101000
00011000
00101000
00011000
,
00010010
00000000
00011000
00000000
00010000
00000100
00001000
00000000
,
00001100
00001001
00001100
00001001
,
00000001
00000100
00001000
00010000
00100000
01000000
00010000
00000000
,
00110000
10010000
00110000
10010000
,
11000000
00000000
01010000
00000000
01100000
00000000
10000000
01000000
,
00100000
00101000
00011000
01001000
,
00001000
00010000
00100000
01000000
00001000
00010000
00002000
00000000
,
00013000
00001000
00000010
00000100
00010000
00001000
00000100
00000000
,
00000001
00001000
00000100
00000010
00000001
00001000
00000010
00000000
,
00010000
00001000
00100000
00001000
00010000
00000000
00011000
00000000
,
01100000
00000000
11000000
00000000
01000000
00100000
20020000
30030000
,
10000000
10000000
10000000
01000000
00100000
00001000
00010000
00000000
,
00001000
00010000
00000010
00000000
00001000
00000000
00000001
00001000
,
00000001
00000000
00000000
00000010
00000000
00000000
00000100
00000000
00000000
00010000
00000000
00000000
00001000
00000000
00000000
00100000
00000000
00000000
01000000
00000000
00000000
10000000
00000000
00000000
10010000
00000000
00000000
00000000
00000000
00000000
00000000
00000000
,
20000000
00000000
32000000
00000000
,
03100000
00001000
00010000
00000000
,
00002000
00000000
00023000
00000000
,
00030010
00001000
00000001
00000000
,
00001000
00000001
00000010
00000000
00000001
00000100
00001000
00010000
,
00000000
00100000
01000000
00000000
00010000
00000000
10000000
00000000
,
01000000
00100000
01000000
00000000
00100000
00001000
00010000
00001000
,
00000000
00000000
00010000
00000100
00001000
00000001
00000100
00000000
,
00000110
00000000
00000001
00001000
00000100
00000000
00000110
00000000
,
00000011
00000000
00000001
00000100
00001000
00000000
00010000
00001000
,
00010000
01000000
00100000
00010000
00100000
01000000
10000000
00000000
,
00010000
01000000
00100000
10000000
01000000
00100000
00010000
00100000
,
00001000
00101000
00010100
00011000
,
00001000
00000000
00010000
00001000
00000100
00000010
00010000
00001000
,
00000010
00000000
00000000
00000000
00000002
00000000
00001003
00001000
00000001
00000000
00000100
00000000
00000010
00000000
00000100
00000000
,
00001000
00010000
00100000
01000000
00100000
10000000
01000000
00100000
,
00001000
00010000
00001000
00000000
00010000
00001000
00000010
00000100
,
00000010
00000001
00001000
00000001
00000100
00001000
00010000
00000000
,
00001000
00010000
00100000
01000000
00010000
10000000
01000000
00100000
,
10000000
00100000
01000000
10000000
00100000
00010000
00001000
00010000
,
01000000
00100000
00110000
00000000
10000000
01000000
00100000
00001000
,
00010000
00000000
00010000
00000000
00001000
00000000
00001000
00000000
00010000
00000100
00001000
00000001
00000100
00000010
00001000
00000010
,
00000220
00000000
00000000
00000000
,
00000330
00000000
00000000
00000000
00000001
00001000
00000100
00000000
,
00010000
00000000
00001000
00000000
00010000
00001000
00010000
00001000
00020000
00000000
00000000
00000000
00031000
00000000
00100000
00000000
,
00010000
00000000
00000000
00000000
10000000
00000000
01000000
00000000
00100000
01000000
00100000
01000000
00200000
00000000
00000000
00000000
,
00310000
10000000
01000000
00010000
00001000
00000010
00000001
00000000
,
00001000
00000001
00000100
00001000
00010000
00100000
10000000
00000000
,
00010000
10000000
00100000
00010000
00001000
00000100
00000001
00000000
,
00001000
00000001
00000010
00001000
00010000
01000000
10000000
00000000
,
11000000
01010000
10100000
00110000
,
00011000
00001100
00000101
00001001
,
00000001
00000000
00000000
00000010
00000000
00000000
00000100
00000000
00000000
00001000
00000000
00000000
00000001
00000000
00000100
00000000
00000010
00000000
00000100
00000000
00001000
00000000
00010000
00000000
,
00002000
00000000
00020000
00033000
,
00010000
00001000
00010000
00000000
00001000
00000000
01000000
00001000
,
00010000
00001000
00000100
00000010
00001000
00000001
00000010
00000100
,
00000010
00000001
00001000
00000000
00000001
00000000
00000100
00001000
,
00010000
00000000
00001000
00010000
00100000
00010000
00001000
00010000
,
00100000
10000000
00010000
00000000
10000000
00000000
00010000
01000000
,
00100000
10000000
00100000
01000000
00010000
10000000
01000000
00100000
,
00001000
00010000
00001000
00000000
00010000
00000000
00001000
00010000
,
00000010
00001000
00000100
00000010
00000001
00001000
00001001
00000000
,
00001100
00000000
00000101
00000000
00001100
00000000
00000001
00000010
,
00001000
00010000
01000000
00100000
00010000
01000000
00001000
00000000
,
00011000
00000000
00010010
00000000
00011000
00000000
00010000
00001000
,
00000010
00000100
00001000
00000010
00010000
00001000
00010000
00000000
,
00011000
00000000
01001000
00000000
00011000
00000000
00001000
00010000
,
01000000
00100000
00010000
10000000
00100000
01000000
00010000
00000000
,
11000000
00000000
01010000
00000000
11000000
00000000
10000000
00100000
,
00010000
00000000
00001000
00000000
00000100
00000000
00000010
00000000
00001000
00000001
00001000
00000000
00000001
00000010
00000100
00000000
,
00002002
00000000
00000000
00000000
,
00000000
00000000
00000000
00000000
,
00000000
00000000
00000000
00000000
,
00000000
00000000
00000000
00000000
,
00000000
00000000
00000000
00000000
,
00000000
00000000
00000000
00000000
,
00000000
00000000
00000000
00000000
,
00000000
00000000
00000000
00000000
,
00000000
00003003
00000000
00000000
,
00000001
00000100
00001000
00010000
,
00100000
10000000
01000000
00010000
,
00001000
00000000
00000000
00000000
;

//--------------- dance-double - Fred-104 ----------------
#NOTES:
     dance-double:
     Fred-104:
     Hard:
     18:
     :
00000000
00000000
00000000
00000000
,
00000000
00000000
00000000
00000000
,
00000000
00000000
00000000
00000000
,
00001000
00000000
00000000
00000000
,
00000000
00000000
00010000
00000000
,
00000000
00000000
00000000
00000000
00000000
00000000
00000000
00001000
,
00000000
00000000
00000000
00000000
,
00010000
00000000
00000000
00000000
,
00001000
00000000
00000000
00000000
,
00010000
00000000
00000000
00000000
00000000
00000000
00000000
00001000
,
00000000
00000000
00000000
00010000
,
00000000
00000000
00001000
00000000
,
00010000
00000000
00022000
00000000
,
00000000
00033000
00000000
00000000
,
00011000
01001000
00010010
00101000
,
00010100
00000000
00000000
00000000
00011000
00000000
00000000
00000000
01001000
00000000
00001000
00000000
00010000
00000100
00001000
00000001
,
00001001
00000110
00001100
00000101
,
00000110
00000000
00000000
00000000
00000001
00000000
00000010
00000000
00001000
00000000
00010000
00000000
01000000
00100000
00010000
01000000
,
01100000
10100000
01010000
00011000
,
00001100
00000000
00000000
00000000
00000011
00000000
00000001
00000000
00001000
00000000
00000010
00000000
00000100
00000001
00000100
00000001
,
00000101
00000110
00001001
00001100
,
00012000
00000000
00013000
00000000
00000010
00000000
00010000
00000000
00021000
00000000
00031000
00000000
00100000
00010000
10000000
00010000
,
01000000
00000000
00100000
00000000
10000000
00000000
01000000
00100000
01000000
00000000
00100000
00001000
00010000
00000000
00001000
00000000
,
00000010
00000000
00000100
00001000
00000001
00000000
00000100
00000000
00000010
00000000
00001000
00000000
00001001
00000000
00000000
00000000
,
00001100
00000000
00001100
00000000
00001100
00000000
00000001
00001000
00000100
00000000
00010000
00000000
00011000
00000000
00001000
00000000
,
00101000
00000000
00010000
00000000
00010010
00000000
00001000
00000000
00011000
00000000
00010000
00000000
00022000
00000000
00000000
00033000
,
00101000
00000000
00001000
00100000
00010000
00000000
10000000
00010000
01000000
00000000
00100000
10000000
00010000
00000000
10000000
00000000
,
11000000
00000000
01000000
00000000
00100000
00000000
00001000
00000000
00011000
00000000
00000000
00000000
00010000
00001000
00000010
00001000
,
00010000
00000000
00000000
00001000
00000000
00000000
00000010
00000000
00000000
00000001
00000000
00000000
00000100
00000000
00000000
00001000
00000000
00000000
00010000
00000000
00000000
00100000
00000000
00000000
10000000
00000000
00000000
00000000
00020000
00000000
20030000
00000000
,
30100000
10000000
00010000
10000000
01000000
00000000
00100000
00000000
00001000
00010000
00001000
00000000
00000010
00000100
00001000
00000100
,
00000010
00000001
00002000
00000000
00003020
00000000
00020030
00000000
,
00031000
00010000
00000010
00010000
00001000
00000000
00100000
00000000
00010000
10000000
00100000
00000000
01000000
00010000
10000000
01000000
,
00100000
00001000
00020000
00000000
00230000
00000000
20300000
00000000
,
30100000
10000000
01000000
10000000
00010000
00000000
01000000
00000000
00010000
10000000
00100000
00000000
00010000
00001000
00000100
00000010
,
00001000
00000001
00000020
00000000
00000032
00000000
00002003
00000000
,
00003001
00001000
00000100
00010000
00001000
00000000
00010000
00000000
00000010
00010000
00001000
00000000
00100000
00010000
10000000
00100000
,
00000000
00000000
00000000
00000000
00001000
00010000
00001000
00010000
00001000
00000000
00010000
00000000
00000010
00001000
00000100
00000000
,
00000010
00000001
00001000
00000001
00000100
00000000
00000010
00000000
00001020
00000000
00000000
00000000
00000001
00000000
00000000
00000000
,
00001000
00000000
00000000
00000000
00000031
00001000
00000100
00001000
00000001
00000000
00001000
00000000
00000010
00010000
00000100
00000000
,
00001000
00000100
00000010
00000001
00000100
00000000
00001000
00000000
00010000
00000000
00001000
00000000
00011000
00000000
00000000
00000000
,
01000000
00000000
00100000
00000000
01000000
00010000
10000000
00010000
00100000
00000000
01000000
00000000
00100000
00010000
10000000
00000000
,
00010000
01000000
00001000
00010000
00001000
00000000
00010000
00000000
00012000
00000000
00000000
00000000
00010000
00000000
00000000
00000000
,
00000010
00000000
00000000
00000000
00013000
00001000
01000000
00001000
00010000
00000000
00000100
00000000
00001000
00000100
00000010
00000000
,
00000001
00000000
00000000
00000000
00001000
00000000
00000000
00000000
00000010
00000000
00000000
00000000
00000100
00000000
00000000
00000000
00000001
00000000
00001000
00000000
00000002
00000000
00000000
00000000
00002003
00003000
00000000
00000000
00002200
00003300
00000000
00000000
00011000
00000000
00000000
00000000
00000000
00000000
00000000
00000000
00001000
00000000
00000000
00000000
00000000
00000000
00000000
00000000
01000000
00000000
00000000
00000000
00000000
00000000
00000000
00000000
00010000
00000000
00000000
00000000
00000000
00000000
00000000
00000000
,
00110000
01000000
10000000
00010000
20010000
31000000
10020000
00130000
,
20010000
31000000
01100000
00000000
00101000
00001000
00010000
00000010
,
00001010
00001000
00000100
00000010
00000001
00001000
00001001
00000000
,
00001100
00000100
00010000
00001000
00011000
00000010
00010000
00001000
,
00021000
00130000
00012000
00003010
00021000
01030000
00012000
00003100
,
00021000
00031000
00022000
00033000
01001000
00001000
00100000
00010000
,
10000000
00000000
00000000
00000000
01000000
00000000
00000000
00000000
10000000
00000000
00000000
00000000
01000000
00000000
00000000
00000000
10000000
00000000
00000000
00000000
00010000
00000000
00000000
00000000
10000000
00000000
00000000
00000000
00010000
00000000
00000000
00000000
02000000
03000000
00000000
00000000
00200000
00300000
00000000
00000000
00020000
00030000
00000000
00000000
00002000
00003000
00000000
00000000
00000200
00000300
00000000
00000000
00000002
00000003
00000000
00000000
00002000
00003000
00000000
00000000
00000200
00000300
00000000
00000000
,
00000220
00000000
00000000
00000000
,
00000000
00000000
00000000
00000000
00000000
00000000
00000000
00000000
00000000
00000000
00000000
00000000
00000330
00000000
00000000
00000000
00000200
00000000
00000000
00000000
00000300
00000000
00000000
00000000
00000220
00000330
00000000
00000000
00022000
00033000
00000000
00000000
01100000
00000000
00000000
00000000
00000000
00000000
00000000
00000000
10000000
00000000
00000000
00000000
00000000
00000000
00000000
00000000
00010000
00000000
00000000
00000000
00000000
00000000
00000000
00000000
00000000
00000000
00000000
00000000
00000000
00000000
00000000
00000000
,
10000000
00000000
00000000
00000000
00100000
00000000
00000000
00000000
01000000
00000000
00000000
00000000
00000000
00000000
00000000
00000000
00010000
00000000
00000000
00000000
10000000
00000000
00000000
00000000
01000000
00000000
00000000
00000000
00100000
00000000
00000000
00000000
00002000
00000000
00000000
00000000
00000000
00000000
00000000
00000000
00000000
00000000
00000000
00000000
00000000
00000000
00000000
00003000
00011000
00000000
00000000
00000000
00000000
00000000
00000000
00000000
00010000
00000000
00000000
00000000
00000000
00000000
00000000
00000000
,
00000010
00000000
00000000
00000000
00001000
00000001
00000010
00000000
00000100
00001000
00000100
00010000
00002000
00000000
00000000
00000000
,
00013000
00001000
00100000
00001000
00010000
00000000
00000010
00001000
00000100
00000010
00000001
00001000
00000010
00000100
00000001
00000000
,
00001000
00000001
00000010
00000100
00000010
00000000
00000001
00000100
00001000
00010000
00100000
01000000
00010000
01000000
00100000
00000000
,
10000000
00010000
00100000
00010000
01000000
00000000
00010000
10000000
01000000
10000000
00100000
01000000
00001000
00010000
00001000
00000000
,
00010000
00000100
00001000
00000100
00000010
00000000
00000001
00000100
00001000
00010000
00100000
01000000
00010000
00100000
01000000
00000000
,
10000000
00100000
01000000
00000000
00100000
10000000
01000000
00000000
00100000
00001000
00010000
00000000
00000010
00001000
00000100
00000000
,
00000010
00000001
00001000
00000000
00000001
00000100
00001000
00000000
00010000
00100000
10000000
00000000
01000000
10000000
00010000
00000000
,
01000000
00000000
00000000
01000000
00000000
00000000
00001000
00000000
00000000
00001000
00000000
00000000
00010000
00000000
00001000
00000000
00000010
00000000
00000001
00000000
00000010
00000000
00001000
00000000
,
00020000
00000000
00000000
00000000
00000000
00000000
00000000
00000000
00000000
00000000
00000000
00000000
00002000
00000000
00000000
00033000
,
00010000
00000000
00001000
00000000
00011000
00000000
00000000
00000000
00010000
00000000
00000100
00000000
00001000
00000010
00000100
00000001
,
00001000
00000100
00000010
00000001
00001000
00000000
00000001
00000010
00000100
00000010
00000001
00000000
00001000
00000100
00010000
00001000
,
00010000
00000000
00001000
00000000
01001000
00000000
00000000
00000000
00001000
00000000
00010000
00000000
00001000
00100000
00010000
01000000
,
00001000
00000000
00000000
00000000
00000000
00000000
00000000
00000000
00000000
00000000
00000000
00000000
00011000
00000000
00000000
00000000
00000000
00000000
00010000
00000000
00000000
00000010
00000000
00000000
00001000
00000000
00000000
00000010
00000000
00000000
00000100
00000000
00000000
00000001
00000000
00000000
00001000
00000000
00000000
00000000
00000000
00000000
00000001
00000000
00001000
00000000
00000100
00000000
,
00001000
00000000
00000100
00000000
00000110
00000000
00000000
00000000
00000001
00000000
00000100
00000000
00000010
00001000
00000100
00010000
,
00001000
00100000
00010000
01000000
00001000
00000000
00010000
00000010
00001000
00000010
00010000
00000000
00001000
00100000
00010000
00100000
,
01000000
00000000
10000000
00000000
10010000
00000000
00000000
00000000
00010000
00000000
01000000
00000000
00100000
10000000
00010000
10000000
,
01000000
00000000
01100000
00000000
00100000
00000000
00101000
00000000
00001000
00010000
00000010
00001000
00000100
00000010
00000001
00000000
,
00001001
00000000
00000001
00000000
00000010
00000000
00001000
00000000
00000010
00000000
00000100
00000000
00001000
00000001
00000100
00000001
,
00001000
00000001
00000010
00000100
00001000
00000000
00000100
00010000
00001000
00010000
01000000
00100000
00010000
10000000
00100000
00000000
,
10100000
00000000
00100000
00000000
01000000
00000000
00010000
00000000
01000000
00000000
00001000
00000000
00010000
00000100
00001000
00000100
,
00000010
00000001
00001000
00000001
00000100
00000000
00000010
00001000
00000100
00010000
00001000
01000000
00001000
00010000
00001000
00000000
,
00011000
00000000
00010000
00000000
00000010
00000000
00001000
00000000
00000100
00000000
00010000
00000000
00001000
01000000
00010000
01000000
,
00001000
00010000
00001000
00100000
00010000
00000000
10000000
01000000
00100000
00001000
00010000
00001000
01000000
00001000
00010000
00000000
,
00011000
00000000
00010000
00000000
00001000
00000000
00000100
00000000
00000001
00000000
00001000
00000000
00000100
00000010
00000001
00001000
,
00000001
00000010
00000100
00000010
00001000
00000000
00000010
00000001
00001000
00000001
00000100
00001000
00010000
00100000
01000000
00000000
,
20020000
00000000
00000000
00000000
,
00000000
00000000
00000000
00000000
,
00000000
00000000
00000000
00000000
,
00000000
00000000
00000000
00000000
,
00000000
00000000
00000000
00000000
,
00000000
00000000
00000000
00000000
,
00000000
00000000
00000000
00000000
,
00000000
00000000
00000000
00000000
,
00000000
30030000
00000000
00000000
,
10000000
00010000
10000000
00010000
10000000
00010000
10000000
00010000
,
10000000
00010000
10000000
00010000
10000000
00010000
10000000
00010000
,
10000000
00000000
00000000
00000000
;

//--------------- dance-double - Fred-104 as †mad_centurion† ----------------
#NOTES:
     dance-double:
     Fred-104 as †mad_centurion†:
     Challenge:
     19:
     :
00000000
00000000
00000000
00000000
,
00000000
00000000
00000000
00000000
,
00000000
00000000
00000000
00000000
,
00001000
00000000
00000000
00000000
00000000
00000000
00000000
00000000
00000000
00000000
00000000
00000000
00000000
00000000
00000000
00000000
00000000
00000000
00000000
00000000
00000000
00000000
00000000
00000000
00000000
00000000
00000000
00000000
00000000
00000000
00000000
00000000
00000000
00000000
00100000
00000000
00000000
00000000
00000000
00000000
00000000
00000000
00000000
00000000
00000000
00000000
00000000
00000000
00000000
00000000
00000000
00000000
00000000
00000000
00000000
00000000
00000000
00000000
00000000
00000000
00000000
00000000
00000000
00000000
00000000
00000000
00000000
00000000
00000000
00010000
00000000
00000000
00000000
00000000
00000000
00000000
00000000
00000000
00000000
00000000
00000000
00000000
00000000
00000000
00000000
00000000
00000000
00000000
00000000
00000000
00000000
00000000
00000000
00000000
00000000
00000000
00000000
00000000
00000000
00000000
00000000
10000000
00000000
00000000
00000000
00000000
00000000
00000000
00000000
00000000
00000000
00000000
00000000
00000000
00000000
00000000
00000000
00000000
00000000
00000000
00000000
00000000
00000000
00000000
00000000
00000000
00000000
00000000
00000000
00000000
00000000
00000000
00000000
00000000
00000000
00000000
00000000
00000000
00000000
00000000
00000000
00000000
00000000
00000000
00000000
00000000
00000000
00000000
00000000
00000000
00000000
00000000
00000000
00000000
00000000
00000000
00000000
00000000
00000000
00000000
00000000
00000000
00000000
00000000
00000000
00000000
00000000
00000000
00000000
00000000
00000000
00000000
00000000
00000000
00000000
00000000
00000000
00000000
00000000
00000000
00000000
00000000
00000000
00000000
00000000
00000000
00000000
00000000
00000000
00000000
00000000
00000000
,
00000000
00000000
00000000
00000000
00000000
00000000
00000000
00000000
00000000
00000000
00000000
00000000
00000000
01000000
00000000
00000000
00000000
00000000
00000000
00000000
00000000
00100000
00000000
00000000
00000000
00000000
00001000
00000000
00000000
00000000
00000000
00000000
,
00000000
00000000
00000000
00000000
00000000
00000000
00000000
00000000
00000000
00000000
00000000
00000000
00000000
00000000
00000000
00000000
00000000
00000000
00000000
00000000
00000000
00000000
00000000
00000000
00000000
00000000
00000000
00000000
00000000
00000000
00000000
00000000
00000000
00000000
00000000
00000000
00000000
00000000
00000000
00000000
00000000
00000000
00000000
00000000
00000000
00000000
00000000
00000000
00010000
00000000
00000000
00000000
00000000
00000000
00000000
00000000
00000000
00000000
00000000
00000000
00000000
00000000
00000000
00000000
00000000
00000000
00000000
00000000
00000000
00000000
00000000
00000000
00000000
00000000
00000000
00000000
00000000
00000000
00001000
00000000
00000000
00000000
00000000
00000000
00000000
00000000
00000000
00000000
00000000
00000000
00000000
00000000
00000000
00000000
00000000
00000000
00000000
00000000
00000000
00000000
00000000
00000000
00000000
00000000
00000000
00000000
00000000
00000000
00000000
00000000
00000000
00000000
00000000
00000000
00000000
00000000
00000000
00000000
00000000
00000000
00000000
00000000
00000000
00010000
00000000
00000000
00000000
00000000
00000000
00000000
00000000
00000000
00000000
00000000
00000000
00000000
00000000
00000000
00000000
00000000
00000000
00000000
00000000
00000000
00000000
00000000
00000000
00000000
00000010
00000000
00000000
00000000
00000000
00000000
00000000
00000000
00000000
00000000
00000000
00000000
00000000
00000000
00000000
00000000
00000000
00000000
00000000
00000000
00000000
00000000
00000000
00000000
00000000
00000000
00000000
00000000
00000000
00000000
00000000
00000000
00000000
00000000
00000000
00000000
00000000
00000000
00000000
00000000
00000000
00000000
00000000
00000000
,
00000000
00000000
00000000
00000000
00000000
00000000
00000000
00000000
00000000
00000000
00000000
00000000
00000000
00000000
00000000
00000000
00000000
00000000
00000000
00000000
00000000
00000000
00000000
00000000
00000000
00000000
00000000
00000000
00000000
00000000
00000000
00000000
00001000
00000000
00000000
00000000
00000000
00000000
00000000
00000000
00000000
00000000
00000000
00000000
00000000
00000000
00000000
00000000
00000000
00000000
00000000
00000000
00000000
00000000
00000000
00000000
00000000
00000000
00000000
00000000
00000000
00000000
00000000
00000000
00000000
00000000
00000000
00000000
00000000
00000000
00000000
00000000
00000100
00000000
00000000
00000000
00000000
00000000
00000000
00000000
00000000
00000000
00000000
00000000
00000000
00000000
00000000
00000000
00000000
00000000
00000000
00000000
00000000
00000000
00000000
00000000
00000000
00000000
00000000
00000000
00000000
00000000
00000000
00000000
00000000
00000010
00000000
00000000
00000000
00000000
00000000
00000000
00000000
00000000
00000000
00000000
00000000
00000000
00000000
00000000
00000000
00000000
00000000
00000000
00000000
00000000
00000000
00000000
00000000
00000000
00000000
00000000
00000000
00000000
00000000
00000000
00000000
00000000
00000000
00000000
00000000
00000000
00000000
00000000
00000000
00000000
00000000
00000001
00000000
00000000
00000000
00000000
00000000
00000000
00000000
00000000
00000000
00000000
00000000
00000000
00000000
00000000
00000000
00000000
00000000
00000000
00000000
00000000
00000000
00000000
00000000
00000000
00000000
00000000
00000000
00000000
00000000
00000000
00000000
00000000
00001000
00000000
00000000
00000000
00000000
00000000
00000000
00000000
00000000
00000000
00000000
00000000
,
00000000
00000000
00000000
00000000
00000000
00000000
00000000
00000000
00000000
00000000
00000000
00000000
00000000
00000000
00000000
00000000
00000000
00000000
00000000
00000000
00000000
00000000
00000000
00000000
00000000
00000000
00000000
00000000
00000000
00000000
00000000
00000000
00000000
00000000
00000010
00000000
00000000
00000000
00000000
00000000
00000000
00000000
00000000
00000000
00000000
00000000
00000000
00000000
00000000
00000000
00000000
00000000
00000000
00000000
00000000
00000000
00000000
00000000
00000000
00000000
00000000
00000000
00000000
00000000
00000000
00000000
00000000
00000000
00000000
00000000
00000000
00000000
00000000
00000000
00000000
00010000
00000000
00000000
00000000
00000000
00000000
00000000
00000000
00000000
00000000
00000000
00000000
00000000
00000000
00000000
00000000
00000000
00000000
00000000
00000000
00000000
00000000
00000000
00000000
00000000
00000000
00000000
00000000
00000000
00000000
00000000
00000000
00000000
00000000
00000000
00000000
00000000
00000000
00000000
00000000
00000000
00000000
00001000
00000000
00000000
00000000
00000000
00000000
00000000
00000000
00000000
00000000
00000000
00000000
00000000
00000000
00000000
00000000
00000000
00000000
00000000
00000000
00000000
00000000
00000000
00000000
00000000
00000000
00000000
00000000
00000000
00000000
00000000
00000000
00000000
00000000
00000000
00000000
00000000
00000000
00000000
00000000
00000000
00010000
00000000
00000000
00000000
00000000
00000000
00000000
00000000
00000000
00000000
00000000
00000000
00000000
00000000
00000000
00000000
00000000
00000000
00000000
00000000
00000000
00000000
00000000
00000000
00000000
00000000
00000000
00000000
00000000
00000000
00000000
00000000
00000000
00000000
,
00000000
00000000
00000000
00000000
00000000
00000000
00000000
00000000
00000000
00000000
00000000
00000000
00000000
00000000
00000000
00000000
00000000
00000000
00000000
00000000
00000000
00000000
00000000
00000000
00000000
00000000
00000000
00000000
00001000
00000000
00000000
00000000
00000000
00000000
00000000
00000000
00000000
00000000
00000000
00000000
00000000
00000000
00000000
00000000
00000000
00000000
00000000
00000000
00000000
00000000
00000000
00000000
00100000
00000000
00000000
00000000
00000000
00000000
00000000
00000000
00000000
00000000
00000000
00000000
00000000
00000000
00000000
00000000
00000000
00000000
00000000
00000000
00000000
00000000
00000000
00000000
00000000
00000000
00000000
00000000
00000000
00000000
00000000
00000000
00000000
00000000
00000000
00000000
00000000
00000000
00010000
00000000
00000000
00000000
00000000
00000000
00000000
00000000
00000000
00000000
00000000
00000000
00000000
00000000
00000000
00000000
00000000
00000000
00000000
00000000
00000000
00000000
00000000
00000000
00000000
00000000
00000000
00000000
00000000
00000000
00000000
00000000
00000000
00000000
00000000
00000000
00000000
00000000
00000000
00000000
00000000
00000000
00000000
00000000
00000000
00000000
00000000
00000000
00000000
00000000
00000000
10000000
00000000
00000000
00000000
00000000
00000000
00000000
00000000
00000000
00000000
00000000
00000000
00000000
00000000
00000000
00000000
00000000
00000000
00000000
00000000
00000000
00000000
00000000
00000000
00000000
00000000
00000000
00000000
00000000
00000000
00000000
00000000
00000000
00000000
00000000
00000000
00000000
00000000
00000000
00000000
00000000
00000000
00000000
00000000
00000000
00000000
00000000
00000000
00000000
00000000
00000000
,
00000000
00000000
00000000
00000000
00000000
00000000
00000000
01000000
00000000
00000000
00000000
00000000
00000000
00010000
00000000
00000000
00000000
00000000
00000000
00001000
00000000
00000000
00000000
00000000
00000010
00000000
00000000
00000000
00000000
00000002
00000000
00000000
,
00000000
00000000
00000000
00001003
,
00000000
00000000
00000100
00000000
,
00010000
00000000
00000000
00000000
00000000
00000000
00000000
00001000
00000000
00000000
00000000
00000000
00000000
00000000
00000000
00000000
00000000
00000000
00000000
00000000
00000000
00000000
00000000
00000000
00022000
00000000
00000000
00000000
00000000
00000000
00000000
00000000
00000000
00000000
00000000
00000000
00000000
00000000
00000000
00000000
00000000
00000000
00000000
00000000
00000000
00000000
00000000
00000000
,
00000000
00000000
00000000
00000000
00033000
00000000
00000000
00000000
00000000
00000000
00000000
00000000
00010000
00001000
00010000
00001000
,
00011000
00000000
00000000
00000000
00010100
00000000
00010000
00001000
00010000
00000000
00000000
00000000
00010010
00000000
00000000
00000000
,
00011000
00000000
00000000
00000000
01001000
00000000
00001000
00010000
00001000
00000000
00100000
00000000
00010000
10000000
00010000
01000000
,
01100000
00000000
00000000
00000000
10010000
00000000
10000000
01000000
00100000
00000000
00000000
00000000
00101000
00000000
00000000
00000000
,
00011000
00000000
00000000
00000000
00001100
00000000
00000110
00000000
00000011
00000000
00001001
00000000
00001000
00000010
00000100
00000001
,
00001000
00000000
00000000
00000000
00000110
00000000
00000010
00000100
00001000
00000000
00000000
00000000
00001001
00000000
00000000
00000000
,
00001100
00000000
00000000
00000000
00010100
00000000
00010000
00001000
00010000
00000000
00001000
00000000
00100000
00010000
10000000
01000000
,
01100000
00000000
00000000
00000000
00011000
00000000
00010000
00000010
00010000
00000000
00000000
00000000
00010100
00000000
00000000
00000000
,
00011000
00000000
00000000
00010000
00000000
00000000
00000100
00000000
00000000
00001000
00000000
00000000
00001001
00000000
00000000
00000001
00000000
00000000
00000100
00000010
00001000
00000010
00000100
00000001
,
00000100
00000000
00000001
00000010
00001000
00000000
00010000
01000000
00100000
00000000
00010000
00000000
01000000
00000000
00001000
00000000
,
00011000
00000000
00001000
00100000
00010000
00000000
10000000
00010000
01000000
00000000
00010000
00000000
10010000
00000000
00000000
00000000
,
00110000
00000000
00100000
00000000
00101000
00000000
00001000
00010000
00001000
00000000
00011000
00000000
00010000
00000000
00010010
00000000
,
00001010
00000000
00001000
00000000
00001010
00000000
00000010
00000000
00000110
00000000
00000101
00000000
00002002
00000000
00000000
00003003
,
00000110
00000000
00001000
00000100
00000001
00000000
00001000
00000010
00000001
00000100
00000010
00001000
00000001
00000000
00000010
00000000
,
00001000
00000000
00010000
01000000
00100000
00000000
00010000
00000000
10010000
00000000
00000000
00000000
10000000
00010000
10000000
01000000
,
10000000
00000000
00000000
00001000
00000000
00000000
00010000
00000000
00000000
00000001
00000000
00000000
00010000
00000000
00000000
00001000
00000000
00000000
10000000
00000000
00000000
00001000
00000000
00000000
00011000
00000000
00000000
00000000
00001000
00010000
00001000
00000000
,
00010000
00001000
00010000
01000000
00100000
00000000
00010000
00000000
10000000
00100000
01000000
00000000
00100000
00010000
00001000
00000100
,
00000010
00001000
00000002
00000000
00000023
00000000
00000230
00000000
,
00001300
00000010
00000100
00000001
00000100
00000000
00000010
00000000
00000100
00001000
00010000
00000000
00100000
01000000
00010000
10000000
,
01000000
00010000
00002000
00000000
00003020
00000000
00000230
00000000
,
00001300
00000001
00000100
00001000
00010000
00000000
00100000
00000000
01000000
00010000
00100000
00000000
00001000
00010000
00001000
00000010
,
00000001
00001000
00000020
00000000
00020030
00000000
00032000
00000000
,
00013000
01000000
00100000
00001000
00010000
00000000
00001000
00000000
00000010
00000001
00001000
00000000
00000001
00000100
00001000
00010000
,
00000000
00000000
00000000
00000000
00010000
00000010
00001000
00000010
00010000
00001000
00100000
00000000
00010000
10000000
00100000
00000000
,
01000000
00001000
00010000
00001000
00000100
00000000
00000010
00000000
00002010
00000000
00000000
00000000
00003002
00000000
00000000
00000000
,
00002003
00000000
00000000
00000000
00003100
00000010
00000001
00001000
00000010
00010000
00001000
00000000
00010000
00000010
00001000
00000000
,
00000100
00010000
00001000
00010000
01000000
00000000
00100000
00000000
00010000
00000000
10000000
00000000
10010000
00000000
00000000
00000000
,
11000000
00000000
01010000
00000000
10000000
01000000
00100000
00010000
01000000
00001000
00000100
00000000
00000010
00001000
00000001
00000000
,
00001000
00000100
00000010
00000001
00000101
00000000
00000100
00000000
00000120
00000000
00000000
00000000
00020030
00000000
00000000
00000000
,
00031000
00000000
00010000
00000000
00000010
00010000
00001000
00010000
00100000
00000000
01000000
00000000
00010000
10000000
01000000
00000000
,
00100000
00000000
00000000
00000000
00001000
00000000
00000000
00000000
00010000
00000000
00000000
00000000
00001000
00000000
00000000
00000000
00010000
00001000
00010000
00001000
00020000
00000000
00000000
00030000
00022000
00033000
00000000
00000000
00000220
00000330
00000000
00000000
00001001
00000000
00000000
00000000
00000000
00000000
00000000
00000000
00001000
00000000
00000000
00000000
00000100
00000000
00000000
00000000
00000010
00000000
00000000
00000000
00000000
00000000
00000000
00000000
00000001
00000000
00000000
00000000
00000000
00000000
00000000
00000000
,
00000101
00000010
00001100
00000100
00011000
00000010
00011000
00100000
,
00011000
00000000
00101000
00000000
00010010
00000000
00000000
00000000
00011000
00000000
00001000
00100000
00010000
00000000
10000000
00000000
,
11000000
01000000
01100000
01000000
11000000
10000000
00020000
00000000
,
01030000
00000000
01000000
00000000
00100000
00000000
01000000
00000000
01010000
00000000
01000000
00001000
00010000
00000000
00001000
00000000
,
00001100
00000010
00000101
00000010
00011000
01000000
00011000
00000100
,
00011000
00000000
00010100
00000000
01001000
00000000
00000000
00000000
00011000
00000000
00010000
00001000
00000010
00000000
00000100
00000000
,
00001000
00000000
00000000
00000000
00000001
00000000
00000000
00000000
00000010
00000000
00000000
00000000
00000100
00000000
00000000
00000000
00001000
00000000
00000000
00000000
00000010
00000000
00000000
00000000
00000100
00000000
00000000
00000000
00000001
00000000
00000000
00000000
00000020
00000030
00000000
00000000
00002000
00003000
00000000
00000000
00020000
00030000
00000000
00000000
02000000
03000000
00000000
00000000
20000000
30000000
00000000
00000000
00020000
00030000
00000000
00000000
02000000
03000000
00000000
00000000
00200000
00300000
00000000
00000000
,
20020000
00000000
00000000
00000000
,
00000000
00000000
00000000
00000000
00000000
00000000
00000000
00000000
00000000
00000000
00000000
00000000
30030000
00000000
00000000
00000000
10000000
00010000
10000000
00010000
10000000
00010000
10000000
00000000
20020000
30030000
00000000
00000000
00022000
00033000
00000000
00000000
00001001
00000000
00000000
00000000
00000000
00000000
00000000
00000000
00001000
00000000
00000000
00000000
00000000
00000000
00000000
00000000
00000001
00000000
00000000
00000000
00000000
00000000
00000000
00000000
00000000
00000000
00000000
00000000
00000000
00000000
00000000
00000000
,
00000100
00000000
00000000
00000000
00000010
00000000
00000000
00000000
00000100
00000000
00000000
00000000
00000001
00000000
00000000
00000000
00001000
00000000
00000000
00000000
00000100
00000000
00000000
00000000
00000010
00000000
00000000
00000000
00000001
00000000
00000000
00000000
00002000
00000000
00000000
00000000
00000000
00000000
00000000
00000000
00000000
00000000
00000000
00000000
00000000
00000000
00000000
00003000
00001100
00000000
00000000
00000000
00000000
00000000
00000000
00000000
00000100
00000000
00000000
00000000
00000000
00000000
00000000
00000000
,
00010000
00000000
00000000
00000000
00001000
00010000
00000010
00010000
00001000
01000000
00010000
00100000
00002000
00000000
00000000
00000000
,
00013000
00001000
00000100
00000001
00001000
00000000
00000100
00000010
00000001
00000100
00000010
00000001
00000010
00000100
00000001
00001000
,
00000001
00000010
00000100
00010000
00001000
00000000
00100000
00010000
10000000
01000000
00100000
10000000
00100000
01000000
10000000
00010000
,
10000000
01000000
00010000
00001000
00010000
00000000
00000100
00000010
00000001
00001000
00000010
00000001
00000010
00000100
00000010
00001000
,
00000001
00000100
00001000
00010000
00100000
00000000
01000000
00010000
10000000
00010000
00100000
01000000
00010000
01000000
00100000
00010000
,
10000000
01000000
00010000
00001000
00010000
01000000
10000000
00000000
00010000
10000000
00100000
00010000
00001000
00000100
00000010
00000000
,
00001000
00000010
00000100
00000001
00000010
00000100
00000010
00000000
00000001
00000100
00001000
00010000
00100000
01000000
00010000
00000000
,
20010000
00000000
00000000
31000000
00000000
00000000
10020000
00000000
00000000
00130000
00000000
00000000
10000000
00000000
01000000
00000000
00010000
00000000
00001000
00000000
00000010
00000000
00000001
00000000
,
00001000
00000001
00000100
00000010
00000100
00001000
00010000
00100000
01000000
00010000
00100000
01000000
20000000
00000000
00000000
00000000
,
30010000
10000000
00100000
00000000
01000000
00000000
00010000
00000000
10000000
00000000
01000000
00000000
00100000
00010000
01000000
00001000
,
00010000
00001000
00000010
00000100
00001000
00000001
00000010
00000100
00000010
00001000
00010000
01000000
00100000
00010000
01000000
00001000
,
00010000
00001000
00000010
00000000
00000100
00000000
00001000
00000000
00000001
00000000
00000100
00000000
00001000
00010000
00100000
01000000
,
00010000
00000000
00000000
00000000
00000000
00000000
10010000
00000000
00000000
00000000
00000000
00000000
01010000
00000000
00000000
00000000
00000000
00000000
00010000
00000000
10000000
00000000
00100000
00000000
01000000
00000000
00000000
00010000
00000000
00000000
10000000
00000000
00000000
01000000
00000000
00000000
00100000
00000000
00000000
00000000
00000000
00000000
00001000
00000000
00010000
00000000
00000010
00000000
,
00010000
00001000
00010000
00000000
00000100
00000000
00001000
00000000
00000001
00000000
00001000
00000000
00000001
00000100
00000010
00000100
,
00001000
00010000
00100000
10000000
00010000
00100000
01000000
00100000
10000000
00100000
00010000
10000000
01000000
00010000
00001000
00010000
,
00001000
00000100
00000001
00000000
00001000
00000000
00000001
00000000
00000010
00000000
00000100
00000000
00010000
00000010
00001000
00000010
,
00010000
00000000
00001000
00000000
00011000
00000000
00001000
00100000
00010000
10000000
00010000
00100000
01000000
00100000
00001000
00010000
,
00001000
00000010
00000100
00000000
00001000
00000000
00000001
00000000
00000100
00000001
00001000
00000000
00000001
00000010
00000100
00001000
,
00010000
00100000
01000000
00100000
00001000
00010000
00000010
00001000
00000001
00000010
00001000
00010000
01000000
00100000
00010000
01000000
,
00100000
10000000
00010000
00000000
10000000
00000000
01000000
00000000
00100000
00010000
10000000
00000000
00010000
00100000
01000000
10000000
,
01000000
00100000
00010000
00001000
00000100
00000010
00000100
00001000
00000001
00000100
00001000
00010000
00100000
01000000
00010000
00100000
,
00001000
00010000
00000010
00000000
00001000
00000010
00010000
00000000
00001000
00010000
00000100
00000000
00001000
00000001
00000010
00000100
,
00000010
00001000
00010000
01000000
00100000
00010000
01000000
00100000
10000000
01000000
00010000
00001000
00010000
00100000
00010000
00001000
,
01000000
00001000
00010000
00000000
00001000
00000010
00000001
00000000
00001000
00000100
00000010
00000000
00000001
00000010
00001000
00000010
,
00000001
00000000
00000000
00000100
00000000
00000000
00000010
00000000
00000000
00000100
00000000
00000000
00001000
00000000
00000000
00010000
00000000
00000000
00100000
00000000
00000000
01000000
00000000
00000000
00010000
00000000
00000000
10000000
00000000
00000000
00010000
00000000
00000000
00100000
00000000
00000000
00001000
00000000
00010000
00000000
00001000
00000000
00010000
00000000
00001000
00000000
00020000
00000000
,
00002000
00000000
00000000
00000000
,
00000000
00000000
00000000
00000000
,
00000000
00000000
00000000
00000000
,
00000000
00000000
00000000
00000000
,
00000000
00000000
00000000
00000000
,
00000000
00000000
00000000
00000000
,
00000000
00000000
00000000
00000000
,
00000000
00000000
00000000
00000000
,
00000000
00033000
00000000
00000000
,
00010000
00001000
00010000
00001000
00010000
00001000
00010000
00001000
,
00010000
00001000
00010000
00001000
00010000
00001000
00010000
00001000
,
00010000
00000000
00000000
00000000
;
