#TITLE:BEEF;
#ARTIST:BEMANI Sound Team "牛";
#ARTISTTRANSLIT:Ushi;
#BANNER:BEEF.png;
#BACKGROUND:BEEF-bg.png;
#CDTITLE:./CDTitles/jb festo.png;
#MUSIC:BEEF.ogg;
#SAMPLESTART:38.4;
#SAMPLELENGTH:15;
#BPMS:0=87.5,72=175,104=87.5,119.5=175,120=87.5,152=175,216=87.5;
#STOPS:119.5=0.086,119.75=0.085;
#BGSTAGE:4;

//--------------- dance-single - Fred-104 ----------------
#NOTES:
     dance-single:
     Fred-104:
     Beginner:
     2:
     :
0000
0000
0000
0000
,
0000
0000
0000
0000
,
1000
0000
0000
0000
,
0001
0000
0000
0000
,
1000
0000
0000
0000
,
0001
0000
0000
0000
,
1000
0000
0000
0000
,
0100
0000
0000
0000
,
1000
0000
0000
0000
,
0001
0000
0000
0000
,
1000
0000
0000
0000
,
0001
0000
0000
0000
,
1000
0000
0000
0000
,
0001
0000
0000
0000
,
1000
0000
0000
0000
,
0000
0000
0000
0000
,
0001
0000
0000
0000
,
0000
0000
0000
0000
,
1000
0000
0000
0000
,
0000
0000
0000
0000
,
0001
0000
0000
0000
,
0000
0000
0000
0000
,
1000
0000
0000
0000
,
0000
0000
0000
0000
,
0001
0000
0000
0000
,
0000
0000
0000
0000
,
1000
0000
0000
0000
,
0001
0000
0000
0000
,
1000
0000
0000
0000
,
0001
0000
0000
0000
,
0000
0000
0000
0000
,
0001
0000
0000
0000
,
0001
0000
0000
0000
,
1000
0000
0000
0000
,
1000
0000
0000
0000
,
0001
0000
0000
0000
,
0100
0000
0000
0000
,
0010
0000
0000
0000
,
1000
0000
0000
0000
,
0000
0000
0000
0000
,
0100
0000
0000
0000
,
0000
0000
0000
0000
,
1000
0000
0000
0000
,
0000
0000
0000
0000
,
0001
0000
0000
0000
,
0000
0000
0000
0000
,
1000
0000
0000
0000
,
0000
0000
0000
0000
,
0001
0000
0000
0000
,
0000
0000
0000
0000
,
0010
0000
0000
0000
,
0000
0000
0000
0000
,
0001
0000
0000
0000
,
0000
0000
0000
0000
,
1000
0000
0000
0000
,
1000
0000
0000
0000
,
0001
0000
0000
0000
,
0001
0000
0000
0000
,
1000
0000
0000
0000
,
0001
0000
0000
0000
,
1000
0000
0000
0000
;

//--------------- dance-single - Fred-104 ----------------
#NOTES:
     dance-single:
     Fred-104:
     Easy:
     8:
     :
0000
0000
0000
0000
,
0000
0000
0000
0000
,
2000
0000
3001
0001
0000
0100
0010
0100
,
0001
0001
1000
1000
0100
0010
0110
0000
,
0001
0001
1000
0001
0100
0010
0100
0100
,
0001
0000
0001
0010
1000
0100
0001
0000
,
1000
0000
0000
1000
0000
0000
1000
0000
0001
0000
0100
0000
0001
0000
0000
0000
,
1000
1000
0001
0100
0010
0100
0110
0000
,
1000
0100
0001
0000
1000
0010
0001
0000
,
1000
0001
0100
0100
0010
0100
0001
1000
,
0001
0100
0100
0010
0000
1000
0100
0010
,
0100
1000
1000
0001
0000
0100
0010
0000
,
0100
0001
1000
0100
0010
0001
1000
0000
,
0001
0001
1000
1000
0001
0100
0010
0000
,
1000
1000
0100
0100
0001
0001
0010
0010
,
1000
0001
1000
0010
0100
0001
1000
0000
,
0001
0001
0010
0010
1000
1000
0100
0100
,
0001
0010
0100
1000
0001
0100
0010
0000
,
2000
0000
3001
1000
,
0200
0000
0310
0001
,
1000
0100
0110
0000
,
0001
0100
0110
0000
,
1000
0100
0010
0011
,
0001
0100
0010
1010
,
1000
1000
0001
0001
,
1000
0100
1000
0000
0001
0100
0001
0000
,
2000
0000
3200
0000
0310
0010
0011
0000
,
0002
0000
2003
0000
3001
0100
0110
0000
,
1000
0100
0010
0000
0001
0100
0010
0000
,
1000
1000
0001
0001
0100
0010
0200
0000
,
0301
0000
1000
0000
0100
0100
0010
0010
,
0001
0000
1000
0000
0001
0010
1000
0010
,
0001
0000
1000
0000
0010
0010
0100
0100
,
0001
0000
1000
0000
0001
0100
1000
0100
,
0001
0001
0100
0100
0010
1000
1100
0000
,
1000
1000
0001
0100
0100
0010
0110
0000
,
0100
0001
1000
0001
0010
0010
0100
0100
,
1000
1000
0001
0001
0100
0010
2002
3003
,
1000
0010
1000
0001
,
1000
0100
0010
0100
,
1000
0010
0200
0300
,
0001
1000
1001
0000
,
1000
0100
1000
0100
,
0001
0100
0001
0100
,
1000
0001
1001
0000
,
0001
0100
0110
0000
,
1000
0100
0010
0100
,
0100
1000
0001
0100
,
0110
0000
0010
1000
,
0001
0000
0010
0000
0100
1000
0100
0000
,
1100
0000
0101
0000
,
1010
0000
0011
0000
,
1000
1000
0001
0001
,
0100
0010
0100
0000
0010
0100
0010
0000
,
1000
0010
0100
0001
,
1000
0100
0010
0100
,
1000
0001
0010
0001
,
1000
0100
0001
0010
,
1000
0001
0100
0010
,
0100
0001
1000
0100
,
2000
0000
0002
0000
,
0000
0000
0000
0000
,
3003
0000
0000
0000
;

//--------------- dance-single - Fred-104 ----------------
#NOTES:
     dance-single:
     Fred-104:
     Medium:
     13:
     :
0000
0000
0000
0000
,
0000
0000
0000
0000
,
2000
0000
0000
3001
0100
0000
0110
0000
0000
0010
1000
0000
0100
0000
0010
0000
,
0001
1000
0010
0000
1000
0001
0010
0100
0000
1000
0010
0100
0001
0000
1001
0000
,
1000
0001
0100
0001
1000
1000
0001
0010
0100
0000
1000
0000
0001
0000
0110
0000
,
2000
0000
3001
0100
1000
0001
0010
1000
0001
0010
0100
1000
0001
0000
1001
0000
,
0120
0000
0000
1000
1030
0000
0001
1000
0010
0100
1000
0100
0010
0000
1001
0000
,
1000
0100
0100
1000
0001
0000
0010
0100
1100
0000
0101
0000
1010
0000
0011
0000
,
1000
0100
0001
0100
1000
0000
0001
1000
0020
0000
0230
0000
0302
0003
1001
0000
,
2000
0000
3001
0010
0100
0010
1000
0010
0001
1000
0100
0010
0001
0000
1001
0000
,
0001
0010
1000
0001
0100
0000
1000
0000
0000
0001
1000
0001
0100
0000
0110
0000
,
0010
1000
0010
0100
0010
1000
0100
0010
0000
0011
0000
0001
1000
0001
0100
0000
,
0001
0010
1000
0010
0001
0010
1000
0000
1000
0010
0001
0010
1000
0010
0001
0000
,
1000
0100
0001
0100
1000
0100
0001
0100
1000
0100
0010
0001
1000
0001
2000
0000
,
3001
0010
0011
0000
0100
1000
1100
0000
0001
0100
0101
0000
0010
1000
1010
0000
,
1000
0100
0001
0100
1000
0010
0001
0010
1000
0100
0010
0000
0011
0000
1001
0000
,
0001
0100
0101
0000
1000
0100
1100
0000
0001
0010
0011
0000
1000
0010
1010
0000
,
0001
0010
1000
0010
0001
0100
1000
0100
0001
0000
0100
0000
0010
0000
1001
0000
,
2100
0000
3002
0023
,
0032
0000
2003
3200
,
1300
0100
0010
1001
,
0001
0100
0010
1001
,
1000
0100
0000
1000
0001
0000
0100
0001
0000
1000
0001
0000
0020
0000
0000
0000
,
0031
0100
0000
0001
1000
0000
0100
1000
0000
0001
1000
0000
0020
0000
0000
0000
,
1030
0000
0000
0001
0000
0000
0100
0000
0000
0010
0000
0000
1000
0000
0100
0000
1000
0000
0001
0000
0100
0000
0001
0000
,
0100
0100
0010
0010
1000
0001
1001
0000
,
1000
0000
0001
0000
0110
0000
1000
0100
0000
0010
0001
1000
0001
0000
1001
0000
,
0001
0000
0010
1000
0001
0100
1000
0000
0001
0000
0010
0100
1100
0000
1001
0000
,
1010
0000
1000
0100
0120
0000
0000
0031
0100
1000
0100
0001
1000
0001
1000
0000
,
0001
0000
0000
0000
0100
0000
0000
0000
1000
0000
0000
0000
0100
0000
0010
0000
1000
0000
0001
0000
1000
0000
0100
0000
0020
0000
0000
0000
0032
0003
0002
0003
,
1000
0000
0010
0100
0001
1000
0001
0100
0000
0100
1000
0100
1000
0001
1000
0000
,
0001
0010
1000
0010
0001
0000
1000
0010
0001
0010
1000
0001
1000
0001
1000
0000
,
0001
0100
0010
0100
1000
0000
0100
0002
0000
1003
0100
0010
0001
0000
1001
0000
,
1000
0100
1000
0001
0100
0010
0100
0000
0001
0010
0100
0100
1000
0100
0010
0001
,
1000
0010
0100
0001
0101
0000
0001
0010
0100
0000
1100
0000
1001
0000
0001
0100
,
0000
0001
0010
0100
0010
0001
1000
0010
0110
0000
1001
0000
1100
0000
0101
0000
,
1000
0001
0010
0100
0010
0001
1000
1000
0001
0010
0100
1000
0001
0100
0010
1000
,
0001
0000
0100
0010
1000
0010
0100
0001
1000
0000
1100
0000
2002
0000
0000
3003
,
1000
1000
1000
0001
0100
0100
0100
0010
,
0100
0100
0100
0001
0010
0010
0010
0100
,
1000
1000
0001
0100
0200
0000
0310
1000
,
0001
0010
0010
0010
0001
1000
1001
0000
,
0001
0000
1000
0000
0001
0000
0100
0000
0000
0000
0000
0000
0001
0000
0000
1000
0000
0000
1001
0000
0000
0000
0000
0000
,
1000
0100
1000
1000
1000
0001
0020
0000
,
0130
1000
0001
0001
0002
0000
0103
0010
,
0100
0001
0010
1000
0010
0001
1001
0000
,
1000
0100
0100
1000
0001
0000
1001
0000
,
0001
0000
0010
0001
0000
1000
0000
0001
0100
0000
0010
0000
0100
0000
0000
0000
,
1001
0000
0001
0010
0100
1000
0001
0100
,
0010
1000
0010
0100
0001
0000
1001
0000
,
0110
1010
0101
1100
,
0001
0010
0100
1000
0010
0100
0001
0000
,
1000
0100
1000
0001
0100
0010
1000
0010
,
0100
0100
0001
0001
1000
0100
0010
0001
,
2000
3200
0320
0032
,
2003
3020
0230
0302
,
2003
3002
0023
0230
,
2300
3002
0203
0320
,
2030
3200
0302
0023
,
2030
3020
0032
0203
,
2300
0000
0002
0000
,
0000
0000
0000
0000
,
3003
0000
0000
0000
;

//--------------- dance-single - Fred-104 ----------------
#NOTES:
     dance-single:
     Fred-104:
     Hard:
     16:
     :
0000
0000
0000
0000
,
0000
0000
0000
0000
,
2000
0000
0000
0000
3001
0000
0101
0000
0000
0001
0010
0100
0010
0000
0011
0000
,
1000
0010
0100
1000
0100
0000
0001
1000
0100
0010
0001
0100
0010
1000
1001
0000
,
1000
0000
0001
0000
0010
0000
0100
0000
0001
0000
0100
0000
0010
0000
0100
0000
1000
0000
0001
0100
0001
0000
1000
0000
0100
0000
0000
0000
0110
0000
0000
0000
,
0020
0000
0000
0000
0031
0000
0010
0100
1000
0000
0010
0100
0001
0000
1000
0000
0100
0000
0010
0000
0001
0000
1000
0000
2002
0000
0000
0000
3003
0000
0000
0000
,
2100
0000
0000
0000
0000
0000
0000
0000
0000
0000
0000
0000
0010
0000
0000
0000
0010
0000
0000
0000
0000
0000
0000
0000
0001
0000
0000
0000
3001
0000
0000
0000
1000
0000
0000
0000
0200
0300
0000
0000
0200
0300
0000
0000
0001
0000
0000
0000
0010
0000
0000
0000
0000
0000
0000
0000
1001
0000
0000
0000
0000
0000
0000
0000
,
0001
0000
0000
0000
0020
0030
0000
0000
0020
0030
0000
0000
0100
0000
0000
0000
0001
0000
0000
0000
1000
0000
0000
0000
0200
0300
0000
0000
0200
0300
0000
0000
0002
0000
0000
0000
0000
0000
0000
0000
0023
0000
0000
0000
0000
0000
0000
0000
0230
0000
0000
0000
0300
0000
0000
0000
1100
0000
0000
0000
0000
0000
0000
0000
,
1000
0100
0010
1000
0010
0000
0001
1000
0020
0000
0230
0000
0302
0003
1001
0000
,
0001
0000
0000
0000
1000
0000
0000
0000
0200
0300
0000
0000
0200
0300
0000
0000
0001
0000
0000
0000
0010
0000
0000
0000
0100
0000
0000
0000
0010
0000
0000
0000
1000
0000
0000
0000
0010
0000
0000
0000
0100
0000
0000
0000
1000
0000
0000
0000
0001
0000
0000
0000
0000
0000
0000
0000
1001
0000
0000
0000
0000
0000
0000
0000
,
1000
0100
1000
0000
0001
0000
0000
0000
0100
0000
0000
0000
0110
0000
0000
0000
0000
0000
1010
0000
0000
0000
1000
0000
0100
0000
0001
0000
0100
0000
0000
0000
,
1000
0010
0100
0010
0001
0010
0100
0001
0000
1001
0000
1100
0100
0010
0011
0000
,
0101
0000
0001
0000
1000
0000
0100
0000
0010
0000
0100
0000
1100
0000
0000
0000
1000
0000
0001
1000
0000
0010
0100
0000
0001
1000
0100
0010
0002
0000
0000
0000
,
0203
0300
0000
0000
0200
0300
0000
0000
1000
0000
0000
0000
0001
0000
0000
0000
0010
0000
0000
0000
0100
0000
1000
0000
0001
0000
1000
0000
0010
0000
0000
0000
0100
0000
0001
0000
1000
0000
0000
0000
0100
0000
0010
0000
0001
0000
0000
0000
1000
0000
0001
0000
1000
0000
0001
0000
2000
0000
0000
0000
0000
0000
0000
0000
,
3001
0000
0000
0100
0000
0000
0010
0000
0000
0100
0000
0000
0001
0000
0000
0000
0000
0000
0000
0000
0000
0000
0000
0000
1000
0000
0000
0100
0000
0000
0010
0000
0000
0100
0000
0000
1000
0000
0000
0000
0000
0000
0000
0000
0000
0000
0000
0000
0001
0000
0000
1000
0000
0000
0010
0000
0000
1000
0000
0000
0001
0000
0000
0000
0000
0000
0000
0000
0000
0000
0000
0000
1000
0000
0000
0000
0100
0000
0000
0000
0010
0000
0000
0000
0001
0000
0000
0000
0000
0000
0000
0000
0000
0000
0000
0000
,
1000
0000
0000
0010
0000
0000
0001
0000
0000
0010
0000
0000
0100
0000
0000
0001
0000
0000
1000
0000
0000
0100
0000
0000
1000
0000
0100
0000
0010
0000
0001
0000
0000
0000
0000
0000
0012
0000
0000
0000
0000
0000
2003
0000
0000
0000
0000
0000
,
3001
0100
0010
1000
0001
0000
0000
0000
1000
0100
0010
0001
1000
0000
0000
0000
0001
1000
0010
0100
0001
0000
0000
0000
0100
0010
1000
0001
1000
0000
0000
0000
,
0001
0000
0100
0000
1000
0000
0100
0000
0010
0000
0001
0000
0010
0000
1000
0001
1000
0000
0000
0100
0010
0000
0001
0000
1000
0000
0001
0000
2002
0000
3003
0000
,
2010
0000
0000
0001
0000
0000
3100
0000
1000
0000
0001
0000
1001
0000
0000
0000
,
0012
0000
0000
1000
0000
0000
0103
0000
0001
0000
1000
0000
1001
0000
0000
0000
,
1100
0101
1100
0110
,
0011
1010
0011
1001
,
1000
0010
0000
1000
0001
0000
1000
0100
0000
0010
0001
1000
0002
0000
0000
0000
,
1003
0100
0000
1000
0001
0000
1000
0010
0000
0100
0001
1000
0002
0000
0000
0000
,
1003
0000
0000
0100
0000
0000
0010
0000
0000
0001
0000
0000
1000
0000
0010
0000
0001
0000
1000
0000
0100
0000
0001
0000
,
1000
0001
0010
0100
1000
0010
0100
0010
1000
0100
0010
0001
0100
0000
0010
0000
,
1000
0000
0100
0000
0110
0000
0010
0001
0000
1000
0001
0100
0020
0000
2030
0000
,
3001
1000
0001
0100
0010
0001
0010
0000
1000
0000
0001
1000
1100
0000
1001
0000
,
1010
0000
0000
0000
1000
0000
0100
0000
0120
0000
0000
0000
0000
0000
0031
0100
0010
0000
1000
0100
0010
0000
0001
0000
1000
0000
0001
1000
0020
0000
0000
0000
,
1030
0000
0000
0000
0000
0000
0000
0000
1100
0000
0000
0000
0000
0000
0000
0000
0110
0000
0000
0000
0000
0000
0000
0000
0011
0000
0000
0000
0001
0000
0000
0000
1000
0000
0000
0000
0001
0000
0000
0000
0100
0000
0000
0000
0010
0000
0000
0000
0220
0000
0000
0000
0330
0000
0000
0000
0200
0300
0000
0000
0200
0300
0000
0000
,
0002
0000
0000
0000
0000
0000
1003
0000
0001
0000
1000
0000
0100
0000
0010
0000
0001
0000
1000
0000
0000
0010
0000
0000
0100
0000
0000
1000
0000
0000
0100
0000
0000
0010
0000
0000
1000
0000
0000
0001
0000
0000
1001
0000
0000
0000
0000
0000
,
0001
0000
0000
0100
0000
0000
1000
0000
0000
0100
0000
0000
0001
0000
0000
0000
0000
0000
1000
0000
0000
0100
0000
0000
0001
0000
0000
0100
0000
0000
1000
0000
0000
0001
1000
0001
1000
0000
0000
0100
0000
0000
0110
0000
0000
0000
0000
0000
,
0011
0000
0000
0000
0000
0000
0010
0000
0000
0001
0000
0000
1000
0000
0000
0000
0000
0000
0001
0000
0000
0000
0000
0000
0100
0000
0000
0000
0000
0000
0000
0000
0000
0000
0000
0000
0100
0000
0000
0000
0000
0000
0020
0000
0000
0000
0000
0000
0000
0000
0000
0000
0000
0000
1030
0000
0000
0000
0000
0000
0100
0000
0000
0000
0000
0000
0010
0000
0000
0000
0000
0000
0100
0000
0000
0000
1000
0000
0000
0000
0001
0000
0000
0000
1000
0000
0000
0000
0000
0000
0000
0000
1000
0000
0000
0000
,
0001
0000
0010
0000
1000
0000
0010
0000
0001
0000
1000
0010
1000
0000
0001
0000
0100
0000
0010
1000
0010
1000
0001
0000
2000
0000
3200
0000
0302
0000
0023
0000
,
1030
0000
1000
0000
0100
0000
0100
0000
1100
0000
0000
0000
0001
0000
1000
0000
0001
0000
0000
0100
1000
0000
0000
0100
0001
0000
0000
0000
0010
0000
0100
0000
,
0000
0000
0000
0110
0000
0000
0000
0000
0000
0100
0000
0000
1000
0000
0000
0001
0000
0000
0100
0000
0000
0010
0000
0000
1010
0000
0000
0000
0000
0000
0101
0000
0000
0001
1000
0001
1000
0000
0000
0000
0000
0000
0110
0000
0000
0000
0000
0000
,
1001
0000
0000
0000
0000
0000
0000
0000
0000
0000
0000
0000
0001
0000
0000
0000
0000
0000
0000
0000
0000
0000
0000
0000
0010
0000
0000
0000
0000
0000
0000
0000
0000
0000
0000
0000
0100
0000
0000
0000
0000
0000
0000
0000
0000
0000
0000
0000
1000
0000
0000
0000
0000
0000
0000
0000
0000
0000
0000
0000
0001
0000
0000
0000
0000
0000
0000
0000
0000
0000
0000
0000
0020
0000
0000
0030
0000
0000
0000
0000
0000
0000
0000
0000
0020
0000
0000
0030
0000
0000
0000
0000
0000
0000
0000
0000
1000
0000
0000
0000
0000
0000
0000
0000
0000
0000
0000
0000
0100
0000
0000
0000
0000
0000
0000
0000
0000
0000
0000
0000
0010
0000
0000
0000
0000
0000
0000
0000
0000
0000
0000
0000
0100
0000
0000
0000
0000
0000
0000
0000
0000
0000
0000
0000
1000
0000
0000
0000
0000
0000
0000
0000
0010
0000
0000
0000
0000
0000
0000
0000
1000
0000
0000
0000
0000
0000
0000
0000
0001
0000
0000
0000
0000
0000
0000
0000
0100
0000
0000
0000
0000
0000
0000
0000
0010
0000
0000
0000
0000
0000
0000
0000
,
1000
0000
1001
0001
0100
0010
1000
0100
1100
0000
0101
0000
2000
0002
0000
3003
,
1000
0100
0010
0001
1000
0000
0010
0000
0100
0001
1000
0001
0010
0000
0001
0000
,
1000
0010
0100
0001
1000
0000
0100
0000
0010
0001
1000
0001
0100
0000
0010
0000
,
0100
0000
0000
0000
0001
0000
0000
0000
1000
0000
0000
0000
0000
0000
0000
0000
0001
0000
0000
0000
0010
0000
0000
0000
0100
0000
0000
0000
1000
0000
0000
0000
0002
0000
0000
0000
0000
0000
0000
0000
0000
0000
0000
0000
0000
0000
0000
0000
0203
0300
0000
0000
0000
0000
0000
0000
0200
0300
0000
0000
0000
0000
0000
0000
,
1000
0000
0001
1000
0010
0100
0001
0000
1000
0000
0100
0000
0110
0000
0000
0000
,
0001
0000
0000
0000
0100
0000
0000
0000
0010
0000
0000
0000
1010
0000
0000
0000
0000
0000
0000
0000
0000
0000
0000
0000
1000
0000
0000
0100
0000
0000
0010
0000
0000
0001
0000
0000
2000
0000
0000
0000
0000
0000
0000
0000
0000
0000
0000
0000
,
3001
0000
0100
0000
0001
1000
0010
0100
0001
0000
0010
0000
0200
0000
0000
0000
,
1300
0000
0000
0000
0000
0000
0000
0000
0001
0000
0000
0000
0000
0000
0000
0000
1000
0000
0000
0000
0010
0000
0000
0000
0100
0000
0000
0000
0001
0000
0000
0000
0200
0000
0000
0000
0000
0000
0000
0000
0000
0000
0000
0000
0000
0000
0000
0000
0320
0030
0000
0000
0000
0000
0000
0000
0020
0030
0000
0000
0000
0000
0000
0000
,
0001
0000
0100
1000
0100
0000
0001
0000
0010
0000
0100
0000
1100
0000
0000
0000
,
1000
0001
0100
0001
1000
0000
0010
0100
0001
0000
0000
0010
0200
0000
0000
0000
,
1300
0001
0100
0001
0000
1000
0000
0100
0010
0001
1000
0010
0100
0000
0000
0000
,
0110
0000
0000
0000
1001
0000
1000
0001
0100
0010
1000
0010
0100
0000
0001
0000
,
2000
0000
3100
0000
0002
0000
0103
0000
1000
0001
1000
0001
1000
0000
0000
0000
,
0110
0000
1200
0310
0001
1000
1002
0103
,
0001
0010
0100
0000
1000
0001
0010
0001
1000
0010
0100
0001
0100
0000
0001
0000
,
1000
0100
1000
0001
0100
0001
1000
0010
1000
0001
0010
0001
1000
0100
0010
0000
,
0001
0000
0000
0000
0100
0000
0000
0000
0010
0000
0000
0000
1000
0000
0000
0000
0001
0000
0000
0000
0100
0000
0000
0000
0010
0000
0000
0000
1000
0000
0000
0000
0002
0000
0000
0000
0003
0000
0000
0000
0020
0000
0000
0000
0030
0000
0000
0000
0200
0000
0000
0000
0300
0000
0000
0000
2000
0000
0000
0000
0000
0000
0000
3000
,
1002
0000
0103
0001
2000
0000
3001
0010
0200
0000
1300
0010
0200
0000
0310
0000
,
1020
0000
1030
0100
0020
0000
1030
0010
0002
0000
0013
0100
2000
0000
3001
0000
,
0201
0000
0301
1000
0200
0000
0310
1000
0020
0000
0130
1000
0002
0000
0103
0000
,
0210
0000
0310
1000
0002
0000
0103
0010
0002
0000
0013
0100
0020
0000
1030
0000
,
2001
0000
3001
0010
0200
0000
1300
0001
0200
1300
0001
0010
2000
0000
3100
0000
,
0210
0000
0310
0001
2000
0000
3001
0010
0200
0301
1000
0010
0002
0000
0103
0000
,
0220
0000
0000
0330
2002
0000
0000
0000
,
0000
0000
0000
0000
,
3003
0000
0000
0000
;

//--------------- dance-double - Fred-104 ----------------
#NOTES:
     dance-double:
     Fred-104:
     Easy:
     8:
     :
00000000
00000000
00000000
00000000
,
00000000
00000000
00000000
00000000
,
00020000
00000000
00031000
00001000
00000000
00010000
00001000
00000100
,
00000010
00010000
00001000
00000100
00000001
00000010
00000110
00000000
,
00001000
00000010
00010000
00000010
00010000
00001000
01000000
00001000
,
00010000
00000000
00001000
00010000
00100000
10000000
00010000
00000000
,
10000000
00000000
00000000
01000000
00000000
00000000
01000000
00000000
00100000
00000000
00010000
00000000
00100000
00000000
00000000
00000000
,
00001000
00001000
00010000
00000010
00010000
00001000
00011000
00000000
,
00010000
00001000
00000100
00000000
00001000
00010000
01000000
00000000
,
00010000
00001000
00010000
00000100
00000010
00000001
00000100
00001000
,
00010000
00001000
00001000
00010000
00000000
00001000
00010000
01000000
,
00100000
00001000
00010000
00100000
00000000
01000000
00100000
00000000
,
10000000
00010000
01000000
00100000
01000000
00010000
00100000
00000000
,
00001000
00001000
00010000
00010000
00001000
00010000
00001000
00000000
,
00010000
00010000
00001000
00001000
00000100
00000100
00000001
00000001
,
00001000
00000001
00000010
00000100
00001000
00000100
00010000
00000000
,
00001000
00001000
00010000
00010000
00100000
00100000
10000000
10000000
,
00010000
01000000
00100000
10000000
01000000
00100000
00010000
00000000
,
02000000
00000000
03001000
00010000
,
00002000
00000000
00013000
00001000
,
00000010
00000001
00001001
00000000
,
00000010
00001000
00001001
00000000
,
00000001
00000100
00001000
00010000
,
00100000
01000000
00010000
10000000
,
01000000
01000000
00100000
00100000
,
00001000
00010000
00001000
00000000
00010000
00000010
00010000
00000000
,
00002000
00000000
00023000
00000000
00030010
00010000
00011000
00000000
,
00020000
00000000
00030200
00000000
00001300
00000001
00001001
00000000
,
00000001
00000100
00001000
00000000
00010000
00100000
10000000
00000000
,
00010000
00010000
10000000
10000000
01000000
00100000
02000000
00000000
,
13000000
00000000
01000000
00000000
00100000
00001000
00010000
00001000
,
00010000
00000000
01000000
00000000
10000000
00010000
00100000
00001000
,
00010000
00000000
00001000
00000000
00000010
00000010
00000100
00000100
,
00001000
00000000
00000001
00000000
00000010
00001000
00010000
01000000
,
00100000
00100000
00001000
00001000
00010000
00001000
00011000
00000000
,
00010000
00001000
00000100
00000001
00000010
00001000
00011000
00000000
,
00001000
00010000
01000000
10000000
00010000
00010000
01000000
01000000
,
00100000
00100000
10000000
01000000
00100000
00001000
00022000
00033000
,
00010000
00001000
00000100
00000001
,
00001000
00000010
00000001
00000010
,
00000100
00000001
00002000
00003000
,
00000010
00010000
00011000
00000000
,
00001000
00010000
00100000
01000000
,
00001000
00010000
00100000
00010000
,
00001000
01000000
01100000
00000000
,
10000000
01000000
01100000
00000000
,
10000000
01000000
00100000
00100000
,
00001000
00010000
00001000
00010000
,
00011000
00000000
00010000
00001000
,
00000010
00000000
00000100
00000000
00010000
00001000
00010000
00000000
,
00010010
00000000
00101000
00000000
,
00010100
00000000
01001000
00000000
,
00010000
00010000
00001000
00001000
,
00010000
00000010
00010000
00001000
00010000
00000010
00010000
00000000
,
00001000
00010000
00100000
01000000
,
00010000
10000000
01000000
00100000
,
01000000
00010000
00001000
00000010
,
00000100
00001000
00000001
00000010
,
00001000
00010000
01000000
10000000
,
00100000
00010000
00001000
00000100
,
00000002
00000000
00002000
00000000
,
00000000
00000000
00000000
00000000
,
00003003
00000000
00000000
00000000
;

//--------------- dance-double - Fred-104 ----------------
#NOTES:
     dance-double:
     Fred-104:
     Medium:
     13:
     :
00000000
00000000
00000000
00000000
,
00000000
00000000
00000000
00000000
,
00002000
00000000
00000000
00013000
00001000
00000000
00011000
00000000
00000000
00001000
00100000
00000000
00010000
00000000
10000000
00000000
,
01000000
00100000
00001000
00000000
00010000
00100000
10000000
00010000
00000000
10000000
01000000
00010000
00001000
00000000
00011000
00000000
,
00010000
00001000
00000100
00000010
00010000
00010000
00001000
00000100
00000010
00000000
00001000
00000000
00000100
00000000
00000110
00000000
,
00000002
00000000
00001003
00000100
00000001
00001000
00000010
00000001
00001000
00000001
00000100
00000010
00001000
00000000
00000100
00000000
,
00011000
00000000
00000000
00001000
00001000
00000000
00010000
00100000
01000000
00001000
00010000
01000000
10000000
00000000
10010000
00000000
,
10000000
01000000
01000000
00100000
01000000
00000000
00100000
00001000
00010000
00000000
00010010
00000000
00001000
00000000
00101000
00000000
,
00010000
00001000
00000100
00001000
00010000
00000000
00001000
00010000
00002000
00000000
00023000
00000000
00030020
00000030
00001010
00000000
,
00002000
00000000
00003001
00000100
00000010
00000100
00001000
00000100
00000010
00001000
00000100
00000010
00000100
00000000
00011000
00000000
,
00001000
00010000
00100000
00000000
10000000
00000000
00010000
00000000
00000000
00010000
10000000
00010000
01000000
00000000
00010000
00000000
,
10000000
01000000
00100000
00001000
00010000
00100000
00010000
00001000
00000000
00011000
00000000
00010000
00001000
00000100
00000001
00000000
,
00001000
00000100
00000001
00000100
00001000
00000010
00010000
00000000
00001000
00010000
00100000
00010000
00001000
01000000
00010000
00000000
,
10000000
01000000
00010000
01000000
10000000
00100000
00010000
00001000
00010000
00000100
00000010
00000001
00001000
00000100
00000110
00000000
,
00000011
00001010
00011000
01010000
11000000
01100000
00011000
00000110
,
00000001
00000010
00000100
00000010
00001000
00000010
00000001
00000000
00000100
00001000
00010000
00000000
00011000
00000000
10010000
00000000
,
11000000
01010000
00011000
00001010
00000011
00000110
00011000
01100000
,
00010000
10000000
01000000
00100000
00010000
01000000
00100000
00010000
00001000
00000000
00010000
00000000
00001000
00000000
00011000
00000000
,
00010020
00000000
00020030
00032000
,
00023000
00000000
00030200
00002300
,
00003001
00000100
00001000
00011000
,
00001000
00010000
00100000
10010000
,
10000000
01000000
00000000
01000000
00100000
00000000
00010000
01000000
00000000
01000000
00001000
00000000
00020000
00000000
00000000
00000000
,
00031000
00010000
00000000
00010000
00000010
00000000
00001000
00000100
00000000
00000100
00000010
00000000
00000002
00000000
00000000
00000000
,
00001003
00000000
00000000
00000001
00000000
00000000
00000010
00000000
00000000
00000001
00000000
00000000
00001000
00000000
00000010
00000000
00010000
00000000
00001000
00000000
00100000
00000000
00001000
00000000
,
00010000
00010000
00001000
00001000
00010000
00001000
00011000
00000000
,
00001000
00000000
00010000
00000000
01000000
00000000
00100000
00010000
00000000
10000000
00100000
01000000
00010000
00000000
10000000
00000000
,
01000000
00000000
00100000
00010000
01000000
00001000
00010000
00000000
00001000
00000000
00010000
00000000
00000010
00000000
00000010
00000000
,
00010000
00000000
00001000
00010000
00200000
00000000
00000000
00310000
00001000
00010000
01000000
00010000
00001000
00010000
00001000
00000000
,
00010000
00000000
00000000
00000000
00001000
00000000
00000000
00000000
00000010
00000000
00000000
00000000
00000100
00000000
00010000
00000000
00001000
00000000
00010000
00000000
00000010
00000000
00010000
00000000
00002000
00000000
00000000
00000000
00203000
00300000
00200000
00300000
,
00010000
00000000
10000000
00100000
01000000
00010000
10000000
00100000
00000000
01000000
00010000
01000000
00001000
00010000
00001000
00000000
,
00010000
00010000
00000100
00010000
00001000
00000000
00100000
00001000
00010000
00001000
00100000
00010000
01000000
00100000
10000000
00000000
,
00010000
00100000
01000000
00100000
10000000
00000000
00100000
00020000
00000000
10030000
01000000
00010000
00001000
00000000
00011000
00000000
,
00010000
00001000
00000010
00000100
00001000
00000100
00010000
00001000
00010000
01000000
10000000
00100000
01000000
00100000
00010000
00000000
,
00001000
00000100
00000010
00001000
00001001
00000000
00000001
00001000
00000100
00000000
00010000
00000000
00011000
00000000
00001000
00010000
,
00000000
00000010
00010000
00001000
00010000
00100000
01000000
00010000
10000000
00000000
00010000
00000000
00100000
00000000
00101000
00000000
,
00100000
00001000
00010000
00001000
01000000
00001000
00010000
00010000
00001000
00010000
00001000
00000100
00000010
00001000
00000100
00000001
,
00000100
00000000
00010000
00001000
00000100
00001000
00010000
00001000
00010000
00000000
00001000
00000000
00022000
00000000
00000000
00033000
,
00001000
00010000
01000000
00100000
00010000
10000000
00100000
01000000
,
00001000
00010000
01000000
00100000
00010000
00001000
00000100
00000010
,
00001000
00010000
00000010
00001000
00000002
00000000
00000103
00000010
,
00010000
00001000
00001000
00001000
00010000
00001000
00011000
00000000
,
00001000
00000000
01000000
00000000
00001000
00000000
01000000
00000000
00000000
00000000
00000000
00000000
00010000
00000000
00000000
00100000
00000000
00000000
01100000
00000000
00000000
00000000
00000000
00000000
,
10000000
01000000
00100000
00100000
00100000
00001000
00020000
00000000
,
00031000
00010000
00000010
00000010
00000020
00000000
00010030
00001000
,
00010000
00001000
00000010
00000100
00001000
00000001
00000100
00000000
,
00000010
00001000
00000001
00001000
00000100
00000000
00001001
00000000
,
00000001
00000000
00000100
00000010
00000000
00001000
00000000
00000010
00000100
00000000
00000010
00000000
00010000
00000000
00000000
00000000
,
00020000
00000000
00031000
00100000
01000000
10000000
00010000
01000000
,
00100000
10000000
01000000
00010000
00001000
00001000
00010000
00000000
,
01001000
00010100
00101000
00010010
,
00010000
00001000
00000100
00000001
00001000
00000100
00000010
00000000
,
00000001
00000100
00001000
00010000
00100000
01000000
00010000
10000000
,
01000000
01000000
00100000
00100000
00001000
00010000
00001000
00010000
,
00002000
00023000
00230000
02300000
,
03002000
00023000
00230000
20300000
,
30020000
20030000
32000000
03020000
,
00032000
00003020
00000032
00002003
,
00003002
00000203
00002300
00023000
,
00230000
02300000
03020000
00230000
,
00302000
00000000
00020000
00000000
,
00000000
00000000
00000000
00000000
,
00033000
00000000
00000000
00000000
;

//--------------- dance-double - Fred-104 ----------------
#NOTES:
     dance-double:
     Fred-104:
     Hard:
     17:
     :
00000000
00000000
00000000
00000000
,
00000000
00000000
00000000
00000000
,
00020000
00000000
00000000
00000000
00030010
00000000
00000110
00000000
00000000
00000001
00001000
00000100
00000010
00000000
00001001
00000000
,
00000100
00000001
00001000
00000010
00000100
00000000
00001000
00010000
00100000
01000000
00100000
10000000
01000000
00100000
01100000
00000000
,
00010000
00000000
10000000
00000000
00100000
00000000
00010000
00000000
00001000
00000000
00010000
00000000
00000100
00000000
00000010
00000000
00000001
00000000
00000100
00000010
00000100
00000000
00000001
00000000
00001000
00000000
00000000
00000000
00001100
00000000
00000000
00000000
,
00020000
00000000
00000000
00000000
00030100
00000000
00010000
00001000
00010000
00000000
00000010
00001000
00000010
00000000
00010000
00000000
00001000
00000000
00100000
00000000
01000000
00000000
00100000
00000000
00002000
00000000
00000000
00000000
00013000
00000000
00000000
00000000
,
00021000
00000000
00000000
00000010
00000010
00000000
00001000
00031000
00100000
00001000
00000000
00010000
00000010
00000000
00001010
00000000
,
00001000
00000100
00000010
00001000
00010000
01000000
00100000
00001000
00020000
00000000
00032000
00000000
00023000
00030000
00011000
00000000
,
00010000
00001000
00000100
00000001
00001000
00000000
00000001
00000010
00000200
00000000
00020300
00000000
00032000
00003000
00011000
00000000
,
00010000
00000000
00001000
00000010
00000100
00010000
00001000
00000100
00000010
00001000
00000001
00000010
00000100
00000000
00001001
00000000
,
00000001
00001000
00000100
00000000
00010000
00000000
00000000
00000000
00001000
00000000
00000000
00000000
00011000
00000000
00000000
00000000
00000000
00000000
00101000
00000000
00000000
00000000
00001000
00000000
00010000
00000000
00100000
00000000
01000000
00000000
00000000
00000000
,
00010000
01000000
00100000
10000000
01000000
00100000
01000000
00010000
00000000
00000100
00000000
00010000
00001000
00010000
00011000
00000000
,
00010000
00000010
00010000
00000000
00001000
00000000
00000100
00000000
00001000
00000000
00010000
00000000
00011000
00000000
00000000
00000000
00010000
00000000
00000000
00000100
00001000
00000100
00000010
00000000
00000001
00001000
00000001
00001000
00000002
00000000
00000000
00000000
,
00001003
00000000
00000100
00000000
00000010
00000000
00000001
00000000
00001000
00000000
00000010
00010000
00000010
00010000
00001000
00000000
00100000
00010000
00100000
00000000
01000000
10000000
01000000
00000000
10000000
00010000
01000000
00100000
20000000
00000000
00000000
00000000
,
30010000
00000000
00000000
10000000
00000000
00000000
01000000
00000000
00000000
10000000
00000000
00000000
00010000
00000000
00000000
00000000
00000000
00000000
00000000
00000000
00000000
00000000
00000000
00000000
10000000
00000000
00000000
01000000
00000000
00000000
00100000
00000000
00000000
00010000
00000000
00000000
00100000
00000000
00000000
00000000
00000000
00000000
00000000
00000000
00000000
00000000
00000000
00000000
00001000
00000000
00000000
00010000
00000000
00000000
00000010
00000000
00000000
00001000
00000000
00000000
00000100
00000000
00000000
00000000
00000000
00000000
00000000
00000000
00000000
00000000
00000000
00000000
00001000
00000000
00000000
00000000
00000001
00000000
00000000
00000000
00000100
00000000
00000000
00000000
00000010
00000000
00000000
00000000
00000000
00000000
00000000
00000000
00000000
00000000
00000000
00000000
,
00001000
00000000
00000000
00000100
00000000
00000000
00000010
00000000
00000000
00001000
00000000
00000000
00000010
00000000
00000000
00000100
00000000
00000000
00010000
00000000
00000000
00001000
00000000
00000000
00010000
00000000
00000000
00000000
00100000
00000000
01000000
00000000
00000000
00000000
00000000
00000000
00010000
00000000
00000000
00000000
00000000
00000000
10010000
00000000
00000000
00000000
00000000
00000000
,
10000000
01000000
00100000
00001000
00010000
00000000
00000000
00000000
00000010
00001000
00000001
00000100
00000010
00000000
00000000
00000000
00001000
00000100
00010000
00001000
00010000
00000000
00000000
00000000
00001000
00100000
00010000
10000000
00010000
00000000
00000000
00000000
,
00010000
00000000
10000000
00000000
01000000
00000000
00100000
00000000
10000000
00000000
00100000
00000000
00010000
00000000
01000000
00001000
01000000
00000000
00000000
00001000
00010000
00000000
00001000
00000000
00000010
00000000
00000100
00000000
00002200
00000000
00003300
00000000
,
00001002
00000000
00000000
00001003
00000001
00000000
00001000
00000000
00000100
00000000
00010000
00000000
00001000
00000000
00000000
00000000
,
00012000
00000000
00000000
00013000
00001000
00000000
00010000
00000000
00100000
00000000
10000000
00000000
00010000
00000000
00000000
00000000
,
01100000
11000000
01010000
00011000
,
00001010
00000011
00001100
00001001
,
00000001
00000010
00000000
00000100
00010000
00000000
00001000
00100000
00000000
01000000
10000000
00010000
02000000
00000000
00000000
00000000
,
03100000
10000000
00000000
01000000
00010000
00000000
00001000
00000010
00000000
00000100
00001000
00000001
00000200
00000000
00000000
00000000
,
00000301
00000000
00000000
00000100
00000000
00000000
00001000
00000000
00000000
00010000
00000000
00000000
00000010
00000000
00010000
00000000
00001000
00000000
00100000
00000000
00010000
00000000
10000000
00000000
,
00010000
00100000
01000000
10000000
00100000
01000000
00010000
10000000
01000000
00100000
00010000
01000000
00001000
00000000
00010000
00000000
,
00001000
00000000
01000000
00000000
01100000
00000000
00100000
10000000
00000000
01000000
00001000
00000100
00020000
00000000
00032000
00000000
,
00013000
00000000
00000010
00001000
00000001
00000010
00010000
00000000
00100000
00000000
00001000
01000000
01100000
00000000
10010000
00000000
,
00101000
00000000
00000000
00000000
00000100
00000000
00000010
00000000
00000100
00000000
00000000
00000000
00001000
00000000
00000001
00000010
00000100
00000000
00010000
00001000
00000010
00000000
00001000
00000000
00010000
00001000
00010000
00001000
00020000
00000000
00000000
00000000
,
00031000
00000000
00000000
00000000
00000000
00000000
00000000
00000000
00001001
00000000
00000000
00000000
00000000
00000000
00000000
00000000
00011000
00000000
00000000
00000000
00000000
00000000
00000000
00000000
10010000
00000000
00000000
00000000
10000000
00000000
00000000
00000000
00010000
00000000
00000000
00000000
10000000
00000000
00000000
00000000
01000000
00000000
00000000
00000000
00001000
00000000
00000000
00000000
00000100
00000000
00000000
00000000
00000000
00000000
00000000
00000000
00000020
00000030
00000000
00000000
00000020
00000030
00000000
00000000
,
00002000
00000000
00000000
00000000
00000000
00000000
00003001
00000000
00000010
00000000
00000100
00000000
00010000
00000000
00001000
00000000
00000100
00000000
00000001
00000000
00000000
00000010
00000000
00000000
00001000
00000000
00000000
00010000
00000000
00000000
00001000
00000000
00000000
01000000
00000000
00000000
00100000
00000000
00000000
10000000
00000000
00000000
10010000
00000000
00000000
00000000
00000000
00000000
,
10000000
00000000
00000000
00100000
00000000
00000000
00001000
00000000
00000000
00000010
00000000
00000000
00000100
00000000
00000000
00000000
00000000
00000000
00000001
00000000
00000000
00000010
00000000
00000000
00010000
00000000
00000000
00100000
00000000
00000000
01000000
00000000
00000000
10000000
00010000
10000000
00010000
00000000
00000000
01000000
00000000
00000000
01100000
00000000
00000000
00000000
00000000
00000000
,
10010000
00000000
00000000
00000000
00000000
00000000
00010000
00000000
00000000
10000000
00000000
00000000
01000000
00000000
00000000
00000000
00000000
00000000
00010000
00000000
00000000
00000000
00000000
00000000
00001000
00000000
00000000
00000000
00000000
00000000
00000000
00000000
00000000
00000000
00000000
00000000
00000100
00000000
00000000
00000000
00000000
00000000
00001000
00000000
00000000
00000000
00000000
00000000
00000000
00000000
00000000
00000000
00000000
00000000
00010000
00000000
00000000
00000000
00000000
00000000
00100000
00000000
00000000
00000000
00000000
00000000
01000000
00000000
00000000
00000000
00000000
00000000
00010000
00000000
00000000
00000000
10000000
00000000
00000000
00000000
01000000
00000000
00000000
00000000
00010000
00000000
00000000
00000000
00000000
00000000
00000000
00000000
00001000
00000000
00000000
00000000
,
00010000
00000000
00001000
00000000
00000010
00000000
00001000
00000000
00010000
00000000
00001000
00000100
00001000
00000000
00010000
00000000
00000010
00000000
00001000
00000100
00000010
00000001
00000100
00000000
00002000
00000000
00023000
00000000
00230000
00000000
02300000
00000000
,
03010000
00000000
00010000
00000000
10000000
00000000
10000000
00000000
11000000
00000000
00000000
00000000
01000000
00000000
00100000
00000000
00001000
00000000
00000000
00010000
00000010
00000000
00000000
00010000
00001000
00000000
00000000
00000000
00010000
00000000
00001000
00000000
,
00000000
00000000
00000110
00000000
00000000
00000000
00000100
00000000
00001000
00000000
00000001
00000000
00000100
00000000
00000010
00000000
00000110
00000000
00000000
00000000
00001100
00000000
00000100
00010000
00001000
00000000
00010000
00000000
00011000
00000000
00000000
00000000
,
00011000
00000000
00000000
00001000
00000000
00000000
00010000
00000000
00000000
00100000
00000000
00000000
10000000
00000000
00000000
00010000
00000000
00000000
00100000
00000000
00000000
01000000
00000000
00000000
00001000
00000000
00000000
00000100
00000000
00000000
00000010
00000000
00000000
00001000
00000000
00000000
00010000
00000000
00001000
00000000
00000100
00000000
00000010
00000000
00001000
00000000
00000100
00000000
,
00000010
00000000
00000011
00000001
00000100
00001000
00010000
00100000
01000000
00000000
00001000
00000000
00020000
00002000
00000000
00033000
,
00010000
00000010
00001000
00000100
00010000
00000000
00001000
00000000
00000010
00000100
00001000
00010000
00100000
00000000
01000000
00000000
,
00100000
00010000
01000000
00001000
00010000
00000000
00001000
00000000
00000010
00000100
00001000
00000001
00000100
00000000
00001000
00000000
,
00010000
00100000
01000000
00000000
00010000
00100000
01000000
10000000
00020000
00000000
00000000
00000000
10030000
00000000
01000000
00000000
,
00100000
00000000
00001000
00010000
00001000
00000100
00000001
00000000
00001000
00000000
00000100
00000000
00000110
00000000
00000000
00000000
,
00000001
00000000
00000000
00000000
00000100
00000000
00000000
00000000
00000010
00000000
00000000
00000000
00001010
00000000
00000000
00000000
00000000
00000000
00000000
00000000
00000000
00000000
00000000
00000000
00010000
00000000
00000000
00001000
00000000
00000000
00000010
00000000
00000000
00001000
00000000
00000000
00020000
00000000
00000000
00000000
00000000
00000000
00000000
00000000
00000000
00000000
00000000
00000000
,
00031000
00000000
01000000
00000000
00010000
00100000
00001000
00100000
00010000
00000000
01000000
00000000
00002000
00000000
00000000
00000000
,
00013000
00000000
00001000
00000000
00000100
00000010
00001000
00000100
00000020
00000000
00000000
00000000
00000130
00000000
00001000
00000000
,
00000010
00000000
00010000
00001000
00100000
00000000
00010000
00000000
01000000
00000000
00001000
00000000
00011000
00000000
00000000
00000000
,
00010000
00001000
00000100
00000010
00001000
00000000
00000100
00000010
00000001
00000000
00000000
00000100
00002000
00000000
00000000
00000000
,
00013000
00000000
00100000
01000000
00000000
00010000
00000000
00100000
00001000
00010000
01000000
00100000
00020000
00000000
00000000
00000000
,
10030000
00000000
00000000
00000000
01100000
00000000
00010000
10000000
01000000
00010000
00001000
00010000
00000100
00000000
00000010
00000000
,
00000002
00000103
00020000
01030000
00020000
00130000
10010000
00000000
,
01100000
00000000
01010000
00010000
00100000
00001000
00010000
00001000
,
00000010
00000001
00001000
00000000
00000001
00000100
00000010
00000100
00000001
00000010
00000100
00001000
00000100
00000000
00010000
00000000
,
00001000
00010000
00000010
00001000
00000100
00010000
00001000
01000000
00010000
00100000
00001000
00010000
00001000
00000100
00000010
00000000
,
00001000
00000000
00000000
00000000
00000100
00000000
00000000
00000000
00000010
00000000
00000000
00000000
00000001
00000000
00000000
00000000
00000010
00000000
00000000
00000000
00000100
00000000
00000000
00000000
00010000
00000000
00000000
00000000
00001000
00000000
00000000
00000000
02000000
00000000
00000000
00000000
03000000
00000000
00000000
00000000
00200000
00000000
00000000
00000000
00300000
00000000
00000000
00000000
02000000
00000000
00000000
00000000
03000000
00000000
00000000
00000000
00020000
00000000
00000000
00000000
00000000
00000000
00000000
00030000
,
10010000
00000000
10000000
00000000
00100000
00000000
01000000
00000000
00100000
00000000
00010000
00001000
00000100
00000000
00000010
00000000
,
00001000
00000000
00000001
00000000
00000010
00000000
00010000
00000000
00100000
00000000
01000000
00100000
00001000
00000000
01000000
00000000
,
00100000
00000000
10000000
00000000
00100000
00000000
00001000
00000000
00000010
00000000
00000100
00000001
00001000
00000000
00000100
00000000
,
00010000
00000000
00001000
00000000
00000010
00000000
00000001
00000000
00000100
00000000
00001000
00010000
00100000
00000000
01000000
00000000
,
00010000
00000000
10000000
00100000
01000000
00000000
10000000
01000000
00010000
10000000
01000000
00010000
00001000
00000010
00000100
00000000
,
00001000
00000000
00000001
00000100
00001000
00000000
00010000
00001000
00000010
00000100
00001000
00000010
00010000
00001000
00010000
01000000
,
20000000
00000000
00000000
30000000
20020000
00000000
00000000
00000000
,
00000000
00000000
00000000
00000000
,
30030000
00000000
00000000
00000000
;
