#TITLE:BE LOVIN;
#ARTIST:D-crew;
#TITLETRANSLIT:BE LOVIN (LONG);
#GENRE:HAPPY HARDCORE;
#BANNER:BE LOVIN.png;
#BACKGROUND:BE LOVIN-bg.png;
#CDTITLE:./CDTitles/bm III APPEND 7thMIX.png;
#MUSIC:BE LOVIN.ogg;
#SAMPLESTART:38.918;
#SAMPLELENGTH:15;
#DISPLAYBPM:185;
#BPMS:0=186,4=185;
#BGSTAGE:5;

//--------------- dance-single - Fred-104 ----------------
#NOTES:
     dance-single:
     Fred-104:
     Beginner:
     3:
     :
0000
0000
0000
0000
,
0000
0000
0000
0000
,
0000
0000
0000
0000
,
0000
0000
0000
0000
,
0000
0000
0000
0000
,
0000
0000
0000
0000
,
0000
0000
0000
0000
,
1000
0000
0000
0000
,
0000
0000
0000
0000
,
0001
0000
0000
0000
,
0000
0000
0000
0000
,
0100
0000
0000
0000
,
0001
0000
0000
0000
,
0100
0000
0000
0000
,
0001
0000
1000
0000
,
0001
0000
0000
0000
,
1000
0000
0000
0000
,
0010
0000
0000
0000
,
1000
0000
0000
0000
,
0100
0000
0000
0000
,
0010
0000
0000
0000
,
0001
0000
0000
0000
,
1000
0000
0001
0000
,
1000
0000
0000
0000
,
0001
0000
0000
0000
,
1000
0000
0000
0000
,
0001
0000
0000
0000
,
0100
0000
0100
0000
,
0010
0000
0010
0000
,
0100
0000
0100
0000
,
1001
0000
0000
0000
,
1000
0000
0001
0000
,
1000
0000
0000
0000
,
0001
0000
0010
0000
,
0001
0000
0000
0000
,
1000
0000
1000
0000
,
0001
0000
0001
0000
,
0100
0000
0100
0000
,
0010
0000
0010
0000
,
1000
0000
0000
0000
,
0001
0000
1000
0000
,
0010
0000
0000
0000
,
1000
0000
0100
0000
,
1000
0000
0000
0000
,
0001
0000
1000
0000
,
0001
0000
0001
0000
,
1000
0000
1000
0000
,
0001
0000
0000
0000
,
0100
0000
0010
0000
,
0100
0000
0000
0000
,
0001
0000
1000
0000
,
0010
0000
0000
0000
,
1000
0000
0001
0000
,
1000
0000
1000
0000
,
0001
0000
0001
0000
,
1001
0000
0000
0000
,
0000
0000
0000
0000
,
0001
0000
0000
0000
,
0000
0000
0000
0000
,
1000
0000
0010
0000
,
1000
0000
0100
0100
,
0100
0000
1000
0000
,
0002
0000
0000
0003
,
1000
0000
0010
0000
,
0100
0000
0001
0001
,
0001
0000
1000
0000
,
0001
0000
0010
0010
,
0010
0000
0001
0000
,
1000
0000
0100
0100
,
0100
0000
1000
0000
,
0001
0001
0001
0000
,
1000
0000
0001
0000
,
1000
0000
0010
0000
,
1000
0000
0001
0000
,
0100
0000
0010
0000
,
0100
0000
0001
0000
,
1000
0000
0001
0000
,
1000
0000
0001
0000
,
1000
1000
1000
1000
,
2002
0000
0000
0000
,
0000
0000
0000
0000
,
3003
0000
0000
0000
;

//--------------- dance-single - Fred-104 ----------------
#NOTES:
     dance-single:
     Fred-104:
     Easy:
     7:
     :
0000
0000
0000
0000
,
0000
0000
0000
0000
,
0000
0000
0000
0000
,
0000
0000
0000
0000
,
0000
0000
0000
0000
,
0000
0000
0000
0000
,
0000
0000
0000
0000
,
0001
0000
0100
0000
,
0001
0000
0010
0000
,
0100
0000
0010
0000
,
0001
0000
1000
0001
,
1000
0000
0010
0000
,
0001
0000
0100
0000
,
1000
0000
0001
0000
,
1000
1000
0001
0001
,
0100
0000
0010
0000
,
0100
0001
0100
0000
,
0001
0000
1000
0000
,
0010
1000
0010
0000
,
0100
0000
0001
0000
,
1000
0001
1000
0000
,
0001
0000
0100
0000
,
0001
0001
1000
1000
,
1001
0000
0000
0000
,
0001
0000
0000
0000
,
0100
0000
0010
0100
,
0010
0000
1000
0000
,
0001
0010
0000
0010
,
1000
0010
0000
0010
,
0001
0100
0010
1000
,
2002
0000
0000
3003
,
1000
1000
0010
0100
,
0010
0000
0000
0100
0000
0000
0010
0000
,
0100
0100
0001
0010
,
0001
0000
0000
1000
0000
0000
0001
0000
,
0100
0100
0010
0010
,
0100
0100
0010
0010
,
1000
1000
0001
0001
,
1000
0100
0010
0001
,
1001
1000
0010
0100
,
0001
0000
0000
0010
0000
0000
0001
0000
,
0100
0010
0100
0001
,
0010
0000
0000
0100
0000
0000
1000
0000
,
0010
0010
0100
0100
,
0010
0010
0100
0100
,
0001
0001
1000
1000
,
0001
0100
0010
1000
,
1001
0000
1000
0000
,
0001
0010
0110
0000
,
1000
0000
0010
0000
,
1000
0100
0110
0000
,
0010
0000
0001
0000
,
0100
0010
1001
0000
,
0001
0100
1000
0100
,
0001
1000
0100
0010
,
0002
0000
0000
0000
,
0203
0000
0310
0000
,
2000
0000
0000
0000
,
3200
0000
0310
0000
,
0002
0000
0000
0000
,
2003
0000
3001
0000
,
0100
0100
0010
0010
,
2002
0000
0000
3003
,
0001
0000
0000
0100
0000
0000
0010
0000
,
0100
0001
0100
0010
,
0100
0000
0000
0001
0000
0000
1000
0000
,
0100
1000
0001
0100
,
0001
0010
0001
0010
,
1000
0010
1000
0010
,
0001
0100
0010
1000
,
0001
1000
2002
3003
,
1000
0100
1000
0010
,
1000
0100
0010
0100
,
0010
0001
0100
0010
,
0100
0001
0010
0001
,
1000
0010
1000
0010
,
0001
0010
0001
0010
,
1000
0100
0001
0100
,
1000
0010
0100
0001
,
1001
0000
0000
0110
,
0000
2002
0000
0000
0000
0000
0000
0000
,
3003
0000
0000
0000
;

//--------------- dance-single - Fred-104 ----------------
#NOTES:
     dance-single:
     Fred-104:
     Medium:
     10:
     :
0000
0000
0000
0000
,
0000
0000
0000
0000
,
0000
0000
0000
0000
,
0000
0000
0000
0000
,
0000
0000
0000
0000
,
0000
0000
0000
0000
,
0000
0000
0000
0000
,
1000
0000
1000
0000
,
0001
0001
0100
0100
,
0010
0000
0010
0000
,
0100
0100
0001
0001
,
1000
1000
0000
0000
0001
0001
0000
0000
,
1000
1000
0000
0000
0100
0100
0000
0000
,
0010
0010
0000
0000
0001
0001
0000
0000
,
1000
1000
0001
0001
,
1001
0001
1000
1000
,
0010
1000
0010
1000
,
0100
0100
0010
0010
,
0100
0010
0001
0010
,
0001
0001
1000
1000
,
0001
0100
1000
0100
,
0001
0001
1000
1000
,
0001
0100
0010
1000
,
1001
0000
0001
0000
,
0100
0000
0010
0000
,
0100
0000
0000
0000
0001
0010
0100
1000
,
0100
0000
1000
0000
,
0001
0101
0100
0110
,
0010
1010
1000
1100
,
0100
1000
0100
0000
0010
0001
0010
0000
,
2002
0000
0000
3003
,
1000
0100
1000
0000
0010
0000
0100
0000
,
0010
0000
0100
0010
0000
0100
0001
0000
,
0010
0001
1000
0000
0001
0000
1000
0000
,
0010
0000
0100
0001
0000
0010
0001
0000
,
0100
0010
0100
0000
0001
0010
0001
0000
,
1000
0100
1000
0000
0001
0100
0001
0000
,
0100
0010
0100
0000
0001
0010
0001
0000
,
1000
0010
1000
0000
0001
0100
0001
0000
,
1001
0000
1000
0000
0010
0000
1000
0100
,
1000
0000
0001
0100
0001
0000
0010
0000
,
0100
0000
1000
0010
1000
0000
0010
0100
,
0001
0100
0001
0000
1000
0000
0010
0100
,
0010
1000
0100
1000
,
0001
0000
0100
0001
0000
0100
0010
0000
,
0100
0001
0100
0000
0010
1000
0010
0000
,
1000
0100
1000
0000
0001
0000
1000
0010
,
0100
0001
0101
0000
,
0001
0010
0001
0000
1000
0000
0010
0000
,
0100
0010
1010
0000
,
1000
0100
0010
0000
0001
0000
1000
0010
,
0100
0001
0100
0001
,
0100
1000
0100
0000
0001
0000
1000
0010
,
0100
0001
1000
0100
,
1000
0010
1000
0000
0001
0010
0001
0000
,
1000
0000
0001
0100
0000
0010
0000
1000
,
0000
0100
0000
1000
0000
0001
0000
0000
,
0100
0000
0010
0100
0000
0001
0000
0100
,
0000
0010
0000
1000
0000
0001
0000
0000
,
1000
0000
0100
0010
0000
0001
0000
1000
,
0000
0010
0000
0100
0000
0001
0000
0000
,
0100
0000
0010
0100
0000
0001
1000
0001
,
2000
0000
0000
3000
,
1000
0100
1000
0001
,
0010
0100
0001
1000
,
0010
0001
1000
0001
,
1000
0010
0100
0000
0010
0000
1000
0100
,
0010
0001
1000
0010
,
0001
1000
0100
0001
,
0010
0100
1000
0000
0010
0100
0001
0000
,
1000
0001
1000
0001
1000
0000
1001
0000
,
0001
0100
0001
0000
0010
0000
0100
0000
,
1000
0010
0100
0000
0010
0000
1000
0000
,
0001
0010
1000
0000
0010
0000
0001
0000
,
1000
0010
0001
0000
0010
0000
1000
0000
,
0001
1000
0010
0000
1000
0000
0100
0000
,
0010
0100
1000
0000
0010
0000
0100
0000
,
0001
0100
0001
0000
1000
0010
1000
0000
,
0001
0010
0100
1000
0010
0100
0001
0000
,
1001
0000
0000
0000
0000
1000
0001
0100
,
0010
0200
0000
0000
0000
0000
0000
0000
,
0300
0000
0000
0000
;

//--------------- dance-single - Fred-104 ----------------
#NOTES:
     dance-single:
     Fred-104:
     Hard:
     13:
     :
0000
0000
0000
0000
,
0000
0000
0000
0000
,
0000
0000
0000
0000
,
0000
0000
0000
0000
,
0000
0000
0000
0000
,
0000
0000
0000
0000
,
0000
0000
0000
0000
,
1000
0000
0001
0010
0000
0001
0000
1000
,
0000
0001
0000
0010
0000
0100
0000
0010
,
0001
0000
0100
0001
0000
0010
0000
0001
,
0000
1000
0000
0010
0000
0100
0001
1000
,
0001
0010
0000
0001
1000
0010
0000
1000
,
0100
0010
0000
0001
0100
0010
0000
1000
,
0001
0010
0000
0100
0010
0001
0000
1000
,
0001
0100
0010
1000
0001
0100
0010
0000
,
1000
0100
0010
0001
1000
0001
0100
0010
,
0100
0001
0010
0100
1000
0001
0100
0000
,
0001
0010
0001
1000
0001
0100
0010
1000
,
0100
0010
0001
0100
0010
1000
0010
0000
,
0100
0001
1000
0001
0010
0100
1000
0010
,
1000
0100
1000
0001
0100
0010
0100
0000
,
0001
0010
0001
1000
0001
0100
0010
1000
,
0001
0001
0001
0100
0010
1000
1000
1000
,
1001
0000
0000
0000
,
0001
0000
0000
0000
,
0100
0000
0000
0000
0000
0000
0000
0000
0010
0000
0100
0000
0010
0000
1000
0001
,
1000
0000
0001
0100
,
0001
0011
1000
1010
,
0001
0101
1000
1100
,
0001
0010
0100
1000
0010
0100
0001
1000
,
0200
0000
0000
0300
,
1000
0001
0010
0001
1000
0010
0100
0001
,
0100
0010
0100
1000
0100
0001
1000
0000
,
0001
0010
0100
1000
0010
0100
1000
0100
,
0010
0001
0010
0100
0001
0010
0100
0000
,
1000
1000
0010
0010
0100
0100
0001
0001
,
1000
1000
0100
0100
0010
0010
0001
0001
,
1000
1000
0001
0001
0100
0100
0010
0010
,
1000
0100
0001
1000
0010
0001
1001
0000
,
0001
0010
0100
1000
0010
0100
1000
0100
,
0001
1000
0010
0001
0010
0100
0001
0000
,
1000
0001
0010
0100
0001
0100
1000
0100
,
0010
0001
1000
0001
0100
0010
0100
0001
,
1000
0010
1000
0010
0100
1000
0100
0001
,
0100
0010
1000
0001
0010
0100
1000
0001
,
0100
0001
0100
0001
1000
0010
1000
0010
,
1000
0100
0001
0000
0100
0010
0001
1000
,
0010
1000
0100
0010
0011
0001
0000
1000
,
0001
0100
1000
0100
0002
0000
1000
0000
,
0013
0100
1000
0001
0101
0100
0000
0010
,
1000
0100
0010
0100
0001
0100
1000
0001
,
0010
0001
1000
0100
0110
0010
0000
0001
,
1000
0010
0100
0000
1000
0100
0001
1000
,
0100
0010
0100
0010
0001
0100
0001
0100
,
0010
1000
0100
0010
0001
1000
1001
0000
,
1000
0000
0001
0010
0000
0100
0000
1000
,
0000
0001
0000
0100
0000
0110
0000
0000
,
0001
0000
0100
0001
0000
0010
0000
0100
,
0000
1000
0000
0010
0000
1001
0000
0000
,
1000
0000
0010
1000
0000
0100
0000
0001
,
0100
1000
0000
0001
0000
1001
0000
0000
,
1000
0010
1000
0100
0010
0001
1000
0001
,
0200
0000
0000
0300
,
0011
0000
0001
1000
0001
0100
0010
1000
,
0100
0010
0100
0010
0100
1000
0001
0000
,
1100
0000
0001
1000
0010
0100
0010
0100
,
0010
1000
0001
0010
0100
1000
0010
0000
,
0110
0000
0100
0001
0010
0100
0010
0100
,
1000
0010
1000
0010
0001
0010
0001
0010
,
1000
0100
1000
0100
0001
0100
0001
0100
,
1000
0100
0010
0001
0100
0000
0110
0000
,
0001
0100
0001
0010
0001
1000
0001
0100
,
0010
1000
0100
1000
0001
0100
0010
1000
,
0001
1000
0010
0100
1000
0001
0010
1000
,
0001
1000
0100
0010
1000
0001
0100
1000
,
0001
1000
0100
1000
0001
0100
0010
1000
,
0010
0100
0001
0010
0100
0010
0001
1000
,
0100
0010
0100
0001
0100
1000
0001
0100
,
0001
0010
0100
1000
0001
0001
1000
1000
,
1001
0000
0000
0000
0000
0001
0100
0010
,
1000
2002
0000
0000
0000
0000
0000
0000
,
3003
0000
0000
0000
;

//--------------- dance-double - Fred-104 ----------------
#NOTES:
     dance-double:
     Fred-104:
     Easy:
     7:
     :
00000000
00000000
00000000
00000000
,
00000000
00000000
00000000
00000000
,
00000000
00000000
00000000
00000000
,
00000000
00000000
00000000
00000000
,
00000000
00000000
00000000
00000000
,
00000000
00000000
00000000
00000000
,
00000000
00000000
00000000
00000000
,
00010000
00000000
00000010
00000000
,
00001000
00000000
00000100
00000000
,
00010000
00000000
00001000
00000000
,
00010000
00000000
00001000
00010000
,
01000000
00000000
00100000
00000000
,
00010000
00000000
01000000
00000000
,
00100000
00000000
00010000
00000000
,
00001000
00001000
00010000
00010000
,
00001000
00000000
00010000
00000000
,
00001000
00000010
00000001
00000000
,
00001000
00000000
00000100
00000000
,
00000010
00000001
00000100
00000000
,
00001000
00000000
00010000
00000000
,
00001000
01000000
00100000
00000000
,
10000000
00000000
01000000
00000000
,
00100000
00100000
00001000
00010000
,
00011000
00000000
00000000
00000000
,
00010000
00000000
00000000
00000000
,
00001000
00000000
00010000
00001000
,
00000100
00000000
00001000
00000000
,
00010000
00001000
00000000
00001000
,
00100000
00010000
00000000
00010000
,
01000000
00001000
00010000
00000100
,
00002200
00000000
00000000
00003300
,
00001000
00000010
00000100
00000010
,
00000100
00000000
00000000
00000001
00000000
00000000
00001000
00000000
,
00000001
00001000
00000010
00001000
,
00000100
00000000
00000000
00010000
00000000
00000000
00001000
00000000
,
00100000
00100000
00010000
00010000
,
01000000
01000000
00010000
00010000
,
00100000
00100000
00010000
00010000
,
01000000
00100000
10000000
01000000
,
01100000
00100000
00001000
00010000
,
00001000
00000000
00000000
01000000
00000000
00000000
00001000
00000000
,
00010000
00001000
00000010
00000100
,
00001000
00000000
00000000
00000001
00000000
00000000
00000010
00000000
,
00000001
00000001
00000100
00000100
,
00001000
00001000
00010000
00010000
,
00100000
00100000
10000000
10000000
,
00010000
10000000
01000000
00100000
,
00110000
00000000
01000000
00000000
,
00001000
00010000
00011000
00000000
,
00000010
00000000
00001000
00000000
,
00000100
00000010
00000011
00000000
,
00000001
00000000
00001000
00000000
,
00000100
00010000
00011000
00000000
,
00001000
00010000
01000000
10000000
,
00010000
00100000
01000000
10000000
,
00020000
00000000
00000000
00000000
,
20030000
00000000
31000000
00100000
,
00002000
00000000
00000000
00000000
,
00023000
00000000
00030100
00001000
,
00000020
00000000
00000000
00000000
,
00000230
00000000
00000301
00001000
,
00000010
00010000
00001000
00010000
,
00022000
00000000
00000000
00033000
,
00001000
00000000
00000000
00100000
00000000
00000000
00010000
00000000
,
10000000
00100000
10000000
00100000
,
01000000
00000000
00000000
00010000
00000000
00000000
00100000
00000000
,
00001000
00100000
00001000
00010000
,
00001000
00010000
00001000
00010000
,
00100000
00010000
00100000
00010000
,
00001000
00010000
00100000
00010000
,
00001000
00010000
00022000
00033000
,
00010000
00001000
00000100
00000001
,
00001000
00000100
00000010
00000001
,
00001000
00000001
00000100
00000010
,
00000100
00001000
00010000
00100000
,
01000000
00010000
10000000
00100000
,
00010000
00100000
10000000
01000000
,
00010000
00001000
00000100
00000001
,
00001000
00000100
00000010
00000001
,
00001001
00000000
00000000
00000110
,
00000000
00002002
00000000
00000000
00000000
00000000
00000000
00000000
,
00003003
00000000
00000000
00000000
;

//--------------- dance-double - Fred-104 ----------------
#NOTES:
     dance-double:
     Fred-104:
     Medium:
     10:
     :
00000000
00000000
00000000
00000000
,
00000000
00000000
00000000
00000000
,
00000000
00000000
00000000
00000000
,
00000000
00000000
00000000
00000000
,
00000000
00000000
00000000
00000000
,
00000000
00000000
00000000
00000000
,
00000000
00000000
00000000
00000000
,
00001000
00000000
00010000
00000000
,
00001000
00010000
01000000
00100000
,
00010000
00000000
10000000
00000000
,
00100000
00010000
00001000
00010000
,
00000010
00000010
00000000
00000000
00000100
00000100
00000000
00000000
,
00000001
00000001
00000000
00000000
00001000
00001000
00000000
00000000
,
00000010
00000010
00000000
00000000
00010000
00010000
00000000
00000000
,
00001000
00010000
01000000
10000000
,
10010000
00010000
10000000
00100000
,
10000000
01000000
00010000
00001000
,
00010000
00100000
00010000
00001000
,
00010000
01000000
00010000
00001000
,
00010000
00000100
00000010
00000001
,
00001000
00000001
00000100
00001000
,
00010000
00100000
01000000
00010000
,
10000000
01000000
00100000
00000000
00001000
00010000
00001000
00000000
,
00011000
00000000
00001000
00000000
,
00010000
00000000
00000100
00000000
,
00010000
00000000
00000000
00000000
00001000
00010000
01000000
10000000
,
00100000
00000000
01000000
00000000
,
00010000
01100000
00001000
00011000
,
00000100
00000110
00010000
00011000
,
00001000
00010000
01000000
10000000
00100000
00010000
00001000
00000000
,
00022000
00000000
00000000
00033000
,
00010000
00000000
00001000
00010000
00000000
00000010
00001000
00000000
,
00000100
00000000
00000010
00000001
00000000
00001000
00000001
00000000
,
00000100
00000000
00000010
00000100
00000000
00001000
00010000
00000000
,
00100000
00000000
01000000
00010000
00000000
00100000
01000000
00000000
,
10000000
00100000
00010000
00000000
00001000
00000100
00000001
00000000
,
00000001
00000010
00001000
00000000
00010000
01000000
10000000
00000000
,
00010000
00100000
01000000
00000000
00100000
00010000
01000000
00000000
,
00001000
00010000
00000010
00000000
00001000
00000100
00010000
00000000
,
00011000
00000000
00001000
00000000
00100000
00000000
00010000
01000000
,
00100000
00000000
10000000
00100000
01000000
00000000
00010000
00000000
,
10000000
00000000
01000000
00100000
00001000
00000000
00010000
00000100
,
00001000
00000100
00000010
00000000
00000001
00000000
00001000
00000010
,
00000100
00000010
00000001
00000010
,
00001000
00000000
00000001
00000010
00000000
00001000
00010000
00000000
,
00001000
00100000
01000000
00000000
10000000
00010000
10000000
00000000
,
00100000
01000000
00100000
00000000
01000000
00000000
00001000
00010000
,
00001000
00010000
00011000
00000000
,
00010000
00001000
00000010
00000000
00000100
00000000
00001000
00000000
,
00000001
00000100
00000110
00000000
,
00010000
00001000
00010000
00000000
00001000
00000000
00100000
00010000
,
10000000
00100000
01000000
00010000
,
00100000
01000000
00100000
00000000
00001000
00000000
00010000
00001000
,
00000010
00000100
00001000
00000001
,
00000010
00000100
00001000
00000000
00000001
00000100
00001000
00000000
,
00010000
00000000
00001000
00010000
00000000
01000000
00000000
00100000
,
00000000
00010000
00000000
10000000
00000000
00100000
00000000
00000000
,
10000000
00000000
00100000
00010000
00000000
00001000
00000000
00010000
,
00000000
00000100
00000000
00000010
00000000
00000001
00000000
00000000
,
00001000
00000000
00000001
00000100
00000000
00000010
00000000
00000100
,
00000000
00001000
00000000
00010000
00000000
00100000
00000000
00000000
,
01000000
00000000
00010000
10000000
00000000
01000000
00100000
00001000
,
00020000
00000000
00000000
00030000
,
00010000
00001000
00000010
00000001
,
00000100
00001000
00010000
00001000
,
00010000
01000000
00100000
00010000
,
10000000
00100000
00010000
00000000
00001000
00000000
00000100
00000001
,
00001000
00000001
00000010
00000100
,
00000010
00001000
00010000
01000000
,
10000000
00010000
00100000
00000000
01000000
10000000
00100000
00000000
,
01000000
00001000
00010000
00001000
00100000
00000000
00011000
00000000
,
00010000
00001000
00000010
00000000
00000100
00000000
00001000
00000000
,
00000100
00000010
00000001
00000000
00000100
00000000
00001000
00000000
,
00010000
00100000
01000000
00000000
00010000
00000000
00100000
00000000
,
01000000
10000000
00100000
00000000
10000000
00000000
01000000
00000000
,
00100000
00001000
00010000
00000000
00100000
00000000
10000000
00000000
,
01000000
00010000
00001000
00000000
00000010
00000000
00000001
00000000
,
00000100
00000010
00001000
00000000
00000001
00000010
00000100
00000000
,
00001000
00000001
00000100
00001000
00010000
00100000
10000000
00000000
,
10010000
00000000
00000000
00000000
00000000
10000000
01000000
00010000
,
00001000
00020000
00000000
00000000
00000000
00000000
00000000
00000000
,
00030000
00000000
00000000
00000000
;

//--------------- dance-double - Fred-104 ----------------
#NOTES:
     dance-double:
     Fred-104:
     Hard:
     13:
     :
00000000
00000000
00000000
00000000
,
00000000
00000000
00000000
00000000
,
00000000
00000000
00000000
00000000
,
00000000
00000000
00000000
00000000
,
00000000
00000000
00000000
00000000
,
00000000
00000000
00000000
00000000
,
00000000
00000000
00000000
00000000
,
01000000
00000000
00010000
00100000
00000000
00001000
00000000
01000000
,
00000000
00001000
00000000
00010000
00000000
00001000
00000000
00000010
,
00000100
00000000
00001000
00000001
00000000
00000010
00000000
00001000
,
00000000
00010000
00000000
00001000
00000000
01000000
00100000
10000000
,
00010000
00100000
00000000
00010000
10000000
00100000
00000000
10000000
,
00010000
01000000
00000000
00001000
00010000
00000010
00000000
00001000
,
00000010
00000100
00000000
00000001
00001000
00000100
00000000
00000010
,
00000001
00000100
00001000
00010000
00100000
01000000
00010000
00000000
,
00100000
01000000
10000000
00010000
01000000
00100000
10000000
00000000
,
00010000
01000000
10000000
01000000
00010000
00100000
00001000
00000000
,
00010000
00001000
00000100
00000010
00001000
00000010
00000100
00000000
,
00000001
00001000
00000001
00000010
00000100
00010000
00001000
00000000
,
00010000
00001000
00000010
00001000
00010000
00001000
00100000
00000000
,
00010000
01000000
10000000
01000000
00100000
10000000
00010000
00000000
,
10000000
01000000
00010000
00001000
00000010
00000001
00001000
00000000
,
00000001
00000001
00000100
00000010
00001000
00001000
00000100
00010000
,
00011000
00000000
00000000
00000000
,
00001000
00000000
00000000
00000000
,
00100000
00000000
00000000
00000000
00000000
00000000
00000000
00000000
00010000
00000000
10000000
00000000
00010000
00000000
01000000
00100000
,
01000000
00000000
00010000
10000000
,
00100000
10000000
01000000
00000000
00100000
00001000
00010000
00000000
,
00001000
00000100
00000010
00000000
00001000
00000001
00000100
00000000
,
00000001
00000010
00000100
00010000
00001000
00100000
01000000
10000000
,
00020000
00000000
00000000
00030000
,
10000000
00010000
01000000
00100000
01000000
00001000
00010000
00000000
,
00001000
00000010
00000001
00001000
00000001
00000100
00000010
00000000
,
00001000
00000001
00000100
00001000
00010000
00001000
00100000
00000000
,
01000000
10000000
00010000
00100000
00010000
01000000
00001000
00000000
,
00010000
00001000
00000010
00001000
00010000
00001000
00000010
00001000
,
00010000
00001000
00000100
00001000
00010000
00001000
00000100
00001000
,
00010000
00001000
00000010
00001000
00010000
00001000
00000100
00001000
,
00010000
00001000
00000010
00000001
00001000
00000100
00000010
00000000
,
00000001
00000100
00001000
00010000
00001000
01000000
00100000
00000000
,
10000000
00010000
00100000
01000000
00100000
00001000
00010000
00000000
,
00001000
00000100
00000010
00001000
00000001
00000100
00000010
00000000
,
00001000
00000001
00000100
00001000
00010000
00001000
00010000
01000000
,
00100000
00010000
10000000
01000000
00100000
00001000
00010000
00000000
,
01000000
10000000
00010000
01000000
00001000
00010000
00100000
00000000
,
00010000
00001000
01000000
00001000
00010000
00000010
00001000
00000001
,
00000010
00000100
00010000
00001000
00100000
01000000
00100000
00010000
,
10000000
01000000
00100000
01000000
11000000
10000000
00000000
00010000
,
01000000
00100000
00010000
00001000
00000100
00000000
00000010
00010000
,
00001000
00010000
00000100
00001000
00001001
00000001
00000000
00001000
,
00000001
00000010
00000100
00001000
00000001
00000100
00001000
00010000
,
00001000
00100000
01000000
10000000
10010000
00010000
00000000
01000000
,
00100000
10000000
01000000
00100000
00010000
01000000
00001000
00010000
,
00001000
00000010
00000001
00001000
00000010
00000100
00000001
00001000
,
00000100
00010000
00001000
00100000
00010000
10000000
00100000
00000000
,
01000000
00000000
00001000
00010000
00000000
00001000
00000000
00100000
,
00000000
00010000
00000000
01000000
00000000
00010000
00001000
00000010
,
00010000
00000000
00000100
00001000
00000000
00000001
00000000
00000100
,
00000000
00000010
00000000
00000100
00000000
00001000
00010000
00100000
,
01000000
00000000
00010000
10000000
00000000
01000000
00000000
00100000
,
00010000
01000000
00000000
10000000
00000000
01000000
00100000
10000000
,
01000000
00100000
00001000
00010000
00000100
00000010
00000001
00000000
,
00002002
00000000
00000000
00003003
,
00001001
00000000
00000001
00000100
00000010
00000100
00001000
00010000
,
00001000
00010000
00100000
01000000
00010000
10000000
00010000
00000000
,
10010000
00000000
10000000
01000000
00100000
01000000
00010000
00001000
,
00010000
00001000
00000010
00000100
00001000
00000001
00001000
00000000
,
00001010
00000000
00001000
00000001
00000010
00000100
00000010
00000001
,
00001000
00000001
00000100
00001000
00010000
00001000
00100000
01000000
,
10000000
00010000
01000000
10000000
01000000
00100000
10000000
00010000
,
10000000
01000000
00010000
00001000
00010000
00000000
00011000
00000000
,
00010000
00001000
00000010
00000001
00001000
00000010
00000100
00000001
,
00001000
00000001
00000010
00000100
00001000
00000100
00000010
00000001
,
00000100
00001000
00010000
00100000
01000000
00010000
01000000
00100000
,
10000000
01000000
00100000
00001000
00010000
00001000
01000000
00001000
,
00010000
00001000
00100000
00001000
00010000
00001000
01000000
00010000
,
00100000
00001000
00010000
00000010
00001000
00000100
00010000
00000100
,
00001000
00000001
00000100
00000010
00001000
00000001
00000010
00000100
,
00000010
00000001
00000100
00001000
00010000
00010000
00001000
00001000
,
00011000
00000000
00000000
00000000
00000000
00001000
00010000
01000000
,
10000000
20020000
00000000
00000000
00000000
00000000
00000000
00000000
,
30030000
00000000
00000000
00000000
;
