#VERSION:0.83;
#TITLE:BALLAD THE FEATHERS;
#ARTIST:S.S.D.FANTASICA feat.Naomi Koizumi;
#GENRE:CELTIC REEL;
#BANNER:BALLAD THE FEATHERS.png;
#BACKGROUND:BALLAD THE FEATHERS-bg.png;
#CDTITLE:./CDTitles/bm IIDX 13 DistorteD.png;
#MUSIC:BALLAD THE FEATHERS.ogg;
#SAMPLESTART:51.32;
#SAMPLELENGTH:15;
#BPMS:0=132;
#STAGE:22;

//--------------- dance-single - Fred-104 ----------------
#NOTEDATA:;
#STEPSTYPE:dance-single;
#DESCRIPTION:Fred-104;
#DIFFICULTY:Beginner;
#METER:1;
#CREDIT:Fred-104;
#NOTES:
0000
0000
0000
0000
,
0000
0000
0000
0000
,
0000
0000
0000
0000
,
0001
0000
0000
0000
,
1000
0000
0001
0000
,
1000
0000
0000
0000
,
0001
0000
0000
0000
,
1000
0000
0000
0000
,
0001
0000
0000
0000
,
1000
0000
0010
0000
,
1000
0000
0000
0000
,
0001
0000
0010
0000
,
0100
0000
0000
0000
,
1000
0000
1000
0000
,
1000
0000
0000
0000
,
0001
0000
0001
0000
,
0001
0000
0000
0000
,
0100
0000
0100
0000
,
0100
0000
0000
0000
,
0010
0000
0010
0000
,
0010
0000
0000
0000
,
1000
0000
0000
0000
,
0010
0000
0000
0000
,
1000
0000
0000
0000
,
0001
0000
0000
0000
,
1000
0000
0000
0000
,
0001
0000
0000
0000
,
1001
0000
0000
0000
,
0000
0000
0000
0000
,
0001
0000
1000
0000
,
0001
0000
0000
0000
,
1000
0000
0010
0000
,
1000
0000
0000
0000
,
0001
0000
0100
0000
,
0010
0000
0000
0000
,
1000
0000
0001
0000
,
1000
0000
0000
0000
,
0001
0000
0000
0000
,
1000
0000
0000
0000
,
0001
0000
0000
0000
,
1001
0000
0000
0000
,
1000
0000
0010
0000
,
1000
0000
0000
0000
,
0001
0000
0010
0000
,
0001
0000
0000
0000
,
0100
0000
0010
0000
,
0100
0000
0000
0000
,
0010
0000
1000
0000
,
0010
0000
0000
0000
,
1000
0000
0001
0000
,
1000
0000
0000
0000
,
0001
0000
0000
0000
,
1000
0000
0000
0000
,
0001
0000
0000
0000
,
2002
0000
0000
0000
0000
0000
0000
3003
;

//--------------- dance-single - Fred-104 ----------------
#NOTEDATA:;
#STEPSTYPE:dance-single;
#DESCRIPTION:Fred-104;
#DIFFICULTY:Easy;
#METER:5;
#CREDIT:Fred-104;
#NOTES:
0000
0000
0000
0000
,
0000
0000
0000
0000
,
0000
0000
0000
0000
,
1000
0010
0100
0001
,
0010
0001
1000
0001
,
1001
0000
1000
0000
,
0001
0000
0100
0010
,
0100
0000
0001
0000
,
1000
0001
1001
0000
,
1000
0100
0010
0001
,
1000
0010
0100
0001
,
1000
0100
0001
0100
,
1000
0001
0100
0010
,
1000
0000
0010
0000
,
0001
0000
0100
1000
,
0001
0000
0100
0000
,
0010
0000
1000
0001
,
0010
0000
0001
0000
,
1000
0000
0010
0001
,
0100
0000
1000
0001
,
1000
0001
1001
0000
,
1000
0100
0010
0001
,
0100
0100
0010
0100
,
0001
1000
0001
0100
,
0002
0023
0230
2300
,
3001
0100
0010
0100
,
0001
1000
0001
0100
,
0001
0000
0000
0100
0000
0010
0000
1001
,
0000
0000
0000
0000
,
1000
0100
1000
0010
,
1000
0100
0010
0100
,
0010
0001
1000
0001
,
0100
0100
0001
1000
,
0001
0001
0100
0010
,
0100
0001
1000
1000
,
0001
0010
0100
1000
,
0001
0100
0010
1000
,
1001
0000
0001
0000
,
0100
0000
0010
1000
,
0001
0000
1000
0000
,
1001
0000
0000
0000
,
0001
0010
0100
1000
,
0001
0100
0010
0100
,
0001
0010
0001
0010
,
1000
0100
1000
0100
,
0001
1000
0001
0100
,
0010
1000
0100
0100
,
0010
0001
1000
0001
,
0100
0010
0100
0100
,
0001
1000
0001
0100
,
0010
1000
0100
0100
,
1001
0000
1000
0000
,
0010
0001
0100
1000
,
0001
0100
0010
1000
,
2200
0000
3300
0000
2002
0000
0000
3003
;

//--------------- dance-single - Fred-104 ----------------
#NOTEDATA:;
#STEPSTYPE:dance-single;
#DESCRIPTION:Fred-104;
#DIFFICULTY:Medium;
#METER:9;
#CREDIT:Fred-104;
#NOTES:
0000
0000
0000
0000
,
0000
0000
0000
0000
,
0000
0000
0000
0000
,
1000
0100
1000
0000
0010
1000
0100
0000
,
0010
0001
1000
0000
0001
0100
0001
0100
,
0020
0000
2030
0000
,
3200
0000
0320
0032
,
2003
0000
3002
0203
,
0310
0000
0000
1000
0000
0000
0001
0000
1001
0000
0000
0000
0000
0000
0000
0000
,
1000
0010
0100
0000
0010
0100
0001
0000
,
1000
0100
0010
0000
0001
0100
0010
0100
,
0001
0010
0001
0000
1000
0010
0100
0000
,
0001
0000
0000
1000
0000
0000
0001
0000
0101
0000
0000
0000
1010
0000
0000
0000
,
1001
0000
0000
0000
0001
0000
0000
0000
0100
0000
0000
0010
0000
0000
0010
0000
,
1000
0010
0001
0100
,
1000
0000
0001
0100
0010
0000
1000
0000
,
0002
0000
0000
0100
0000
0000
0103
0000
0020
0000
0000
1000
0000
0000
1030
0000
,
0001
0000
0000
0000
0100
0000
0000
0000
1000
0000
0000
0010
0000
0000
0001
0000
,
1000
0001
0100
1000
,
0100
0000
0010
1000
0100
0000
0010
0001
,
1000
0000
0000
0001
0000
0000
1000
0000
1001
0000
0000
0000
0110
0000
0000
0000
,
1001
0000
0000
0001
0100
0000
0000
0000
0100
0000
0000
0100
0010
0000
0000
0000
,
0010
0000
0000
0010
1000
0000
0000
0000
1000
0000
0000
1000
0100
0000
0000
0000
,
0100
0000
0000
0100
0010
0000
0000
0000
0010
0000
0000
0010
0001
0000
0000
0000
,
0001
0100
0010
0000
1000
0010
0100
0000
,
0001
0000
0000
0001
0010
0000
0000
0000
0100
0000
0000
0100
1000
0000
0000
0000
,
0001
0000
0000
0001
1000
0000
0000
0000
1000
0000
0000
1000
0010
0000
0000
0000
,
0100
0010
0100
0100
0000
0001
0000
1001
,
0000
0000
0000
0000
,
1000
0000
0000
1000
0100
0000
0000
0000
0010
0000
0000
0010
0001
0000
0000
0000
,
0001
0000
0000
0001
0100
0000
0000
0000
0010
0000
0000
0010
1000
0000
0000
0000
,
0001
0000
0000
0001
0100
0000
0000
0000
0010
0000
0000
0010
0100
0000
0000
0000
,
0001
0000
0000
1000
0000
0000
0001
0000
0100
0000
0010
0000
1000
0000
0010
0000
,
1000
0000
0000
1000
0100
0000
0000
0000
0010
0000
0000
0010
0001
0000
0000
0000
,
0100
0000
0000
0100
0010
0000
0000
0000
1000
0000
0000
0001
0000
0000
1000
0000
,
0001
0000
0000
0001
0100
0000
0000
0000
0010
0000
0000
0010
1000
0000
0001
0000
,
0100
0000
0000
0100
0000
0000
0010
0000
1000
0000
0001
0000
0100
0000
0000
0000
,
0120
0000
2030
0000
,
3002
0000
0203
2300
,
3020
0000
0032
1003
,
1001
0000
0000
0000
0001
0000
0100
0000
0010
0000
0000
1000
0000
0000
1000
0000
,
0001
0000
0000
0001
0100
0000
0000
0000
1000
0000
0000
1000
0100
0000
0000
0000
,
0001
0000
0000
0001
0010
0000
0000
0000
1000
0000
0000
1000
0010
0000
0000
0000
,
0001
0000
0000
0001
0100
0000
0000
0000
0010
0000
0000
0010
1000
0000
0001
0000
,
1000
0000
0000
0010
0000
0000
0100
0000
0001
0000
0100
0000
0010
0000
0100
0000
,
0001
0000
0000
0001
0010
0000
0000
0000
0100
0000
0000
0100
1000
0000
0000
0000
,
1000
0000
0000
1000
0010
0000
0000
0000
0100
0000
0000
0001
0010
0000
0000
0000
,
0001
0000
0000
1000
0001
0000
0100
0000
0010
0000
1000
0000
0100
0000
0010
0000
,
0001
0000
0000
0100
0010
0000
0000
0000
0100
0000
0000
0010
1000
0000
0000
0000
,
0001
0000
0000
0100
0010
0000
0000
0000
0100
0000
0001
0000
1000
0000
0001
0000
,
0010
0000
0000
0001
0000
0000
0100
0000
0010
0000
1000
0000
0100
0000
0010
0000
,
0011
0000
0001
0000
,
0100
1000
0010
0001
,
1000
0000
0001
0000
0100
0000
0010
1000
,
0001
0000
0000
0101
0000
0000
0010
0000
1000
0000
0000
1100
0000
0000
1001
0000
;

//--------------- dance-single - Fred-104 ----------------
#NOTEDATA:;
#STEPSTYPE:dance-single;
#DESCRIPTION:Fred-104;
#DIFFICULTY:Hard;
#METER:11;
#CREDIT:Fred-104;
#NOTES:
0000
0000
0000
0000
,
0000
0000
0000
0000
,
0000
0000
0000
0000
,
1000
0010
0001
0100
,
1000
0000
0000
0000
0001
0000
0000
1000
0001
0000
0001
0000
1000
0000
1000
0000
,
1002
0000
0203
0000
,
2300
0000
3020
0032
,
2003
0000
3200
0000
,
1300
0000
0000
0001
0000
0000
1000
0000
1001
0000
0000
0000
0000
0000
0000
0000
,
1000
0000
0000
1000
0100
0000
0010
0000
0100
0000
0000
0100
1000
0000
0001
0000
,
0100
0000
0000
0100
0010
0000
0100
0000
0001
0000
0010
0001
0010
0000
0001
0000
,
1000
0000
0000
1000
0010
0000
0100
0000
0001
0000
0000
0001
1000
0000
0010
0000
,
1010
0000
0000
0110
0000
0000
0101
0000
0000
0000
0001
1000
0001
0000
0100
0000
,
0002
0000
0023
0000
,
2030
0000
3002
0203
,
2300
0000
3002
2003
,
3001
0000
0000
0100
0000
0000
0100
0000
1000
0000
0000
0010
0000
0000
0010
0000
,
0002
0000
0023
2030
,
3002
0000
0203
2300
,
3002
0000
0203
0310
,
1100
0000
0000
0101
0000
0000
1010
0000
0011
0000
0000
0000
1001
0000
0000
0000
,
0001
0000
0000
0001
0100
0000
0000
0100
1000
0000
0000
1000
0100
0000
0001
0000
,
1000
0000
0000
1000
0010
0000
0000
0010
0100
0000
0000
0100
0001
0000
1000
0000
,
0100
0000
0000
0100
0010
0000
0000
0010
0001
0000
0000
0001
0100
0000
0010
0000
,
0002
0000
0023
0000
1030
0001
1000
0001
,
0100
0000
0000
0001
0100
0000
0110
0000
0000
0000
0010
0000
1000
0000
0100
0000
,
1000
0000
0000
0100
0010
0000
0011
0000
0000
0000
0001
0000
1000
0000
0001
0000
,
0101
0000
0000
0110
0000
0000
0101
0000
0000
0000
0110
0000
0000
0000
1001
0000
,
0000
0000
0000
0000
,
1000
0000
0010
1000
0010
0000
0100
0000
0001
0000
1000
0001
1000
0000
0010
0000
,
0100
0000
0001
0010
0001
0000
0100
0000
0001
0000
1000
0100
1000
0000
0010
0000
,
0100
0000
0010
1000
0010
0000
0100
0000
0001
0000
0010
0100
0010
0000
0001
0000
,
1001
0000
0000
0110
0000
0000
1001
0000
1000
0000
1000
0000
0001
0000
0001
0000
,
0100
0000
0010
1000
0010
0000
0100
0000
0001
0000
1000
0010
1000
0000
0010
0000
,
0100
0000
0001
1000
0001
0000
0100
0000
0010
0000
0000
1000
0000
0000
0001
0000
,
1000
0100
0010
0001
1000
0001
0100
0010
,
1000
0000
0000
0010
0000
0000
0001
0000
0100
0000
1000
0000
0001
0000
0000
0000
,
2001
0000
3200
0000
,
0302
0000
0023
2030
,
3002
0000
0203
0300
,
0110
0000
0000
0000
1001
0000
0000
0000
1000
0000
0000
1000
0000
0000
1000
0000
,
0001
0000
0000
0001
0010
0000
0000
0010
0100
0000
0000
0100
1000
0000
0010
0000
,
0100
0000
0001
0010
0001
0000
0100
0010
0100
0000
0001
0000
1000
0000
0010
0000
,
0100
0000
0000
0100
0010
0000
0000
0010
1000
0000
0000
1000
0100
0000
0010
0001
,
1000
0000
0000
1000
0000
0000
1000
0000
0001
0000
0100
0000
0010
0000
0100
0000
,
0001
0000
0010
0001
0010
0000
0100
0000
0010
0000
0001
0010
0001
0000
1000
0000
,
0010
0000
1000
0100
1000
0000
0001
1000
0001
0000
0000
0100
0000
0000
0010
0000
,
0100
0000
0001
0000
1000
0000
0100
0000
0010
0000
0001
1000
0001
0000
0100
0000
,
0010
0000
1000
0000
0100
0000
1000
0000
0001
0100
0001
0000
0100
0010
0100
0000
,
0001
0000
0010
0000
0100
0000
0010
0000
0001
0000
0100
0010
0100
0000
0001
0000
,
1000
0000
0000
0010
0000
0000
0100
0000
0001
0000
0010
0000
0100
0000
1000
0000
,
0001
0010
1000
0000
,
0001
0100
1000
0000
,
0001
0000
0010
0000
1000
0000
0100
0001
,
1000
0000
0000
1100
0000
0000
0011
0000
1010
0000
0000
0101
0000
0000
1001
0000
;

//--------------- dance-single - Fred-104 ----------------
#NOTEDATA:;
#STEPSTYPE:dance-single;
#DESCRIPTION:Fred-104;
#DIFFICULTY:Challenge;
#METER:14;
#CREDIT:Fred-104;
#NOTES:
0000
0000
0000
0000
,
0000
0000
0000
0000
,
0000
0000
0000
0000
,
0001
0000
0100
0001
0100
0000
0010
0100
0010
0000
0100
0001
0100
0000
0010
0000
,
1000
0000
0100
1000
0100
0000
0010
0100
0010
0000
0010
0000
0001
0000
0001
0000
,
2001
0000
3020
0000
,
0230
0000
0302
0023
,
2030
0000
3200
0302
,
1003
0000
0000
0001
0000
0000
1000
0000
1001
0000
0000
0000
0000
0000
0000
0000
,
0001
0000
0100
0010
0100
0000
0001
0000
1000
0100
0010
0100
1000
0000
0001
0000
,
0100
0000
0010
1000
0100
0000
0010
0000
0001
0100
0010
0100
0001
0100
0010
0000
,
1000
0000
0100
1000
0100
0000
0010
0000
0001
1000
0010
1000
0001
0000
0100
0000
,
0110
0000
0000
1010
0000
0000
0101
0000
0001
1000
0010
1000
0001
0100
0010
0000
,
1020
0000
0000
0000
1030
0000
0200
0000
0320
0000
0000
0032
0000
0000
0103
0010
,
2000
0000
0000
0000
3010
0000
0001
0100
2000
0000
0000
0000
3020
0000
0000
0000
,
0230
0000
0000
0000
0301
0000
0010
0100
2000
0000
0000
0000
3020
0000
0000
0000
,
1030
0000
0000
0010
0000
0000
0010
0000
0001
0000
0000
0100
0000
0000
0100
0000
,
2000
0000
0000
0000
3002
0000
2003
0000
3200
0000
0000
0320
0000
0000
0031
0100
,
2000
0000
0000
0000
3200
0000
0301
0010
0200
0000
0000
0000
2300
0000
0000
0000
,
3002
0000
0000
0000
0000
0000
0000
0000
0000
0000
0000
0000
0203
0000
0000
0000
0000
0000
0310
0000
0000
1000
0000
0000
0002
0000
0000
0000
0000
0000
0000
0000
0000
0000
0000
0000
2003
0000
0000
0000
0000
0000
3001
0000
0100
0000
0001
0000
,
0100
0000
0000
0100
0000
0000
0100
0000
0110
0000
0000
0000
1001
0000
0000
0000
,
1000
0000
0100
1000
0000
0100
1000
0000
0001
0000
0100
0001
0000
0100
0001
0000
,
1000
0000
0001
0010
0000
0100
1000
0000
0001
0000
0100
0010
1000
0000
0010
0100
,
0001
0000
0010
0001
0010
0000
0001
1000
0001
0000
0100
0010
0100
0000
0010
0000
,
2000
0010
3020
0000
0032
0000
0203
1000
,
1300
0000
0001
0100
0010
0000
0100
0010
1000
0000
0001
0000
0010
0000
0100
0000
,
1000
0000
0000
0000
0000
0000
0010
0000
0000
1000
0000
0000
0100
0000
0000
0000
0000
0000
0010
0000
0000
0001
0000
0000
0100
0000
0000
0000
0000
0000
0001
0000
0000
0000
0000
0000
1000
0000
0000
0000
0000
0000
0001
0000
0010
0000
0001
0000
,
0010
0000
0001
0100
0010
0000
0110
0000
0000
0000
1010
0000
0000
0000
0101
0000
,
0000
0000
0000
0000
,
2001
0000
3010
1000
0100
0000
0010
0001
0100
0000
0010
1000
0100
0000
0010
0001
,
1000
0000
0001
0010
0100
0000
1000
0010
0100
0000
0001
0010
0100
0000
1000
0010
,
0100
0000
0000
0000
0000
0000
0001
0000
0000
1000
0000
0000
0100
0000
0000
0000
0000
0000
1000
0000
0000
0001
0000
0000
0010
0000
0000
0000
0000
0000
0001
0000
0000
1000
0000
0000
0100
0000
0000
0000
0000
0000
1000
0000
0001
0000
0010
0000
,
0001
0000
0000
0100
0000
0000
0010
0000
1000
0000
0100
0000
0110
0000
0011
0000
,
1002
0000
0103
0001
0010
0000
0100
1000
0010
0000
0100
0001
0010
0000
0100
1000
,
0010
0000
0000
0000
0000
0000
1000
0000
0000
0010
0000
0000
0100
0000
0000
0000
0000
0000
0001
0000
0100
0000
0010
0000
1000
0000
0000
0000
0000
0000
0000
0000
0000
0100
0000
0000
0000
0000
0000
0000
0000
0000
0100
0000
0000
0000
0000
0000
,
0001
0000
0000
0000
0000
0000
0010
0000
0000
0001
0000
0000
1000
0000
0000
0000
0000
0000
0100
0000
0000
1000
0000
0000
0001
0000
0000
0000
0000
0000
0010
0000
0000
0001
0000
0000
1000
0000
0000
0000
0000
0000
0001
0000
1000
0000
0001
0000
,
1000
0000
0000
0010
0000
0000
1000
0000
1100
0000
0110
0000
0011
0000
0101
0000
,
2001
0000
3020
0000
,
2030
3200
0302
0023
,
2030
0000
3002
0103
,
0110
0000
0000
0000
0000
0000
0000
0000
0000
0000
0000
0000
0020
0000
0000
0000
0000
0000
1030
0000
0100
0000
0010
0000
0001
0000
0000
0000
0000
0000
0000
0000
0000
0100
0000
0000
0000
0000
0000
0000
0000
0000
0100
0000
0000
0000
0000
0000
,
1000
0000
0100
1000
0010
0000
0100
0000
0001
0010
0100
1000
0001
0000
0100
0000
,
0010
0000
1000
0010
0100
0000
0010
0000
1000
0010
1000
0100
0010
0001
1000
0000
,
0001
0000
0000
0000
0000
0000
0100
0000
0000
0001
0000
0000
0010
0000
0000
0000
0000
0000
0100
0000
0000
0000
0000
0000
0010
0000
0000
0001
0000
0000
1000
0000
0000
0001
0000
0000
0010
0000
0000
0000
0000
0000
0001
0000
0100
0000
0010
0000
,
1000
0000
0000
0100
0000
0000
0100
0000
0001
0010
0100
1000
0100
0010
0001
1000
,
0001
0000
0100
0010
1000
0000
0100
0000
0010
0001
1000
0001
0100
0000
0010
0000
,
0100
0000
0000
0000
0000
0000
0001
0000
0000
0100
0000
0000
0010
0000
0000
0000
0000
0000
1000
0000
0010
0000
0100
0000
0010
0000
0000
0000
0000
0000
0000
0000
0000
0100
0000
0000
0000
0000
0000
0000
0000
0000
0100
0000
0000
0000
0000
0000
,
0001
0000
0100
0001
0010
0000
0100
0000
1000
0010
0100
0010
1000
0000
0001
0000
,
0100
0000
0001
1000
0100
0000
1000
0000
0010
1000
0100
1000
0001
0100
0001
0000
,
1000
0000
0000
0000
0000
0000
0100
0000
0000
0010
0000
0000
0001
0000
0000
0000
0000
0000
1000
0000
0000
0000
0000
0000
0010
0000
0000
0100
0000
0000
0001
0000
0000
1000
0000
0000
0001
0000
0000
0000
0000
0000
0100
0000
0001
0000
1000
0000
,
0001
0000
0000
0100
0000
0000
0010
0000
1010
0000
0110
0000
0101
0000
0011
0000
,
1001
0000
1000
0000
0100
0010
0001
0000
,
1000
0000
0001
0000
0100
1000
0100
0001
,
1000
0000
0000
0000
0000
0000
0010
0000
0000
0000
0000
0000
0001
0000
0000
0100
0000
0000
1000
0000
0000
0001
0100
0010
,
0100
0000
0000
1010
0000
0000
0101
0000
1100
0000
0000
0011
0000
0000
1001
0000
;

//--------------- dance-double - Fred-104 ----------------
#NOTEDATA:;
#STEPSTYPE:dance-double;
#DESCRIPTION:Fred-104;
#DIFFICULTY:Easy;
#METER:4;
#CREDIT:Fred-104;
#NOTES:
00000000
00000000
00000000
00000000
,
00000000
00000000
00000000
00000000
,
00000000
00000000
00000000
00000000
,
00010000
00000000
00001000
00000000
,
00010000
00000000
00000100
00000010
,
00001001
00000000
00000001
00000000
,
00000100
00000000
00000100
00000000
,
00001000
00000000
00001000
00000000
,
00010000
00001000
00011000
00000000
,
01000000
00100000
01000000
00000000
,
00010000
01000000
00010000
00000000
,
10000000
00100000
10000000
00000000
,
00010000
10000000
10010000
00000000
,
10000000
00000000
01000000
00000000
,
00100000
00000000
00000000
00000000
,
00001000
00000000
00010000
00000000
,
00000100
00000000
00000000
00000000
,
00010000
00000000
00000010
00000000
,
00001000
00000000
00000000
00000000
,
00000100
00000000
00000010
00000000
,
00000001
00001000
00001001
00000000
,
00000001
00000100
00000001
00000000
,
00001000
00000010
00010000
00000000
,
00001000
00010000
00001000
00000000
,
00002000
00023000
00032000
00023000
,
00031000
00100000
00010000
00000000
,
01000000
00100000
01000000
00000000
,
20020000
00000000
00000000
00000000
00000000
00000000
00000000
30030000
,
00000000
00000000
00000000
00000000
,
10000000
00100000
10000000
00100000
,
01000000
00010000
01000000
00010000
,
00100000
01000000
00100000
00001000
,
00010000
00001000
00011000
00000000
,
00010000
00000100
00001000
00000100
,
00001000
00000001
00001001
00000000
,
00000001
00000100
00001000
00000000
,
00010000
01000000
10000000
00000000
,
10010000
00000000
00010000
00000000
,
10000000
00000000
01000000
00000000
,
00100000
00000000
00001000
00000000
,
00011000
00000000
00000000
00000000
,
00010000
00001000
00000010
00000000
,
00001000
00010000
00100000
00000000
,
00001000
00010000
00000100
00000000
,
00001000
00000010
00000100
00000100
,
00000001
00001000
00000001
00000000
,
00000100
00000010
00001000
00010000
,
00100000
00000000
00001000
00000000
,
00010000
00000000
00001000
00100000
,
00010000
00000000
10000000
00000000
,
00010000
00000000
01000000
00100000
,
10010000
00000000
10000000
00000000
,
01000000
00000000
00100000
00001000
,
00010000
00000000
00000100
00000000
,
00000220
00000000
00000330
00000000
00002002
00000000
00000000
00003003
;

//--------------- dance-double - Fred-104 ----------------
#NOTEDATA:;
#STEPSTYPE:dance-double;
#DESCRIPTION:Fred-104;
#DIFFICULTY:Medium;
#METER:8;
#CREDIT:Fred-104;
#NOTES:
00000000
00000000
00000000
00000000
,
00000000
00000000
00000000
00000000
,
00000000
00000000
00000000
00000000
,
00010000
00001000
00000010
00000001
,
00000100
00000000
00001000
00000000
00010000
00001000
00010000
00000000
,
00012000
00000000
00203000
00000000
,
20300000
00000000
32000000
03020000
,
00032000
00000000
00003020
00000031
,
00001000
00000000
00000000
00000001
00000000
00000000
00001000
00000000
00001001
00000000
00000000
00000000
00000000
00000000
00000000
00000000
,
00000001
00000100
00000001
00000000
00000100
00000000
00000010
00000000
,
00001000
00000100
00001000
00000000
00000100
00000000
00010000
00000000
,
00000010
00010000
00000010
00000000
00010000
00000000
00001000
00000000
,
00100000
00000000
00000000
00010000
00000000
00000000
10000000
00000000
00010000
00000000
01000000
00000000
00100000
00000000
00000000
00000000
,
02000000
00000000
03200000
20300000
,
32000000
00000000
03200000
00302000
,
00023000
00000000
00030020
00020030
,
00031000
00000000
00000000
00010000
00000000
00000000
00000100
00000000
00001000
00000000
00000000
00000001
00000000
00000000
00000100
00000000
,
00000020
00000000
00002030
00003002
,
00000203
00000000
00002300
00023000
,
02030000
00000000
23000000
30010000
,
10000000
00000000
00000000
00010000
00000000
00000000
01000000
00000000
01100000
00000000
00000000
00000000
00000000
00000000
00000000
00000000
,
10010000
00000000
00000000
00010000
01000000
00000000
00000000
00000000
01000000
00000000
00000000
01000000
00100000
00000000
00000000
00000000
,
10000000
00000000
00000000
10000000
01000000
00000000
00000000
00000000
00100000
00000000
00000000
00000000
00001000
00000000
00000000
00000000
,
00010000
00000000
00000000
00010000
00001000
00000000
00000000
00000000
00000010
00000000
00000000
00000010
00000100
00000000
00000000
00000000
,
00000001
00000000
00001000
00000000
00000001
00000100
00000001
00000000
,
00000100
00000000
00000000
00000100
00000010
00000000
00000000
00000000
00000010
00000000
00000000
00000010
00000100
00000000
00000000
00000000
,
00000001
00000100
00001000
00000000
00010000
01000000
10000000
00000000
,
00010000
00000000
01000000
00100000
00000000
10100000
00000000
01010000
,
00000000
00000000
00000000
00000000
,
00001000
00000000
00010000
00000000
00000100
00001000
00000001
00000000
,
00000100
00000000
00000010
00000000
00001000
00000100
00000010
00000000
,
00000001
00000000
00001000
00000000
00000001
00000100
00001000
00000100
,
00000001
00000000
00000000
00000100
00000000
00000000
00000010
00000000
00000100
00000000
00000001
00000000
00001000
00000000
00000000
00000000
,
00000010
00000000
00000100
00000000
00001000
00010000
00001000
00000000
,
00100000
00000000
00000000
00000000
00010000
00000000
10000000
00000000
00010000
00000000
00000000
01000000
00000000
00000000
00100000
00000000
,
01000000
00010000
10000000
00000000
00100000
10000000
01000000
00000000
,
00100000
00000000
00000000
00001000
00000000
00000000
00010000
00000000
00001000
00000000
00000100
00000000
00000010
00000000
00000000
00000000
,
00001002
00000000
00000203
00000000
,
00002300
00000000
00023000
00230000
,
20300000
00000000
32000000
03010000
,
00011000
00000000
00000000
00000000
00001000
00000000
00000010
00000000
00000001
00000000
00000000
00001000
00000000
00000000
00000001
00000000
,
00000100
00000000
00000000
00000100
00000010
00000000
00000000
00000000
00001000
00000000
00000100
00000000
00010000
00000000
00000000
00000000
,
00000010
00000000
00000000
00000010
00001000
00000000
00000000
00000000
00000100
00000000
00001000
00000000
00010000
00000000
00000000
00000000
,
00001000
00000000
00000000
00001000
01000000
00000000
00000000
00000000
00010000
00000000
00100000
00000000
00010000
00000000
00000000
00000000
,
01000000
00000000
00000000
01000000
00000000
00000000
01000000
00000000
00100000
00000000
10000000
00000000
00100000
00000000
00000000
00000000
,
10000000
01000000
00100000
00000000
01000000
10000000
00010000
00000000
,
01000000
00000000
00000000
00000000
00100000
00000000
00001000
00000000
00010000
00000000
00000000
00001000
00000000
00000000
00010000
00000000
,
00000100
00001000
00000001
00000000
00000100
00000000
00000010
00000000
,
00001000
00000100
00000010
00000000
00000001
00001000
00000001
00000000
,
00000100
00000010
00000001
00000100
00000010
00001000
00000100
00000000
,
00001000
00010000
00001000
00100000
00010000
00100000
00001000
00000000
,
00011000
00000000
00010000
00000000
00001000
00000010
00000001
00000000
,
00000001
00000000
00000100
00000000
00001000
00010000
00100000
00000000
,
00100000
00000000
10000000
00000000
01000000
00010000
00001000
00000000
,
00001000
00000000
00000000
00000010
00000000
00000000
00000001
00000000
00000100
00000000
00000000
00001000
00000000
00000000
00011000
00000000
;

//--------------- dance-double - Fred-104 ----------------
#NOTEDATA:;
#STEPSTYPE:dance-double;
#DESCRIPTION:Fred-104;
#DIFFICULTY:Hard;
#METER:11;
#CREDIT:Fred-104;
#NOTES:
00000000
00000000
00000000
00000000
,
00000000
00000000
00000000
00000000
,
00000000
00000000
00000000
00000000
,
00001000
00100000
00010000
01000000
00001000
00010000
00000100
00001000
,
00000010
00000000
00000000
00010000
00001000
00000000
00000000
00100000
00010000
00000000
00100000
00000000
01000000
00000000
00001000
00000000
,
00021000
00000000
00032000
00000000
,
00003020
00000000
00000032
00000203
,
00002300
00000000
00023000
00230000
,
10300000
00000000
00000000
00010000
00000000
00000000
10000000
00000000
10010000
00000000
00000000
00000000
00000000
00000000
00000000
00000000
,
00010000
00000000
00000000
00010000
01000000
00000000
00100000
00000000
10000000
00000000
00000000
10000000
01000000
00000000
00100000
00000000
,
01000000
00000000
00000000
01000000
00100000
00000000
00001000
00000000
00010000
00000000
00000100
00000000
00000010
00000000
00000000
00000000
,
00000001
00000000
00000000
00000001
00001000
00000000
00000100
00000000
00000010
00000000
00000000
00000010
00000100
00000000
00001000
00000000
,
00000001
00000000
00000000
00000100
00000000
00000000
00000010
00000000
00001000
00000000
00010000
00000000
00001000
00000000
00000000
00000000
,
00021000
00000000
00032000
00203000
,
02300000
00000000
03020000
00032000
,
00003020
00000000
00000230
00020300
,
00031000
00000000
00000000
00010000
00000000
00000000
00100000
00000000
10000000
00000000
00000000
00010000
00000000
00000000
10000000
00000000
,
02000000
00000000
03200000
00302000
,
00023000
00000000
00030200
00000320
,
00000032
00000000
00000203
00001300
,
00001100
00000000
00000000
00000101
00000000
00000000
00001001
00000000
00001010
00000000
00000000
00000000
00000011
00000000
00000000
00000000
,
00000001
00000000
00000000
00000001
00000100
00000000
00000010
00000000
00001000
00000000
00000000
00001000
00000100
00000000
00010000
00000000
,
00001000
00000000
00000000
00001000
00000010
00000000
00000001
00000000
00001000
00000000
00000000
00000000
00000001
00000000
00001000
00000000
,
00000010
00000000
00000000
00000010
00000100
00000000
00001000
00000000
00000100
00000000
00000000
00000100
00010000
00000000
00001000
00000000
,
00200000
00320000
00032000
00023000
,
00130000
00000000
00000000
00010000
10000000
00000000
00100000
00000000
01000000
00000000
00000000
00100000
10000000
00000000
01000000
00000000
,
00100000
00000000
00000000
00001000
00010000
00000000
00100000
00000000
00000000
00000000
10000000
00000000
00010000
00000000
10000000
00000000
,
01000000
00000000
00000000
00100000
00001000
00000000
00010000
00000000
00000000
00000000
00011000
00000000
00000000
00000000
00000110
00000000
,
00000000
00000000
00000000
00000000
,
00000001
00000000
00000000
00000001
00000010
00000000
00000000
00000010
00000100
00000000
00000000
00000100
00001000
00000000
00000010
00000000
,
00000100
00000000
00000000
00000100
00000010
00000000
00000000
00000010
00010000
00000000
00000000
00010000
00001000
00000000
00010000
00000000
,
00000100
00000000
00000000
00000100
00010000
00000000
00000000
00010000
01000000
00000000
00000000
01000000
00100000
00000000
01000000
00000000
,
00010000
00000000
00000000
00010000
00000000
00000000
00010000
00000000
01000000
00000000
00100000
00000000
10000000
00000000
00100000
00000000
,
01000000
00000000
00000000
01000000
00010000
00000000
00000000
00010000
10000000
00000000
00000000
10000000
01000000
00000000
00100000
00000000
,
00001000
00000000
00000000
00001000
00010000
00000000
00000100
00000000
00010000
00000000
00000000
00001000
00000000
00000000
00010000
00000000
,
00000100
00001000
00000100
00000010
00000100
00001000
00000010
00001000
,
00000001
00000000
00000000
00000010
00000000
00000000
00001000
00000000
00000010
00000000
00000001
00000000
00001000
00000000
00000100
00000000
,
00000020
00000000
00000032
00000000
,
00000203
00000000
00002300
00023000
,
00230000
00000000
20300000
30010000
,
10010000
00000000
00000000
00000000
01000000
00000000
00000000
00000000
10000000
00000000
00000000
10000000
00000000
00000000
00010000
00000000
,
01000000
00000000
00000000
01000000
00100000
00000000
10000000
00000000
01000000
00000000
00100000
00000000
00001000
00000000
00010000
00000000
,
00100000
00000000
00000000
10000000
00010000
00000000
01000000
00000000
00100000
00000000
01000000
00000000
00010000
00000000
00000000
00000000
,
00100000
00000000
00000000
00001000
00010000
00000000
00001000
00000000
00000010
00000000
00000100
00000000
00000001
00000000
00001000
00000000
,
00000001
00000000
00000000
00000001
00000000
00000000
00000001
00000000
00000100
00000000
00000010
00000000
00000100
00000000
00000000
00000000
,
00000001
00000000
00000000
00000001
00000010
00000000
00000100
00000000
00001000
00000000
00000010
00000000
00000100
00000000
00000010
00000000
,
00001000
00000000
00000000
00000100
00010000
00000000
00001000
00000000
00010000
00000000
00000000
00010000
00000000
00000000
00010000
00000000
,
00001000
00100000
00010000
10000000
00010000
01000000
00100000
10000000
,
01000000
00000000
00100000
00000000
00010000
00000000
10000000
00000000
00100000
00000000
10000000
01000000
10000000
00000000
00010000
00000000
,
01000000
00100000
00010000
00001000
00010000
00000100
00001000
00000001
,
00000100
00000000
00000010
00000000
00000100
00000000
00000001
00000000
00001000
00000000
00000010
00000100
00000010
00000000
00001000
00000000
,
00001100
00000000
00000010
00000000
,
00000001
00000100
00001000
00010000
,
00100000
00000000
10000000
00010000
,
11000000
00000000
00000000
01100000
00000000
00000000
00100000
00000000
00001000
00000000
00000000
00011000
00000000
00000000
00010010
00000000
;

//--------------- dance-double - Fred-104 ----------------
#NOTEDATA:;
#STEPSTYPE:dance-double;
#DESCRIPTION:Fred-104;
#DIFFICULTY:Challenge;
#METER:14;
#CREDIT:Fred-104;
#NOTES:
00000000
00000000
00000000
00000000
,
00000000
00000000
00000000
00000000
,
00000000
00000000
00000000
00000000
,
01000000
00000000
00010000
10000000
00010000
00000000
01000000
00100000
01000000
00000000
00010000
10000000
00010000
00000000
10000000
00000000
,
01000000
00000000
00100000
00010000
00100000
00000000
00001000
00010000
00001000
00000000
00000010
00000000
00000001
00000000
00001000
00000000
,
00001002
00000000
00000203
00000000
,
00002300
00023000
00230000
20300000
,
32000000
00000000
03020000
00031000
,
00001010
00000000
00000000
00000011
00000000
00000000
00000110
00000000
00001001
00000000
00000000
00000000
00000000
00000000
00000000
00000000
,
00010000
00000000
00000100
00001000
00000100
00000000
00010000
00000000
00001000
00010000
00001000
00010000
00001000
00000000
01000000
00000000
,
00010000
00000000
00100000
00010000
00100000
00000000
00010000
00000000
10000000
00100000
10000000
00100000
01000000
00100000
01000000
00000000
,
00010000
00000000
10000000
01000000
10000000
00000000
01000000
00000000
00100000
00001000
00100000
00001000
00010000
00000000
00000100
00000000
,
00001100
00000000
00000000
00000110
00000000
00000000
00001100
00000000
00001000
00000100
00001000
00000001
00000100
00000010
00000100
00000000
,
00000102
00000000
00000000
00000000
00000013
00000000
00000100
00000000
00000020
00000000
00000000
00000032
00000000
00000000
00001003
00000001
,
00002000
00000000
00000000
00000000
00003010
00000000
00010000
00001000
00200000
00000000
00000000
00000000
02300000
00000000
00000000
00000000
,
03200000
00000000
00000000
00000000
00301000
00000000
00010000
00001000
00000200
00000000
00000000
00000000
00000302
00000000
00000000
00000000
,
00001003
00000000
00000000
00000010
00000000
00000000
00000010
00000000
00000001
00000000
00000000
00000100
00000000
00000000
00000100
00000000
,
00002000
00000000
00000000
00000000
00003020
00000000
00002030
00000000
00003002
00000000
00000000
00000203
00000000
00000000
00001300
00010000
,
00002000
00000000
00000000
00000000
00023000
00000000
00130000
10000000
00200000
00000000
00000000
00000000
20300000
00000000
00000000
00000000
,
30020000
00000000
00000000
00000000
20030000
00000000
31000000
00100000
02000000
00000000
00000000
00000000
23000000
00000000
30100000
10000000
,
00010000
00000000
00000000
01000000
00000000
00000000
00001000
00000000
00011000
00000000
00000000
00000000
00000110
00000000
00000000
00000000
,
00000001
00000000
00000100
00000010
00000000
00000100
00000010
00000000
00001000
00000000
00000010
00000100
00000000
00000010
00000100
00000000
,
00000001
00000000
00000010
00000100
00000000
00001000
00000100
00000000
00010000
00000000
00000100
00001000
00000100
00000000
00010000
00001000
,
00010000
00000000
00001000
00100000
00001000
00000000
00100000
00010000
00100000
00000000
00010000
10000000
00010000
00000000
01000000
00000000
,
00020000
00100000
00230000
00000000
20300000
00000000
32000000
00010000
,
03010000
00000000
10000000
00010000
01000000
00000000
00010000
10000000
01000000
00000000
10000000
00000000
01000000
00000000
00100000
00001000
,
00010000
00000000
00000000
00000000
00000000
00000000
00001000
00000000
00000000
00100000
00000000
00000000
00010000
00000000
00000000
00000000
00000000
00000000
00100000
00000000
00000000
00001000
00000000
00000000
00010000
00000000
00000000
00000000
00000000
00000000
00000100
00000000
00000000
00000000
00000000
00000000
00001000
00000000
00000000
00000000
00000000
00000000
00000001
00000000
00001000
00000000
00000001
00000000
,
00001000
00000000
00000010
00001000
00000100
00000000
00000110
00000000
00000000
00000000
00000101
00000000
00000000
00000000
00001100
00000000
,
00000000
00000000
00000000
00000000
,
00001000
00000000
00010000
00001000
00100000
00000000
00001000
00100000
00010000
00000000
10000000
00010000
01000000
00000000
00100000
00000000
,
10000000
00000000
00100000
10000000
01000000
00000000
00100000
00010000
01000000
00000000
00001000
00010000
00000100
00000000
00001000
00000000
,
00000100
00000000
00000000
00000000
00000000
00000000
00000010
00000000
00000000
00000001
00000000
00000000
00000100
00000000
00000000
00000000
00000000
00000000
00000010
00000000
00000000
00000001
00000000
00000000
00000010
00000000
00000000
00000000
00000000
00000000
00001000
00000000
00000000
00000001
00000000
00000000
00001000
00000000
00000000
00000000
00000000
00000000
00000001
00000000
00000100
00000000
00000001
00000000
,
00000100
00000000
00000000
00000010
00000000
00000000
00001000
00000000
00000100
00000000
00010000
00000000
00011000
00000000
00101000
00000000
,
00110000
00000000
00010000
10000000
00100000
00000000
10000000
00010000
00100000
00000000
00010000
10000000
01000000
00000000
00100000
00000000
,
00001000
00000000
00000000
00000000
00000000
00000000
00010000
00000000
00000000
00000100
00000000
00000000
00001000
00000000
00000000
00000000
00000000
00000000
00000010
00000000
00001000
00000000
00000010
00000000
00000100
00000000
00000000
00000000
00000000
00000000
00000000
00000000
00000000
00000100
00000000
00000000
00000000
00000000
00000000
00000000
00000000
00000000
00000100
00000000
00000000
00000000
00000000
00000000
,
00000001
00000000
00000000
00000000
00000000
00000000
00000010
00000000
00000000
00000100
00000000
00000000
00000010
00000000
00000000
00000000
00000000
00000000
00000001
00000000
00000000
00000100
00000000
00000000
00000001
00000000
00000000
00000000
00000000
00000000
00000010
00000000
00000000
00000100
00000000
00000000
00000010
00000000
00000000
00000000
00000000
00000000
00000001
00000000
00001000
00000000
00000001
00000000
,
00001000
00000000
00000000
00000010
00000000
00000000
00000010
00000000
00010000
00000000
00001000
00000000
00010000
00000000
00100000
00000000
,
02100000
00000000
23000000
00000000
,
30020000
20030000
32000000
03200000
,
00302000
00000000
00023000
00030100
,
00001100
00000000
00000000
00000000
00000000
00000000
00000000
00000000
00000000
00000000
00000000
00000000
00001000
00000000
00000000
00000000
00000000
00000000
00000001
00000000
00000100
00000000
00000001
00000000
00000100
00000000
00000000
00000000
00000000
00000000
00000000
00000000
00000000
00000100
00000000
00000000
00000000
00000000
00000000
00000000
00000000
00000000
00000010
00000000
00000000
00000000
00000000
00000000
,
00000100
00000000
00000001
00001000
00000001
00000000
00000010
00000000
00000100
00001000
00000100
00001000
00000100
00000000
00010000
00000000
,
00001000
00000000
00010000
00000010
00010000
00000000
00001000
00000000
00100000
00001000
00010000
00001000
00100000
00010000
01000000
00000000
,
00010000
00000000
00000000
00000000
00000000
00000000
00100000
00000000
00000000
01000000
00000000
00000000
00100000
00000000
00000000
00000000
00000000
00000000
00010000
00000000
00000000
00000000
00000000
00000000
10000000
00000000
00000000
00010000
00000000
00000000
01000000
00000000
00000000
00010000
00000000
00000000
10000000
00000000
00000000
00000000
00000000
00000000
00010000
00000000
10000000
00000000
01000000
00000000
,
10000000
00000000
00000000
00010000
00000000
00000000
10000000
00000000
00100000
10000000
01000000
10000000
00100000
01000000
00010000
00000000
,
10000000
00000000
01000000
00100000
01000000
00000000
00100000
00000000
00001000
00010000
00001000
00100000
00001000
00000000
00010000
00000000
,
00000100
00000000
00000000
00000000
00000000
00000000
00001000
00000000
00000000
00000010
00000000
00000000
00000100
00000000
00000000
00000000
00000000
00000000
00000010
00000000
00001000
00000000
00000001
00000000
00001000
00000000
00000000
00000000
00000000
00000000
00000000
00000000
00000000
00000001
00000000
00000000
00000000
00000000
00000000
00000000
00000000
00000000
00000001
00000000
00000000
00000000
00000000
00000000
,
00000100
00000000
00000001
00000010
00000001
00000000
00001000
00000000
00000010
00000100
00000010
00001000
00000001
00000000
00001000
00000000
,
00000100
00000000
00010000
00001000
00010000
00000000
00001000
00000000
00100000
00010000
10000000
00010000
01000000
00100000
01000000
00000000
,
00010000
00000000
00000000
00000000
00000000
00000000
10000000
00000000
00000000
01000000
00000000
00000000
00100000
00000000
00000000
00000000
00000000
00000000
01000000
00000000
00000000
00000000
00000000
00000000
00010000
00000000
00000000
00100000
00000000
00000000
00001000
00000000
00000000
00010000
00000000
00000000
00000100
00000000
00000000
00000000
00000000
00000000
00001000
00000000
00000010
00000000
00000100
00000000
,
00000010
00000000
00000000
00001000
00000000
00000000
00000001
00000000
00001000
00000100
00000010
00000001
00000010
00000100
00001000
00000001
,
00001000
00000010
00000001
00000100
,
00001000
00010000
00100000
10000000
,
01000000
00000000
00000000
00000000
00000000
00000000
00010000
00000000
00000000
00000000
00000000
00000000
00001000
00000000
00000000
00000000
00000000
00000000
00010000
00000000
00000000
00001000
00010000
00001000
,
00010000
00000000
00000000
00010010
00000000
00000000
01001000
00000000
00010100
00000000
00000000
00101000
00000000
00000000
00011000
00000000
;
