#TITLE:Avalanx;
#ARTIST:隣の庭は青い(庭師+Aoi);
#ARTISTTRANSLIT:Niwashi+Aoi;
#BANNER:Avalanx.png;
#BACKGROUND:Avalanx-bg.png;
#CDTITLE:./CDTitles/SDVX EXCEED GEAR.png;
#MUSIC:Avalanx.ogg;
#SAMPLESTART:80.432;
#SAMPLELENGTH:15;
#BPMS:0=185,32=92.5,36=185,58=370,62=185,84=92.5,84.5=46.25,84.625=92.5,84.75=185,98.5=370,100.25=185,100.625=92.5,101=185,112=370,112.5=185,112.75=92.5,113=185,146=277.5,146.5=185,146.833333=92.5,147.25=185,147.5=370,148=92.5,163=185,211=370,212=185,224=92.5,225.5=185,288=46.25,288.25=92.5,288.5=185,335=46.25,335.25=92.5,335.5=185;
#STOPS:98.5=0.162,132=0.081,132.25=0.081,132.5=0.081,132.75=0.081,163=0.108,163.333=0.108,163.667=0.108,211=0.041,211.25=0.041,211.5=0.041,211.75=0.04,225.5=0.162;
#TIMESIGNATURES:0=4=4,56=6=4,62=4=4,82=3=4,85=4=4,121=5=4,126=4=4,130=3=4,133=4=4,137=3=4,140=4=4,224=2=4,226=4=4,286=3=4,289=4=4,333=3=4,336=4=4;
#BGSTAGE:30;

//--------------- dance-single - Fred-104 ----------------
#NOTES:
     dance-single:
     Fred-104:
     Beginner:
     6:
     :
0000
0000
0000
0000
,
0000
0000
0000
0000
,
0000
0000
0000
0000
,
0000
0000
0000
0000
,
0000
0000
0000
0000
,
0000
0000
0000
0000
,
1000
0000
0001
0000
,
0100
0010
0100
0000
,
2002
0000
0000
3003
,
0001
0000
0001
0000
,
0100
0010
0100
0000
,
0001
0000
1000
0000
,
0100
1000
0010
0000
,
1000
0000
0100
0000
,
1000
0001
2000
0000
,
0000
0000
3001
0000
,
0001
0000
0100
0010
,
0100
0000
0001
0001
,
1000
1000
2002
0000
,
3003
0000
1001
0000
,
0000
0000
0002
0000
,
0003
1000
0000
0010
,
0000
1000
0100
0010
,
0100
1000
0000
0001
,
0000
0000
0100
0000
0000
0110
0000
0000
,
0000
0100
0000
0001
,
0000
0010
0001
1000
,
0000
0100
1000
0001
,
2000
3001
0000
1001
,
0000
1000
0000
0010
,
0000
1000
0100
1000
,
2000
3002
1003
0000
,
0010
0000
1000
0001
,
2000
3001
0000
0100
,
0000
0001
1000
0001
,
1000
0000
0010
0000
,
1000
0000
0002
0003
,
1001
0000
1000
0010
,
0100
0000
0001
1000
,
0001
0100
0010
0100
,
0001
1000
0001
2000
,
3002
0000
0000
0000
,
0003
0000
0000
0000
,
0200
0000
0000
0000
,
0300
0000
0000
0000
,
0010
0000
1000
0000
,
0100
0000
1000
0000
,
0001
0001
1000
1000
,
2002
0000
3003
0000
,
0001
0000
0000
0001
0000
0000
1000
0000
,
0000
1000
0000
0000
0010
0000
0100
0000
,
0010
0000
0000
0010
0000
0000
1000
0000
,
0000
1000
0000
0000
0001
0000
2000
0000
,
3001
0000
0100
0000
,
0010
0000
1000
0000
,
0001
0001
1000
1000
,
2002
0000
0000
3003
1000
0000
0100
0000
,
0000
0100
0010
0001
,
0000
0001
0100
0010
,
0000
0010
1000
0010
,
0000
1000
0100
0010
,
0000
0001
1000
0001
,
0000
0100
0010
0100
,
0001
1000
0001
0001
,
1000
1000
0100
1000
,
0000
0010
1000
0100
,
0000
0010
0001
1000
,
0000
0001
1000
0001
,
0000
0100
0010
0100
,
0010
0000
1000
0010
,
1000
0000
0001
0001
,
1000
1000
0001
1000
,
2002
3003
0001
0000
0000
0001
0000
0000
,
0100
0000
0000
0010
0000
0000
0100
0000
,
0001
0000
1000
0000
0000
0100
0000
0000
,
1000
0010
1000
0001
,
1000
0000
0100
0000
0000
0010
0000
0000
,
0001
0000
0000
0010
0000
0000
0001
0000
,
1000
1001
0000
0001
,
0000
1000
0010
1000
,
0001
1000
0000
0010
,
1000
0100
0000
0010
,
0001
1000
0000
0001
,
1000
0001
1000
0002
,
1003
0000
0000
0100
0000
0000
0010
0000
,
0000
0001
0000
0000
0100
0000
0010
0000
,
1000
0000
0000
0010
0000
0000
1000
0000
,
0000
0001
0000
0000
1000
0000
0000
2002
,
0000
0000
0000
0000
,
0000
0000
0000
0000
,
0000
0000
0000
0000
,
0000
0000
0000
0000
,
3003
0000
0000
0000
;

//--------------- dance-single - Fred-104 ----------------
#NOTES:
     dance-single:
     Fred-104:
     Easy:
     12:
     :
0000
0000
0000
0000
,
0000
0000
0000
0000
,
0000
0000
0000
0000
,
0000
0000
0000
0000
,
0000
0000
0000
0000
,
0000
0000
0000
0000
,
1000
0000
0000
0010
0000
0000
1000
0000
,
0000
0100
0000
0000
0010
0000
0001
0000
,
1000
0000
0000
0001
0000
0000
1001
0000
0000
0000
0001
0000
0100
0010
0100
0000
,
0001
0000
0010
0001
0000
1000
0001
0000
,
0100
0010
0000
1000
0010
0000
0100
0000
,
0001
0000
0010
0100
0000
1000
0010
0000
,
1000
0100
0000
0010
0001
0000
0100
0000
,
0001
0000
0010
0001
0000
1000
0100
0000
,
0010
0001
0000
1000
0200
0000
0000
0000
,
0000
0000
1300
0010
,
1000
0100
1000
0000
0010
0000
0100
0000
,
0001
1000
0001
0000
0010
0100
1000
0010
,
1000
0001
1000
0000
0001
0000
1000
0000
,
2002
0000
3003
0000
0002
0000
0000
1000
,
0000
0000
1000
0000
1003
0100
0010
0000
,
2002
3003
1000
0000
0010
0000
1000
0100
,
1000
0000
0010
0000
0100
0000
0001
0010
,
0100
0000
1000
0000
0001
0100
0010
0000
,
0100
0000
0001
1000
0010
1000
0000
2002
,
0000
0000
0000
3003
0001
0000
0000
0000
0010
0000
0000
0000
1000
0000
0000
0000
,
0010
0001
0100
1000
,
0100
0000
0001
0010
0100
0000
1000
0010
,
0200
0000
0301
1000
0001
0000
1000
1001
,
0000
0000
1000
0000
0010
0000
0100
0010
,
1000
0000
0010
0000
1000
0000
0001
1000
,
0200
2300
3001
0010
,
0100
1000
0001
0000
0100
0000
0010
0000
,
0200
0320
0230
0320
1030
0000
0000
0000
0100
0000
0000
0000
0010
0000
0001
0000
,
0010
0000
0001
1000
0010
0000
1000
0001
,
0100
0000
0001
0010
0100
0000
1000
0000
,
0001
1000
0001
0000
0200
0000
0320
0000
,
2030
0000
3200
0000
0000
0000
0310
0001
,
0200
0302
0000
0003
,
1000
0000
0100
0000
1000
0000
0002
0000
0000
0000
0000
0000
0000
0000
0000
0000
0000
0000
0203
0000
0000
0320
0000
0000
,
0230
0000
0000
0000
0000
0000
0302
0000
0000
0000
0000
0000
1003
0000
0000
0001
0000
0000
1000
0000
0100
0000
0010
0000
,
0002
0000
0000
0003
,
0100
0000
0010
0000
1000
0010
1000
0000
,
0002
0000
0003
0020
0000
0030
0200
0000
,
2300
0000
0000
3001
1001
0000
0000
0000
,
1000
1000
0000
0010
0000
0100
0001
0100
,
0000
0011
0000
0010
0001
0010
0000
0001
,
1000
0010
1000
0000
0001
1000
0100
0000
,
1000
0000
0010
0000
0100
0001
1000
0000
,
1002
0000
0000
0203
0000
0000
0320
0000
,
0000
2030
0000
0000
3100
0000
0010
0000
,
0002
0000
0000
2003
0000
0000
3020
0000
,
0000
0230
0000
0000
0301
0000
2000
3002
,
1003
0100
1000
0100
,
0001
0010
0001
0010
,
1000
0100
1000
0100
0010
0001
0010
0000
,
2002
0000
0000
3003
1010
0000
0010
0100
,
0000
0010
1000
0100
0000
0010
0001
1000
,
0000
0001
0100
0000
0001
0000
0010
0100
,
0000
0010
0001
1000
0000
0001
0010
0100
,
0000
1000
0010
0000
0100
0001
0100
0000
,
0010
1000
0010
1000
0000
0100
0010
0001
,
0000
1000
0001
0000
1000
0000
0010
0100
,
0000
0001
0010
0100
0000
0100
1000
0001
,
1000
0001
0100
0000
0001
0001
0010
0100
,
0000
0100
1000
0010
0000
0010
1000
0001
,
0001
0000
0010
0000
0001
0001
1000
0100
,
0000
0000
0100
0000
0010
0000
0001
0000
0000
0000
0000
0001
0000
0000
0100
0000
,
0010
0100
0001
0000
1000
1000
0001
0100
,
0000
0100
0010
0100
0000
0001
0010
0100
,
0000
1000
0010
0100
0001
0000
0010
0000
,
0100
0000
0000
0000
1000
0000
0000
0000
0001
0000
0000
1000
0000
0000
0001
0000
,
2002
0000
0000
3003
0001
0000
0000
0000
0010
0000
0001
0000
0000
0000
1000
0000
,
0001
0000
1000
0100
0000
0010
0100
1000
,
0010
1000
0001
1000
0001
1000
0100
0010
,
0100
0000
0010
0001
1000
0001
0100
0001
,
1000
0000
0001
0010
0100
1000
0000
0010
,
0100
0000
0001
1000
0000
0100
0010
0001
,
0010
0000
0101
0000
0100
0010
0000
1000
,
0100
0010
0000
0001
0100
0010
2000
0000
,
3002
0000
1003
0000
0010
1000
0100
1000
,
0010
0000
0100
0001
0010
0001
0100
0010
,
0100
0000
0000
0000
0001
0000
0000
0010
0000
0000
0001
0000
1001
0000
0000
0000
,
1000
0000
0010
1000
0001
0000
2000
0000
,
3001
0001
0000
0100
0100
0000
0010
0010
,
0000
1000
1000
0000
0100
0010
0001
1000
,
1001
0000
0001
0100
0000
0010
1000
0000
,
0001
0010
0000
0100
1000
0001
1000
0020
,
0000
0000
0000
0000
,
0000
0000
0000
0000
,
0000
0000
0000
0000
,
0000
0000
0000
0000
,
0030
0000
0000
0000
;

//--------------- dance-single - Fred-104 ----------------
#NOTES:
     dance-single:
     Fred-104:
     Medium:
     15:
     :
0000
0000
0000
0000
,
0000
0000
0000
0000
,
0000
0000
0000
0000
,
0000
0000
0000
0000
,
0000
0000
0000
0000
,
0000
0000
0000
0000
,
0001
0000
0001
0100
0000
0100
0010
0000
,
0010
1000
0000
1000
0100
0010
0001
1000
,
0001
0000
0000
1000
0000
0000
0001
0000
0000
0000
1000
0000
2002
0000
0000
0000
0000
0000
0000
0000
0000
0000
0000
0000
3003
0000
0000
0000
0000
0000
0000
0000
,
1000
0100
0001
1000
0010
0001
1000
0000
,
0001
0100
0001
0010
0001
1000
0001
0000
,
1000
0010
0001
1000
0100
0001
1000
0000
,
0001
0010
0100
0010
0001
1000
0010
0000
,
1000
0100
0010
1000
0010
0100
1000
0001
,
0010
0000
0001
0000
0000
0000
0100
0010
0200
0000
0000
0000
0000
0000
0000
0000
,
0000
0000
0000
0000
0301
0000
0100
0001
,
0010
0001
1000
0100
1000
0010
0100
0001
,
1000
0001
1001
0000
1000
0100
0010
0001
,
1000
0000
0000
0001
0000
0000
1000
0000
0000
0001
0000
0000
1000
0000
0000
0000
0000
0000
0000
0000
0000
0000
0000
0000
0001
0000
0000
0000
0100
0000
0000
0000
0001
0000
0000
0000
1000
0000
0000
0000
0100
0000
0000
0000
1000
0000
0000
0000
,
0002
0000
0000
0000
1003
0100
1000
0001
,
0100
0001
0010
0000
0002
0000
2003
0000
,
3001
1000
1001
0000
0001
0000
0000
0000
0100
0010
0100
0000
0001
0000
0010
0001
,
0010
0000
0001
0000
1000
0010
1000
0000
0010
0000
0100
0000
0001
0100
0001
0000
,
1000
0000
1000
0000
0001
0000
0000
0000
0100
0010
0100
0000
0001
0000
0100
0010
,
0100
0000
0000
0000
0000
0000
0000
0000
0001
0000
0000
0000
0000
0000
0000
0000
1000
0000
0000
0000
0100
0000
0000
0000
1000
0000
0000
0000
0000
0000
0000
0000
0001
0000
0000
0000
0000
0000
0000
0000
0202
0303
0000
0000
0000
0000
0000
0000
0000
0000
0000
0000
0000
0000
0000
0000
2002
0000
0000
0000
0000
0000
0000
0000
,
0000
0000
0000
3003
1000
0000
0000
0000
1100
0000
0000
0000
1000
0010
1000
0000
,
0010
0100
0010
0000
1000
0000
0100
0010
0100
0000
0010
0000
0100
1000
0100
0000
,
1000
0000
0001
0000
0100
0000
0001
0000
0010
0000
0001
0000
0100
0010
1000
0000
,
0200
0000
0000
0000
1300
0100
1000
0000
0001
0100
0001
0000
1000
0000
1001
0000
,
0000
0000
0000
0000
0110
0000
0000
0000
1001
0000
0000
0010
0100
0000
0001
0000
,
0010
0000
0001
0000
1000
0010
0000
0010
0100
0000
0001
0000
1000
0100
1000
0000
,
0020
0000
0230
0000
0320
0000
0230
0000
0301
0000
0000
0000
0100
0010
0100
0000
,
0001
0000
0010
0000
0001
0100
0001
0000
0010
0000
0100
0000
1000
0000
0001
0000
,
2000
3200
0320
0032
1003
0000
0001
0100
0001
0000
0010
0000
0001
0100
0001
0000
,
0020
0000
0000
0000
0032
0000
0000
0000
1003
0010
1000
0000
0001
1000
0001
0000
,
0100
0010
0100
0000
0001
0010
0001
0000
1000
0010
1000
0000
0001
0000
1000
0000
,
0001
1000
0001
0000
0100
0010
0100
0000
0002
0000
0000
0000
2003
0000
0000
0000
,
3002
0000
0000
0000
0000
0000
0000
0000
0203
0000
0000
0000
0320
0000
0000
0000
0000
0000
0000
0000
0000
0000
0000
0000
0000
0000
0000
0000
0000
0000
0000
0000
0000
0000
0000
0000
1030
0000
0000
0010
0000
0000
0100
0000
0000
0010
0000
0000
,
2000
0000
0000
3020
0230
0000
0000
0000
0000
0000
0000
0000
0300
0000
0000
0000
,
0001
0000
0010
0000
0100
0000
2000
0000
0000
0000
0000
0000
0000
0000
0000
0000
0000
0000
3002
0000
0000
2003
0000
0000
,
3200
0000
0000
0000
0000
0000
2300
0000
0000
0000
0000
0000
3001
0000
0000
0100
0000
0000
0001
0000
1000
0000
1001
0000
,
1000
0010
0100
0020
0000
0000
0000
0000
,
0000
0000
0000
0000
0000
0000
1030
0010
1000
0000
0100
0000
0010
0000
0001
0000
,
0200
0000
0000
0320
0000
0000
0230
0000
,
0000
0000
0302
0000
0000
0000
1003
0001
2000
0000
0000
0000
0000
0000
3000
0000
,
1000
1100
0000
0110
0000
0010
0001
0011
,
0000
0101
0000
0001
1000
1010
0000
0010
,
1000
0100
1000
0001
0100
0100
0010
0010
,
1000
0000
0010
0000
0100
0001
0100
0000
0000
0000
0001
1000
0001
1000
0001
1000
,
0001
0000
0000
0010
0000
0000
1000
0000
,
0000
0100
0000
0000
0001
0000
1000
0000
,
0100
0000
0000
0001
0000
0000
0010
0000
,
0000
1000
0000
0000
0001
0000
2000
0000
,
3001
0000
0001
0010
0000
0010
0100
0000
0100
1000
0000
1000
,
0010
0000
0010
0100
0000
0100
0001
0000
0001
1000
0010
1000
,
0001
0000
0100
0000
0010
0000
1000
0000
0001
1000
0001
0000
0100
0010
0100
0000
,
0002
0000
0000
0000
0000
0000
0003
0000
1000
0000
0010
0100
0010
0000
1000
0000
,
0100
0000
0010
0001
0010
0000
0002
0000
0000
0000
0103
0010
0100
0000
0001
0000
,
0010
0000
0100
0000
1000
0000
0001
0000
0100
0000
0001
0010
0001
0000
0200
0000
,
0000
0000
0310
1000
0010
0000
0100
0000
0001
0000
1000
0000
0100
1000
0100
0000
,
1000
0010
1000
0000
0001
0000
1000
0000
0001
0000
0010
0001
0010
0000
0100
0000
,
1000
0010
1000
0000
0010
1000
0002
0000
0000
0000
0103
0000
0010
0100
0001
0000
,
0010
0000
0001
0000
1000
0010
0100
0000
0001
0000
0010
0001
0100
0000
0001
0000
,
0010
0000
0001
1000
0010
0000
0200
0000
0000
0000
0301
0100
0001
0000
0100
0010
,
0200
0000
0302
0000
2003
0000
3100
1000
0100
0000
1000
0010
0100
0000
0010
0000
,
1000
0000
0100
0010
0100
0000
0010
0000
0001
0000
0100
0001
0100
0000
0010
0000
,
0100
0010
0100
0000
0001
1000
0001
0000
1000
0000
0001
1000
0100
0000
0010
0000
,
0100
0000
1000
0001
0100
0000
0010
0000
0000
0000
0000
0100
0000
0000
0110
0000
,
0010
0000
1000
0010
1000
0000
0100
0000
1000
0000
0010
0100
0010
0000
1000
0000
,
0100
0000
0010
0000
0001
0010
0100
0000
1000
0000
0010
1000
0100
0000
1000
0000
,
0001
0100
0001
0000
1000
0010
1000
0000
0001
0000
0100
0010
0100
0000
0001
0000
,
1000
0100
1000
0000
0001
0010
0001
0000
0100
0000
0010
0100
0000
0010
1000
0000
,
2002
0000
0000
3003
0001
0000
0100
0000
0010
0000
1000
0000
0100
0000
0010
0000
,
0001
0000
0100
0001
0010
0100
1000
0100
,
0010
0000
0001
1000
0010
0100
0010
1000
,
0100
0010
0001
0100
0101
0000
0001
1000
,
0010
0100
0001
0010
0001
0010
0100
1000
,
0100
1000
0001
0100
0001
0100
0010
1000
,
0010
0000
1000
0000
1100
0000
0000
0100
0010
0000
0011
0000
0000
0001
0100
0000
,
0010
0000
0000
0000
0000
0000
0100
0000
0000
0000
0000
0000
0000
0000
0000
0000
0000
0000
0001
0000
0000
1000
0000
0000
0001
0000
0000
0000
0000
0000
0100
0000
0000
0000
0000
0000
0001
0000
0000
0000
0010
0000
0000
0000
0001
0000
0000
0000
,
0010
0000
0100
0000
1000
0000
0100
0000
0000
1000
0000
0000
0010
0000
0000
0100
0000
0000
0010
0000
0000
1000
0000
0000
,
0100
0000
0010
0000
0001
0100
0001
0000
1000
0010
1000
0000
0001
0000
0010
0000
,
0100
0000
1000
0000
1100
0000
0000
0010
0000
0000
0100
0000
0101
0000
0000
0000
,
0100
0010
0100
0000
0001
0000
0010
0100
0010
0000
0001
0000
2000
0000
0000
0000
,
3001
0100
0001
0000
1000
0000
0001
0010
0001
0000
1000
0000
0001
0100
0001
0000
,
1000
0000
0001
0010
0001
0000
1000
0000
0001
0000
1000
0000
0010
0000
0100
0000
,
0001
0000
1000
1100
0000
0001
0011
0000
,
1000
0000
1010
0000
0000
0000
0001
0000
0100
0010
0100
0000
0001
1000
0020
0000
,
0000
0000
0000
0000
,
0000
0000
0000
0000
,
0000
0000
0000
0000
,
0000
0000
0000
0000
,
0030
0000
0000
0000
;

//--------------- dance-single - Fred-104 ----------------
#NOTES:
     dance-single:
     Fred-104:
     Hard:
     17:
     :
0000
0000
0000
0000
,
0000
0000
0000
0000
,
0000
0000
0000
0000
,
0000
0000
0000
0000
,
0000
0000
0000
0000
,
0000
0000
0000
0000
,
1000
0000
0001
0100
0000
0010
0100
0000
,
0001
0000
0010
0000
0000
0000
0001
0100
0001
0000
0100
0010
0100
0010
0100
0000
,
0002
0000
0000
2003
0000
0000
3020
0000
0000
0000
0130
0000
0110
0000
0000
0000
0000
0000
0000
0000
0001
1000
0001
0000
1000
0100
1000
0100
1000
0100
1000
0100
,
1000
0100
1000
0010
0100
0010
1000
0010
,
1000
0100
0010
0100
1000
0001
0100
0010
,
1000
0100
0010
0001
0100
0010
1000
0010
,
0100
0000
0001
0000
0010
0000
0100
0000
1000
0010
1000
0000
0001
0100
0001
0000
,
0100
0010
1000
0100
0010
0001
1000
0010
,
1000
0000
0001
0000
0000
0000
0100
0010
0200
0000
0000
0000
0000
0000
0000
0000
,
0000
0000
0000
0000
0000
0000
0000
0000
0301
0000
0000
0000
1000
0001
0100
0001
,
1000
0000
0100
0000
0010
0000
0001
0010
0001
0000
0100
0000
0010
0000
0100
0001
,
0100
0010
1000
0010
1000
0100
1000
0100
1000
0000
0010
0000
0100
0000
0001
0000
,
1000
0000
0000
0100
0000
0000
1000
0000
0000
0100
0000
0000
0010
0000
0000
0001
0000
0000
0010
0000
0000
0001
0000
0000
1000
0000
0000
0000
0100
0000
0000
0000
0010
0000
0000
0000
0001
0000
0000
0000
0010
0000
0000
0000
0100
0000
0000
0000
,
2000
0000
0000
0000
3001
0100
1000
0001
,
0010
1000
0001
0100
0002
0000
2003
0000
,
3100
0010
0100
0000
1100
0000
0000
0000
1001
0000
0000
0000
0000
0000
0000
0000
1000
0000
0001
0000
0010
0000
0001
0000
0100
0000
0000
0000
0001
0000
1000
0000
,
0010
1000
0001
0000
1000
0100
1000
0100
1000
0000
0010
0000
0100
0001
0100
0000
,
0001
0010
0001
0000
0100
0000
0000
0000
0001
1000
0001
1000
0001
0000
0100
0010
,
1000
0000
0000
0000
0001
0000
0000
0000
0010
0000
0000
0000
0000
0000
0000
0000
0001
0000
0000
0000
0100
0000
0000
0000
0001
0000
0000
0000
0100
0000
0000
0000
0010
0000
0000
0000
0000
0000
0000
0000
0200
0300
0000
0000
0000
0000
0000
0000
0000
0000
0000
0000
0000
0000
0000
0000
2002
0000
0000
0000
0000
0000
0000
0000
,
0000
0000
0000
3003
1000
0000
0000
0000
1010
0000
0000
0000
0001
0100
0010
0000
,
0100
0010
1000
0000
0001
0000
0100
0001
0010
0001
0010
0000
0100
1000
0100
1000
,
0100
0000
1000
0000
0001
0000
0010
0100
0010
0000
0001
0000
0100
0010
0100
0001
,
2000
0000
0000
0000
3001
1000
0001
1000
0010
0100
0010
0100
0001
0000
1001
0000
,
0000
0000
0000
0000
1100
0000
0000
0000
1001
0000
0000
0001
0100
0010
0100
0010
,
0100
0000
0001
0000
0100
0001
0000
1000
0001
0000
1000
0000
0010
1000
0001
0000
,
2000
0000
3200
0000
0302
0000
0203
0000
1300
0000
0000
0000
0010
1000
0010
0000
,
0100
0010
0100
0000
0001
0100
0001
0000
0100
0000
0010
0000
1000
0000
0100
0000
,
2000
3000
0000
0000
0200
0300
0000
0000
0002
0003
0000
0000
0020
0030
0000
0000
1000
0000
0000
0000
0000
0000
0000
0000
0010
0000
0000
0000
1000
0000
0000
0000
0010
0000
0000
0000
1000
0000
0000
0000
0010
0000
0000
0000
0000
0000
0000
0000
0100
0000
0000
0000
0001
0000
0000
0000
0100
0000
0000
0000
0000
0000
0000
0000
,
0002
0000
0000
0000
2003
0000
0000
0000
3100
1000
0001
0100
0010
1000
0200
0000
,
1300
0010
1000
0000
0001
0100
0001
0000
1000
0100
1000
0000
0001
0010
0001
0000
,
0100
0010
0100
0010
0100
0010
0100
0010
0200
0000
0000
0000
0320
0000
0000
0030
,
2001
0000
0000
0000
0000
0000
0000
0000
3001
0000
0000
0000
0200
0000
0000
0000
0000
0000
0000
0000
0000
0000
0000
0000
0000
0000
0000
0000
0000
0000
0000
0000
0000
0000
0000
0000
0310
0000
0000
1000
0000
0000
0100
0000
0000
0010
0000
0000
,
0002
0000
0000
0103
2000
0000
0000
0000
3100
0000
0001
0000
1000
0000
0001
0000
,
1000
0000
0010
0000
1000
0000
0100
0010
0100
0010
0001
0010
0001
0100
0010
1000
0000
0000
0001
0010
0100
1000
0000
0000
,
0001
0000
0000
0000
0000
0000
0000
0000
1000
0000
0000
0000
0000
0000
0000
0000
0100
0000
0000
0000
0000
0000
0000
0000
0010
0000
0000
0000
0000
0000
0000
0000
0001
0000
0000
0000
0000
0000
0000
0000
0010
0000
0000
0000
0000
0000
0000
0000
0100
0000
0000
0000
0000
0000
0000
0000
0000
0000
0000
0000
0000
0000
0000
0000
1000
0000
0000
0000
0000
0000
0000
0000
0010
0000
0000
0000
0000
0000
0000
0000
0100
0000
0000
0000
0000
0000
0000
0000
0010
0000
0000
0000
0000
0000
0000
0000
1000
0000
0000
0000
0000
0000
0000
0000
0100
0000
0000
0000
0000
0000
0000
0000
0001
0000
0000
0000
0000
0000
0000
0000
1000
0000
0000
0000
0000
0000
0000
0000
0010
0000
0000
0000
0000
0000
0000
0000
0001
0000
0000
0000
0000
0000
0000
0000
2000
0000
0000
3000
0000
0000
0000
0000
0000
0000
0000
0000
0000
0000
0000
0000
0020
0000
0000
0030
0000
0000
0000
0000
0000
0000
0000
0000
0000
0000
0000
0000
0200
0000
0000
0300
0000
0000
0000
0000
0000
0000
0000
0000
0000
0000
0000
0000
,
0001
0010
0100
0002
0000
0000
0000
0000
,
0000
0000
0000
0000
0000
0000
0103
1000
0001
0000
0100
0000
0010
1000
0010
0000
,
2000
0000
0000
3020
0000
0000
0032
0000
,
0203
0000
0000
0000
0000
0000
1300
0001
2000
0000
0000
0000
0000
0000
3000
0000
,
1100
1010
0000
0101
0000
0110
0110
1001
,
0000
0011
0000
1010
0011
1001
0000
0110
,
0010
0000
1010
0000
0110
0000
1010
0000
1000
0100
1000
0000
0001
0100
0001
0000
,
1000
0000
1100
0000
1000
0001
1000
0000
0000
0000
0001
1000
0010
0100
0001
1000
,
0001
0000
1000
0100
0000
0010
0001
0000
,
1000
0010
0000
0100
0001
0010
0100
0010
,
0001
0000
0100
1000
0000
0100
0001
0000
,
0010
0000
0000
0000
0000
0000
0000
0000
1000
0000
0000
0000
0000
0000
0000
0000
0000
0000
0000
0000
0000
0000
0000
0000
0010
0000
0000
0000
0000
0000
0000
0000
0001
0000
0000
0000
0000
0000
0000
0000
0000
0000
0000
0000
0000
0000
0000
0000
2000
3000
0000
0000
0002
0003
0000
0000
2000
3000
0000
0000
0002
0003
0000
0000
,
1000
0100
1000
0010
0100
0010
1000
0100
0010
0001
0100
0010
,
0100
0001
0010
0100
1000
0001
0100
0010
1000
0001
0010
0001
,
1000
0010
1000
0010
0100
0001
0100
0001
0010
0001
0010
0001
1000
0001
1000
0001
,
2000
0000
0000
0000
0000
0000
3000
0000
1001
0000
0001
0100
0001
0100
0001
0000
,
0000
0000
1000
0010
0100
0010
1000
0000
0000
0000
0001
1000
0100
1000
0010
0000
,
0100
0001
0010
0000
0100
1000
0010
0000
1000
0000
0010
1000
0100
1000
0001
0000
,
0000
0000
0100
0001
0010
0100
0010
0000
0000
0000
0001
0000
1000
0010
0100
0000
,
0001
0010
0100
0010
0001
0010
0100
0000
0010
0000
0001
0100
0001
0010
0001
0000
,
1000
0010
0100
0000
0010
1000
0002
0000
0000
0000
1003
0000
0100
0010
0100
0000
,
1000
0010
0100
0000
0010
1000
0100
0000
0010
0000
0001
1000
0010
0100
0001
0000
,
0000
0000
1000
0100
0010
0100
1000
0000
0000
0000
0001
1000
0100
1000
0001
0100
,
0002
0000
0203
0000
0320
0000
1030
0001
1000
0000
0100
0010
0001
1000
0010
0000
,
0000
0000
0100
0001
1000
0001
0010
0000
0000
0000
0001
0010
0100
1000
0001
0000
,
1000
0010
1000
0000
0010
0100
0010
0000
1000
0000
0100
0010
0001
0010
0100
0000
,
0000
0000
1000
0001
0010
0100
0010
0000
0000
0000
0000
0011
0000
0000
1001
0000
,
1000
0000
0001
1000
0100
0010
0001
0000
0100
0000
0001
0010
0001
0100
0010
0000
,
1000
0000
0010
1000
0001
1000
0100
0000
0010
0000
0001
1000
0010
0000
0100
0000
,
0001
0010
0100
1000
0001
0010
0100
1000
0001
0000
1000
0010
0100
0001
1000
0000
,
0001
0010
0100
0010
0001
1000
0010
0000
1000
0000
0100
0010
0000
0001
1000
0000
,
2002
0000
0000
3003
2000
0000
3200
0000
0320
0000
0230
0000
0301
0000
0100
0000
,
1000
0001
1000
0010
0001
0020
0230
0302
,
2003
3002
0203
0302
2003
3020
2030
3002
,
0023
0000
0032
0000
1003
0000
1000
0000
1100
0000
0000
0000
1000
0000
0010
1000
,
0010
0100
0001
0010
0100
0001
1000
0010
,
0100
1000
0001
0010
0100
1000
0001
0100
,
0010
0000
1000
0000
1100
0000
0000
1000
0010
0000
0110
0000
0000
0100
0001
0010
,
0001
0000
0000
0100
0000
0000
0001
0000
0000
0000
0000
0000
0000
0000
0000
0000
0000
0000
1000
0000
0010
0000
1000
0000
0010
0000
0000
0000
0000
0000
0100
0000
0000
0000
0000
0000
0001
0000
0000
0000
0010
0000
0000
0000
0001
0000
0000
0000
,
1000
0000
0000
0000
0010
0000
0000
0000
1000
0000
0000
0000
0001
0000
0000
0000
0000
0000
0100
0000
0000
0000
0000
0000
0001
0000
0000
0100
0000
0000
0001
0000
0000
0000
0000
0000
0100
0000
0000
0010
0000
0000
1000
0000
0000
0000
0000
0000
,
0100
1000
0001
0000
1000
0100
0010
0001
1000
0100
0010
0001
1000
0000
0010
0000
,
0100
0000
0001
0000
0011
0000
0000
1010
0000
0000
0011
0000
0101
0000
0000
0000
,
0100
0010
0100
0000
0001
0000
1000
0010
0100
0000
0010
0000
2000
0000
0000
0000
,
3001
0010
0001
0010
0001
0000
1000
0010
1000
0010
1000
0000
0001
0100
0001
0100
,
0001
0000
1000
0100
1000
0100
1000
0000
0001
0100
0010
1000
0001
0100
0010
1000
,
0001
0000
0011
0101
0000
1001
1100
0000
,
1010
0000
1001
0000
0001
0000
1000
0100
0010
0001
1000
0100
0010
0001
2000
0000
,
0000
0000
0000
0000
,
0000
0000
0000
0000
,
0000
0000
0000
0000
,
0000
0000
0000
0000
,
3000
0000
0000
0000
;

//--------------- dance-single - Fred-104 ----------------
#NOTES:
     dance-single:
     Fred-104:
     Challenge:
     18:
     :
0000
0000
0000
0000
,
0000
0000
0000
0000
,
0000
0000
0000
0000
,
0000
0000
0000
0000
,
0000
0000
0000
0000
,
0000
0000
0000
0000
,
1000
0000
0001
0100
0000
0010
0100
0000
,
0001
0000
0000
0000
0000
0000
1000
0000
0000
0000
0000
0000
0100
0000
0000
0000
0000
0000
0010
0000
0000
0001
0000
0000
1000
0000
0000
0000
0000
0000
0001
0000
0010
0000
0001
0000
0100
0000
0000
0000
0000
0000
0010
0000
0000
0000
0000
0000
,
2010
0000
0000
0000
0000
0000
0000
0000
0000
3020
0000
0000
0000
0000
0000
0000
0000
0000
0230
0000
0000
0000
0000
0000
0000
0000
0000
0000
0000
0000
0301
0000
0000
0000
0000
0000
1001
0000
0000
0000
0000
0000
0000
0000
0000
0000
0000
0000
0000
0000
0000
0000
0000
0000
0000
0000
0000
0000
0000
0000
1000
0000
0010
0000
1000
0000
0010
0000
0000
0000
0000
0000
0100
0000
0000
0001
0000
0000
0010
0000
0000
0000
0000
0000
0001
0000
0100
0000
0010
0000
0100
0000
0000
0000
0000
0000
,
0001
0000
1000
1010
0000
0001
0101
0000
,
1000
1100
0010
0001
0100
0010
0100
0001
,
1001
0000
0100
0011
0000
0100
1010
0000
,
1000
0000
0010
1000
0100
0000
0010
0000
0100
1000
0001
0010
0100
1000
0001
0010
,
0001
0010
1000
0001
0100
1000
0001
0010
,
1000
0000
0001
0000
0100
0000
1000
0001
2000
0000
0000
0000
0000
0000
0000
0000
,
0000
0000
0000
0000
0000
0000
0000
0000
3001
0000
1000
0010
1000
0100
0010
0001
,
1000
0000
0001
0100
0010
1000
0001
0100
0010
0000
1000
0000
0100
1000
0010
1000
,
0001
0000
0000
0000
0000
0000
0000
0000
0000
0000
0000
0000
0000
0000
0000
0000
0020
0030
0000
0000
0000
0000
0000
0000
0000
0000
0000
0000
0000
0000
0000
0000
0020
0030
0000
0000
0000
0000
0000
0000
0000
0000
0000
0000
0000
0000
0000
0000
1000
0000
0000
0000
0000
0000
0000
0000
0000
0000
0000
0000
0000
0000
0000
0000
0200
0300
0000
0000
0000
0000
0000
0000
0000
0000
0000
0000
0000
0000
0000
0000
0200
0300
0000
0000
0000
0000
0000
0000
0000
0000
0000
0000
0000
0000
0000
0000
0001
0000
0000
0000
0000
0000
0000
0000
0000
0000
0000
0000
0000
0000
0000
0000
0000
0000
0000
0000
0000
0000
0000
0000
0100
0000
0000
0000
0000
0000
0000
0000
0000
0000
0000
0000
0000
0000
0000
0000
0000
0000
0000
0000
0000
0000
0000
0000
0010
0000
0000
0000
0000
0000
0000
0000
0000
0000
0000
0000
0000
0000
0000
0000
0000
0000
0000
0000
0000
0000
0000
0000
1000
0000
0000
0000
0000
0000
0000
0000
0000
0000
0000
0000
0000
0000
0000
0000
0000
0000
0000
0000
0000
0000
0000
0000
,
0001
0000
0000
0100
0000
0000
0010
0000
0000
1000
0000
0000
0001
0000
0000
1000
0000
0000
0100
0000
0000
0010
0000
0000
0001
0000
0000
0000
0100
0000
0000
0000
1000
0000
0000
0000
0001
0000
0000
0000
0010
0000
0000
0000
1000
0000
0000
0000
,
2002
0000
3003
0000
1000
0100
0001
0010
,
0001
0100
1000
0001
1001
0000
0110
0000
,
1000
0001
1000
0000
1020
0000
0000
0000
0130
0000
0000
0000
0000
0000
0000
0000
0001
0000
1000
0000
0010
0000
0100
0000
0001
0000
0000
0000
1000
0000
0100
0000
,
0010
0001
0100
0000
0001
0100
0010
0100
0001
0000
0100
0010
1000
0001
0010
0000
,
0001
0000
0000
1000
0000
0000
0010
0000
0000
0000
0000
0000
0100
0000
0000
0000
0001
0000
0000
0000
1000
0000
0000
0000
0001
0000
0000
0010
0000
0000
0100
0000
0000
0010
0000
0000
0001
0000
0000
0000
0000
0000
1000
0000
0000
0010
0000
0000
,
0100
0000
0000
0000
0001
0000
0000
0000
1000
0000
0000
0000
0000
0000
0000
0000
0010
0000
0000
0000
1000
0000
0000
0000
0010
0000
0000
0000
0100
0000
0000
0000
0001
0000
0000
0000
1000
0000
0000
0000
0200
0300
0000
0000
0000
0000
0000
0000
0000
0000
0000
0000
0000
0000
0000
0000
0120
0000
0000
0000
0000
0000
0000
0000
,
0000
0000
0000
0032
0000
0000
2003
3000
1001
0000
0000
0000
0001
0000
0000
0000
0100
0000
0000
0000
1000
0000
0100
0000
0001
0000
0010
0000
0001
0000
0000
0000
,
1000
0010
1000
0000
0001
0100
0010
0100
0001
0010
0100
0000
1000
0010
0100
0010
,
2000
0000
3100
0000
0110
0000
0001
0100
1000
0000
0110
0000
1000
0100
1000
0100
,
0002
0000
0000
0000
1003
0100
0010
0001
1000
0100
0010
0001
1000
0000
1001
0000
,
0000
0000
0000
0000
0110
0000
0000
0000
1010
0000
0000
1000
0100
0001
0100
0010
,
0001
0000
1000
0000
0001
0010
0100
0010
0001
0100
0000
0010
2000
0000
3001
0000
,
1000
0100
0020
0000
0031
0100
0020
0000
1030
0000
0001
0000
1000
0001
0010
0100
,
1000
0100
0010
0100
1000
0010
0100
0001
0010
0001
1000
0010
0100
0001
1000
0100
,
2000
3000
0000
0000
2200
3300
0000
0000
0002
0003
0000
0000
0022
0033
0000
0000
1000
0000
0000
0000
0010
0000
0000
0000
0100
0000
0000
0000
0000
0000
0000
0000
0010
0000
0000
0000
1000
0000
0000
0000
0100
0000
0000
0000
0000
0000
0000
0000
0010
0000
0000
0000
0001
0000
0000
0000
1000
0000
0000
0000
0001
0000
0000
0000
,
0100
0000
0000
0000
0000
0000
1000
0000
0000
0100
0000
0000
0010
0000
0000
0000
0000
0000
1000
0000
0000
0000
0000
0000
0100
0000
0000
0010
0000
0000
0002
0000
0000
0000
0000
0000
0103
0000
0010
0000
0100
0000
0002
0000
0000
0000
0000
0000
,
1003
0000
0000
0000
0000
0000
0001
0000
0100
0000
0010
0000
1000
0000
0000
0000
0000
0000
0100
0000
0000
0010
0000
0000
0001
0000
0000
1000
0000
0000
0010
0000
0000
0100
0000
0000
0001
0000
0000
0010
0000
0000
0001
0000
0000
1000
0000
0000
,
0100
1000
0010
0100
0001
0010
0100
1000
0002
0000
0000
0000
2000
0000
0000
3003
,
1000
0000
0000
0000
0001
0000
1000
0000
0010
0000
1000
0000
0100
0000
1000
0000
0001
0000
0100
0000
0010
0000
1000
0000
0100
0000
0010
0000
0001
0000
0100
0000
0010
0000
0001
0000
0010
0000
0000
1000
0000
0000
0001
0000
0000
0010
0000
0000
,
0001
0100
0010
1000
0100
0010
0100
1000
0010
0100
0010
1000
0100
0010
0001
1000
0001
0100
0010
1000
0100
0110
0000
0000
,
0021
0031
2000
3001
0200
0310
0200
0301
1000
0100
0010
0001
1000
0010
0100
0001
1000
0100
2000
3010
0100
2000
3100
0001
,
2000
0000
0000
0000
0000
0000
0000
0000
0000
0000
0000
0000
0000
0000
0000
0000
3001
0000
0000
0000
0000
0000
0000
0000
0010
0000
0000
0000
0000
0000
0000
0000
0001
0000
0000
0000
0000
0000
0000
0000
0100
0000
0000
0000
0000
0000
0000
0000
0002
0000
0000
0000
0000
0000
0000
0000
0000
0000
0000
0000
0000
0000
0000
0000
1003
0000
0000
0000
0000
0000
0000
0000
0100
0000
0000
0000
0000
0000
0000
0000
0001
0000
0000
0000
0000
0000
0000
0000
0100
0000
0000
0000
0000
0000
0000
0000
1000
0000
0000
0000
0000
0000
0000
0000
0010
0000
0000
0000
0000
0000
0000
0000
1000
0000
0000
0000
0100
0000
0000
0000
1000
0000
0000
0000
0000
0000
0000
0000
0100
0000
0000
0000
0000
0000
0000
0000
0010
0000
0000
0000
0000
0000
0000
0000
0220
0000
0000
0330
0000
0000
0000
0000
0000
0000
0000
0000
0000
0000
0000
0000
0022
0000
0000
0033
0000
0000
0000
0000
0000
0000
0000
0000
0000
0000
0000
0000
2020
0000
0000
3030
0000
0000
0000
0000
0000
0000
0000
0000
0000
0000
0000
0000
,
1001
0001
0100
0020
0000
0000
0000
0000
,
0000
0000
0000
0000
0000
0000
1030
0100
0010
0000
1000
0001
0100
0010
0001
0000
,
2000
0000
0001
3002
0000
0100
0203
0000
,
0320
0000
0000
0000
0000
0000
1030
0001
2002
0000
0000
0000
0000
0000
3003
0000
,
1100
0101
0000
1010
0000
0011
1010
0011
,
0000
1001
0000
0110
1001
0110
0000
1010
,
1000
0000
1100
0000
0110
0000
0011
0000
1000
0100
0001
0000
1000
0010
0001
0000
,
1000
0000
1001
0000
0001
0100
0010
0000
0000
0000
1000
0100
0010
0001
0100
0010
,
1000
0000
0001
0100
0000
1000
0100
0000
,
0001
0000
0010
0000
0000
0000
1000
0010
0001
0000
0100
0000
0010
0000
1000
0000
,
0001
0000
0100
1000
0000
0100
0001
0000
,
0010
0000
0000
0000
0000
0000
0000
0000
1000
0000
0000
0000
0000
0000
0000
0000
0000
0000
0000
0000
0000
0000
0000
0000
0010
0000
0000
0000
0000
0000
0000
0000
0001
0000
0000
0000
0000
0000
0000
0000
0000
0000
0000
0000
0000
0000
0000
0000
2000
3000
0000
0000
0200
0300
0000
0000
0020
0030
0000
0000
0002
0003
0000
0000
,
1000
0100
1000
0001
0100
0001
1000
0010
1000
0001
0010
0001
,
1000
0100
0010
0001
0100
0010
0001
0010
1000
0001
0100
0010
,
1000
0100
0010
0001
0100
0010
1000
0001
0100
0010
0100
0001
1000
0001
0010
0001
,
1000
0000
0100
0000
0010
0000
1000
0000
0001
0000
0100
0000
0010
0000
0001
0000
1000
0000
1001
0000
0000
0000
0000
0000
1001
0000
0000
0000
0000
0000
0001
0000
0000
0100
0000
0000
1000
0000
0000
0100
0000
0000
0001
0000
0000
0000
0000
0000
,
1000
0000
0001
0100
1000
0100
0001
0000
1000
0000
0001
0010
1000
0010
0001
1000
,
0001
0010
0100
0000
1000
0010
0100
0000
0110
0000
0001
0100
1000
0100
0001
0000
,
1000
0000
0001
0100
1000
0100
0001
0000
1000
0000
0001
0010
1000
0010
0001
0000
,
1000
0010
0100
0001
1000
0100
0010
0000
0011
0000
0001
0100
0001
0100
1000
0000
,
1000
0100
1000
0100
0001
1000
0020
0000
0000
0000
0031
0010
0100
0001
1000
0000
,
0001
1000
0001
0100
0001
0010
0100
1000
0100
0000
1000
0010
0100
0001
0101
0000
,
0000
0000
0001
0010
0100
1000
1100
0000
0000
0000
1000
0001
0100
0010
1000
0010
,
0100
0000
0000
0000
0000
0000
0001
0000
0010
0000
0100
0000
1000
0000
0000
0001
0000
0000
1000
0000
0000
0000
0000
0000
1001
0000
0000
0000
0000
0000
0001
0000
0000
0010
0000
0000
0001
0000
0000
0010
0000
0000
1000
0000
0000
0000
0000
0000
,
1001
0000
1000
0010
1000
0010
0001
0000
1001
0000
0001
0100
0010
1000
0010
0100
,
0001
0010
0100
1000
0010
0100
0001
0000
1001
0000
1000
0100
1000
0100
0001
0000
,
1001
0000
0001
0100
0001
0100
2000
0000
0000
3000
0000
1010
0000
0000
0101
0000
,
0001
0010
0100
0010
0001
1000
0001
0010
0100
0000
1000
0100
1000
0100
0001
0000
,
0110
0000
0001
0100
0001
0100
1000
0000
1001
0000
0001
0010
0100
0000
1000
0000
,
0001
0000
0000
0010
0000
0000
0100
0000
0000
1000
0000
0000
0100
0000
0000
0010
0000
0000
0001
0000
0000
1000
0000
0000
0001
0000
0000
0000
0000
0000
1000
0000
0010
0000
1000
0000
0001
0000
0000
0010
0000
0000
0100
0000
0000
0010
0000
0000
,
0001
0100
0010
0001
0010
0100
0010
1000
0100
0000
0001
0100
0000
1000
0001
0000
,
2002
0000
0000
3003
2000
0000
3200
0000
0320
0000
2030
0000
3001
0000
0100
0000
,
0010
0000
0001
0000
1000
0000
0010
0000
0001
0000
0020
0230
0302
0000
2003
0000
,
3002
0023
0032
0203
0320
0032
2003
3200
,
0320
0000
2030
0000
3001
0000
0010
0000
0021
0000
0000
0000
0031
0000
1000
0010
,
0100
0010
1020
1030
0200
0320
0031
0200
,
0320
0000
1030
0000
0001
0010
0100
0000
1000
0100
0010
0000
0001
1000
0010
0100
,
0001
0000
0000
1000
0000
0000
0100
0000
0000
0010
0000
0000
0001
0000
0000
0000
0000
0000
0100
0000
0000
0010
0000
0000
0100
0000
0000
0000
0000
0000
0101
0000
0000
0000
0000
0000
0000
0000
0000
0001
0000
0000
0010
0000
0001
0000
1000
0000
,
0001
0000
0000
1001
0000
0000
0000
0000
0000
1000
0100
0010
0001
0000
0000
1000
0000
0000
0001
0000
0100
0000
1000
0000
,
0001
0000
0000
0000
0010
0000
0000
0000
1000
0000
0000
0000
0001
0000
0000
0000
0000
0000
1000
0000
0000
0000
0000
0000
0100
0000
0000
1000
0000
0000
0010
0000
0000
1000
0000
0000
0100
0000
0000
0010
0000
0000
0001
0000
0000
0010
0000
0000
,
0100
1000
0100
0000
1000
0010
0100
0001
1000
0001
0010
0100
0010
0001
0010
0001
,
0010
0000
0001
0000
1000
0000
0010
0000
1000
0010
0100
0000
0110
0000
0000
0000
,
1000
0001
0010
0000
0001
0010
0100
0010
0001
0100
0010
1000
0002
0000
0000
0000
,
1003
0100
0010
0001
1000
0000
0001
0100
0010
1000
0001
0000
0010
0001
1000
0001
,
0100
0000
0010
1000
0001
1000
0100
0000
0010
0001
1000
0010
0100
0001
1000
0100
,
0010
0000
0000
0000
0001
0100
1000
0000
0000
0000
0001
0010
1000
0000
0000
0000
,
0001
0100
0010
0000
0001
0000
0010
1000
0001
1000
0100
0010
0001
0100
0020
0000
,
0000
0000
0000
0000
,
0000
0000
0000
0000
,
0000
0000
0000
0000
,
0000
0000
0000
0000
,
0030
0000
0000
0000
;

//--------------- dance-double - Fred-104 ----------------
#NOTES:
     dance-double:
     Fred-104:
     Easy:
     12:
     :
00000000
00000000
00000000
00000000
,
00000000
00000000
00000000
00000000
,
00000000
00000000
00000000
00000000
,
00000000
00000000
00000000
00000000
,
00000000
00000000
00000000
00000000
,
00000000
00000000
00000000
00000000
,
00000001
00000000
00000000
00000010
00000000
00000000
00000001
00000000
,
00000000
00000100
00000000
00000000
00000010
00000000
00010000
00000000
,
00001000
00000000
00000000
00010000
00000000
00000000
00011000
00000000
00000000
00000000
00001000
00000000
00010000
00100000
10000000
00000000
,
00010000
00000000
10000000
01000000
00000000
00100000
01000000
00000000
,
10000000
00100000
00000000
01000000
00100000
00000000
10000000
00000000
,
01000000
00000000
00100000
00001000
00000000
00010000
00001000
00000000
,
01000000
00001000
00000000
00010000
00001000
00000000
00100000
00000000
,
00001000
00000000
00010000
00000010
00000000
00001000
00000100
00000000
,
00010000
00000100
00000000
00001000
00000020
00000000
00000000
00000000
,
00000000
00000000
00001030
00000010
,
00000100
00000001
00000100
00000000
00000001
00000000
00000010
00000000
,
00000100
00001000
00000100
00000000
00010000
00001000
00100000
00010000
,
10000000
00100000
01000000
00000000
00010000
00000000
00100000
00000000
,
00202000
00000000
00303000
00000000
00002000
00000000
00000000
00010000
,
00000000
00000000
00013000
00000000
00001000
00000100
00000010
00000000
,
00002002
00003003
00000001
00000000
00000100
00000000
00000010
00000100
,
00000010
00000000
00001000
00000000
00000100
00000000
00010000
00001000
,
00010000
00000000
00000010
00000000
00010000
00001000
00010000
00000000
,
00001000
00000000
00100000
00010000
00100000
00010000
00000000
20020000
,
00000000
00000000
00000000
30030000
10000000
00000000
00000000
00000000
01000000
00000000
00000000
00000000
00010000
00000000
00000000
00000000
,
00001000
00010000
00100000
10000000
,
00010000
00000000
10000000
01000000
00010000
00000000
00001000
00010000
,
00200000
00000000
10300000
01000000
00010000
00000000
00001000
00011000
,
00000000
00000000
00010000
00000000
00001000
00000000
00000010
00000001
,
00001000
00000000
00000001
00000000
00000100
00000000
00000010
00000100
,
00000020
00002030
00003001
00000010
,
00000100
00001000
00000100
00000000
00010000
00000000
00001000
00000000
,
00020000
00032000
00023000
00032000
00013000
00000000
00000000
00000000
00001000
00000000
00000000
00000000
00100000
00000000
00010000
00000000
,
01000000
00000000
00010000
10000000
00100000
00000000
01000000
00010000
,
10000000
00000000
01000000
00100000
00001000
00000000
00010000
00000100
,
00001000
00000100
00001000
00000000
00000002
00000000
00002003
00000000
,
00003002
00000000
00000203
00000000
00000000
00000000
00001300
00010000
,
00200000
02300000
00000000
00000000
,
03010000
00000000
10000000
00000000
01000000
00000000
00200000
00000000
00000000
00000000
00000000
00000000
00000000
00000000
00000000
00000000
00000000
00000000
00302000
00000000
00000000
00023000
00000000
00000000
,
00030020
00000000
00000000
00000000
00000000
00000000
00002030
00000000
00000000
00000000
00000000
00000000
00003100
00000000
00000000
00000010
00000000
00000000
00001000
00000000
00001000
00000000
00010000
00000000
,
00020000
00000000
00000000
00030000
,
00010000
00000000
00001000
00000000
00100000
00010000
00100000
00000000
,
00002000
00000000
00003000
02000000
00000000
03000000
00002000
00000000
,
00023000
00000000
00030000
00010000
00011000
00000000
00000000
00000000
,
01000000
01000000
00000000
00010000
00000000
10000000
01000000
10000000
,
00000000
10010000
00000000
00010000
01000000
00001000
00000000
00010000
,
00001000
00010000
00000100
00000000
00001000
00000001
00001000
00000000
,
00000001
00000100
00000010
00001000
,
00001002
00000000
00000000
00000203
00000000
00000000
00002300
00000000
,
00000000
00023000
00000000
00000000
00130000
00000000
10000000
00000000
,
00020000
00000000
00000000
20030000
00000000
00000000
32000000
00000000
,
00000000
03020000
00000000
00000000
00032000
00000000
00003020
00000032
,
00001003
00000001
00000010
00001000
,
00010000
01000000
10000000
00100000
,
00010000
00001000
00010000
00000000
00001000
00000100
00000001
00000000
,
00000202
00000000
00000000
00000303
00001001
00000000
00000001
00000010
,
00000000
00000001
00000100
00000001
00000000
00001000
00000100
00001000
,
00000000
00000100
00010000
00000000
00001000
00000000
00010000
00000010
,
00000000
00010000
00001000
00010000
00000000
00001000
00100000
00001000
,
00000000
00100000
00010000
00000000
01000000
00100000
01000000
00000000
,
00010000
10000000
00010000
10000000
00000000
01000000
00100000
01000000
,
00000000
10000000
00100000
00000000
10000000
00000000
01000000
00100000
,
00000000
00001000
00010000
00001000
00000000
00100000
00001000
00010000
,
00001000
00010000
00000010
00000000
00000010
00001000
00000100
00001000
,
00000000
00000100
00000010
00000100
00000000
00000010
00000001
00000010
,
00000001
00000000
00001000
00000000
00000001
00000100
00000010
00000100
,
00000000
00000000
00000010
00000000
00010000
00000000
00001000
00000000
00000000
00000000
00000000
00100000
00000000
00000000
00010000
00000000
,
10000000
10000000
01000000
00000000
10000000
00100000
01000000
00010000
,
00000000
00100000
01000000
10000000
00000000
01000000
00100000
00001000
,
00000000
00010000
00000100
00000010
00000001
00000000
00000100
00000000
,
00001000
00000000
00000000
00000000
00000010
00000000
00000000
00000000
00000001
00000000
00000000
00000100
00000000
00000000
00001000
00000000
,
00022000
00000000
00000000
00033000
00001000
00000000
00000000
00000000
00001000
00000000
00010000
00000000
00000000
00000000
00100000
00000000
,
10000000
00000000
00010000
10000000
00000000
10000000
01000000
00100000
,
01000000
10000000
00100000
00010000
00001000
00010000
00001000
00000100
,
00000001
00000000
00001000
00000100
00000010
00000001
00000010
00000100
,
00001000
00000000
00000001
00000100
00000010
00001000
00000000
00000001
,
00000010
00000000
00000100
00010000
00000000
00001000
01000000
00001000
,
00010000
00000000
00011000
00000000
00001000
00100000
00000000
00001000
,
00010000
00001000
00000000
01000000
00010000
01000000
00200000
00000000
,
20300000
00000000
31000000
00000000
00100000
00010000
01000000
00001000
,
00010000
00000000
00001000
00010000
00000100
00001000
00000001
00000100
,
00000010
00000000
00000000
00000000
00001000
00000000
00000000
00000001
00000000
00000000
00000010
00000000
00000110
00000000
00000000
00000000
,
00010000
00000000
00001000
00001000
00010000
00010000
00002000
00000000
,
00013000
00001000
00000000
00010000
00100000
00000000
00010000
00001000
,
00000000
00000010
00001000
00000000
00010000
01000000
00010000
00001000
,
00011000
00000000
00001000
00000100
00000000
00001000
00010000
00000000
,
01000000
00010000
00000000
00001000
00000010
00001000
00010000
00002000
,
00000000
00000000
00000000
00000000
,
00000000
00000000
00000000
00000000
,
00000000
00000000
00000000
00000000
,
00000000
00000000
00000000
00000000
,
00003000
00000000
00000000
00000000
;

//--------------- dance-double - Fred-104 ----------------
#NOTES:
     dance-double:
     Fred-104:
     Medium:
     16:
     :
00000000
00000000
00000000
00000000
,
00000000
00000000
00000000
00000000
,
00000000
00000000
00000000
00000000
,
00000000
00000000
00000000
00000000
,
00000000
00000000
00000000
00000000
,
00000000
00000000
00000000
00000000
,
10000000
00000000
10000000
01000000
00000000
01000000
00100000
00000000
,
00100000
00001000
00000000
00001000
00010000
00000010
00001000
00000001
,
00000010
00000000
00000000
00000100
00000000
00000000
00010000
00000000
00000000
00000000
00001000
00000000
00022000
00000000
00000000
00000000
00000000
00000000
00000000
00000000
00000000
00000000
00000000
00000000
00033000
00000000
00000000
00000000
00000000
00000000
00000000
00000000
,
00010000
00001000
00000010
00001000
00010000
00001000
00000100
00000000
,
00001000
00010000
01000000
00010000
00001000
00010000
00100000
00000000
,
00010000
00001000
00000100
00001000
00010000
00001000
00000010
00000000
,
00001000
00010000
00100000
00010000
00001000
00010000
01000000
00000000
,
00010000
00001000
00010000
00100000
00010000
00001000
00000100
00001000
,
00010000
00000000
00001000
00000000
00000000
00000000
01000000
00010000
20000000
00000000
00000000
00000000
00000000
00000000
00000000
00000000
,
00000000
00000000
30000000
00000000
10000000
00000000
01000000
10000000
,
00100000
01000000
00010000
10000000
01000000
00010000
00001000
00000010
,
00000001
00001000
00001001
00000000
00000001
00000100
00000010
00001000
,
00000100
00000000
00000000
00000010
00000000
00000000
00000001
00000000
00000000
00000000
00000000
00000000
00001000
00000000
00000000
00000000
00000000
00000000
00000001
00000000
00000000
00000000
00000000
00000000
00000100
00000000
00000000
00000000
00000001
00000000
00000000
00000000
00001000
00000000
00000000
00000000
00000100
00000000
00000000
00000000
00010000
00000000
00000000
00000000
00000100
00000000
00000000
00000000
,
00002000
00000000
00000000
00000000
00003001
00000100
00001000
00010000
,
01000000
10000000
00010000
00000000
02000000
00000000
03002000
00000000
,
00013000
00001000
00011000
00000000
00001000
00000000
00000000
00000000
00100000
00010000
00100000
00000000
00010000
00000000
10000000
01000000
,
10000000
00000000
00010000
00000000
01000000
00100000
01000000
00000000
00100000
00000000
10000000
00000000
01000000
00100000
01000000
00000000
,
10000000
00000000
00010000
00000000
01000000
00000000
00000000
00000000
00001000
00010000
00001000
00000000
00100000
00000000
00001000
00010000
,
00001000
00000000
00000000
00000000
00000000
00000000
00000000
00000000
01000000
00000000
00000000
00000000
00000000
00000000
00000000
00000000
00001000
00000000
00000000
00000000
00010000
00000000
00000000
00000000
00001000
00000000
00000000
00000000
00000000
00000000
00000000
00000000
00010000
00000000
00000000
00000000
00000000
00000000
00000000
00000000
00022000
00033000
00000000
00000000
00000000
00000000
00000000
00000000
00000000
00000000
00000000
00000000
00000000
00000000
00000000
00000000
00000220
00000000
00000000
00000000
00000000
00000000
00000000
00000000
,
00000000
00000000
00000000
00000330
00000100
00000000
00000000
00000000
00001001
00000000
00000000
00000000
00000001
00000010
00000001
00000000
,
00000100
00000010
00000100
00000000
00000001
00000000
00000100
00001000
00000100
00000000
00001000
00000000
00010000
00001000
00010000
00000000
,
00100000
00000000
10000000
00000000
00010000
00000000
00100000
00000000
10000000
00000000
00100000
00000000
00010000
10000000
00010000
00000000
,
00200000
00000000
00000000
00000000
00301000
00010000
00001000
00000000
00000010
00000100
00000010
00000000
00000001
00000000
00001001
00000000
,
00000000
00000000
00000000
00000000
00000110
00000000
00000000
00000000
00001001
00000000
00000000
00000001
00000100
00000000
00000010
00000000
,
00000100
00000000
00000001
00000000
00001000
00000100
00000000
00000100
00010000
00000000
00001000
00000000
01000000
00001000
01000000
00000000
,
00002000
00000000
00023000
00000000
00032000
00000000
00203000
00000000
00310000
00000000
00000000
00000000
10000000
00100000
10000000
00000000
,
01000000
00000000
00100000
00000000
01000000
10000000
01000000
00000000
00100000
00000000
00010000
00000000
00100000
00000000
00001000
00000000
,
00020000
00030200
00002300
00003200
00010300
00000000
00000010
00001000
00000010
00000000
00010000
00000000
00000100
00001000
00000100
00000000
,
00020000
00000000
00000000
00000000
00032000
00000000
00000000
00000000
00103000
00010000
00100000
00000000
00010000
10000000
00010000
00000000
,
10000000
01000000
10000000
00000000
00010000
01000000
00010000
00000000
00100000
00001000
00100000
00000000
00001000
00000000
00010000
00000000
,
00000100
00001000
00000100
00000000
00000010
00000001
00000010
00000000
00000002
00000000
00000000
00000000
00002003
00000000
00000000
00000000
,
00003002
00000000
00000000
00000000
00000000
00000000
00000000
00000000
00000203
00000000
00000000
00000000
00002300
00000000
00000000
00000000
00000000
00000000
00000000
00000000
00000000
00000000
00000000
00000000
00000000
00000000
00000000
00000000
00000000
00000000
00000000
00000000
00000000
00000000
00000000
00000000
00013000
00000000
00000000
00001000
00000000
00000000
00010000
00000000
00000000
00100000
00000000
00000000
,
20000000
00000000
00000000
32000000
03200000
00000000
00000000
00000000
00000000
00000000
00000000
00000000
00300000
00000000
00000000
00000000
,
00001000
00000000
00010000
00000000
00000010
00000000
00002000
00000000
00000000
00000000
00000000
00000000
00000000
00000000
00000000
00000000
00000000
00000000
00003200
00000000
00000000
00000320
00000000
00000000
,
00000032
00000000
00000000
00000000
00000000
00000000
00002003
00000000
00000000
00000000
00000000
00000000
00003001
00000000
00000000
00001000
00000000
00000000
00000100
00000000
00000010
00000000
00001000
00000000
,
00010000
01000000
00100000
00020000
00000000
00000000
00000000
00000000
,
00000000
00000000
00000000
00000000
00000000
00000000
10030000
00100000
10000000
00000000
00100000
00000000
01000000
00000000
00001000
00000000
,
00020000
00000000
00030100
00000200
00000000
00000310
00000020
00000000
,
00000031
00000000
00000002
00000000
00000000
00000000
00001003
00000001
00002000
00000000
00000000
00000000
00003000
00000000
00000000
00000000
,
00000001
00001001
00000000
00000110
00000000
00000001
00001000
00001100
,
00000000
00011000
00000000
00001000
01000000
01010000
00000000
10000000
,
00010000
01000000
00100000
10000000
01000000
01000000
10000000
10000000
,
00100000
00000000
01000000
00000000
00001000
00010000
00001000
00000000
00000000
00000000
00010000
00001000
00010000
00001000
00010000
00001000
,
00010000
00000000
00000000
01000000
00000000
00000000
10000000
00000000
,
00000000
00100000
00000000
00000000
00010000
00000000
00001000
00000000
,
00010000
00000000
00000000
00001000
00000000
00000000
00000010
00000000
,
00000000
00000000
00000001
00000000
00000000
00000000
00000000
00000000
00000100
00000000
00000000
00000000
00001000
00010000
00002000
00000000
,
00013000
00000000
00001000
01000000
00000000
00010000
10000000
00000000
01000000
00100000
00000000
00010000
,
01000000
00000000
00100000
01000000
00000000
00010000
10000000
00000000
10000000
01000000
00100000
00010000
,
00100000
00000000
00001000
00000000
00010000
00000000
00001000
00000000
00000100
00000010
00000100
00000000
00000001
00001000
00000001
00000000
,
00002000
00000000
00000000
00000000
00000000
00000000
00003000
00000000
00001000
00000000
00000001
00001000
00000001
00000000
00000010
00000000
,
00000100
00000000
00001000
00000100
00001000
00000000
00000200
00000000
00000000
00000000
00010300
00001000
00010000
00000000
00001000
00000000
,
00010000
00000000
00100000
00000000
10000000
00000000
00010000
00000000
10000000
00000000
01000000
00100000
01000000
00000000
20000000
00000000
,
00000000
00000000
30010000
01000000
00010000
00000000
01000000
00000000
00001000
00000000
00010000
00000000
00000100
00001000
00000100
00000000
,
00010000
00000100
00010000
00000000
00001000
00000000
00010000
00000000
00001000
00000000
00000010
00000001
00000010
00000000
00000100
00000000
,
00001000
00000001
00001000
00000000
00000010
00010000
00000020
00000000
00000000
00000000
00000130
00000000
00000001
00000010
00000100
00000000
,
00001000
00000000
00000100
00000000
00000010
00000001
00001000
00000000
00000001
00000000
00000100
00000010
00001000
00000000
00000001
00000000
,
00000010
00000000
00000100
00010000
00001000
00000000
02000000
00000000
00000000
00000000
03010000
10000000
00100000
00000000
01000000
00010000
,
20000000
00000000
32000000
00000000
03200000
00000000
00310000
10000000
00010000
00000000
10000000
01000000
00100000
00000000
00001000
00000000
,
00010000
00000000
00100000
01000000
00001000
00000000
00010000
00000000
00001000
00000000
00000010
00000001
00000010
00000000
00000100
00000000
,
00001000
00000001
00000010
00000000
00000100
00010000
00001000
00000000
00010000
00000000
00001000
00000100
00000010
00000000
00010000
00000000
,
00001000
00000000
00000100
00000001
00000010
00000000
00000100
00000000
00000000
00000000
00000000
00001000
00000000
00000000
00011000
00000000
,
00001000
00000000
01000000
00100000
01000000
00000000
00010000
00000000
10000000
00000000
00010000
01000000
00010000
00000000
00100000
00000000
,
00010000
00000000
01000000
00000000
00100000
10000000
00100000
00000000
01000000
00000000
00001000
00010000
00001000
00000000
00100000
00000000
,
00001000
00010000
00001000
00000000
00010000
00000100
00010000
00000000
00000100
00000000
00001000
00000100
00000010
00000000
00000001
00000000
,
00000100
00000001
00000100
00000000
00000010
00001000
00000001
00000000
00000100
00000000
00000001
00000010
00000000
00000100
00010000
00000000
,
00022000
00000000
00000000
00033000
00001000
00000000
00010000
00000000
00100000
00000000
00010000
00000000
00001000
00000000
00010000
00000000
,
01000000
00000000
00010000
00001000
00000010
00001000
00010000
00001000
,
00000100
00000000
00001000
00010000
01000000
00010000
00001000
00010000
,
00100000
00010000
00001000
00010000
00011000
00000000
00001000
00010000
,
00000100
00001000
00000001
00000010
00001000
00010000
01000000
10000000
,
10000000
00100000
00010000
00001000
00000100
00000001
00000001
00000010
,
00000100
00000000
00010000
00000000
00011000
00000000
00000000
00001000
00010000
00000000
00011000
00000000
00000000
00000010
00000100
00000000
,
00000010
00000000
00000000
00000000
00000000
00000000
00001000
00000000
00000000
00000000
00000000
00000000
00000000
00000000
00000000
00000000
00000000
00000000
00000001
00000000
00000000
00000100
00000000
00000000
00000001
00000000
00000000
00000000
00000000
00000000
00000010
00000000
00000000
00000000
00000000
00000000
00000001
00000000
00000000
00000000
00000100
00000000
00000000
00000000
00000010
00000000
00000000
00000000
,
00001000
00000000
00000100
00000000
00000010
00000000
00000001
00000000
00000000
00000100
00000000
00000000
00001000
00000000
00000000
00010000
00000000
00000000
00000100
00000000
00000000
00000010
00000000
00000000
,
00000001
00000000
00000000
00000000
00000100
00000010
00000100
00000000
00000010
00010000
00000010
00000000
00010000
00000000
00001000
00000000
,
01000000
00000000
00100000
00000000
10100000
00000000
00000000
00010000
00000000
00000000
00100000
00000000
01100000
00000000
00000000
00000000
,
10000000
01000000
10000000
00000000
00100000
00000000
00010000
00001000
00000100
00000000
00000001
00000000
00002000
00000000
00000000
00000000
,
00003001
00000100
00000001
00000000
00001000
00000000
00000100
00000010
00000100
00000000
00000010
00000000
00000001
00000100
00000001
00000000
,
00000100
00000000
00001000
00010000
00001000
00000000
00010000
00000000
00100000
00000000
01000000
00000000
00010000
00000000
10000000
00000000
,
11000000
00000000
00100000
01010000
00000000
00010000
00101000
00000000
,
00001000
00000000
00010010
00000000
00000000
00000000
00001000
00000000
00010000
00000100
00001000
00000000
00000001
00000100
00000020
00000000
,
00000000
00000000
00000000
00000000
,
00000000
00000000
00000000
00000000
,
00000000
00000000
00000000
00000000
,
00000000
00000000
00000000
00000000
,
00000030
00000000
00000000
00000000
;

//--------------- dance-double - Fred-104 ----------------
#NOTES:
     dance-double:
     Fred-104:
     Hard:
     17:
     :
00000000
00000000
00000000
00000000
,
00000000
00000000
00000000
00000000
,
00000000
00000000
00000000
00000000
,
00000000
00000000
00000000
00000000
,
00000000
00000000
00000000
00000000
,
00000000
00000000
00000000
00000000
,
01000000
00000000
00100000
10000000
00000000
00010000
10000000
00000000
,
01000000
00000000
00100000
00000000
00000000
00000000
00001000
00010000
00001000
00000000
00010000
00000100
00010000
00000100
00001000
00000000
,
00000020
00000000
00000000
00002030
00000000
00000000
00003002
00000000
00000000
00000003
00000100
00000000
00000110
00000000
00000000
00000000
00000000
00000000
00000000
00000000
00000001
00000000
00000010
00000000
00001000
00000000
00010000
00000000
01000000
00000000
10000000
00000000
,
00010000
10000000
00100000
00010000
00100000
01000000
00010000
10000000
,
00010000
10000000
01000000
00100000
00010000
00100000
00001000
00010000
,
00000100
00010000
00000010
00001000
00000100
00000010
00000001
00000100
,
00000010
00000000
00000001
00000000
00000010
00000000
00001000
00000000
00000001
00000100
00000001
00000000
00001000
00000010
00001000
00000000
,
00000100
00010000
00001000
00100000
00010000
10000000
00100000
01000000
,
00010000
00000000
10000000
00000000
01000000
00000000
00100000
00001000
00020000
00000000
00000000
00000000
00000000
00000000
00000000
00000000
,
00000000
00000000
00000000
00000000
00000000
00000000
00000000
00000000
00031000
00000000
00000000
00000000
00010000
00001000
00010000
00001000
,
00010000
00000000
00000100
00000000
00001000
00000000
00000001
00000010
00000100
00000000
00010000
00000000
00001000
00000000
00000100
00000010
,
00001000
00000001
00000100
00000010
00001000
00000100
00001000
00000000
00000001
00000000
00000100
00000000
00000010
00000000
00001000
00000000
,
00000001
00000000
00000000
00000010
00000000
00000000
00000100
00000000
00000000
00001000
00000000
00000000
00000100
00000000
00000000
00010000
00000000
00000000
00001000
00000000
00000000
00100000
00000000
00000000
00001000
00000000
00000000
00000000
00010000
00000000
00000000
00000000
00100000
00000000
00000000
00000000
01000000
00000000
00000000
00000000
00001000
00000000
00000000
00000000
00010000
00000000
00000000
00000000
,
02000000
00000000
00000000
00000000
13000000
01000000
00010000
00001000
,
00000010
00000001
00000100
00001000
00020000
00000000
00230000
00000000
,
10300000
01000000
01100000
00000000
10010000
00000000
00000000
00000000
00010000
01000000
00010000
01000000
00010000
00000000
10000000
00100000
,
10000000
00100000
01000000
00000000
00010000
00000000
00100000
00001000
00010000
00000000
00001000
00000000
00000010
00000001
00000010
00000000
,
00000001
00001000
00000001
00000000
00000100
00000000
00000000
00000000
00000010
00001000
00000010
00001000
00000100
00000000
00010000
00001000
,
00100000
00000000
00000000
00000000
00001000
00000000
00000000
00000000
00010000
00000000
00000000
00000000
00000000
00000000
00000000
00000000
00001000
00000000
00000000
00000000
00100000
00000000
00000000
00000000
00010000
00000000
00000000
00000000
10000000
00000000
00000000
00000000
01000000
00000000
00000000
00000000
00000000
00000000
00000000
00000000
00200000
00300000
00000000
00000000
00000000
00000000
00000000
00000000
00000000
00000000
00000000
00000000
00000000
00000000
00000000
00000000
00022000
00000000
00000000
00000000
00000000
00000000
00000000
00000000
,
00000000
00000000
00000000
00033000
00010000
00000000
00000000
00000000
00001100
00000000
00000000
00000000
00000001
00001000
00000010
00000000
,
00000100
00000010
00001000
00000000
00000001
00000000
00000100
00000001
00001000
00000001
00000010
00000000
00000100
00001000
00000001
00001000
,
00000010
00000000
00000100
00000000
00000001
00000000
00000010
00000100
00010000
00000000
00001000
00000000
00010000
01000000
10000000
00010000
,
20000000
00000000
00000000
00000000
30010000
10000000
00010000
10000000
00100000
01000000
00010000
10000000
00010000
00000000
00110000
00000000
,
00000000
00000000
00000000
00000000
00011000
00000000
00000000
00000000
00001010
00000000
00000000
00000001
00001000
00000001
00000100
00000001
,
00000100
00000000
00000010
00000000
00001000
00000100
00000000
00000010
00000100
00000000
00010000
00000000
00001000
00010000
00001000
00000000
,
00020000
00000000
00032000
00000000
00003020
00000000
00002030
00000000
00013000
00000000
00000000
00000000
00001000
01000000
00001000
00000000
,
00010000
00001000
00010000
00000000
00001000
00100000
00010000
00000000
01000000
00000000
00100000
00000000
10000000
00000000
01000000
00000000
,
20000000
30000000
00000000
00000000
02000000
03000000
00000000
00000000
00200000
00300000
00000000
00000000
00002000
00003000
00000000
00000000
00010000
00000000
00000000
00000000
00000000
00000000
00000000
00000000
00010000
00000000
00000000
00000000
00000100
00000000
00000000
00000000
00001000
00000000
00000000
00000000
00000100
00000000
00000000
00000000
00000010
00000000
00000000
00000000
00000000
00000000
00000000
00000000
00000001
00000000
00000000
00000000
00001000
00000000
00000000
00000000
00000001
00000000
00000000
00000000
00000000
00000000
00000000
00000000
,
00000200
00000000
00000000
00000000
00000320
00000000
00000000
00000000
00001030
00000010
00000100
00000000
00000001
00000010
00000200
00000000
,
00000310
00000001
00000010
00000000
00000001
00000100
00000001
00000000
00000100
00001000
00000100
00000000
00001000
00010000
00001000
00000000
,
00010000
01000000
00010000
01000000
10000000
01000000
10000000
01000000
20000000
00000000
00000000
00000000
00020000
00000000
00000000
30030000
,
02100000
00000000
00000000
00000000
00000000
00000000
00000000
00000000
03001000
00000000
00000000
00000000
00020000
00000000
00000000
00000000
00000000
00000000
00000000
00000000
00000000
00000000
00000000
00000000
00000000
00000000
00000000
00000000
00000000
00000000
00000000
00000000
00000000
00000000
00000000
00000000
00031000
00000000
00000000
00000100
00000000
00000000
00000010
00000000
00000000
00001000
00000000
00000000
,
00000002
00000000
00000000
00000013
00002000
00000000
00000000
00000000
00000000
00000000
00000000
00000000
00003000
00000000
00000000
00000000
,
00010000
00000000
01000000
00000000
10000000
00000000
00010000
00100000
01000000
10000000
00010000
01000000
00100000
00000000
10000000
00100000
00000000
00100000
01000000
00001000
00010000
00001000
00000000
00000000
,
00000010
00000000
00000000
00000000
00000000
00000000
00000000
00000000
00000000
00000000
00000000
00000000
00000000
00000000
00000000
00000000
00000001
00000000
00000000
00000000
00000000
00000000
00000000
00000000
00001000
00000000
00000000
00000000
00000000
00000000
00000000
00000000
00000001
00000000
00000000
00000000
00000000
00000000
00000000
00000000
00000100
00000000
00000000
00000000
00000000
00000000
00000000
00000000
00000010
00000000
00000000
00000000
00000000
00000000
00000000
00000000
00000000
00000000
00000000
00000000
00000000
00000000
00000000
00000000
00001000
00000000
00000000
00000000
00000000
00000000
00000000
00000000
00000100
00000000
00000000
00000000
00000000
00000000
00000000
00000000
00000010
00000000
00000000
00000000
00000000
00000000
00000000
00000000
00000001
00000000
00000000
00000000
00000000
00000000
00000000
00000000
00000100
00000000
00000000
00000000
00000000
00000000
00000000
00000000
00001000
00000000
00000000
00000000
00000000
00000000
00000000
00000000
00010000
00000000
00000000
00000000
00000000
00000000
00000000
00000000
00100000
00000000
00000000
00000000
00000000
00000000
00000000
00000000
10000000
00000000
00000000
00000000
00000000
00000000
00000000
00000000
00010000
00000000
00000000
00000000
00000000
00000000
00000000
00000000
20000000
00000000
00000000
30000000
00000000
00000000
00000000
00000000
00000000
00000000
00000000
00000000
00000000
00000000
00000000
00000000
02000000
00000000
00000000
03000000
00000000
00000000
00000000
00000000
00000000
00000000
00000000
00000000
00000000
00000000
00000000
00000000
00020000
00000000
00000000
00030000
00000000
00000000
00000000
00000000
00000000
00000000
00000000
00000000
00000000
00000000
00000000
00000000
,
00001000
00010000
00100000
20000000
00000000
00000000
00000000
00000000
,
00000000
00000000
00000000
00000000
00000000
00000000
30010000
10000000
01000000
00000000
00100000
00000000
00001000
00010000
00001000
00000000
,
00000020
00000000
00000000
00000032
00000000
00000000
00000203
00000000
,
00002300
00000000
00000000
00000000
00000000
00000000
00013000
00001000
00020000
00000000
00000000
00000000
00000000
00000000
00030000
00000000
,
00011000
00011000
00000000
01001000
00000000
00010100
00011000
00011000
,
00000000
00010010
00000000
00101000
00011000
00011000
00000000
00001010
,
00001000
00000000
00000001
00000000
00000010
00000000
00000001
00000000
00001000
00000010
00000100
00000000
00001000
00010000
00100000
00000000
,
01000000
00000000
00010000
00000000
10000000
00010000
10000000
00000000
00000000
00000000
00100000
10000000
01000000
00100000
00010000
00100000
,
00001000
00000000
00010000
00000100
00000000
00010000
00001000
00000000
,
00010000
00000000
00000010
00000000
00000000
00000000
00001000
00000010
00000100
00000000
00000010
00000000
00001000
00000000
00000100
00000000
,
00010000
00000000
00001000
01000000
00000000
00001000
00010000
00000000
,
00001000
00000000
00000000
00000000
00000000
00000000
00000000
00000000
00100000
00000000
00000000
00000000
00000000
00000000
00000000
00000000
00000000
00000000
00000000
00000000
00000000
00000000
00000000
00000000
00001000
00000000
00000000
00000000
00000000
00000000
00000000
00000000
00010000
00000000
00000000
00000000
00000000
00000000
00000000
00000000
00000000
00000000
00000000
00000000
00000000
00000000
00000000
00000000
00002000
00003000
00000000
00000000
00020000
00030000
00000000
00000000
00002000
00003000
00000000
00000000
00020000
00030000
00000000
00000000
,
00001000
00010000
00100000
10000000
00010000
00100000
01000000
10000000
00010000
01000000
00100000
01000000
,
10000000
01000000
00010000
10000000
01000000
00010000
00001000
00000010
00000001
00001000
00000010
00000100
,
00000001
00001000
00000001
00001000
00000001
00000100
00000001
00000100
00000010
00001000
00000010
00010000
00001000
00100000
00010000
00100000
,
00002000
00000000
00000000
00000000
00000000
00000000
00003000
00000000
00011000
00000000
00001000
00100000
00001000
00100000
00001000
00000000
,
00000000
00000000
00010000
00000010
00010000
00000010
00010000
00000000
00000000
00000000
00001000
01000000
00001000
01000000
00001000
00000000
,
00010000
00000100
00010000
00000000
00000100
00001000
00000100
00000000
00000010
00000000
00000001
00000100
00000001
00000100
00000001
00000000
,
00000000
00000000
00001000
00000100
00001000
00000100
00001000
00000000
00000000
00000000
00000001
00000000
00000010
00000100
00000010
00000000
,
00000100
00001000
00000100
00000000
00010000
00001000
00010000
00000000
00001000
00000000
00100000
01000000
00100000
01000000
00100000
00000000
,
00010000
10000000
00010000
00000000
01000000
00100000
02000000
00000000
00000000
00000000
03010000
00000000
10000000
01000000
00100000
00000000
,
00001000
00010000
00001000
00000000
01000000
00001000
00010000
00000000
00001000
00000000
00000100
00000001
00000100
00000001
00001000
00000000
,
00000000
00000000
00000001
00001000
00000001
00001000
00000010
00000000
00000000
00000000
00001000
00000100
00010000
00001000
00010000
00000000
,
00002000
00000000
00023000
00000000
00030020
00000000
00002030
00000000
00003100
00000000
00010000
00001000
01000000
00001000
00010000
00000000
,
00000000
00000000
00001000
00010000
00000010
00010000
00001000
00000000
00000000
00000000
00100000
00001000
00010000
00001000
00100000
00000000
,
00010000
01000000
00100000
00000000
10000000
01000000
00100000
00000000
00010000
00000000
01000000
00001000
00010000
00001000
00100000
00000000
,
00000000
00000000
00001000
00010000
00000010
00001000
00000010
00000000
00000000
00000000
00000000
00000110
00000000
00000000
00001001
00000000
,
00000001
00000100
00000010
00000100
00000001
00000100
00000010
00000000
00001000
00000000
00000100
00000010
00000001
00000010
00000001
00000000
,
00000100
00000000
00000010
00001000
00000010
00000100
00000001
00000000
00001000
00000000
00000100
00010000
00001000
00000000
00100000
00000000
,
00010000
00100000
01000000
10000000
01000000
00100000
00010000
00000000
10000000
00000000
00010000
01000000
00010000
00100000
00010000
00000000
,
10000000
01000000
10000000
00100000
01000000
00010000
00100000
00000000
00001000
00000000
00010000
00001000
00000000
00000010
00001000
00000000
,
00020000
00000000
00032000
00023000
00032000
00003020
00001030
00010000
,
00001000
00000000
00000100
00000000
00001000
00000000
00010000
00000000
01000000
00000000
10000000
00010000
20000000
00000000
32000000
00000000
,
03020000
00032000
00023000
00230000
00320000
00032000
00003020
00002030
,
00023000
00000000
00032000
00000000
00003100
00000000
00000001
00000000
00001001
00000000
00000000
00000000
00001000
00000000
00000010
00001000
,
00000010
00000100
00000001
00000010
00000100
00010000
00001000
00000100
,
00000001
00000010
00000100
00010000
00001000
00000100
00000001
00001000
,
00000010
00000000
00000100
00000000
00000101
00000000
00000000
00000001
00000100
00000000
00000110
00000000
00000000
00000001
00001000
00000100
,
00010000
00000000
00000000
00001000
00000000
00000000
00010000
00000000
00000000
00000000
00000000
00000000
00000000
00000000
00000000
00000000
00000000
00000000
00001000
00000000
00000000
00010000
00000000
00000000
01000000
00000000
00000000
00000000
00000000
00000000
10000000
00000000
00000000
00000000
00000000
00000000
00010000
00000000
00000000
00000000
01000000
00000000
00000000
00000000
10000000
00000000
00000000
00000000
,
01000000
00000000
00000000
00000000
00010000
00000000
00000000
00000000
00100000
00000000
00000000
00000000
00010000
00000000
00000000
00000000
00000000
00000000
00100000
00000000
00000000
00000000
00000000
00000000
01000000
00000000
00000000
10000000
00000000
00000000
01000000
00000000
00000000
00000000
00000000
00000000
00100000
00000000
00000000
00001000
00000000
00000000
00100000
00000000
00000000
00000000
00000000
00000000
,
00001000
00010000
00001000
00000000
00010000
00000100
00001000
00000100
00010000
00000100
00001000
00000000
00000100
00000000
00000010
00000000
,
00000001
00000000
00001000
00000000
00001100
00000000
00000000
00000101
00000000
00000000
00001010
00000000
00000011
00000000
00000000
00000000
,
00000001
00001000
00000001
00000000
00000100
00000000
00001000
00010000
00100000
00000000
10000000
00000000
00020000
00000000
00000000
00000000
,
10030000
01000000
10000000
01000000
10000000
00000000
00010000
01000000
00010000
01000000
00010000
00000000
00100000
00001000
00100000
00001000
,
00010000
00000000
00000010
00001000
00000010
00001000
00000100
00000000
00000010
00000001
00001000
00000000
00000100
00001000
00000001
00000000
,
00001001
00000000
00000110
00001010
00000000
00011000
01001000
00000000
,
00110000
00000000
00010000
00000000
10000000
00000000
00010000
00100000
01000000
10000000
00010000
00100000
01000000
10000000
00020000
00000000
,
00000000
00000000
00000000
00000000
,
00000000
00000000
00000000
00000000
,
00000000
00000000
00000000
00000000
,
00000000
00000000
00000000
00000000
,
00030000
00000000
00000000
00000000
;

//--------------- dance-double - Fred-104 ----------------
#NOTES:
     dance-double:
     Fred-104:
     Challenge:
     18:
     :
00000000
00000000
00000000
00000000
,
00000000
00000000
00000000
00000000
,
00000000
00000000
00000000
00000000
,
00000000
00000000
00000000
00000000
,
00000000
00000000
00000000
00000000
,
00000000
00000000
00000000
00000000
,
00010000
00001000
00000100
00000001
00000010
00000100
00010000
00001000
,
00010000
00000000
00000000
00000000
00000000
00000000
00100000
00000000
00000000
00000000
00000000
00000000
10000000
00000000
00000000
00000000
00000000
00000000
00100000
00000000
00000000
01000000
00000000
00000000
00100000
00000000
00000000
00000000
00000000
00000000
10000000
00000000
01000000
00000000
00100000
00000000
00010000
00000000
00000000
00000000
00000000
00000000
10000000
00000000
00000000
00000000
00000000
00000000
,
00020000
00000000
00000000
00000000
00000000
00000000
00000000
00000000
00000000
02030000
00000000
00000000
00000000
00000000
00000000
00000000
00000000
00000000
03002000
00000000
00000000
00000000
00000000
00000000
00000000
00000000
00000000
00000000
00000000
00000000
00013000
00000000
00000000
00000000
00000000
00000000
00022000
00000000
00000000
00000000
00000000
00000000
00000000
00000000
00000000
00000000
00000000
00000000
00000000
00000000
00000000
00033000
00000000
00000000
00000000
00000000
00000000
00000000
00000000
00000000
00010000
00000000
00001000
00000000
00010000
00000000
00001000
00000000
00000000
00000000
00000000
00000000
00000100
00000000
00000000
00000010
00000000
00000000
00001000
00000000
00000000
00000000
00000000
00000000
00000100
00000000
00000000
00000010
00000000
00000000
00000001
00000000
00000000
00000000
00000000
00000000
,
00001000
00000000
00000001
00000101
00000000
00001000
00001100
00000000
,
00000001
00000010
00001000
00000010
00000001
00000100
00001000
00010000
,
00011000
00000000
01000000
01100000
00000000
10000000
10010000
00000000
,
00010000
00000000
01000000
00100000
01000000
00000000
00010000
00000000
10000000
00010000
01000000
00001000
00010000
00000100
00001000
00000100
,
00000010
00000001
00001000
00000100
00000010
00001000
00000010
00000001
,
00001000
00000000
00000010
00000000
00010000
00000000
00010000
00001000
00020000
00000000
00000000
00000000
00000000
00000000
00000000
00000000
,
00000000
00000000
00000000
00000000
00000000
00000000
00000000
00000000
00031000
00000000
00010000
00000000
00100000
01000000
00100000
00010000
,
00001000
00000000
00000010
00000100
00000010
00001000
00010000
01000000
10000000
00000000
00010000
00000000
01000000
00100000
10000000
00000000
,
00010000
00000000
00100000
00000000
01000000
00000000
00100000
00000000
00001000
00000000
00010000
00000000
00000010
00000000
00000000
00001000
00000000
00000000
00000100
00000000
00000000
00000010
00000000
00000000
,
00000001
00000000
00000000
00000100
00000000
00000000
00000010
00000000
00000000
00000100
00000000
00000000
00001000
00000000
00000000
00000100
00000000
00000000
00000010
00000000
00000000
00001000
00000000
00000000
00000001
00000000
00000000
00000000
00000010
00000000
00000000
00000000
00001000
00000000
00000000
00000000
00010000
00000000
00000000
00000000
01000000
00000000
00000000
00000000
10000000
00000000
00000000
00000000
,
20020000
00000000
30030000
00000000
00010000
00100000
01000000
00010000
,
00001000
00000100
00000010
00001000
00001001
00000000
00011000
00000000
,
00001000
00010000
00001000
00000000
00010010
00000000
00000000
00000000
00011000
00000000
00000000
00000000
00000000
00000000
00000000
00000000
00010000
00000000
00000100
00000000
00001000
00000000
00000100
00000000
00000010
00000000
00000000
00000000
00000001
00000000
00001000
00000000
,
00000010
00000100
00000001
00000000
00001000
00000100
00000010
00000001
00001000
00000000
00000001
00000100
00000010
00001000
00000001
00000000
,
00001000
00000000
00000000
00000010
00000000
00000000
00000100
00000000
00000000
00000000
00000000
00000000
00000001
00000000
00000000
00000000
00000010
00000000
00000000
00000000
00001000
00000000
00000000
00000000
00000010
00000000
00000000
00000001
00000000
00000000
00000010
00000000
00000000
00000001
00000000
00000000
00001000
00000000
00000000
00000000
00000000
00000000
00000001
00000000
00000000
00000010
00000000
00000000
,
00000100
00000000
00000000
00000000
00001000
00000000
00000000
00000000
00000100
00000000
00000000
00000000
00000000
00000000
00000000
00000000
00010000
00000000
00000000
00000000
00001000
00000000
00000000
00000000
00100000
00000000
00000000
00000000
00010000
00000000
00000000
00000000
00100000
00000000
00000000
00000000
00000000
00000000
00000000
00000000
02200000
03300000
00000000
00000000
00000000
00000000
00000000
00000000
00000000
00000000
00000000
00000000
00000000
00000000
00000000
00000000
22000000
00000000
00000000
00000000
00000000
00000000
00000000
00000000
,
00000000
00000000
00000000
33000000
10100000
00000000
00100000
00000000
01000000
00000000
00010000
10000000
01000000
00100000
00010000
00000000
,
00100000
00001000
00010000
00000000
00000100
00001000
00000010
00001000
00000100
00000010
00000100
00000000
00000010
00000001
00000010
00000100
,
00000020
00000000
00000031
00000000
00001001
00000000
00000001
00000100
00000010
00000000
00001000
00000000
00000100
00010000
00001000
00000000
,
00021000
00000000
00000000
00000000
00031000
00100000
00010000
10000000
00100000
01000000
00010000
10000000
01000000
00000000
01100000
00000000
,
00000000
00000000
00000000
00000000
00011000
00000000
00000000
00000000
00010010
00000000
00000000
00001000
00000010
00000100
00000001
00001000
,
00000100
00000000
00000010
00000000
00000001
00001000
00000100
00001000
00000010
00010000
00000000
00001000
00020000
00000000
02030000
00000000
,
03100000
00010000
00200000
00000000
00310000
10000000
00200000
00000000
10300000
00000000
01000000
00000000
10000000
01000000
10000000
01000000
,
00100000
01000000
00100000
00001000
00010000
00001000
00000010
00000100
00001000
00000010
00000100
00000001
00000010
00000001
00000100
00000000
,
00002000
00003000
00000000
00000000
00020000
00030000
00000000
00000000
00200000
00300000
00000000
00000000
20000000
30000000
00000000
00000000
00010000
00000000
00000000
00000000
10000000
00000000
00000000
00000000
01000000
00000000
00000000
00000000
00000000
00000000
00000000
00000000
10000000
00000000
00000000
00000000
00010000
00000000
00000000
00000000
00100000
00000000
00000000
00000000
00000000
00000000
00000000
00000000
00010000
00000000
00000000
00000000
10000000
00000000
00000000
00000000
01000000
00000000
00000000
00000000
10000000
00000000
00000000
00000000
,
00010000
00000000
00000000
00000000
00000000
00000000
01000000
00000000
00000000
00100000
00000000
00000000
10000000
00000000
00000000
00000000
00000000
00000000
01000000
00000000
00000000
00000000
00000000
00000000
00100000
00000000
00000000
00001000
00000000
00000000
00020000
00000000
00000000
00000000
00000000
00000000
00031000
00000000
00010000
00000000
00000100
00000000
00020000
00000000
00000000
00000000
00000000
00000000
,
00031000
00000000
00000000
00000000
00000000
00000000
00010000
00000000
00000010
00000000
00010000
00000000
00001000
00000000
00000000
00000000
00000000
00000000
00010000
00000000
00000000
00001000
00000000
00000000
00000010
00000000
00000000
00000100
00000000
00000000
00001000
00000000
00000000
00000001
00000000
00000000
00000100
00000000
00000000
00001000
00000000
00000000
00010000
00000000
00000000
00100000
00000000
00000000
,
01000000
00010000
10000000
01000000
00100000
00001000
00010000
00000010
00002000
00000000
00000000
00000000
00000002
00000000
00000000
00003003
,
00000001
00000000
00000000
00000000
00001000
00000000
00000010
00000000
00000100
00000000
00001000
00000000
00010000
00000000
00100000
00000000
01000000
00000000
00100000
00000000
10000000
00000000
01000000
00000000
00010000
00000000
00001000
00000000
00000010
00000000
00000100
00000000
00001000
00000000
00000001
00000000
00000010
00000000
00000000
00000001
00000000
00000000
00001000
00000000
00000000
00000010
00000000
00000000
,
00001000
00000001
00000010
00000100
00000010
00000001
00000100
00001000
00010000
00001000
00010000
00100000
01000000
00001000
00010000
01000000
00010000
00001000
00010000
00100000
10000000
10010000
00000000
00000000
,
00012000
00013000
00000200
00001300
00000002
00000103
00000020
00001030
00000100
00000010
00001000
00000010
00000001
00001000
00000001
00000010
00001000
00010000
02000000
03100000
00010000
02000000
03100000
10000000
,
00020000
00000000
00030000
00000000
10000000
00000000
01000000
00000000
01000000
00000000
00010000
00000000
00100000
00000000
00000000
00000000
00010000
00000000
00010000
00000000
00000010
00000000
00001000
00000000
00000010
00000000
00000100
00000000
00000001
00000010
00000100
00000000
00001000
00000000
00000100
00000000
00001100
00000000
00000000
00000000
00011000
00000000
00000000
00000000
01010000
00000000
00000000
00000000
,
10010000
10000000
00100000
02000000
00000000
00000000
00000000
00000000
,
00000000
00000000
00000000
00000000
00000000
00000000
03010000
10000000
00100000
00000000
10000000
00010000
01000000
00010000
10000000
00000000
,
21000000
00000000
00000000
32000000
00000000
00000000
03200000
00000000
,
00302000
00000000
00000000
00000000
00000000
00000000
00013000
00001000
00022000
00000000
00000000
00000000
00033000
00000000
00000000
00000000
,
00011000
00010100
00000000
00001001
00000000
00000011
00001010
00000011
,
00000000
00001010
00000000
00010010
00011000
00101000
00000000
00110000
,
10010000
00000000
00010000
00000000
01000000
00000000
00100000
00000000
01000000
00010000
01000000
00000000
01000000
10000000
01000000
00000000
,
00100000
00000000
10000000
00000000
01000000
00100000
00010000
00000000
00000000
00000000
00100000
00001000
00010000
00001000
00000010
00000100
,
00001000
00000000
00000001
00000100
00000000
00010000
00000100
00000000
,
00000001
00000000
00000010
00000000
00000000
00000000
00000100
00001000
00000100
00000000
00010000
00000000
00001000
00000000
00010000
00000000
,
01000000
00000000
10000000
00100000
00000000
00001000
00100000
00000000
,
10000000
00000000
00000000
00000000
00000000
00000000
00000000
00000000
01000000
00000000
00000000
00000000
00000000
00000000
00000000
00000000
00000000
00000000
00000000
00000000
00000000
00000000
00000000
00000000
00010000
00000000
00000000
00000000
00000000
00000000
00000000
00000000
00001000
00000000
00000000
00000000
00000000
00000000
00000000
00000000
00000000
00000000
00000000
00000000
00000000
00000000
00000000
00000000
00002000
00003000
00000000
00000000
00020000
00030000
00000000
00000000
00002000
00003000
00000000
00000000
00020000
00030000
00000000
00000000
,
00001000
00010000
00001000
00000010
00000001
00000010
00001000
00010000
00001000
00000100
00001000
00010000
,
00100000
00010000
00001000
00010000
01000000
00010000
00001000
00010000
00100000
10000000
00010000
10000000
,
01000000
10000000
00100000
01000000
00100000
00010000
00001000
00000100
00000010
00000100
00000001
00000010
00000100
00001000
00000001
00001000
,
00000100
00000000
00000010
00000000
00000001
00000000
00000100
00000000
00001000
00000000
00010000
00000000
00100000
00000000
10000000
00000000
00010000
00000000
10010000
00000000
00000000
00000000
00000000
00000000
01100000
00000000
00000000
00000000
00000000
00000000
10000000
00000000
00000000
01000000
00000000
00000000
10000000
00000000
00000000
01000000
00000000
00000000
00100000
00000000
00000000
00000000
00000000
00000000
,
00010000
00000000
00010000
01000000
00010000
01000000
00100000
00000000
10000000
00000000
10000000
00010000
10000000
01000000
00100000
00000000
,
00001000
00010000
00000010
00000000
00010000
00001000
00010000
00000000
00011000
00000000
00010000
00000100
00001000
00000100
00000010
00000000
,
00000001
00000000
00000100
00000001
00001000
00000001
00001000
00000000
00000001
00000000
00000010
00000100
00001000
00000100
00000010
00000000
,
00000001
00000100
00001000
00000000
00010000
01000000
10000000
00000000
10010000
00000000
00010000
01000000
00010000
01000000
10000000
00000000
,
10000000
01000000
10000000
01000000
00100000
10000000
00020000
00000000
00000000
00000000
10030000
01000000
00100000
00010000
00100000
00000000
,
00001000
00010000
00000100
00010000
00001000
00010000
00000010
00000000
00001000
00000000
00000100
00000010
00000001
00000010
00000011
00000000
,
00000000
00000000
00000001
00000100
00000010
00001000
00001100
00000000
00000000
00000000
00000001
00000100
00000010
00000100
00000001
00001000
,
00000100
00000000
00010000
00001000
00100000
00010000
10000000
00000000
10010000
00000000
00010000
00100000
01000000
10000000
00010000
00000000
,
10010000
00000000
10000000
01000000
10000000
01000000
00010000
00000000
00011000
00000000
00010000
00001000
00010000
00001000
00000100
00000001
,
00001000
00000001
00000010
00000000
00000001
00001000
00000001
00000000
00001001
00000000
00000001
00000010
00000001
00000010
00001000
00000000
,
00001001
00000000
00001000
00000010
00001000
00000010
00000001
00000000
00000000
00000000
00000101
00000000
00000000
00001100
00000000
00000000
,
00000001
00000100
00000010
00001000
00000001
00000010
00000001
00000000
00001001
00000000
00000001
00000100
00000001
00000100
00001000
00000000
,
00011000
00000000
00001000
00010000
00100000
01000000
00100000
00000000
10100000
00000000
10000000
01000000
00100000
00000000
00010000
00000000
,
01000000
00000000
00100000
01000000
00010000
10000000
01000000
00000000
00100000
00000000
00100000
00001000
00010000
00001000
01000000
00001000
,
00010000
00000100
00001000
00000100
00000010
00000001
00001000
00000000
00000001
00000000
00000010
00001000
00000000
00000010
00000001
00000000
,
00002002
00000000
00000000
00003003
00000002
00000000
00000023
00000000
00002030
00000000
00023000
00000000
00031000
00000000
00000100
00000000
,
00000001
00000000
00000010
00000000
00001000
00000000
00010000
00000000
01000000
00000000
00100000
00010000
20000000
00000000
30200000
00000000
,
02300000
03020000
00230000
02300000
03020000
00032000
00003020
00000230
,
00002300
00000000
00003020
00000000
00010030
00000000
00001000
00000000
00021000
00000000
00000000
00000000
00031000
00000000
00100000
00010000
,
00100000
01000000
10000000
00010000
00100000
01000000
00010000
01000000
,
10000000
00000000
00100000
00000000
00010000
00000000
00001000
00000000
00000010
00000000
00000001
00000000
00001000
00000001
00000100
00000001
,
00001000
00000000
00000000
00000001
00000000
00000000
00000010
00000000
00000000
00000000
00000000
00000000
00000001
00000000
00000000
00000000
00000000
00000000
00000100
00000000
00000000
00000010
00000000
00000000
00001000
00000000
00000000
00000000
00000000
00000000
00001100
00000000
00000000
00000000
00000000
00000000
00000000
00000000
00000000
00000000
00000000
00000000
00010000
00000000
00001000
00000000
00010000
00000000
,
00001000
00000000
00000000
00000000
00000000
00000000
01001000
00000000
00000000
00000000
00000000
00000000
00000000
00000000
00000000
00000000
00000000
00000000
00001000
00000000
00000000
00100000
00000000
00000000
00010000
00000000
00000000
00000000
00000000
00000000
01000000
00000000
00000000
00000000
00000000
00000000
00001000
00000000
00000000
00000000
00010000
00000000
00000000
00000000
01000000
00000000
00000000
00000000
,
00010000
00000000
00000000
00000000
00001000
00000000
00000000
00000000
00010000
00000000
00000000
00000000
00100000
00000000
00000000
00000000
00000000
00000000
10000000
00000000
00000000
00000000
00000000
00000000
01000000
00000000
00000000
00100000
00000000
00000000
00010000
00000000
00000000
00000000
00000000
00000000
00100000
00000000
00000000
00001000
00000000
00000000
00010000
00000000
00000000
00000000
00000000
00000000
,
00000010
00001000
00000001
00000000
00001000
00000001
00000100
00000010
00000100
00001000
00010000
00100000
01000000
00010000
10000000
00010000
,
10000000
00000000
01000000
00000000
00100000
00000000
00010000
00000000
01000000
00001000
00010000
00000000
00011000
00000000
00000000
00000000
,
00001000
00000000
00010000
00000000
00001000
00010000
00000100
00000000
00001000
00000001
00000010
00000000
00001002
00000000
00000000
00000000
,
00001003
00000100
00000010
00000001
00001000
00000000
00000001
00001000
00000010
00010000
00001000
00000000
01000000
00010000
10000000
00100000
,
01000000
00000000
00010000
10000000
01000000
00100000
00010000
00000000
01000000
00001000
00010000
00000010
00001000
00000100
00010000
00001000
,
00100000
00000000
00000000
00000000
00010000
10000000
01000000
00000000
00000000
00000000
00010000
00001000
00000010
00000000
00000000
00000000
,
00000001
00001000
00000100
00000000
00000001
00000000
00000100
00000010
00000001
00000100
00001000
00010000
00100000
10000000
00020000
00000000
,
00000000
00000000
00000000
00000000
,
00000000
00000000
00000000
00000000
,
00000000
00000000
00000000
00000000
,
00000000
00000000
00000000
00000000
,
00030000
00000000
00000000
00000000
;
