#VERSION:0.83;
#TITLE:アストライアの双皿;
#ARTIST:ZODIACSYNDICATE;
#TITLETRANSLIT:Astraia no soubei;
#GENRE:ZODIAC ORACLE 7;
#BANNER:Astraia no soubei.png;
#BACKGROUND:Astraia no soubei-bg.png;
#CDTITLE:./CDTitles/jb saucer.png;
#MUSIC:Astraia no soubei.ogg;
#SAMPLESTART:95.714;
#SAMPLELENGTH:15;
#BPMS:0=173,68=86.5,76=173;
#STOPS:19.5=0.694,35.75=0.693;
#BGSTAGE:30;

//--------------- dance-single - Fred-104 ----------------
#NOTEDATA:;
#STEPSTYPE:dance-single;
#DESCRIPTION:Fred-104;
#DIFFICULTY:Beginner;
#METER:3;
#CREDIT:Fred-104;
#NOTES:
0000
0000
0000
0000
,
0000
0000
0000
0000
,
0000
0000
0000
0000
,
0000
0000
0000
0000
,
0000
0000
0000
0000
,
1000
0000
0000
0000
,
0001
0000
0000
0000
,
0100
0000
0100
0000
,
0020
0000
0000
0030
,
1000
0000
0000
0000
,
0001
0000
0000
0000
,
0010
0000
0000
0000
,
0001
0000
0000
0000
,
1001
0000
0000
0000
,
0001
0000
0000
0000
,
1000
0000
0000
0000
,
0001
0000
0000
0000
,
2000
0000
0000
0000
,
0000
0000
0000
0000
,
3000
0000
0000
0000
,
0001
0000
0000
0000
,
0010
0000
0000
0000
,
0100
0000
0000
0000
,
1000
0000
0000
0000
,
1001
0000
0000
0000
,
0001
0000
0000
0000
,
0100
0000
0000
0000
,
0010
0000
0000
0000
,
0100
0000
0000
0000
,
0001
0000
0000
0000
,
1000
0000
0000
0000
,
0001
0000
0000
0000
,
1000
0000
0000
0000
,
0100
0000
0000
0000
,
0010
0000
0000
0000
,
0001
0000
0000
0000
,
1000
0000
0000
0000
,
0001
0000
0000
0000
,
0010
0000
0001
0000
,
1000
0000
0001
0000
,
2000
0000
0000
0000
,
0000
0000
0000
0000
,
3002
0000
0000
0000
,
0000
0000
0000
0000
,
2003
0000
0000
0000
,
3002
0000
0000
0000
,
2003
0000
0000
3000
,
1001
0000
0000
0000
,
0002
0000
0000
0003
,
2000
3000
0002
0003
,
0200
0000
0000
0300
,
0020
0030
0200
0300
,
0002
0003
2000
3000
,
0002
0000
0000
0003
,
1001
0000
0000
0000
,
0000
0000
0000
0000
,
0000
0000
0000
0000
,
2000
0000
3000
0000
,
0002
0000
0003
0000
,
0200
0000
0300
0000
,
0020
0000
0030
0000
,
2000
0000
3000
0000
,
0001
0000
1000
0000
,
0002
0000
0000
0000
,
0003
0000
0000
0000
,
0000
0000
0000
0000
,
1000
0000
0000
0000
,
0001
0000
0000
0000
,
0100
0000
0100
0000
,
0001
0000
1000
0000
,
0001
0000
0000
0000
,
0010
0000
0000
0000
,
0100
0000
0100
0000
,
1000
0000
0001
0000
,
1001
0000
0000
0000
,
0001
0000
0000
0000
,
1000
0000
0000
0000
,
0002
0000
0000
0000
,
0003
0000
0000
0000
,
2000
0000
0000
0000
,
0000
0000
0000
3000
,
0002
0000
0000
0000
,
0000
0000
0000
0003
,
1001
0000
0000
0000
,
2002
0000
0000
0000
,
0000
3003
0000
0000
0000
0000
0000
0000
;

//--------------- dance-single - Fred-104 ----------------
#NOTEDATA:;
#STEPSTYPE:dance-single;
#DESCRIPTION:Fred-104;
#DIFFICULTY:Easy;
#METER:8;
#CREDIT:Fred-104;
#NOTES:
0000
0000
0000
0000
,
0000
0000
0000
0000
,
0000
0000
0000
0000
,
0000
0000
0000
0000
,
0000
0000
0000
0000
,
1000
0000
0010
0000
,
0001
0000
0100
1000
,
0001
0001
0100
0100
,
0001
0000
0000
0000
0010
0000
0000
0000
0100
0000
0000
0000
2002
0000
0000
3003
,
1000
1000
0001
0001
,
0100
0010
0100
0000
,
0001
0001
1000
1000
,
0001
0010
0100
0000
,
1100
0000
0000
0000
,
0101
0000
0000
0000
,
1010
0000
0000
0000
,
0011
0000
0000
0000
,
2000
3002
0203
0320
,
0230
0302
2003
3200
,
2300
0000
0002
3003
,
0001
0000
1000
0000
0001
0001
0100
0000
,
0001
0000
0010
0000
0100
0100
0100
0000
,
1000
0000
0001
0000
0100
0100
0010
0000
,
1000
0000
0100
0000
0010
0010
0010
0000
,
2001
0000
3001
0010
,
0200
0000
1300
0001
,
0200
0000
0320
0000
,
0230
0000
0301
1000
,
0200
0000
0320
0000
,
0032
0000
1003
0001
,
0200
0000
0302
0000
,
1003
0100
0001
0010
,
1000
0000
0001
0000
0100
0010
0100
0000
,
0001
0000
1000
0000
0001
0010
0001
0000
,
1000
0000
0001
0000
0100
0010
0100
0000
,
0001
0000
0010
0000
0100
1000
0100
0000
,
1000
0000
0000
0001
0000
0000
0100
0000
,
0010
0000
0000
0100
0000
0000
0001
0000
,
1000
0100
0001
0010
,
1000
0000
0000
1000
0000
0000
0001
0000
0000
0001
0000
0000
1000
0000
1000
0000
,
0200
0000
0000
0000
,
0320
0000
0032
0000
,
2003
0000
0000
0000
,
3002
0000
2003
0000
,
3200
0000
0000
0000
,
0320
0000
0032
0000
,
2003
0000
0000
3002
0000
0000
1003
0000
,
0001
0000
0000
0001
0000
0000
1000
0000
0000
1000
0000
0000
1001
0000
0000
0000
,
0001
0000
0000
1000
0000
0000
0001
0000
,
0010
0100
1000
0001
,
0100
0000
0000
0010
0000
0010
0100
0000
,
0001
1000
0001
0000
0010
0100
0010
0000
,
0002
0003
2000
3000
,
0001
0100
1000
0100
,
1001
0000
1001
0000
,
0110
0000
0110
0000
,
1001
0000
1001
0000
,
0110
0000
0110
0000
,
1000
0100
1000
0100
,
0001
0100
0001
0100
,
1000
0010
1000
0010
,
0001
0010
0001
0010
,
1000
1000
0001
0001
,
0100
0100
0010
0010
,
2002
0000
0000
3003
,
1000
0000
0000
1000
0000
0000
0001
0000
0000
0001
0000
0000
0100
0000
0000
0000
,
0001
0001
0001
0000
1000
0000
0001
0000
,
0010
0010
0010
0000
0100
0000
1000
0000
,
1100
0000
0011
0000
,
1000
0001
0100
0010
,
1000
1000
1000
0000
0001
0000
0100
0000
,
0001
0001
0001
0000
1000
0000
0010
0000
,
0110
0000
1001
0000
,
0001
0010
1000
0100
,
0001
0000
0000
0001
0000
0000
1000
0000
0000
1000
0000
0000
0001
0000
0000
0000
,
0100
0010
0100
0000
,
0001
1000
0100
1000
,
0001
0000
0000
0001
0000
0000
0001
0000
1000
0000
0000
0000
0000
0000
0000
0000
,
2002
0000
0000
3003
,
1000
0100
1000
0100
,
0001
0010
0001
0010
,
1000
0100
0001
0010
,
1000
0001
0100
0010
,
2002
0000
0000
3003
,
1000
0000
0100
0000
1000
0000
0001
2002
,
0000
3003
0000
0000
0000
0000
0000
0000
;

//--------------- dance-single - Fred-104 ----------------
#NOTEDATA:;
#STEPSTYPE:dance-single;
#DESCRIPTION:Fred-104;
#DIFFICULTY:Medium;
#METER:13;
#CREDIT:Fred-104;
#NOTES:
0000
0000
0000
0000
,
0000
0000
0000
0000
,
0000
0000
0000
0000
,
0000
0000
0000
0000
,
0000
0000
0000
0000
,
1000
0001
0100
0010
,
1000
0100
0001
0100
,
1000
0001
1000
0001
0010
0100
0010
0100
,
1000
0000
0000
0001
0100
0000
0000
0010
1000
0000
0000
0100
0020
0000
0000
0000
,
0031
0010
0100
1000
0001
0100
0010
0000
,
0100
0001
1000
0001
0010
0100
0010
0000
,
0001
1000
0010
1000
0001
0010
0100
0000
,
1000
0001
0100
0010
1000
0100
0010
0000
,
0001
0101
0000
0000
0000
0000
0000
0000
,
1000
1100
0000
0000
0000
0000
0000
0000
,
0001
0011
0000
0000
0000
0000
0000
0000
,
1000
1010
0000
0000
0000
0000
0000
0000
,
0002
0023
0230
2300
3002
0203
0320
2030
,
3002
2003
3200
0320
0230
0000
2300
0000
,
3002
0000
2000
3003
,
0001
0010
0100
1000
0001
0100
0010
0100
,
0001
1000
0100
0010
0100
1000
0010
0000
,
0100
0001
1000
0001
0010
0100
1000
0010
,
0100
0001
0100
0010
1000
0100
0010
0001
,
2000
0000
0000
3001
0100
0010
1000
0100
,
0020
0000
0000
0031
1000
0001
0100
0010
,
0200
0000
0000
0301
0200
0000
0000
1300
,
0200
0000
0000
0301
0010
0100
1000
0001
,
2000
0000
0000
3010
0002
0000
0000
0013
,
2000
0000
0000
3100
0010
0001
1000
0010
,
0200
0000
0000
0301
0020
0000
0000
0130
,
1000
0000
0001
0100
0000
0010
1000
0000
0001
0000
0010
0000
0100
0000
1000
0000
,
0001
0100
0000
0001
0100
0000
0010
1000
0000
0010
1000
0000
0002
0000
0000
0000
,
1003
0100
0000
1000
0100
0000
0010
0001
0000
0010
0001
0000
2000
0000
0000
0000
,
3001
1000
0000
0001
1000
0000
0010
0100
0000
0010
0100
0000
0001
0000
1000
0000
,
0100
0010
0000
0100
0010
0000
0001
1000
0000
0001
1000
0000
0020
0000
0000
0000
,
0130
0001
1000
0001
0010
0100
1000
0000
,
0001
0000
0000
0010
0000
0000
0100
0000
0000
1000
0000
0000
0001
0000
0100
0000
,
0010
0010
1000
1000
0100
0100
1000
1000
,
1100
0000
0000
1010
0000
0000
0101
0000
0000
0011
0000
0000
0001
0000
1000
0000
,
0002
0000
0000
0203
0000
0000
0000
0000
,
0320
0000
0000
2030
0000
0000
0000
0000
,
3002
0000
0000
2003
0000
0000
3200
0000
,
0320
0000
0000
0032
0000
0000
2003
0000
,
3002
0000
0000
0000
,
2003
0000
0000
3002
0000
0000
0203
0000
,
0320
0000
0000
0230
0000
0000
0301
0000
,
0011
0000
0000
0101
0000
0000
1010
0000
0000
1100
0000
0000
0001
0000
1000
0000
,
0100
0100
0000
0010
0010
0000
0001
1000
,
0001
0100
1000
0000
0001
0010
1000
0000
,
0001
0001
0000
1000
0000
0010
0110
0000
,
0100
0001
1000
0100
1000
0001
0010
0100
,
2000
0000
0000
3001
0200
0000
0000
0000
,
0302
0023
2030
3100
,
0001
0001
0000
0000
1000
1000
0000
0000
,
0010
0010
0000
0000
0100
0100
0000
0000
,
0001
0001
0000
0000
0010
0010
0000
0000
,
1000
1000
0000
0000
0100
0100
0000
0000
,
0001
0011
1000
1010
,
0001
0101
1000
1100
,
0001
0110
1000
0110
,
0001
1001
1000
1001
,
0001
0010
0100
1000
0001
0100
0010
1000
,
0100
0000
0000
0010
0000
0010
0000
0001
0000
0001
0000
0000
1000
0000
0001
0000
,
2002
0000
0000
3003
,
1000
0100
0000
0100
0010
0000
0010
0001
0000
0001
1000
0000
0001
0000
1000
0000
,
0001
0100
0001
1000
0001
0010
0100
0000
,
1000
0010
1000
0100
1000
0001
0100
0000
,
0011
0100
1010
0100
,
0001
0000
0000
1000
0000
0000
0001
0000
0100
0010
0000
0100
0010
0000
0000
0000
,
1000
0100
0001
0100
1000
0001
1000
0000
,
0001
0100
1000
0100
0001
1000
0001
0000
,
1100
0010
0101
0010
,
1000
0000
0000
0001
0000
0000
0100
0000
0001
0000
1000
0000
0001
0000
0000
0000
,
1000
0000
0100
1000
0000
0000
0001
0000
0000
0100
0000
0000
0010
0000
0100
0000
,
0001
1000
0100
0000
1000
0001
0100
0000
,
0001
0000
0010
0000
0100
0000
0000
0100
0000
0000
1000
0000
0001
0000
0100
0000
,
0010
0000
0000
1000
0000
0000
0100
0000
0010
0000
0000
0000
0000
0000
0000
0000
,
0002
0000
2000
3003
,
0001
0000
0000
0010
0000
0010
0000
0000
0100
0000
0000
1000
0000
1000
0000
0000
,
0001
0000
0000
0100
0000
0100
0000
0000
0010
0000
0000
1000
0000
1000
0000
0000
,
0100
0000
0000
0010
0000
0001
0000
0000
0100
0000
0000
0010
0000
1000
0000
0000
,
0010
0000
0000
0100
0000
0001
0000
0000
0010
0000
0000
0100
0000
1000
0000
0000
,
2002
0000
0000
3003
,
0001
0000
0000
0100
0000
0100
0000
0001
0000
0001
0000
0000
1000
0000
2002
0000
,
0000
3003
0000
0000
0000
0000
0000
0000
;

//--------------- dance-single - Fred-104 ----------------
#NOTEDATA:;
#STEPSTYPE:dance-single;
#DESCRIPTION:Fred-104;
#DIFFICULTY:Hard;
#METER:16;
#CREDIT:Fred-104;
#NOTES:
0000
0000
0000
0000
,
0000
0000
0000
0000
,
0000
0000
0000
0000
,
0000
0000
0000
0000
,
0000
0000
0000
0000
,
1000
0001
0100
0001
1000
0001
0010
0000
,
0100
1000
0001
0100
0010
1000
0100
1000
,
1010
0000
0000
0000
0101
0000
0000
0000
1100
0000
0000
0000
0001
1000
0001
1000
,
0001
0000
0000
0000
0000
0000
0000
0000
0000
0000
0000
0000
0001
0000
0000
0000
0100
0000
0000
0000
0000
0000
0000
0000
0000
0000
0000
0000
0100
0000
0000
0000
0010
0000
0000
0000
0000
0000
0000
0000
0000
0000
0000
0000
2000
0000
0000
0000
0002
0000
0000
0000
0000
0000
0000
0000
0000
0000
0000
0000
0000
3003
0000
0000
,
0001
0000
0010
0000
0100
1000
0000
0001
0100
0000
0010
0000
1000
0001
0000
0010
,
0100
0000
1000
0000
0010
0100
0000
0001
1000
0000
0100
0000
0020
0000
0230
0000
,
1300
0000
0001
0000
0100
0010
0000
1000
0001
0000
0010
0000
0100
0010
0000
0001
,
0100
0000
0010
0000
1000
0010
0000
0100
0001
0010
0100
0000
1000
0010
0100
0000
,
0101
1001
0000
0000
0000
0000
0000
0000
,
1010
1001
0000
0000
0000
0000
0000
0000
,
0011
1001
0000
0000
0000
0000
0000
0000
,
1100
0000
0000
1001
0000
0000
0000
0000
0000
0000
0000
0000
0001
0000
0100
0000
0010
0000
1000
0000
0100
0000
0010
0000
,
0002
0023
0230
0320
2030
3020
0032
2003
,
3020
0230
0302
2003
3200
0000
0320
0000
,
0032
0000
2000
3003
,
1000
0000
0001
0000
0010
0100
0010
0000
0001
0000
1000
0000
0001
0100
0001
0000
,
1000
0000
0100
0000
0010
0100
0010
0000
0001
0000
1000
0000
0010
1000
0010
0000
,
0100
0000
0001
0000
1000
0100
1000
0000
0001
0000
1000
0000
0001
0100
0001
0000
,
1000
0000
0001
0000
0010
0100
0010
0000
0001
1000
0010
0100
0001
1000
0010
0100
,
0002
0000
0000
0000
0000
0000
0103
0001
0100
0000
0010
0000
1000
0000
0001
0000
,
0020
0000
0000
0000
0000
0000
0130
1000
0100
0000
0010
0000
0100
0000
1000
0000
,
0002
0000
0000
0000
0000
0000
0103
0010
2000
0000
0000
0000
0000
0000
3100
0010
,
0002
0000
0000
0000
0000
0000
1003
0100
0010
0000
0001
0000
1000
0000
0001
0000
,
0200
0000
0000
0000
0000
0000
0301
1000
0020
0000
0000
0000
0000
0000
1030
0001
,
0020
0000
0000
0000
0000
0000
0130
1000
0001
0000
0010
0000
0100
0000
1000
0000
,
0002
0000
0000
0000
0000
0000
0103
1000
0200
0000
0000
0000
0000
0000
0301
1000
,
0001
0000
0010
0100
0000
1000
0001
0000
0100
0001
1000
0001
0010
0100
1000
0000
,
0001
0010
0000
0010
0100
0000
0100
1000
0000
1000
0001
0000
0100
0000
0010
0000
,
1000
0100
0000
0100
0010
0000
0010
0001
0000
0001
0100
0000
0010
0000
1000
0000
,
0001
0100
0000
0100
0010
0000
0010
1000
0000
1000
0100
0000
0010
0001
1000
0000
,
0001
1000
0000
0010
0100
0000
0001
1000
0000
0100
0010
0000
0001
0000
1000
0000
,
0001
0000
0100
0000
0010
0000
0001
0000
0010
0100
0010
0000
1000
0000
0001
0000
,
1000
0000
0000
0100
0000
0000
0010
0000
0000
0001
0000
0000
1000
0000
0001
0000
,
1000
0100
1000
0000
0001
0100
0001
0000
1000
0010
1000
0001
0010
0001
1000
0001
,
1000
0001
0000
0010
0100
0000
1000
0001
0000
0100
0010
0000
1000
0100
0010
0001
,
2000
0000
0000
3002
0000
0000
0000
0000
,
0203
0000
0000
0320
0000
0000
0000
0000
,
0230
0000
0000
0302
0000
0000
2003
0000
,
3200
0000
0000
0320
0000
0000
0032
0000
,
2003
0010
0001
0100
,
3002
0100
0010
1000
,
0203
0000
0010
0000
0001
0000
0310
1000
,
1001
0000
0000
1100
0000
0000
0011
0000
0000
1010
0000
0000
0101
0000
0001
0000
,
1000
0100
0010
0000
0000
0000
0001
0100
0010
0000
0000
0000
1000
0000
0100
0000
,
1000
0100
0001
0100
1000
0010
0001
0010
,
1000
0100
0010
0001
0000
1000
1001
0000
,
0001
0010
1000
0010
0001
0100
1000
0100
,
0002
0000
0000
0000
0000
0000
1003
0001
0020
0000
0000
0000
0000
0000
0000
0000
,
0130
1000
0001
0100
0010
1000
0100
0010
0001
0010
0100
1000
,
0001
0101
0000
0000
1000
1100
0000
0000
,
0001
0011
0000
0000
1000
1010
0000
0000
,
0011
1001
0000
0000
1010
1001
0000
0000
,
0010
1000
0000
0100
0000
0010
0001
0000
0010
0001
0000
0100
0000
0010
1000
0000
,
0001
0000
0010
0000
0100
1000
0000
1000
0001
0000
0100
0000
0010
1000
0000
1000
,
0100
0000
0010
0000
0001
0100
0000
0100
0010
0000
1000
0000
0001
0010
0000
0010
,
0100
0000
1000
0000
0001
0100
0000
0010
1000
0000
0001
0000
1000
0100
0000
0010
,
0001
0000
1000
0000
0001
0100
0000
0010
1000
0000
0001
0000
0010
0100
0000
1000
,
0001
0000
1000
0100
0010
0000
0001
0100
0010
0000
1000
0100
0010
0000
0001
0000
,
1000
0100
0000
0010
0000
0001
0000
0001
0000
0001
0000
0001
0100
0010
1000
0001
,
0020
0000
0000
0030
,
0001
0100
0000
0010
1000
0000
0001
0010
0000
0100
1000
0000
0001
0000
1000
0000
,
0001
0010
0100
1000
0001
0000
0100
0000
0010
0000
1000
0000
1100
0000
0000
0000
,
0100
0010
0001
1000
0010
0000
0100
0000
0001
0000
0000
1000
0100
0000
0010
0000
,
0011
0100
1000
0000
1010
0100
0001
0000
,
1000
0001
0100
0001
0000
1000
0001
0000
0010
0100
0000
0100
1000
0000
0001
0000
,
0100
0001
1000
0001
0010
0000
0100
0000
1000
0000
0001
0000
0101
0000
1001
0000
,
1000
0010
0100
0001
1000
0000
0100
0000
0010
0000
0001
0000
0011
0000
0101
0000
,
1001
0000
0001
0010
0100
0000
0000
0000
1001
0000
1000
0010
0100
0000
0000
0000
,
0001
0100
0001
1000
0000
0001
0010
0000
0100
1000
0001
0100
0010
1000
0001
0010
,
0100
0000
1000
0100
0000
0000
0101
0000
0000
0011
0000
0000
1010
0000
1000
0000
,
0001
0100
0001
0100
0010
1000
0010
1000
0001
0010
0100
1000
0100
0010
0001
1000
,
0010
0000
0100
0001
1000
0000
0001
0010
0000
0010
0100
0000
1000
0000
0001
0000
,
0100
0000
0000
0010
0000
0000
0100
0000
0101
0000
0000
0000
1001
0000
0000
0000
,
0002
0000
2000
3003
,
1000
0100
0000
0010
0000
0011
0000
0000
1000
0010
0000
0100
0000
0101
0000
0000
,
0001
0010
0000
0100
0000
1100
0000
0000
0001
0100
0000
0010
0000
1010
0000
0000
,
1000
0100
0010
0001
0000
0100
0001
0100
0001
0100
0010
1000
0000
0100
1000
0100
,
1000
0010
0100
0001
0000
0010
0001
0010
0001
0010
0100
1000
0000
0010
1000
0010
,
2000
0000
0000
3000
,
1000
0100
0000
1100
0000
0110
0000
0011
0000
0101
0000
0100
0010
0000
2002
0000
,
0000
3003
0000
0000
0000
0000
0000
0000
;

//--------------- dance-single - Fred-104† ----------------
#NOTEDATA:;
#STEPSTYPE:dance-single;
#DESCRIPTION:Fred-104†;
#DIFFICULTY:Challenge;
#METER:18;
#CREDIT:Fred-104†;
#NOTES:
0000
0000
0000
0000
,
0000
0000
0000
0000
,
0000
0000
0000
0000
,
0000
0000
0000
0000
,
0000
0000
0000
0000
,
1100
0100
0010
0001
0101
0100
0010
1000
,
1001
0001
0010
0100
1100
1000
0001
0010
,
0210
0000
1300
0000
0120
0000
0031
0000
0210
0000
1300
0000
0001
0100
0010
1000
,
0001
0000
0000
0000
1000
0100
0010
0000
0000
0000
0001
0100
0010
0000
0000
0000
1000
0001
2000
0000
0000
0000
0000
0000
,
3001
0100
0001
0100
0001
0010
0100
1000
0001
0010
0001
0010
0001
0100
0010
1000
,
0001
1000
0001
1000
0010
0100
0001
1000
0100
0010
0001
0010
0200
0000
2300
0000
,
3001
1000
0001
1000
0100
0010
0001
1000
0010
0100
0010
0100
0001
0010
0100
1000
,
0010
1000
0010
1000
0100
0010
0001
0010
0100
1000
0100
1000
0010
0100
0001
1000
,
0001
0000
0101
0000
0001
0010
0000
0010
1000
0010
0000
0010
0001
1000
0000
1000
,
0100
0000
0110
0000
0010
0001
0000
0001
1000
0100
0000
0100
0001
0010
0000
0010
,
1000
0000
1001
0000
0001
0100
0000
0100
1000
0100
0000
0100
0001
1000
0000
1000
,
0100
0000
0000
0000
0000
0000
0110
0000
0000
0000
0000
0000
0010
0000
0000
0001
0000
0000
0000
0000
0000
0001
0000
0000
1000
0000
0000
0000
0100
0000
0000
0000
0100
0000
0000
0000
0001
0000
0000
0000
0010
0000
0000
0000
0010
0000
0000
0000
,
2000
3200
0320
2030
3002
0203
2300
3002
,
0203
0000
2300
0000
3002
0000
0023
0000
2030
0000
0000
0000
3002
0000
0000
0003
,
2002
0000
0000
0000
0000
0000
3003
0000
0001
0010
0100
1000
0002
0000
0000
0000
,
1003
0100
0010
0001
1000
0010
1000
0010
1000
0001
0010
0100
1000
0100
1000
0100
,
1000
0001
0100
0010
1000
0001
1000
0001
0010
0100
1000
0001
0100
0010
0100
0010
,
1000
0001
0100
0001
1000
0100
0010
0001
1000
0010
1000
0001
0100
0010
1000
0010
,
0100
0001
1000
0001
0010
0100
1000
0010
0100
0001
0010
0100
1000
0100
0010
0001
,
2000
0000
0000
0000
0000
0000
3100
0001
0100
0000
0010
0000
0001
0000
1000
0000
,
0002
0000
0000
0000
0000
0000
0103
1000
0100
0000
0010
0000
0100
0000
0001
0000
,
2000
0000
0000
0000
0000
0000
3100
0010
0002
0000
0000
0000
0000
0000
0103
0010
,
2000
0000
0000
0000
3000
0000
0010
0100
1000
0000
0100
0000
0001
0000
0010
0000
,
0200
0000
0000
0000
0000
0000
1300
0100
0002
0000
0000
0000
0003
0000
1000
0010
,
0002
0000
0000
0000
0003
0000
1000
0100
0010
0000
0001
0000
0100
0000
0010
0000
,
2000
0000
0000
0000
3001
0000
0001
0010
2000
0000
0000
0000
3001
0000
0001
0100
,
1000
0000
0001
0100
0000
0010
1000
0000
0001
0010
0100
1000
0100
0010
0001
1000
,
0001
0010
0000
0010
1000
0000
0001
0100
0000
0100
1000
0000
0001
0000
1000
0000
,
0001
0100
0000
0100
1000
0000
0001
0010
0000
0010
1000
0000
0100
0000
0010
0000
,
0001
0100
0000
0100
1000
0000
0001
0010
0000
0010
1000
0000
0001
1000
0100
0000
,
1000
0000
0000
0100
0000
0000
0000
0000
0000
0100
0000
0000
0001
0000
0000
0000
0000
0000
1000
0000
0000
0010
0000
0000
0000
0000
0000
0010
0000
0000
0001
0000
0000
0000
0000
0000
0100
0000
0000
0010
0000
0000
1000
0000
0001
0000
1000
0000
,
0001
0000
1000
0001
0010
0000
0001
0000
0100
0001
1000
0000
0001
0010
0100
0000
,
1000
0000
0000
0000
0000
0000
0001
0000
0000
0100
0000
0000
0000
0000
0000
1000
0000
0000
0100
0000
0000
0000
0000
0000
0010
0000
0000
0100
0000
0000
0000
0000
0000
0001
0000
0000
1000
0000
0000
0000
0000
0000
0001
0000
0010
0000
0100
0000
,
1000
0001
1000
0001
0010
0100
0010
0100
1000
0001
1000
0001
0100
0010
0100
0010
,
1000
0000
0000
0010
0000
0000
0000
0000
0000
0001
0000
0000
0010
0000
0000
0000
0000
0000
0100
0000
0000
0001
0000
0000
0000
0000
0000
1000
0000
0000
0001
0000
0000
0000
0000
0000
1000
0000
0100
0000
0010
0000
0001
0000
1000
0000
0001
0000
,
0200
0000
0000
0320
0000
0000
0000
0000
,
2030
0000
0000
3002
0000
0000
0000
0000
,
2003
0000
0000
3200
0000
0000
0320
0000
,
0032
0000
0000
0203
0000
0000
0320
0000
,
2030
0000
0000
0000
,
3200
0000
0000
0302
0000
0000
0023
0000
,
2030
0000
0000
0000
0000
0000
3002
0000
0000
0000
0000
0000
2003
0000
0000
3000
,
1100
0000
0000
0101
0000
0000
0011
0000
0000
1010
0000
0000
1001
0000
1000
0100
,
0010
0001
0010
0000
0000
0000
0001
1000
0001
0000
0000
0000
0001
0000
1000
0000
,
0001
0100
1000
0000
1000
0100
0001
0000
0001
0010
1000
0000
1000
0010
0001
0000
,
1000
1001
0000
0100
0000
0110
1100
0000
,
1000
0010
0100
0000
1000
0100
0010
0000
1000
0100
0010
0000
1000
0010
0100
0000
,
2000
0000
0000
0000
0000
0000
3010
0001
0020
0000
0000
0000
0000
0000
0000
0000
,
1030
0000
0100
0000
0010
0000
0001
0000
1000
0000
0010
0100
0001
0000
1000
0000
0100
0000
0001
0000
0100
0000
0010
0000
,
0011
1001
0000
0000
1100
1001
0000
0000
,
1010
1001
0000
0000
0101
1001
0000
0000
,
1100
0110
0000
0000
0101
0110
0000
0000
,
1000
0010
0000
0100
0000
0001
0010
0000
0001
0010
0000
0100
0000
1000
0010
0000
,
1000
0001
0000
0001
0010
0100
0000
0100
1000
0001
0000
0001
0100
0010
0000
0010
,
1000
0001
0000
0001
0010
0100
0000
0100
1000
0001
0000
0001
1000
0100
0000
0010
,
0001
1000
0000
1000
0001
0100
0000
0010
1000
0001
0000
0001
0010
0100
0000
1000
,
0001
0100
0000
0100
0010
1000
0000
0010
0100
0001
0000
0001
1000
0100
0000
0010
,
0001
0000
1000
0010
0001
0000
0010
0100
0001
0000
0100
1000
0100
0000
0001
0010
,
0001
0100
0000
1000
0000
1000
0000
1000
0000
1000
0000
0100
0001
0010
0100
1000
,
0002
0000
0000
0003
,
1000
0100
0000
0001
0100
0000
1000
0010
0000
0001
0010
0000
1000
0000
0001
0000
,
0010
0100
1000
0001
0100
0010
1000
0000
1010
0000
0110
0000
0101
0000
1001
0000
,
1000
0100
0010
0001
1000
0001
0010
0000
0011
0000
0110
0000
1100
0000
1010
0000
,
2001
3100
1002
0013
2001
3100
1002
0013
,
1000
0100
0010
0001
0000
0100
0010
0000
1000
0001
0010
0100
0010
0000
0001
0000
,
1000
0001
0100
0010
0001
0010
1000
0000
1001
0000
1100
0000
0110
0000
0011
0000
,
0001
1000
0100
0010
1000
0010
0001
0000
1001
0000
0101
0000
0110
0000
1010
0000
,
1000
0100
0010
0200
0001
0000
1300
0000
0001
0100
0010
0200
1000
0000
0301
0000
,
1000
0100
1000
0001
0100
0001
1000
0001
0010
0100
1000
0010
0100
0001
0010
0100
,
0010
0000
0001
0010
0000
0000
1010
0000
0000
1100
0000
0000
0101
0000
0001
0000
,
1000
0100
0010
0001
0010
0100
1000
0001
0100
0010
1000
0010
0100
0001
1000
0100
,
0010
0000
0001
1000
0001
0000
1000
0010
0000
0010
0001
0100
0010
1000
0001
0000
,
1000
0000
0001
0010
0000
0100
0010
0000
0001
0100
0010
1000
0001
0010
0100
0000
,
2000
0100
0002
3003
,
1000
0000
0000
0000
0000
0000
0000
0000
0000
0000
0000
0000
0001
0000
0000
0000
0000
0000
0000
0000
0000
0000
0000
0000
0010
0000
0000
0000
0000
0000
0000
0000
0000
0000
0000
0000
0200
0300
0000
0000
0000
0000
0000
0000
0000
0000
0000
0000
0000
0000
0000
0000
0000
0000
0000
0000
0000
0000
0000
0000
0200
0300
0000
0000
0000
0000
0000
0000
0000
0000
0000
0000
0000
0000
0000
0000
0000
0000
0000
0000
0000
0000
0000
0000
0001
0000
0000
0000
0000
0000
0000
0000
0000
0000
0000
0000
0010
0000
0000
0000
0000
0000
0000
0000
0000
0000
0000
0000
0001
0000
0000
0000
0000
0000
0000
0000
0000
0000
0000
0000
1000
0000
0000
0000
0000
0000
0000
0000
0000
0000
0000
0000
0200
0300
0000
0000
0000
0000
0000
0000
0000
0000
0000
0000
0000
0000
0000
0000
0000
0000
0000
0000
0000
0000
0000
0000
0200
0300
0000
0000
0000
0000
0000
0000
0000
0000
0000
0000
0000
0000
0000
0000
0000
0000
0000
0000
0000
0000
0000
0000
0001
0000
0000
0000
0000
0000
0000
0000
0000
0000
0000
0000
,
0010
0000
0000
0000
0000
0000
0000
0000
0000
0000
0000
0000
0100
0000
0000
0000
0000
0000
0000
0000
0000
0000
0000
0000
1000
0000
0000
0000
0000
0000
0000
0000
0000
0000
0000
0000
0020
0030
0000
0000
0000
0000
0000
0000
0000
0000
0000
0000
0000
0000
0000
0000
0000
0000
0000
0000
0000
0000
0000
0000
0020
0030
0000
0000
0000
0000
0000
0000
0000
0000
0000
0000
0000
0000
0000
0000
0000
0000
0000
0000
0000
0000
0000
0000
0100
0000
0000
0000
0000
0000
0000
0000
0000
0000
0000
0000
1000
0000
0000
0000
0000
0000
0000
0000
0000
0000
0000
0000
0001
0000
0000
0000
0000
0000
0000
0000
0000
0000
0000
0000
0100
0000
0000
0000
0000
0000
0000
0000
0000
0000
0000
0000
0020
0030
0000
0000
0000
0000
0000
0000
0000
0000
0000
0000
0000
0000
0000
0000
0000
0000
0000
0000
0000
0000
0000
0000
0020
0030
0000
0000
0000
0000
0000
0000
0000
0000
0000
0000
0000
0000
0000
0000
0000
0000
0000
0000
0000
0000
0000
0000
0001
0000
0000
0000
0000
0000
0000
0000
0000
0000
0000
0000
,
1000
0001
0010
0100
0000
0001
0100
1000
0001
0100
0010
0001
0000
0010
1000
0001
,
1000
0010
0100
1000
0000
0100
0001
1000
0001
0010
0100
0001
0000
0100
1000
0001
,
2000
0000
0000
0000
0010
0000
0000
0000
3001
1000
0001
0000
1001
0000
0000
0000
,
1000
1100
0000
0101
0000
0011
0000
1010
0000
1100
0000
1000
0001
0000
2002
0000
,
0000
3003
0000
0000
0000
0000
0000
0000
;

//--------------- dance-double - Fred-104 ----------------
#NOTEDATA:;
#STEPSTYPE:dance-double;
#DESCRIPTION:Fred-104;
#DIFFICULTY:Easy;
#METER:8;
#CREDIT:Fred-104;
#NOTES:
00000000
00000000
00000000
00000000
,
00000000
00000000
00000000
00000000
,
00000000
00000000
00000000
00000000
,
00000000
00000000
00000000
00000000
,
00000000
00000000
00000000
00000000
,
00010000
00000000
00001000
00000000
,
00010000
00000000
00000010
00001000
,
00000001
00000010
00000001
00000010
,
00000100
00000000
00000000
00000000
00010000
00000000
00000000
00000000
00001000
00000000
00000000
00000000
00022000
00000000
00000000
00033000
,
00001000
00010000
00100000
01000000
,
00001000
00010000
00100000
00000000
,
10000000
01000000
00100000
00001000
,
00010000
00001000
00010000
00000000
,
00010010
00000000
00000000
00000000
,
01001000
00000000
00000000
00000000
,
00010100
00000000
00000000
00000000
,
00101000
00000000
00000000
00000000
,
00020000
00032000
00003200
00000302
,
00002003
00003020
00000230
00000302
,
00002003
00000000
00000002
00003003
,
00000001
00000000
00001000
00000000
00000010
00010000
00000010
00000000
,
00010000
00000000
00001000
00000000
01000000
01000000
01000000
00000000
,
00010000
00000000
00100000
00000000
01000000
10000000
01000000
00000000
,
10000000
00000000
00100000
00000000
00010000
00001000
00010000
00000000
,
00012000
00000000
00013000
00001000
,
00000200
00000000
00000310
00001000
,
00000002
00000000
00000203
00000000
,
00002300
00000000
00013000
01000000
,
20000000
00000000
30020000
00000000
,
20030000
00000000
30100000
00010000
,
00002000
00000000
00003020
00000000
,
00000031
00001000
00000001
00000100
,
00000001
00000000
00000010
00000000
00000100
00001000
00000100
00000000
,
00010000
00000000
00000010
00000000
00001000
00000010
00001000
00000000
,
00000010
00000000
00010000
00000000
00001000
00010000
00001000
00000000
,
00100000
00000000
00010000
00000000
01000000
00100000
01000000
00000000
,
00010000
00000000
00000000
10000000
00000000
00000000
01000000
00000000
,
00100000
00000000
00000000
01000000
00000000
00000000
10000000
00000000
,
00010000
01000000
00001000
00010000
,
00001000
00000000
00000000
00001000
00000000
00000000
00010000
00000000
00000000
00010000
00000000
00000000
00001000
00000000
00010000
00000000
,
00000020
00000000
00000000
00000000
,
00002030
00000000
00003002
00000000
,
00000023
00000000
00000000
00000000
,
00000230
00000000
00020300
00000000
,
00032000
00000000
00000000
00000000
,
00203000
00000000
02300000
00000000
,
23000000
00000000
00000000
30020000
00000000
00000000
10030000
00000000
,
01000000
00000000
00000000
01000000
00000000
00000000
00100000
00000000
00000000
00001000
00000000
00000000
00011000
00000000
00000000
00000000
,
00010000
00000000
00000000
00000100
00000000
00000000
00010000
00000000
,
00001000
00000100
00000010
00001000
,
00000001
00000000
00000000
00000100
00000000
00000010
00000100
00000000
,
00000001
00001000
00000100
00000000
00010000
00001000
00010000
00000000
,
00002000
00003000
00020000
00030000
,
00001000
00010000
01000000
00100000
,
00011000
00000000
01100000
00000000
,
00011000
00000000
00000110
00000000
,
00011000
00000000
01100000
00000000
,
00011000
00000000
00000110
00000000
,
00010000
00001000
00010000
00001000
,
00000010
00000100
00000010
00000100
,
00010000
00001000
00010000
00001000
,
00000100
00000010
00000100
00000010
,
00010000
00001000
00000100
00000001
,
00000010
00001000
00010000
00001000
,
00022000
00000000
00000000
00033000
,
00001000
00000000
00000000
00010000
00000000
00000000
00100000
00000000
00000000
01000000
00000000
00000000
00010000
00000000
00000000
00000000
,
10000000
10000000
10000000
00000000
01000000
00000000
00100000
00000000
,
00001000
00001000
00001000
00000000
00010000
00000000
00001000
00000000
,
00011000
00000000
00010010
00000000
,
00010000
00001000
00000100
00000001
,
00001000
00001000
00001000
00000000
00000001
00000000
00000010
00000000
,
00000100
00000100
00000100
00000000
00010000
00000000
00001000
00000000
,
00011000
00000000
01100000
00000000
,
00001000
00010000
01000000
00100000
,
00010000
00000000
00000000
10000000
00000000
00000000
00100000
00000000
00000000
01000000
00000000
00000000
00100000
00000000
00000000
00000000
,
10000000
01000000
00010000
00000000
,
00001000
00000100
00000010
00001000
,
00000100
00000000
00000000
00000010
00000000
00000000
00000001
00000000
00001000
00000000
00000000
00000000
00000000
00000000
00000000
00000000
,
00002002
00000000
00000000
00003003
,
00000001
00000100
00001000
00010000
,
00100000
10000000
00010000
00000000
,
10000000
01000000
00010000
00001000
,
00000010
00000001
00001000
00000000
,
00002002
00000000
00000000
00003003
,
00000001
00000000
00000100
00000000
00001000
00000000
00010000
00022000
,
00000000
00033000
00000000
00000000
00000000
00000000
00000000
00000000
;

//--------------- dance-double - Fred-104 ----------------
#NOTEDATA:;
#STEPSTYPE:dance-double;
#DESCRIPTION:Fred-104;
#DIFFICULTY:Medium;
#METER:13;
#CREDIT:Fred-104;
#NOTES:
00000000
00000000
00000000
00000000
,
00000000
00000000
00000000
00000000
,
00000000
00000000
00000000
00000000
,
00000000
00000000
00000000
00000000
,
00000000
00000000
00000000
00000000
,
00001000
00010000
01000000
00100000
,
00010000
01000000
00100000
10000000
,
01000000
00100000
00001000
00010000
00001000
00010000
00000010
00001000
,
00000001
00000000
00000000
00000001
00001000
00000000
00000000
00001000
00000100
00000000
00000000
00010000
00002000
00000000
00000000
00000000
,
00013000
00001000
00000100
00000001
00001000
00000100
00000010
00000000
,
00000001
00000100
00000010
00000100
00001000
00010000
00001000
00000000
,
00010000
00100000
01000000
00100000
10000000
00010000
00100000
00000000
,
00010000
10000000
01000000
10000000
00100000
01000000
00001000
00000000
,
00010000
00010010
00000000
00000000
00000000
00000000
00000000
00000000
,
00001000
01001000
00000000
00000000
00000000
00000000
00000000
00000000
,
00010000
00010100
00000000
00000000
00000000
00000000
00000000
00000000
,
00001000
00101000
00000000
00000000
00000000
00000000
00000000
00000000
,
00020000
00032000
00003020
00000230
00000320
00000032
00002003
00003002
,
00000203
00002300
00023000
00230000
02300000
00000000
03002000
00000000
,
00023000
00000000
00002000
00033000
,
00010000
00001000
00000010
00000100
00000010
00000001
00001000
00000000
,
00000001
00000100
00001000
00010000
00001000
00010000
01000000
00000000
,
00100000
00010000
00100000
01000000
10000000
00010000
01000000
00000000
,
00100000
10000000
01000000
00100000
00001000
00010000
00001000
01000000
,
00002000
00000000
00000000
00013000
00001000
00000100
00000001
00001000
,
00000200
00000000
00000000
00000310
00000001
00001000
00000001
00000010
,
00000200
00000000
00000000
00010300
00002000
00000000
00000000
00003100
,
00000002
00000000
00000000
00000013
00001000
00010000
00100000
10000000
,
00020000
00000000
00000000
10030000
02000000
00000000
00000000
03010000
,
02000000
00000000
00000000
13000000
01000000
00100000
00001000
00010000
,
00002000
00000000
00000000
01003000
00002000
00000000
00000000
00013000
,
00000100
00000000
00001000
00000001
00000000
00000010
00000100
00000000
00000010
00000000
00000001
00000000
00001000
00000000
00000001
00000000
,
00001000
00000100
00000000
00001000
00000100
00000000
00000010
00000001
00000000
00000010
00000001
00000000
00002000
00000000
00000000
00000000
,
00003010
00010000
00000000
00000010
00010000
00000000
00001000
00100000
00000000
00001000
00100000
00000000
00020000
00000000
00000000
00000000
,
10030000
00010000
00000000
10000000
00010000
00000000
00100000
01000000
00000000
00100000
01000000
00000000
10000000
00000000
00010000
00000000
,
01000000
00001000
00000000
01000000
00001000
00000000
00010000
00000100
00000000
00010000
00000100
00000000
00020000
00000000
00000000
00000000
,
00031000
00010000
00000010
00001000
00000010
00010000
00001000
00000100
,
00000001
00000000
00000000
00000010
00000000
00000000
00000100
00000000
00000000
00000010
00000000
00000000
00001000
00000000
00010000
00000000
,
01000000
00100000
00010000
00100000
00010000
00100000
01000000
10000000
,
00010000
00000000
00000000
01010000
00000000
00000000
10000000
00000000
00000000
10100000
00000000
00000000
00010000
00000000
00100000
00000000
,
00002000
00000000
00000000
00023000
00000000
00000000
00000000
00000000
,
00030200
00000000
00002300
00000000
,
00003002
00000000
00000000
00000023
00000000
00000000
00000230
00000000
,
00020300
00000000
00000000
00032000
00000000
00000000
00023000
00000000
,
00032000
00000000
00000000
00000000
,
02003000
00000000
00000000
03020000
00000000
00000000
20030000
00000000
,
32000000
00000000
00000000
03200000
00000000
00000000
00301000
00000000
,
00010000
00000000
00000000
00010010
00000000
00000000
00001000
00000000
00000000
00101000
00000000
00000000
00010000
00000000
00001000
00000000
,
00010000
00010000
00000000
00000100
00000100
00000000
00001000
00000001
,
00000010
00001000
00010000
01000000
00100000
01000000
10000000
00000000
,
00010000
10000000
00000000
01000000
00000000
00100000
00001000
00000000
,
00010000
00001000
00000010
00000100
00001000
00000001
00000100
00000000
,
00000020
00000000
00000000
00010030
00002000
00000000
00000000
00000000
,
00013000
00001000
00000010
00000100
,
00010000
00010000
00000000
00000000
00001000
00001000
00000000
00000000
,
01000000
01000000
00000000
00000000
00001000
00001000
00000000
00000000
,
00010000
00010000
00000000
00000000
00000010
00000010
00000000
00000000
,
00010000
00010000
00000000
00000000
00001000
00001000
00000000
00000000
,
00010000
00011000
00000100
00000110
,
00000001
00000101
00001000
00001100
,
00010000
00010010
00001000
01001000
,
00010000
01100000
10000000
10010000
,
00010000
01000000
00100000
10000000
,
00010000
10000000
01000000
00010000
00001000
00000100
00000001
00000000
,
00002002
00000000
00000000
00003003
,
00001000
00000001
00000000
00000100
00000010
00000000
00001000
00000001
00000000
00000100
00000010
00000000
00001000
00000000
00000000
00000000
,
00000001
00000010
00000100
00000010
00001000
00010000
00001000
00000000
,
00010000
00100000
01000000
00010000
01000000
00100000
10000000
00000000
,
11000000
00100000
01010000
00100000
,
10000000
00000000
01000000
00100000
00000000
00100000
00001000
00000000
00010000
00001000
00000000
00001000
00010000
00000000
00000100
00000000
,
00010000
00001000
00000100
00000010
00000100
00000001
00001000
00000000
,
00000001
00000100
00001000
00010000
00100000
00010000
00001000
00000000
,
00011000
00000010
00011000
00100000
,
00001000
00000000
00000000
00010000
00000000
00000000
00001000
00000000
01000000
00000000
00010000
00000000
10000000
00000000
00000000
00000000
,
00010000
00000000
10000000
01000000
00000000
00000000
00100000
00000000
00000000
00001000
00000000
00000000
00010000
00000000
00000100
00000000
,
00010000
00001000
00000010
00000100
00001000
00000100
00000010
00000001
,
00000100
00000000
00000001
00000000
00001000
00000000
00000010
00000100
00000000
00000100
00010000
00000000
00001000
00000000
00010000
00000000
,
00001000
00000000
00000000
01000000
00000000
00000000
00100000
00000000
20000000
00000000
00000000
00000000
00000000
00000000
00000000
00000000
,
30020000
00000000
20000000
30030000
,
10000000
00000000
00000000
01000000
00000000
01000000
00000000
00000000
00100000
00000000
00000000
00001000
00000000
00001000
00000000
00000000
,
00010000
00000000
00000000
00000010
00000000
00000010
00000000
00000000
00001000
00000000
00000000
00000001
00000000
00000001
00000000
00000000
,
00000010
00000000
00000000
00000100
00000000
00000100
00000000
00000000
00010000
00000000
00000000
00001000
00000000
00001000
00000000
00000000
,
00100000
00000000
00000000
00010000
00000000
00010000
00000000
00000000
10000000
00000000
00000000
01000000
00000000
00100000
00000000
00000000
,
00002000
00000000
00020000
00033000
,
00011000
00000000
00000000
00010000
00000000
00100000
00000000
01000000
00000000
00010000
00000000
00010000
10000000
00000000
20020000
00000000
,
00000000
30030000
00000000
00000000
00000000
00000000
00000000
00000000
;

//--------------- dance-double - Fred-104 ----------------
#NOTEDATA:;
#STEPSTYPE:dance-double;
#DESCRIPTION:Fred-104;
#DIFFICULTY:Hard;
#METER:16;
#CREDIT:Fred-104;
#NOTES:
00000000
00000000
00000000
00000000
,
00000000
00000000
00000000
00000000
,
00000000
00000000
00000000
00000000
,
00000000
00000000
00000000
00000000
,
00000000
00000000
00000000
00000000
,
00001000
00010000
00001000
00000000
00100000
00001000
00010000
00000000
,
00001000
00010000
01000000
00000000
00100000
00010000
10000000
00000000
,
00010000
00000000
00100000
00000000
10000000
00000000
00100000
00000000
00010000
00000000
10000000
00000000
01000000
00100000
01000000
00100000
,
00010000
00000000
00000000
00100000
00001000
00000000
00000000
00010000
00000010
00000000
00000000
00001000
00000002
00000000
00000000
00000000
,
00001003
00000000
00000001
00000000
00000010
00000100
00000010
00000000
00000001
00000000
00000100
00000000
00001000
00010000
00001000
00000000
,
00010000
00000000
00100000
00000000
01000000
00010000
01000000
00000000
00010000
00000000
10000000
00000000
01000000
00000000
00100000
00000000
,
00001000
00000000
00010000
00000000
00100000
01000000
00100000
00000000
10000000
00000000
00010000
00000000
01000000
00100000
01000000
00000000
,
10000000
00000000
01000000
00000000
00010000
10000000
01000000
00000000
00100000
00001000
00000000
00001000
00010000
00000000
00000100
00000000
,
00001100
00001001
00000000
00000000
00000000
00000000
00000000
00000000
,
00011000
00010010
00000000
00000000
00000000
00000000
00000000
00000000
,
01001000
00011000
00000000
00000000
00000000
00000000
00000000
00000000
,
01100000
00000000
00000000
10010000
00000000
00000000
00000000
00000000
00000000
00000000
00000000
00000000
10000000
00000000
01000000
00000000
00010000
00000000
00001000
00000000
00010000
00000000
01000000
00000000
,
20000000
32000000
03200000
00302000
00023000
00230000
02300000
03002000
,
00023000
00032000
00003020
00000230
00002300
00000000
00003002
00000000
,
00000203
00000000
00000020
00000330
,
00001000
00000000
00000100
00000000
00000010
00000001
00000000
00001000
00000001
00000000
00000100
00000000
00000010
00000100
00000000
00001000
,
00010000
00000000
00100000
00000000
01000000
00100000
00000000
10000000
00010000
00000000
00100000
00000000
01000000
00100000
00010000
00000000
,
10000000
00000000
00100000
00000000
00010000
00001000
00000000
00010000
00000010
00000000
00001000
00000000
00000001
00000010
00000000
00000100
,
00000010
00000000
00000001
00000000
00001000
00000100
00000000
00010000
00001000
00010000
00000010
00000000
00010000
00001000
00100000
00001000
,
00020000
00000000
00000000
00000000
00000000
00000000
00031000
00100000
00010000
00000000
10000000
00000000
00010000
00000000
00100000
00000000
,
02000000
00000000
00000000
00000000
00000000
00000000
13000000
01000000
00100000
00000000
00001000
00000000
00010000
00000000
00001000
00000000
,
00000020
00000000
00000000
00000000
00000000
00000000
00000130
00001000
00000002
00000000
00000000
00000000
00000000
00000000
00000103
00000001
,
00002000
00000000
00000000
00000000
00000000
00000000
00003010
00010000
00001000
00000000
00010000
00000000
00001000
00000000
00000100
00000000
,
00000020
00000000
00000000
00000000
00000000
00000000
00001030
00000010
00000002
00000000
00000000
00000000
00000000
00000000
00000013
00000100
,
00000002
00000000
00000000
00000000
00000000
00000000
00000013
00001000
00010000
00000000
01000000
00000000
00100000
00000000
01000000
00000000
,
20000000
00000000
00000000
00000000
00000000
00000000
30010000
10000000
02000000
00000000
00000000
00000000
00000000
00000000
03100000
00001000
,
00010000
00000000
00000100
00010000
00000000
00001000
00010000
00000000
00000010
00001000
00000010
00001000
00000001
00001000
00000100
00000000
,
00001000
00000001
00000000
00001000
00000010
00000000
00010000
00001000
00000000
00100000
00001000
00000000
00010000
00000000
00000010
00000000
,
00001000
00000001
00000000
00000100
00001000
00000000
00010000
00100000
00000000
01000000
00010000
00000000
10000000
00000000
01000000
00000000
,
00100000
01000000
00000000
10000000
00010000
00000000
00100000
01000000
00000000
00100000
00001000
00000000
00010000
00000010
00001000
00000000
,
00000010
00010000
00000000
00000010
00001000
00000000
00000001
00000010
00000000
00000100
00000010
00000000
00000001
00000000
00001000
00000000
,
00000001
00000000
00000100
00000000
00000010
00000000
00000001
00000000
00000010
00000100
00000010
00000000
00001000
00000000
00000001
00000000
,
00000100
00000000
00000001
00000010
00000000
00000100
00010000
00000000
00001000
00100000
00000000
00010000
10000000
00000000
00010000
00000000
,
10000000
01000000
10000000
00000000
00010000
01000000
00010000
00000000
10000000
01000000
00100000
00010000
00100000
00001000
00010000
00000010
,
00001000
00000001
00000000
00000100
00001000
00000000
00000100
00000001
00000000
00000100
00001000
00000000
00000100
00000010
00001000
00000001
,
00000020
00000000
00000000
00000230
00000000
00000000
00000000
00000000
,
00020300
00000000
00032000
00000000
,
02003000
00000000
00000000
00000000
,
03020000
00000000
20030000
00000000
,
32000000
10000000
00100000
13000000
,
00020000
00100000
01000000
00130000
,
00002000
00000000
00010000
00000000
00000010
00000000
00013000
00000100
,
00001100
00000000
00000000
00000101
00000000
00000000
00001010
00000000
00000000
00000011
00000000
00000000
00001001
00000000
00000001
00000000
,
00000100
00000010
00001000
00000000
00000000
00000000
00000100
00010000
00001000
00000000
00000000
00000000
01000000
00000000
00010000
00000000
,
10000000
00100000
00010000
00001000
00000100
00000010
00001000
00000001
,
00000010
00000100
00000000
00010000
00000000
01001000
00011000
00000000
,
00010000
00001000
00000010
00000001
00001000
00000010
00000100
00001000
,
00020000
00000000
00000000
00000000
00000000
00000000
00031000
01000000
00002000
00000000
00000000
00000000
00000000
00000000
00000000
00000000
,
00013000
00001000
00000100
00000010
00000100
00000001
00001000
00000001
00000010
00001000
00010000
00001000
,
00010000
00010010
00000000
00000000
00001000
00101000
00000000
00000000
,
00010000
00010100
00000000
00000000
00001000
01001000
00000000
00000000
,
00011000
00010010
00000000
00000000
00011000
01001000
00000000
00000000
,
00010000
00001000
00000000
00001000
00000000
00000010
00000100
00000000
00000001
00000100
00000000
00000100
00000000
00001000
00000100
00000000
,
00000010
00000000
00000001
00000000
00001000
00000001
00000000
00000010
00000100
00000000
00010000
00000000
00001000
00100000
00000000
00001000
,
00010000
00000000
00001000
00000000
00010000
00100000
00000000
01000000
00001000
00000000
00010000
00000000
00001000
00010000
00000000
01000000
,
10000000
00000000
00010000
00000000
10000000
00100000
00000000
00010000
00100000
00000000
01000000
00000000
00010000
10000000
00000000
01000000
,
00100000
00000000
00001000
00000000
00010000
00001000
00000000
00000100
00000010
00000000
00001000
00000000
00000100
00000010
00000000
00000001
,
00001000
00000000
00000001
00000010
00000100
00000000
00010000
00001000
00010000
00000000
00001000
00100000
00010000
00000000
10000000
00000000
,
00010000
00100000
00000000
01000000
00000000
10000000
00000000
00010000
00000000
10000000
00000000
01000000
00100000
00010000
00100000
00001000
,
00020000
00000000
00000000
00030000
,
00001000
00010000
00000000
00000010
00010000
00000000
00001000
01000000
00000000
00001000
00010000
00000000
00000100
00000000
00010000
00000000
,
00001000
00100000
00001000
00100000
00010000
00000000
10000000
00000000
00100000
00000000
01000000
00000000
01010000
00000000
00000000
00000000
,
00010000
10000000
00010000
10000000
01000000
00000000
00100000
00000000
00001000
00000000
00000000
00010000
00000010
00000000
00001000
00000000
,
00001100
00000010
00000001
00000000
00000101
00000010
00001000
00000000
,
00000001
00000010
00000100
00001000
00000000
00000010
00000100
00000000
00000001
00000010
00000000
00000100
00001000
00000000
00000010
00000000
,
00010000
00000010
00001000
00000010
00010000
00000000
00001000
00000000
00100000
00000000
00010000
00000000
10000000
00000000
11000000
00000000
,
01000000
00100000
00010000
10000000
00100000
00000000
01000000
00000000
00010000
00000000
00100000
00000000
00001000
00000000
00011000
00000000
,
00011000
00000000
00010000
00000010
00010000
00000000
00000000
00000000
00011000
00000000
00001000
00100000
00001000
00000000
00000000
00000000
,
00010000
00000010
00001000
00000010
00000000
00010000
00000010
00000000
00001000
00000001
00000010
00000100
00001000
00000100
00000010
00000001
,
00001000
00000000
00000001
00000100
00000000
00000000
00001000
00000000
00000000
00010000
00000000
00000000
00100000
00000000
01000000
00000000
,
00010000
10000000
00010000
10000000
01000000
00100000
01000000
00100000
00010000
10000000
00010000
10000000
00100000
01000000
00010000
10000000
,
01000000
00000000
00100000
00010000
00100000
00000000
00001000
00010000
00000000
00001000
01000000
00000000
00001000
00000000
00010000
00000000
,
00001000
00000000
00000000
00000010
00000000
00000000
00000001
00000000
00002000
00000000
00000000
00000000
00000000
00000000
00000000
00000000
,
00003200
00000300
00022000
00033000
,
00001000
00010000
00000000
00001000
00000000
00101000
00000000
00000000
00100000
00010000
00000000
10000000
00000000
11000000
00000000
00000000
,
01000000
00100000
00000000
00001000
00000000
00011000
00000000
00000000
00010000
00000010
00000000
00001000
00000000
00001001
00000000
00000000
,
00000001
00000010
00000000
00000100
00000000
00000100
00000000
00010000
00001000
00100000
00000000
00010000
00000000
10000000
00000000
10000000
,
00010000
00100000
00000000
01000000
00000000
00100000
00000000
00100000
00001000
00010000
00000000
00000010
00000000
00001000
00000000
00001000
,
00000002
00000000
00000000
00000003
,
00000001
00000100
00000000
00001000
00000000
00010000
00000000
00100000
00000000
10000000
00000000
01000000
00010000
00000000
00022000
00000000
,
00000000
00033000
00000000
00000000
00000000
00000000
00000000
00000000
;

//--------------- dance-double - Fred-104† ----------------
#NOTEDATA:;
#STEPSTYPE:dance-double;
#DESCRIPTION:Fred-104†;
#DIFFICULTY:Challenge;
#METER:18;
#CREDIT:Fred-104†;
#NOTES:
00000000
00000000
00000000
00000000
,
00000000
00000000
00000000
00000000
,
00000000
00000000
00000000
00000000
,
00000000
00000000
00000000
00000000
,
00000000
00000000
00000000
00000000
,
00010000
00001000
00000100
00000010
00001000
00000001
00000100
00001000
,
00010000
01000000
00100000
00010000
10000000
00100000
00010000
00001000
,
01000000
00000000
00001000
00000000
00000100
00000000
00000010
00000000
00001000
00000000
00000100
00000000
00000010
00000001
00001000
00000010
,
00000100
00000000
00000000
00000000
00000000
00000000
00000000
00000000
00000000
00000000
00000000
00000000
00000000
00000000
00000000
00000000
00000000
00000000
00000000
00000000
00000000
00000000
00000000
00000000
00000000
00000000
00000000
00000000
00000000
00000000
00000000
00000000
00000001
00000000
00000000
00000000
00000000
00000000
00000000
00000000
00000010
00000000
00000000
00000000
00000000
00000000
00000000
00000000
00000100
00000000
00000000
00000000
00000000
00000000
00000000
00000000
00000000
00000000
00000000
00000000
00000000
00000000
00000000
00000000
00000000
00000000
00000000
00000000
00000000
00000000
00000000
00000000
00000000
00000000
00000000
00000000
00000000
00000000
00000000
00000000
00010000
00000000
00000000
00000000
00000000
00000000
00000000
00000000
00001000
00000000
00000000
00000000
00000000
00000000
00000000
00000000
00010000
00000000
00000000
00000000
00000000
00000000
00000000
00000000
00000000
00000000
00000000
00000000
00000000
00000000
00000000
00000000
00000000
00000000
00000000
00000000
00000000
00000000
00000000
00000000
00000000
00000000
00000000
00000000
00000000
00000000
00000000
00000000
00001000
00000000
00000000
00000000
00000000
00000000
00000000
00000000
00100000
00000000
00000000
00000000
00000000
00000000
00000000
00000000
00002000
00000000
00000000
00000000
00000000
00000000
00000000
00000000
00000000
00000000
00000000
00000000
00000000
00000000
00000000
00000000
00000000
00000000
00000000
00000000
00000000
00000000
00000000
00000000
00000000
00000000
00000000
00000000
00000000
00000000
00000000
00000000
00000000
00000000
00000000
00000000
00000000
00000000
00000000
00003000
00000000
00000000
00000000
00000000
00000000
00000000
00000000
00000000
,
00001000
00100000
00010000
00100000
00001000
00100000
00010000
10000000
00010000
00100000
01000000
10000000
01000000
00100000
00010000
00000000
,
00100000
00001000
00010000
00001000
01000000
00001000
00010000
00001000
00000010
00000001
00000010
00000100
00002000
00000000
00003200
00000000
,
00000310
00000001
00001000
00000001
00000100
00000001
00001000
00000001
00000010
00000100
00001000
00000100
00010000
00001000
00010000
00000000
,
00000100
00010000
00001000
00010000
01000000
10000000
01000000
00100000
00001000
00010000
00100000
01000000
00010000
10000000
01000000
00100000
,
00010000
00000000
10010000
00000000
10000000
01000000
00000000
01000000
00100000
00001000
00000000
00001000
00010000
00000010
00000000
00000010
,
00001000
00000000
00001001
00000000
00000001
00000010
00000000
00000010
00000100
00010000
00000000
00010000
00001000
00100000
00000000
00100000
,
00010000
00000000
01010000
00000000
01000000
00100000
00000000
00100000
10000000
01000000
00000000
01000000
00010000
00001000
00000000
00001000
,
00000010
00000000
00000000
00000000
00000000
00000000
00000100
00000000
00000000
00000000
00000000
00000000
00001000
00000000
00000000
00000100
00000000
00000000
00000000
00000000
00000000
00000100
00000000
00000000
00000010
00000000
00000000
00000000
00000001
00000000
00000000
00000000
00000100
00000000
00000000
00000000
00001000
00000000
00000000
00000000
00010000
00000000
00000000
00000000
00001000
00000000
00000000
00000000
,
00020000
00032000
00023000
00230000
02300000
03020000
20030000
32000000
,
03020000
00000000
00032000
00000000
00003200
00000000
00000302
00000000
00002003
00000000
00000000
00000000
00003002
00000000
00000000
00000003
,
00002002
00000000
00000000
00000000
00000000
00000000
00003003
00000000
00000001
00001000
00000001
00001000
00000001
00000000
00000000
00000000
,
00001000
00000001
00000100
00000001
00001000
00000001
00000010
00000100
00001000
00000100
00010000
00001000
00010000
00000010
00010000
00000000
,
00001000
00100000
00010000
10000000
00010000
00100000
00001000
00010000
00100000
01000000
00001000
00010000
01000000
10000000
01000000
00000000
,
00100000
00010000
10000000
00100000
01000000
00001000
00010000
00001000
00000100
00000010
00010000
00001000
00000100
00000001
00000010
00000000
,
00000100
00001000
00000001
00001000
00000001
00001000
00000010
00000100
00001000
00010000
00100000
01000000
00010000
10000000
01000000
00100000
,
00020000
00000000
00000000
00000000
00000000
00000000
01030000
10000000
01000000
00000000
00010000
00000000
10000000
00000000
01000000
00000000
,
00200000
00000000
00000000
00000000
00000000
00000000
00301000
00010000
00001000
00000000
00000010
00000000
00000001
00000000
00000010
00000000
,
00000200
00000000
00000000
00000000
00000000
00000000
00010300
00001000
00200000
00000000
00000000
00000000
00000000
00000000
00310000
10000000
,
02000000
00000000
00000000
00000000
00000000
00000000
03100000
00001000
00010000
00000000
00001000
00000000
00000100
00000000
00000010
00000000
,
00002000
00000000
00000000
00000000
00000000
00000000
00003100
00000001
00000200
00000000
00000000
00000000
00000000
00000000
00001300
00000010
,
00020000
00000000
00000000
00000000
00000000
00000000
00031000
00010000
00100000
00000000
01000000
00000000
00001000
00000000
00010000
00000000
,
02000000
00000000
00000000
00000000
00000000
00000000
10000000
03100000
02000000
00000000
00000000
00000000
00000000
00000000
03010000
10000000
,
01000000
00000000
10000000
00010000
00000000
00100000
00010000
00000000
01000000
00001000
00010000
00001000
00100000
00001000
00010000
00001000
,
00000010
00000100
00000000
00001000
00000001
00000000
00000010
00000100
00000000
00001000
00000010
00000000
00010000
00000000
00001000
00000000
,
00100000
00001000
00000000
00010000
00000010
00000000
00010000
00001000
00000000
01000000
00001000
00000000
00010000
00000000
00000100
00000000
,
00001000
00000001
00000000
00000010
00000100
00000000
00010000
00001000
00000000
00000100
00000010
00000000
00001000
00000001
00000010
00000000
,
00000001
00000000
00000000
00000100
00000000
00000000
00000000
00000000
00000000
00001000
00000000
00000000
00010000
00000000
00000000
00000000
00000000
00000000
00100000
00000000
00000000
01000000
00000000
00000000
00000000
00000000
00000000
00010000
00000000
00000000
01000000
00000000
00000000
00000000
00000000
00000000
00100000
00000000
00000000
00000000
00000000
00000000
10000000
00000000
00010000
00000000
10000000
00000000
,
00010000
00000000
00100000
01000000
10000000
00000000
00010000
00000000
10000000
00100000
00010000
00000000
00001000
00010000
00100000
00000000
,
01000000
00000000
00000000
00000000
00000000
00000000
00001000
00000000
00000000
00010000
00000000
00000000
00000000
00000000
00000000
00001000
00000000
00000000
00000100
00000000
00000000
00000000
00000000
00000000
00000010
00000000
00000000
00001000
00000000
00000000
00000000
00000000
00000000
00000001
00000000
00000000
00000010
00000000
00000000
00000000
00000000
00000000
00000001
00000000
00000100
00000000
00000001
00000000
,
00000100
00000010
00001000
00000001
00000010
00000100
00001000
00000100
00010000
00001000
00100000
00010000
10000000
00010000
01000000
00000000
,
00010000
00000000
00000000
10000000
00000000
00000000
00000000
00000000
00000000
00001000
00000000
00000000
01000000
00000000
00000000
00000000
00000000
00000000
00000010
00000000
00000000
00010000
00000000
00000000
00000000
00000000
00000000
00000001
00000000
00000000
00001000
00000000
00000000
00000000
00000000
00000000
00000001
00000000
00001000
00000000
00000100
00000000
00001000
00000000
00000000
00000001
00000000
00000000
,
00000020
00000000
00000032
00002003
00000000
00000000
00000000
00000000
,
00003020
00000000
00000000
00000230
00000000
00000000
00000000
00000000
,
00002300
00000000
00000000
00023000
00000000
00000000
00230000
00000000
,
02300000
00000000
00000000
03200000
00000000
00000000
20300000
00000000
,
30020000
00000000
00000000
00000000
,
00230000
00000000
00000000
00302000
00000000
00000000
00023000
00000000
,
00032000
00000000
00000000
00000000
00000000
00000000
02003000
00000000
00000000
00000000
00000000
00000000
03200000
00000000
00000000
00300000
,
10100000
00000000
00000000
01010000
00000000
00000000
00001010
00000000
00000000
00000101
00000000
00000000
00001000
00000000
00000001
00000010
,
00000100
00001000
00000100
00000000
00000000
00000000
00010000
00001000
00010000
00000000
00000000
00000000
00001000
00000000
00100000
00000000
,
00010000
01000000
10000000
00000000
10000000
01000000
00010000
00000000
10000000
00100000
00010000
00000000
00010000
00100000
10000000
00000000
,
00010000
01010000
00000000
10000000
00000000
10100000
01100000
00000000
,
10000000
01000000
00010000
00000000
00001000
00000010
00000001
00000000
00000001
00000100
00001000
00000000
00010000
00100000
10000000
00000000
,
00020000
00000000
00000000
00000000
00000000
00000000
01030000
00100000
02000000
00000000
00000000
00000000
00000000
00000000
00000000
00000000
,
03010000
00000000
10000000
00000000
01000000
00000000
00010000
00000000
00001000
00000000
00000010
00000001
00000010
00000000
00000100
00000000
00001000
00000000
00000100
00000000
00010000
00000000
00001000
00000000
,
01000000
10010000
00000000
00000000
10000000
11000000
00000000
00000000
,
00001000
00011000
00000000
00000000
00010000
00010010
00000000
00000000
,
00000001
00000101
00000000
00000000
00001000
00001100
00000000
00000000
,
00010000
00001000
00010000
00000010
00000000
00001000
00000010
00000000
00010000
00000010
00010000
00001000
00000000
00100000
00001000
00000000
,
00010000
00001000
00000000
00001000
01000000
00001000
00000000
00010000
00001000
00100000
00000000
00100000
00001000
00010000
00000000
00000010
,
00001000
00000001
00000000
00000001
00000010
00000100
00000000
00001000
00000100
00000010
00000000
00000010
00000001
00000100
00000000
00001000
,
00010000
00001000
00000000
00001000
00010000
01000000
00000000
00100000
00010000
10000000
00000000
10000000
00010000
00100000
00000000
01000000
,
10000000
00010000
00000000
00010000
01000000
00100000
00000000
10000000
01000000
00100000
00000000
00100000
01000000
00010000
00000000
00001000
,
00000010
00000000
00000100
00001000
00000001
00000000
00000100
00000001
00001000
00000000
00000001
00000010
00000100
00000000
00010000
00001000
,
00010000
00001000
00000000
00000010
00000000
00000100
00000000
00000010
00000000
00001000
00000000
00010000
00100000
01000000
00010000
01000000
,
00020000
00000000
00000000
00030000
,
00010000
10000000
00000000
00001000
01000000
00000000
00000010
00010000
00000000
00000001
00001000
00000000
00000001
00000000
00000010
00000000
,
00000100
00000010
00000001
00001000
00000010
00000000
00000100
00000000
00000001
00000000
00000010
00000000
00000210
00000000
00001300
00000000
,
00000010
00010000
00001000
00010000
01000000
00000000
00100000
00000000
00010000
00000000
00100000
00000000
02100000
00000000
13000000
00000000
,
10200000
01300000
00210000
01300000
20100000
31000000
00120000
01030000
,
10000000
00010000
00100000
00010000
00000000
01000000
00001000
00000000
00010000
00000100
00000000
00010000
00001000
00000000
00100000
00000000
,
00010000
10000000
00100000
02000000
10000000
00000000
03010000
00000000
00100000
00000000
00001000
00000000
00011000
00000000
00010010
00000000
,
00000010
00001000
00000100
00000020
00001000
00000000
00000031
00000000
00001000
00000000
00000010
00000000
00000110
00000000
00001001
00000000
,
00000001
00000100
00001000
00010000
00100000
01000000
00010000
00000000
10000000
01000000
00010000
00001000
00000010
00000100
00001000
00000000
,
00000001
00000100
00000010
00000100
00001000
00010000
00100000
01000000
00100000
10000000
01000000
00100000
00010000
10000000
00100000
01000000
,
00010000
00000000
10000000
00010000
00000000
00000000
11000000
00000000
00000000
01100000
00000000
00000000
00100000
00000000
00001000
00000000
,
00010000
00001000
00000100
00000010
00001000
00000001
00000100
00000001
00000010
00000100
00000010
00001000
00010000
01000000
10000000
01000000
,
00100000
00000000
00010000
00000000
10000000
00000000
00010000
10000000
00000000
00100000
10000000
01000000
00010000
00001000
00100000
00001000
,
00020000
00000000
00000000
00001000
00000000
00000000
00001000
00000000
00002000
00000000
00000000
00000000
00033000
00000000
00000000
00000000
,
00020000
00000000
00002000
00033000
,
00010000
00000000
00000000
00000000
00000000
00000000
00000000
00000000
00000000
00000000
00000000
00000000
00001000
00000000
00000000
00000000
00000000
00000000
00000000
00000000
00000000
00000000
00000000
00000000
00000100
00000000
00000000
00000000
00000000
00000000
00000000
00000000
00000000
00000000
00000000
00000000
00000001
00000000
00000000
00000000
00000000
00000000
00000000
00000000
00000000
00000000
00000000
00000000
00000000
00000000
00000000
00000000
00000000
00000000
00000000
00000000
00000000
00000000
00000000
00000000
00000020
00000030
00000000
00000000
00000000
00000000
00000000
00000000
00000000
00000000
00000000
00000000
00000000
00000000
00000000
00000000
00000000
00000000
00000000
00000000
00000000
00000000
00000000
00000000
00000020
00000030
00000000
00000000
00000000
00000000
00000000
00000000
00000000
00000000
00000000
00000000
00001000
00000000
00000000
00000000
00000000
00000000
00000000
00000000
00000000
00000000
00000000
00000000
00000001
00000000
00000000
00000000
00000000
00000000
00000000
00000000
00000000
00000000
00000000
00000000
00000010
00000000
00000000
00000000
00000000
00000000
00000000
00000000
00000000
00000000
00000000
00000000
00000100
00000000
00000000
00000000
00000000
00000000
00000000
00000000
00000000
00000000
00000000
00000000
00000000
00000000
00000000
00000000
00000000
00000000
00000000
00000000
00000000
00000000
00000000
00000000
00020000
00030000
00000000
00000000
00000000
00000000
00000000
00000000
00000000
00000000
00000000
00000000
00000000
00000000
00000000
00000000
00000000
00000000
00000000
00000000
00000000
00000000
00000000
00000000
00020000
00030000
00000000
00000000
00000000
00000000
00000000
00000000
00000000
00000000
00000000
00000000
,
01000000
00000000
00000000
00000000
00000000
00000000
00000000
00000000
00000000
00000000
00000000
00000000
00100000
00000000
00000000
00000000
00000000
00000000
00000000
00000000
00000000
00000000
00000000
00000000
10000000
00000000
00000000
00000000
00000000
00000000
00000000
00000000
00000000
00000000
00000000
00000000
00010000
00000000
00000000
00000000
00000000
00000000
00000000
00000000
00000000
00000000
00000000
00000000
00000000
00000000
00000000
00000000
00000000
00000000
00000000
00000000
00000000
00000000
00000000
00000000
02000000
03000000
00000000
00000000
00000000
00000000
00000000
00000000
00000000
00000000
00000000
00000000
00000000
00000000
00000000
00000000
00000000
00000000
00000000
00000000
00000000
00000000
00000000
00000000
02000000
03000000
00000000
00000000
00000000
00000000
00000000
00000000
00000000
00000000
00000000
00000000
10000000
00000000
00000000
00000000
00000000
00000000
00000000
00000000
00000000
00000000
00000000
00000000
01000000
00000000
00000000
00000000
00000000
00000000
00000000
00000000
00000000
00000000
00000000
00000000
00100000
00000000
00000000
00000000
00000000
00000000
00000000
00000000
00000000
00000000
00000000
00000000
00001000
00000000
00000000
00000000
00000000
00000000
00000000
00000000
00000000
00000000
00000000
00000000
00000000
00000000
00000000
00000000
00000000
00000000
00000000
00000000
00000000
00000000
00000000
00000000
00020000
00030000
00000000
00000000
00000000
00000000
00000000
00000000
00000000
00000000
00000000
00000000
00000000
00000000
00000000
00000000
00000000
00000000
00000000
00000000
00000000
00000000
00000000
00000000
00020000
00030000
00000000
00000000
00000000
00000000
00000000
00000000
00000000
00000000
00000000
00000000
,
00100000
00000000
00000000
00000000
00000000
00000000
00000000
00000000
00000000
00000000
00000000
00000000
00001000
00000000
00000000
00000000
00000000
00000000
00000000
00000000
00000000
00000000
00000000
00000000
00010000
00000000
00000000
00000000
00000000
00000000
00000000
00000000
00000000
00000000
00000000
00000000
00000020
00000030
00000000
00000000
00000000
00000000
00000000
00000000
00000000
00000000
00000000
00000000
00000000
00000000
00000000
00000000
00000000
00000000
00000000
00000000
00000000
00000000
00000000
00000000
00000020
00000030
00000000
00000000
00000000
00000000
00000000
00000000
00000000
00000000
00000000
00000000
00000100
00000000
00000000
00000000
00000000
00000000
00000000
00000000
00000000
00000000
00000000
00000000
00001000
00000000
00000000
00000000
00000000
00000000
00000000
00000000
00000000
00000000
00000000
00000000
00000001
00000000
00000000
00000000
00000000
00000000
00000000
00000000
00000000
00000000
00000000
00000000
00000100
00000000
00000000
00000000
00000000
00000000
00000000
00000000
00000000
00000000
00000000
00000000
00001000
00000000
00000000
00000000
00000000
00000000
00000000
00000000
00000000
00000000
00000000
00000000
00020000
00030000
00000000
00000000
00000000
00000000
00000000
00000000
00000000
00000000
00000000
00000000
00000000
00000000
00000000
00000000
00000000
00000000
00000000
00000000
00000000
00000000
00000000
00000000
00020000
00030000
00000000
00000000
00000000
00000000
00000000
00000000
00000000
00000000
00000000
00000000
01000000
00000000
00000000
00000000
00000000
00000000
00000000
00000000
00000000
00000000
00000000
00000000
00100000
00000000
00000000
00000000
00000000
00000000
00000000
00000000
00000000
00000000
00000000
00000000
,
10000000
00000000
00000000
00000000
00000000
00000000
00000000
00000000
00000000
00000000
00000000
00000000
00100000
00000000
00000000
00000000
00000000
00000000
00000000
00000000
00000000
00000000
00000000
00000000
00010000
00000000
00000000
00000000
00000000
00000000
00000000
00000000
00000000
00000000
00000000
00000000
00002000
00003000
00000000
00000000
00000000
00000000
00000000
00000000
00000000
00000000
00000000
00000000
00000000
00000000
00000000
00000000
00000000
00000000
00000000
00000000
00000000
00000000
00000000
00000000
00002000
00003000
00000000
00000000
00000000
00000000
00000000
00000000
00000000
00000000
00000000
00000000
00000100
00000000
00000000
00000000
00000000
00000000
00000000
00000000
00000000
00000000
00000000
00000000
00000010
00000000
00000000
00000000
00000000
00000000
00000000
00000000
00000000
00000000
00000000
00000000
00000001
00000000
00000000
00000000
00000000
00000000
00000000
00000000
00000000
00000000
00000000
00000000
00001000
00000000
00000000
00000000
00000000
00000000
00000000
00000000
00000000
00000000
00000000
00000000
00000010
00000000
00000000
00000000
00000000
00000000
00000000
00000000
00000000
00000000
00000000
00000000
00020000
00030000
00000000
00000000
00000000
00000000
00000000
00000000
00000000
00000000
00000000
00000000
00000000
00000000
00000000
00000000
00000000
00000000
00000000
00000000
00000000
00000000
00000000
00000000
00020000
00030000
00000000
00000000
00000000
00000000
00000000
00000000
00000000
00000000
00000000
00000000
00100000
00000000
00000000
00000000
00000000
00000000
00000000
00000000
00000000
00000000
00000000
00000000
01000000
00000000
00000000
00000000
00000000
00000000
00000000
00000000
00000000
00000000
00000000
00000000
,
20000000
00000000
00000000
00000000
00100000
00000000
00000000
00000000
30010000
10000000
00010000
00000000
10010000
00000000
00000000
00000000
,
10000000
11000000
00000000
01010000
00000000
00011000
00000000
00001010
00000000
00000011
00000000
00000001
00000100
00000000
00000220
00000000
,
00000000
00000330
00000000
00000000
00000000
00000000
00000000
00000000
;
