#TITLE:Artifacter;
#ARTIST:CAPACITY GATE;
#BANNER:Artifacter.png;
#BACKGROUND:Artifacter-bg.png;
#CDTITLE:./CDTitles/RB groovin'!! Upper.png;
#MUSIC:Artifacter.ogg;
#SAMPLESTART:11.924;
#SAMPLELENGTH:15;
#BPMS:0=181;
#BGSTAGE:3;

//--------------- dance-single - Fred-104 ----------------
#NOTES:
     dance-single:
     Fred-104:
     Beginner:
     4:
     :
0000
0000
0000
0000
,
0000
0000
0000
0000
,
0000
0000
0000
0000
,
0000
0000
0000
0000
,
0000
0000
0000
0000
,
1000
0000
1000
0000
,
0001
0000
0001
0000
,
1000
0000
0001
0000
,
2000
0000
0000
3000
,
0001
0000
0001
0000
,
0010
0000
0100
0000
,
1000
0000
1000
0000
,
0001
0000
0200
0300
,
0010
0000
0010
0000
,
0100
0000
0002
0003
,
1000
0000
0100
0000
,
0010
0010
0002
0003
,
1001
0000
1000
0000
,
0001
0000
0000
0000
,
1001
0000
0001
0000
,
1000
0000
0000
0000
,
0110
0000
0100
0000
,
0010
0000
0000
0000
,
0110
0000
0010
0000
,
0001
0000
0001
0000
,
1000
0000
1000
0000
,
0010
0000
0100
0000
,
0001
0000
0001
0000
,
1000
0000
0200
0300
,
0010
0000
0010
0000
,
0100
0000
2000
3000
,
0001
0000
0100
0000
,
0010
0010
2000
3000
,
0002
0003
0000
0002
,
0003
0000
0010
0000
,
2000
3000
0000
2000
,
3000
0000
0100
0000
,
0002
0003
0000
0002
,
0003
0000
1000
0000
,
0200
0300
0000
0200
,
0300
0000
0010
0000
,
0002
0003
0000
0002
,
0003
0000
0100
0000
,
2000
3000
0000
2000
,
3000
0000
0010
0000
,
0002
0003
0000
0002
,
0003
0000
1000
0000
,
0200
0300
0000
0200
,
0300
0000
0010
0001
,
0001
0000
0000
0000
,
0000
0000
0000
0000
,
0000
0000
0000
0000
,
0000
0000
0000
0000
,
1000
0000
1000
0000
,
0001
0000
0001
0000
,
1000
0000
1000
0000
,
0001
0000
1000
0000
,
0001
0000
0001
0000
,
0100
0000
0010
0000
,
1000
0000
1000
0000
,
0001
0000
0020
0030
,
0100
0000
0100
0000
,
0010
0000
0002
0003
,
1000
0000
0010
0000
,
0100
0100
0100
0100
,
0100
0000
0000
0000
,
0000
0000
0000
0000
,
0001
0000
1000
0000
,
0001
0000
0020
0030
,
0100
0000
1000
0000
,
0001
0000
0200
0300
,
0010
0000
0100
0000
,
0001
0001
1000
0000
,
0002
0000
0003
0000
,
2000
0000
3000
0000
,
0002
0000
0003
0000
,
2000
0000
3000
0000
,
0200
0000
0300
0000
,
0020
0000
0030
0000
,
0200
0000
0300
0000
,
0010
0000
0010
0000
,
0001
0000
1000
0000
,
2002
0000
0000
0000
,
0000
0000
0000
0000
,
3003
0000
0000
0000
;

//--------------- dance-single - Fred-104 ----------------
#NOTES:
     dance-single:
     Fred-104:
     Easy:
     7:
     :
0000
0000
0000
0000
,
0000
0000
0000
0000
,
0000
0000
0000
0000
,
0000
0000
0000
0000
,
0000
0000
0000
0000
,
1000
0000
1000
0000
,
0001
0000
0001
0000
,
1000
1000
0001
0001
,
1000
0001
2000
3000
,
1001
1000
0100
0010
,
0001
1000
2000
3000
,
0001
0001
0100
0010
,
0100
0100
0002
0003
,
1000
1000
0001
0010
,
0100
0100
0020
0030
,
0001
0001
0100
0010
,
0100
0001
2000
3000
,
1001
0000
0001
0000
,
0100
0100
0110
0000
,
0110
0000
0010
0000
,
1000
1000
0001
0000
,
1001
0000
0001
0000
,
0010
0010
0110
0000
,
1001
0000
0001
0000
,
0100
0100
0010
0010
,
1001
0001
0100
0010
,
1000
0001
0002
0003
,
1000
1000
0100
0010
,
0100
0100
2000
3000
,
0001
0001
1000
0010
,
0100
0100
0020
0030
,
1000
1000
0100
0010
,
0100
1000
0002
0003
,
0101
0100
0000
1010
,
0010
0000
1000
1000
,
1100
0100
0000
0011
,
0010
0000
0001
0001
,
0101
0100
0000
1010
,
0010
0000
1000
1000
,
1100
0100
0000
0011
,
0010
0000
0001
1000
,
1100
1100
0000
0011
,
0011
0000
0001
1000
,
1010
1010
0000
0101
,
0101
0000
1000
0001
,
0011
0011
0000
1100
,
1100
0000
1000
0001
,
0101
0101
0000
1010
,
1010
0000
1000
0001
,
2002
0000
0000
0000
,
0000
0000
0000
0000
,
3003
0000
0000
0000
,
0000
0000
0000
0000
,
0001
0001
0010
0010
,
0100
0100
1000
1000
,
0001
0001
0100
0100
,
0010
1000
0002
0003
,
1001
1000
0010
0100
,
0001
1000
2000
3000
,
0001
0001
0010
0100
,
0010
0010
0002
0003
,
1000
1000
0001
0100
,
0010
0010
0200
0300
,
0001
0001
0010
0100
,
0010
0001
1000
0001
,
1001
0000
0001
0000
,
1000
0000
0002
0003
,
0010
0010
0100
0100
,
1000
0010
0200
0300
,
0001
0001
1000
0100
,
0010
0100
2000
3000
,
0001
0001
0100
0010
,
0100
0001
2000
3000
,
0001
0000
0010
0000
,
0100
0000
1000
1000
,
0001
0000
0100
0000
,
0010
0000
1000
1000
,
0100
0000
0010
0000
,
0001
0000
1000
1000
,
0001
0000
0100
0000
,
0010
0000
1000
0000
,
0100
0000
0010
0000
,
2002
0000
0000
0000
,
0000
0000
0000
0000
,
3003
0000
0000
0000
;

//--------------- dance-single - Fred-104 ----------------
#NOTES:
     dance-single:
     Fred-104:
     Medium:
     12:
     :
0000
0000
0000
0000
,
0000
0000
0000
0000
,
0000
0000
0000
0000
,
0000
0000
0000
0000
,
0000
0000
0000
0000
,
1001
0000
0110
0000
,
1001
0000
0110
0000
,
1001
0001
0010
0010
,
0100
1000
0001
1000
,
1001
0000
0001
0100
0000
0100
0010
0000
0010
0200
0000
0000
,
0301
0000
0001
1000
0000
1000
0200
0000
0000
0320
0000
0000
,
0031
0000
0001
1000
0000
1000
0010
0000
0010
0200
0000
0000
,
0310
0000
0010
1000
0000
1000
0001
0000
0001
0020
0000
0000
,
0130
0000
0100
1000
0000
1000
0001
0000
0001
0200
0000
0000
,
0310
0000
0010
1000
0000
1000
0200
0000
0000
0320
0000
0000
,
0130
0000
0100
1000
0000
1000
0001
0000
0001
0100
0000
0010
,
0000
0000
0010
0100
0000
0001
2000
0000
0000
3000
0000
0000
,
1001
0000
0001
0000
,
0010
0100
1100
0000
,
0001
0000
0100
0000
,
0010
0000
0000
0100
0000
0000
0001
0000
1000
0000
0001
0000
,
0011
0000
0100
0000
,
1000
0001
0101
0000
,
0110
0000
1001
0000
,
0001
0000
0100
0001
0000
0100
0010
0000
1000
0001
0000
0000
,
1001
0000
1000
0100
0000
0100
0010
0000
0010
0200
0000
0000
,
1300
0000
1000
0001
0000
0001
0200
0000
0000
0320
0000
0000
,
1030
0000
1000
0001
0000
0001
0010
0000
0010
0200
0000
0000
,
0310
0000
0010
0001
0000
0001
1000
0000
1000
0020
0000
0000
,
0130
0000
0100
0001
0000
0001
1000
0000
1000
0200
0000
0000
,
0310
0000
0010
0001
0000
0001
0200
0000
0000
0320
0000
0000
,
0130
0000
0100
0001
0000
0001
1000
0000
1000
0100
0000
0010
,
0000
0000
0010
0100
0000
1000
0002
0000
0000
0003
0000
0000
,
0011
0011
0000
1100
,
1100
0000
0001
1000
,
1010
1010
0000
0101
,
0101
0000
1000
0001
,
0101
0101
0000
1010
,
1010
0000
1000
0001
,
0011
0011
0000
1100
,
1100
0000
1000
0001
,
0101
0101
1000
1010
,
1010
0001
1000
0001
,
0011
0011
1000
1100
,
1100
0001
1000
0001
,
0101
0101
1000
1010
,
1010
0001
0010
0100
,
0110
0110
1000
1001
,
1001
0000
0000
0001
0000
0000
0100
0000
0010
0100
0000
0000
,
2002
0000
0000
0000
,
0000
0000
0000
0000
,
3003
0000
0000
0000
,
0000
0000
0000
0000
,
0001
0001
0010
0010
,
0100
0000
0000
0100
0000
0000
1000
0000
0000
1000
0000
1000
,
0001
0000
0000
0001
0000
0000
0100
0000
0000
0100
0000
0100
,
0010
0000
0100
0001
0000
0100
0010
0000
1000
0001
0000
0000
,
1001
0000
0001
0010
0000
0010
0100
0000
0100
0020
0000
0000
,
0031
0000
0001
1000
0000
1000
0020
0000
0000
0230
0000
0000
,
0301
0000
0001
1000
0000
1000
0100
0000
0100
0020
0000
0000
,
0130
0000
0100
1000
0000
1000
0001
0000
0001
0200
0000
0000
,
0310
0000
0010
1000
0000
1000
0001
0000
0001
0020
0000
0000
,
0130
0000
0100
1000
0000
1000
0020
0000
0000
0230
0000
0000
,
0310
0000
0010
1000
0000
1000
0001
0000
0001
0010
0000
0100
,
0010
0000
0100
0010
0000
0001
1000
0000
1000
0001
0000
0000
,
1001
0000
0000
0000
0000
0000
1000
0000
1000
0000
0100
0000
,
0001
0000
0001
0000
0100
0000
1000
0001
1000
0001
0000
0000
,
1000
0000
0010
1000
0000
0001
1000
0000
0100
0020
0000
0000
,
0031
0000
1000
0001
0000
0100
0010
0000
1000
0002
0000
0000
,
0013
0000
0100
0010
0000
0001
0100
0000
0010
2000
0000
0000
,
3100
0000
0010
0100
0000
1000
0002
0000
0000
0203
0000
0000
,
0310
0000
1000
0100
0000
0010
0001
0000
1000
0001
0000
0100
,
0000
0000
0100
0010
0000
1000
0002
0000
0000
0003
0000
0000
,
1000
0000
1000
0000
0100
0000
0001
0000
0001
0000
0100
0000
,
1000
0000
1000
0000
0001
0000
0010
0000
0010
0000
0010
0000
,
0001
0000
0001
0000
0100
0000
1000
0000
1000
0000
0100
0000
,
0001
0000
0001
0000
1000
0000
0010
0000
0010
0000
0010
0000
,
1000
0000
1000
0000
0010
0000
0001
0000
0001
0000
0010
0000
,
1000
0000
1000
0000
0010
0000
0100
0000
0100
0000
0100
0000
,
0001
0000
0001
0000
0010
0000
1000
0000
1000
0000
0010
0000
,
0001
0000
0001
0000
0100
0000
0010
0000
1000
0000
1010
0000
,
0001
0000
0100
0000
0101
0000
1000
0000
0100
0000
0110
0000
,
0220
0000
0000
0000
,
0000
0000
0000
0000
,
0330
0000
0000
0000
;

//--------------- dance-single - Fred-104 ----------------
#NOTES:
     dance-single:
     Fred-104:
     Hard:
     16:
     :
0000
0000
0000
0000
,
0000
0000
0000
0000
,
0000
0000
0000
0000
,
0000
0000
0000
0000
,
0000
0000
0000
0000
,
1100
0000
0101
0000
,
1010
0000
0011
0000
,
1001
0000
0001
0010
0000
0010
0100
0000
0100
1000
0000
1000
,
0001
0000
0001
1000
0000
1000
0001
0100
0010
1000
0100
0010
,
0001
0000
0001
0100
0010
1000
0010
0100
0001
1000
0100
0010
,
0001
0100
0010
1000
0001
0010
0200
0000
0000
0301
0100
1000
,
0001
0100
0010
1000
0001
0010
0100
1000
0001
0100
0010
0001
,
0010
1000
0001
0010
0100
0001
0100
1000
0001
0200
0000
0000
,
0310
0000
0010
1000
0100
0010
0001
1000
0010
0100
0001
1000
,
0100
0010
0100
0001
0100
0010
0002
0000
0000
1003
0000
1000
,
0010
0100
0010
0001
0010
0100
0001
1000
0100
0010
1000
0020
,
0000
0000
0031
1000
0010
0100
0001
1000
0100
0010
0000
0000
,
0220
0330
0022
0033
,
1010
0101
2200
3300
,
0022
0033
2020
3030
,
0101
0000
0000
1100
0000
0000
0011
0000
1100
0000
0110
0000
,
0022
0033
2020
3030
,
0101
1100
0220
0330
,
2002
3003
0220
0330
,
1001
0000
1000
0010
0000
0010
0100
0000
0100
0001
0000
0001
,
1000
0000
1000
0100
0010
0001
0010
0100
1000
0001
0100
0010
,
1000
0001
0010
0001
1000
0010
0200
0000
0000
1300
0100
0001
,
1000
0100
0010
0001
1000
0010
0100
0001
1000
0100
0010
1000
,
0010
0001
1000
0010
0100
1000
0100
0001
1000
0200
0000
0000
,
0310
0000
0010
0001
0100
0010
1000
0001
0010
0100
1000
0001
,
0100
1000
0100
0010
0100
0001
2000
0000
0000
3001
0000
0001
,
0010
0100
0001
0100
0010
0100
1000
0001
0100
1000
0100
0020
,
0000
0000
1030
0001
0010
0100
1000
0001
0100
0010
0000
0000
,
1001
0000
0000
1001
0000
0000
0001
0100
0010
1010
0000
0000
,
1001
0000
0000
1001
0000
0000
0001
0010
0100
1000
0100
0010
,
0011
0000
0000
0011
0000
0000
1000
0001
0100
0110
0000
0000
,
1010
0000
0000
1010
0000
0000
0001
0010
0100
1000
0001
0100
,
0110
0000
0000
0110
0000
0000
0010
1000
0100
0110
0000
0000
,
0011
0000
0000
0011
0000
0000
0001
0100
0010
1000
0100
0010
,
0110
0000
0000
0110
0000
0000
0001
1000
0010
0110
0000
0000
,
0101
0000
0000
0101
0000
0000
0001
1000
0010
0100
0001
1000
,
1100
0000
0000
1100
0000
0000
0001
1000
0010
0110
0000
0001
,
1001
0000
0000
1001
0000
0000
0001
0010
1000
0001
0100
1000
,
1100
0000
0000
1100
0000
0000
0001
0100
0010
1010
0000
0001
,
0101
0000
0000
0101
0000
0000
0001
0010
0100
1000
0010
0100
,
0110
0000
0000
0110
0000
0000
0100
0001
1000
1100
0000
0010
,
0011
0000
0000
0011
0000
0000
0001
0100
0010
0001
1000
0100
,
0101
0000
0000
0101
0000
0000
1000
0100
0010
0110
0000
1000
,
1001
0000
0000
1001
0000
0000
0001
0010
1000
0001
0100
1000
,
0002
0000
0000
0000
,
0000
0000
0000
0000
,
0003
0000
0000
0000
,
0000
0000
0000
0000
,
1000
1000
0001
0001
,
0100
0000
0000
0100
0000
0000
0010
0000
0000
0010
0000
1000
,
0100
0000
0000
0100
0000
0000
0010
0000
0000
0010
0000
0001
,
1000
0010
0100
0001
0100
0010
1000
0100
0010
0001
0010
0100
,
1000
0000
1000
0010
0100
0001
0100
0010
1000
0001
0010
0100
,
0010
1000
0010
0100
0010
0001
2000
0000
0000
3010
1000
0001
,
1000
0010
0100
1000
0100
0010
1000
0100
0010
1000
0010
0001
,
0100
0010
0001
0010
0100
0010
1000
0001
0010
0200
0000
0000
,
1300
0000
1000
0001
0100
0010
0100
1000
0100
0001
1000
0100
,
0001
0100
0010
1000
0010
0001
2000
0000
0000
3001
0000
0001
,
1000
0010
0001
1000
0100
0001
1000
0100
0001
1000
0010
0001
,
0100
1000
0001
0010
1000
0001
0010
0100
1000
0001
0000
0000
,
0110
0000
0000
0000
0000
0000
1001
0000
1000
0000
0100
0000
,
0001
0000
1000
0000
0010
0000
0001
1000
0100
0010
0001
1000
,
0001
0100
0010
0001
0010
1000
0001
0010
0100
0001
0100
1000
,
0001
0100
1000
0001
0010
1000
0001
0010
0100
2000
0000
0000
,
3001
0010
1000
0010
0001
1000
0010
0001
0010
1000
0001
0010
,
0100
1000
0100
0001
0100
1000
0002
0000
0000
1003
0000
1000
,
0001
0010
0100
0001
1000
0010
0100
1000
0010
0001
1000
0200
,
0000
0000
0301
0010
1000
0001
0100
1000
0010
0100
0000
0000
,
0101
0000
0101
0000
0001
0000
1100
0000
1100
0000
1000
0000
,
0011
0000
0011
0000
0001
0000
1010
0000
1010
0000
1001
0000
,
0011
0000
0011
0000
0001
0000
1010
0000
1010
0000
1000
0000
,
0101
0000
0101
0000
0001
0000
1100
0000
1100
0000
1001
0000
,
1100
0000
0011
0000
1000
0000
0101
0000
1010
0000
0001
0000
,
0110
0000
1001
0000
1000
0000
0011
0000
1010
0000
0110
0000
,
1001
0000
1000
0100
0010
0001
1000
0000
1000
0010
0100
0001
,
1000
0000
1000
0100
0010
0100
1000
0000
0101
0000
1100
0000
,
1001
0000
0011
0000
1010
0000
0101
0000
1100
0000
0110
0000
,
2002
0000
0000
0000
,
0000
0000
0000
0000
,
3003
0000
0000
0000
;

//--------------- dance-double - Fred-104 ----------------
#NOTES:
     dance-double:
     Fred-104:
     Easy:
     7:
     :
00000000
00000000
00000000
00000000
,
00000000
00000000
00000000
00000000
,
00000000
00000000
00000000
00000000
,
00000000
00000000
00000000
00000000
,
00000000
00000000
00000000
00000000
,
00001000
00000000
00001000
00000000
,
00010000
00000000
00010000
00000000
,
00001000
00001000
00010000
00010000
,
00001000
01000000
00010000
10000000
,
10010000
00010000
01000000
00010000
,
10000000
01000000
00200000
00300000
,
00001000
00001000
00010000
00010000
,
00000100
00001000
00000020
00000030
,
00000100
00000100
00000001
00001000
,
00000001
00000010
00002000
00003000
,
00010000
00001000
00100000
01000000
,
10000000
00010000
20000000
30000000
,
10010000
00000000
00010000
00000000
,
10000000
01000000
01100000
00000000
,
00011000
00000000
00001000
00000000
,
00010000
00000010
00000100
00000000
,
00001001
00000000
00000001
00000000
,
00000010
00000100
00000110
00000000
,
00011000
00000000
00010000
00000000
,
00001000
00010000
00000010
00001000
,
00001001
00001000
00000100
00001000
,
00000001
00000100
00000020
00000030
,
00010000
00010000
00001000
00001000
,
01000000
00010000
00200000
00300000
,
01000000
01000000
10000000
00010000
,
10000000
00100000
00020000
00030000
,
00001000
00010000
00000010
00000100
,
00000001
00001000
00000002
00000003
,
00000010
00000011
00000000
00000100
,
00001100
00000000
00000100
00010000
,
00001000
00011000
00000000
00001000
,
01001000
00000000
01000000
00010000
,
00100000
01100000
00000000
01000000
,
11000000
00000000
10000000
00010000
,
01000000
01001000
00000000
00001000
,
00011000
00000000
00010000
00000010
,
00001010
00001010
00000000
00000101
,
00000101
00000000
00001000
00000100
,
00010100
00010100
00000000
00101000
,
00101000
00000000
00100000
00010000
,
11000000
11000000
00000000
00110000
,
00110000
00000000
00100000
00001000
,
00011000
00011000
00000000
00010010
,
00010010
00000000
00001000
00010000
,
00022000
00000000
00000000
00000000
,
00000000
00000000
00000000
00000000
,
00033000
00000000
00000000
00000000
,
00000000
00000000
00000000
00000000
,
10000000
10000000
01000000
01000000
,
00010000
00010000
00001000
00001000
,
00000010
00000010
00001000
00001000
,
00010000
00001000
01000000
00100000
,
10010000
00010000
00100000
00010000
,
10000000
00100000
02000000
03000000
,
00001000
00001000
00010000
00010000
,
00000010
00001000
00000200
00000300
,
00000010
00000010
00000001
00001000
,
00000001
00000100
00002000
00003000
,
00010000
00001000
01000000
00100000
,
10000000
00010000
10000000
01000000
,
01100000
00000000
00001000
00000000
,
00010000
00000000
00002000
00003000
,
00010000
00010000
00000100
00001000
,
00000001
00000100
00000020
00000030
,
00000100
00000100
00000001
00000010
,
00001000
00010000
00002000
00003000
,
00100000
00100000
00010000
10000000
,
00100000
00010000
00001000
00000000
,
00010000
00000000
00001000
00000000
,
00000010
00000000
00000001
00000001
,
00000100
00000000
00001000
00000000
,
00010000
00000000
00001000
00001000
,
00010000
00000000
00100000
00000000
,
10000000
00000000
01000000
01000000
,
00100000
00000000
00001000
00000000
,
00010000
00000000
00001000
00000000
,
01000000
00000000
00100000
00000000
,
20020000
00000000
00000000
00000000
,
00000000
00000000
00000000
00000000
,
30030000
00000000
00000000
00000000
;

//--------------- dance-double - Fred-104 ----------------
#NOTES:
     dance-double:
     Fred-104:
     Medium:
     12:
     :
00000000
00000000
00000000
00000000
,
00000000
00000000
00000000
00000000
,
00000000
00000000
00000000
00000000
,
00000000
00000000
00000000
00000000
,
00000000
00000000
00000000
00000000
,
10010000
00000000
00101000
00000000
,
00011000
00000000
00010010
00000000
,
00000010
00000010
00001000
00001000
,
00000001
00000010
00001000
00010000
,
00011000
00000000
00001000
00100000
00000000
00100000
00010000
00000000
00010000
20000000
00000000
00000000
,
31000000
00000000
01000000
00100000
00000000
00100000
00002000
00000000
00000000
00023000
00000000
00000000
,
00030100
00000000
00000100
00001000
00000000
00001000
00000010
00000000
00000010
00000200
00000000
00000000
,
00000301
00000000
00000001
00000010
00000000
00000010
00001000
00000000
00001000
00020000
00000000
00000000
,
00031000
00000000
00001000
00010000
00000000
00010000
00000100
00000000
00000100
00020000
00000000
00000000
,
00031000
00000000
00001000
00010000
00000000
00010000
00200000
00000000
00000000
20300000
00000000
00000000
,
30010000
00000000
00010000
00100000
00000000
00100000
00001000
00000000
00001000
00010000
00000000
00000010
,
00000000
00000000
00000010
00001000
00000000
00000001
00002000
00000000
00000000
00003000
00000000
00000000
,
00000011
00000000
00001001
00000000
,
00000001
00000100
00001100
00000000
,
00011000
00000000
00101000
00000000
,
00001000
00000000
00000000
01000000
00000000
00000000
00100000
00000000
00100000
00000000
00100000
00000000
,
01100000
00000000
01010000
00000000
,
00010000
10000000
11000000
00000000
,
00101000
00000000
00010010
00000000
,
00000010
00000000
00001000
00000100
00000000
00010000
00000100
00000000
00010000
00001000
00000000
00000000
,
00011000
00000000
00010000
00000010
00000000
00000010
00001000
00000000
00001000
00000002
00000000
00000000
,
00000103
00000000
00000100
00000010
00000000
00000010
00020000
00000000
00000000
00032000
00000000
00000000
,
01003000
00000000
01000000
00010000
00000000
00010000
00100000
00000000
00100000
02000000
00000000
00000000
,
13000000
00000000
10000000
00100000
00000000
00100000
00010000
00000000
00010000
00002000
00000000
00000000
,
00013000
00000000
00010000
00001000
00000000
00001000
01000000
00000000
01000000
00002000
00000000
00000000
,
00013000
00000000
00010000
00001000
00000000
00001000
00000020
00000000
00000000
00000032
00000000
00000000
,
00001003
00000000
00001000
00000010
00000000
00000010
00010000
00000000
00010000
00001000
00000000
00100000
,
00000000
00000000
00100000
00010000
00000000
10000000
00020000
00000000
00000000
00030000
00000000
00000000
,
11000000
11000000
00000000
00101000
,
00101000
00000000
00001000
00010000
,
00010010
00010010
00000000
00000101
,
00000101
00000000
00001000
00000001
,
00000011
00000011
00000000
00010100
,
00010100
00000000
00010000
00001000
,
01001000
01001000
00000000
10100000
,
10100000
00000000
00010000
10000000
,
11000000
11000000
01000000
01010000
,
01010000
00001000
00010000
00000100
,
00001100
00001100
00000001
00000101
,
00000101
00001000
00010000
00001000
,
00011000
00011000
00100000
10100000
,
10100000
00010000
10000000
01000000
,
01100000
01100000
00001000
00011000
,
00011000
00000000
00000000
00010000
00000000
00000000
00000100
00000000
00000100
00000010
00000000
00000000
,
00002002
00000000
00000000
00000000
,
00000000
00000000
00000000
00000000
,
00003003
00000000
00000000
00000000
,
00000000
00000000
00000000
00000000
,
00010000
00010000
00001000
00001000
,
01000000
00000000
00000000
01000000
00000000
00000000
00010000
00000000
00000000
00010000
00000000
00010000
,
10000000
00000000
00000000
01000000
00000000
00000000
00100000
00000000
00000000
00001000
00000000
00001000
,
00010000
00000000
00001000
00010000
00000000
00000100
00010000
00000000
00001000
00010000
00000000
00000000
,
00011000
00000000
00001000
01000000
00000000
01000000
00010000
00000000
00010000
20000000
00000000
00000000
,
30100000
00000000
00100000
01000000
00000000
01000000
00002000
00000000
00000000
00023000
00000000
00000000
,
00030010
00000000
00000010
00001000
00000000
00001000
00000100
00000000
00000100
00000020
00000000
00000000
,
00000031
00000000
00000001
00000100
00000000
00000100
00001000
00000000
00001000
00020000
00000000
00000000
,
00031000
00000000
00001000
00010000
00000000
00010000
00000010
00000000
00000010
00020000
00000000
00000000
,
00031000
00000000
00001000
00010000
00000000
00010000
02000000
00000000
00000000
23000000
00000000
00000000
,
30010000
00000000
00010000
01000000
00000000
01000000
00001000
00000000
00001000
00010000
00000000
00000100
,
00001000
00000000
00000010
00000100
00000000
00000001
00001000
00000000
00000100
00000010
00000000
00000000
,
00000011
00000000
00000000
00000000
00000000
00000000
00000001
00000000
00000100
00000000
00001000
00000000
,
00010000
00000000
01000000
00000000
10000000
00000000
00010000
10000000
00010000
10000000
00000000
00000000
,
00010000
00000000
01000000
00010000
00000000
10000000
01000000
00000000
00100000
00002000
00000000
00000000
,
00013000
00000000
00000100
00001000
00000000
00000001
00000100
00000000
00000010
00002000
00000000
00000000
,
00003100
00000000
00000010
00000001
00000000
00001000
00000010
00000000
00010000
00002000
00000000
00000000
,
00013000
00000000
00001000
00100000
00000000
00010000
20000000
00000000
00000000
30020000
00000000
00000000
,
01030000
00000000
00100000
01000000
00000000
00100000
00010000
00000000
00001000
00010000
00000000
00000010
,
00000000
00000000
00000010
00001000
00000000
00000100
00020000
00000000
00000000
00030000
00000000
00000000
,
00001000
00000000
00001000
00000000
01000000
00000000
00010000
00000000
00010000
00000000
10000000
00000000
,
01000000
00000000
01000000
00000000
00010000
00000000
00001000
00000000
00001000
00000000
00001000
00000000
,
00010000
00000000
00010000
00000000
00001000
00000000
00000010
00000000
00000010
00000000
00000001
00000000
,
00001000
00000000
00001000
00000000
00000001
00000000
00000010
00000000
00000010
00000000
00000010
00000000
,
00001000
00000000
00001000
00000000
00100000
00000000
00010000
00000000
00010000
00000000
10000000
00000000
,
00100000
00000000
00100000
00000000
00010000
00000000
00001000
00000000
00001000
00000000
00001000
00000000
,
00010000
00000000
00010000
00000000
00001000
00000000
00000100
00000000
00000100
00000000
00000001
00000000
,
00001000
00000000
00001000
00000000
00000001
00000000
00000010
00000000
00000010
00000000
00000010
00000000
,
00000100
00000000
00000100
00000000
00000100
00000000
00001000
00000000
00001000
00000000
00001000
00000000
,
00002002
00000000
00000000
00000000
,
00000000
00000000
00000000
00000000
,
00003003
00000000
00000000
00000000
;

//--------------- dance-double - Fred-104 ----------------
#NOTES:
     dance-double:
     Fred-104:
     Hard:
     17:
     :
00000000
00000000
00000000
00000000
,
00000000
00000000
00000000
00000000
,
00000000
00000000
00000000
00000000
,
00000000
00000000
00000000
00000000
,
00000000
00000000
00000000
00000000
,
00000011
00000000
00010100
00000000
,
00101000
00000000
11000000
00000000
,
10010000
00000000
00010000
01000000
00000000
01000000
00100000
00000000
00100000
10000000
00000000
10000000
,
00010000
10000000
01000000
00010000
00000000
00000000
00001000
00000010
00000001
00001000
00000000
00000000
,
00000001
00000000
00000001
00000010
00000100
00001000
00000100
00010000
00001000
01000000
00010000
01000000
,
00100000
10000000
00010000
00100000
01000000
00100000
00020000
00000000
00000000
10030000
00010000
10000000
,
00100000
01000000
00010000
00100000
00001000
00010000
00000010
00001000
00000010
00000100
00000001
00001000
,
00000100
00000010
00001000
00010000
01000000
00100000
10000000
00100000
01000000
20000000
00000000
00000000
,
30010000
00000000
00010000
10000000
00100000
01000000
00010000
01000000
00001000
00010000
00000010
00001000
,
00000001
00000010
00000100
00001000
00000100
00010000
00002000
00000000
00000000
00013000
00000000
00010000
,
00000010
00001000
00000001
00000010
00000100
00010000
00001000
00100000
01000000
10000000
00100000
02000000
,
00000000
00000000
03010000
00100000
01000000
00010000
00001000
00010000
00001000
00010000
00000000
00000000
,
00022000
00033000
00002020
00003030
,
00000011
00001000
00000202
00000303
,
00000022
00000033
00002020
00003030
,
00011000
00000000
00000000
00010000
00000000
00000000
00100000
00000000
10000000
00000000
01000000
00000000
,
00220000
00330000
00202000
00303000
,
00011000
00000010
00002002
00003003
,
00022000
00033000
20020000
30030000
,
01100000
00000000
10000000
00010000
00000000
01000000
00001000
00000000
00010000
00000100
00000000
00000010
,
00000001
00000000
00000001
00000100
00000010
00001000
00000010
00010000
00001000
00100000
00010000
00100000
,
01000000
10000000
00010000
01000000
00100000
01000000
00020000
00000000
00000000
10030000
00010000
10000000
,
01000000
00100000
00010000
01000000
00001000
00010000
00000100
00001000
00000100
00000010
00000001
00001000
,
00000010
00000100
00001000
00010000
00100000
01000000
10000000
01000000
00100000
20000000
00000000
00000000
,
30010000
00000000
00010000
10000000
01000000
00100000
00010000
00100000
00001000
00010000
00000100
00001000
,
00000001
00000100
00000010
00001000
00000010
00010000
00002000
00000000
00000000
00013000
00000000
00010000
,
00000100
00001000
00000001
00000100
00000010
00010000
00001000
01000000
00100000
10000000
00010000
00200000
,
00000000
00000000
00310000
01000000
00100000
00010000
00001000
00010000
00001000
00010000
00000000
00000000
,
00011000
00000000
00000000
00011000
00000000
00000000
00010000
00001000
00000100
00000101
00000000
00000000
,
00000011
00000000
00000000
00000011
00000000
00000000
00000001
00000010
00000100
00001000
00000100
00010000
,
00010100
00000000
00000000
00010100
00000000
00000000
00010000
00001000
01000000
01010000
00000000
00000000
,
10100000
00000000
00000000
10100000
00000000
00000000
00010000
10000000
01000000
00100000
00001000
00010000
,
00011000
00000000
00000000
00011000
00000000
00000000
00001000
00000010
00000001
00000011
00000000
00000000
,
00000110
00000000
00000000
00000110
00000000
00000000
00001000
00000001
00000100
00000010
00010000
00001000
,
00011000
00000000
00000000
00011000
00000000
00000000
00001000
01000000
00010000
01010000
00000000
00000000
,
10010000
00000000
00000000
10010000
00000000
00000000
10000000
01000000
00100000
00010000
00100000
01000000
,
01100000
00000000
00000000
01100000
00000000
00000000
00100000
00001000
00010000
00011000
00000000
00001000
,
00001100
00000000
00000000
00001100
00000000
00000000
00000100
00000001
00001000
00000100
00000010
00000001
,
00001001
00000000
00000000
00001001
00000000
00000000
00000001
00000100
00001000
00011000
00000000
00010000
,
00010100
00000000
00000000
00010100
00000000
00000000
00010000
00001000
00100000
00010000
01000000
00001000
,
00011000
00000000
00000000
00011000
00000000
00000000
00010000
00100000
10000000
11000000
00000000
01000000
,
01100000
00000000
00000000
01100000
00000000
00000000
00100000
00010000
10000000
00100000
00010000
00001000
,
00011000
00000000
00000000
00011000
00000000
00000000
00010000
00000010
00001000
00001010
00000000
00000001
,
00000011
00000000
00000000
00000011
00000000
00000000
00001000
00000001
00000100
00001000
00010000
00100000
,
20000000
00000000
00000000
00000000
,
00000000
00000000
00000000
00000000
,
30000000
00000000
00000000
00000000
,
00000000
00000000
00000000
00000000
,
00000001
00000010
00000100
00001000
,
00010000
00000000
00000000
00100000
00000000
00000000
01000000
00000000
00000000
10000000
00000000
10000000
,
00010000
00000000
00000000
00010000
00000000
00000000
01000000
00000000
00000000
01000000
00000000
01000000
,
00100000
10000000
01000000
00100000
00010000
00100000
01000000
10000000
00010000
01000000
00100000
10000000
,
00010000
00000000
00010000
00100000
01000000
00100000
00001000
00010000
00000010
00001000
00000100
00000010
,
00000001
00000100
00000010
00000001
00000010
00001000
00000020
00000000
00000000
00010030
00001000
00100000
,
00010000
00100000
01000000
00010000
01000000
00100000
00001000
00010000
00000010
00000100
00001000
00000100
,
00000010
00001000
00000100
00000010
00001000
00000010
00000100
00010000
00001000
00020000
00000000
00000000
,
00031000
00000000
00001000
00010000
00100000
01000000
00001000
00010000
00000100
00000010
00001000
00010000
,
00001000
00010000
00100000
10000000
00100000
00010000
00002000
00000000
00000000
00013000
00000000
00010000
,
00001000
00000100
00000001
00000100
00001000
00010000
00001000
00000010
00000001
00000010
00001000
00010000
,
00001000
00000000
00001000
00100000
00000000
00100000
01000000
00010000
00001000
00010000
00000000
00000000
,
00011000
00000000
00000000
00000000
00000000
00000000
00101000
00000000
00100000
00000000
00001000
00000000
,
00010000
00000000
00000010
00000000
00001000
00000000
00000100
00000010
00000001
00000100
00000010
00001000
,
00000001
00000010
00000100
00000010
00001000
00010000
01000000
00100000
01000000
10000000
00010000
01000000
,
00100000
00010000
00001000
00000100
00000001
00001000
00000100
00000010
00000001
00002000
00000000
00000000
,
00003001
00000010
00001000
00010000
00001000
00000010
00000001
00000100
00001000
00010000
00001000
00000100
,
00000001
00001000
00000100
00010000
00001000
00100000
00020000
00000000
00000000
10030000
00000000
10000000
,
00010000
00100000
01000000
00010000
00001000
00000010
00000100
00001000
00000010
00000100
00001000
00020000
,
00000000
00000000
00031000
01000000
00010000
00100000
01000000
00010000
00001000
00010000
00000000
00000000
,
00011000
00000000
00011000
00000000
00010000
00000000
00001010
00000000
00001010
00000000
00010000
00000000
,
00101000
00000000
00101000
00000000
00001000
00000000
01001000
00000000
00010100
00000000
01001000
00000000
,
00011000
00000000
00011000
00000000
00010000
00000000
00001100
00000000
00001100
00000000
00010000
00000000
,
01001000
00000000
01001000
00000000
00001000
00000000
00101000
00000000
00010010
00000000
00101000
00000000
,
00011000
00000000
00101000
00000000
00010000
00000000
00011000
00000000
00010010
00000000
00001000
00000000
,
00011000
00000000
00010100
00000000
00001000
00000000
00011000
00000000
01001000
00000000
00011000
00000000
,
00011000
00000000
00010000
00001000
00000010
00000001
00001000
00000000
00001000
00000001
00000100
00001000
,
00010000
00000000
00010000
00100000
10000000
00010000
10000000
00000000
11000000
00000000
01010000
00000000
,
00011000
00000000
00001010
00000000
00000011
00000000
00000101
00000000
00000110
00000000
00001100
00000000
,
00022000
00000000
00000000
00000000
,
00000000
00000000
00000000
00000000
,
00033000
00000000
00000000
00000000
;
