#VERSION:0.83;
#TITLE:Army of Marionette;
#ARTIST:RoughSketch;
#BANNER:Army of Marionette.png;
#BACKGROUND:Army of Marionette-bg.png;
#CDTITLE:./CDTitles/RB groovin'!!.png;
#MUSIC:Army of Marionette.ogg;
#SAMPLESTART:56.615;
#SAMPLELENGTH:15;
#BPMS:0=195,48=97.5,51.5=195,83=308.75,83.395833=243.75,83.708333=146.25,83.895833=81.25,84=195,110=97.5,111.5=195,144=97.5,152=195,164=97.5,165.5=195,214=97.5,214.25=195,214.5=390,215=195,224=97.5,225=195,247.75=97.5,247.875=48.75,248=97.5,249.5=195,249.75=97.5,249.875=48.75,250=97.5,251.5=195,252=81.25,252.208333=146.25,252.583333=243.75,253.208333=308.75,254=195,300=390,300.5=195,300.75=97.5,301=195,316=308.75,316.791667=235.625,317.395833=154.375,317.791667=81.25,318=195;
#STOPS:51.5=0.154,108=0.115,108.375=0.116,108.75=0.115,109.125=0.115,109.5=0.077,109.75=0.077,111.5=0.154,165.5=0.154,222=0.115,222.375=0.115,222.75=0.116,223.125=0.116,223.5=0.077,223.75=0.076,224=0.308,224.5=0.307,247=0.077,247.25=0.077,251.5=0.154;
#TIMESIGNATURES:0=4=4,164=2=4,166=4=4,222=3=4,225=4=4,245=3=4,248=4=4;
#BGSTAGE:27;

//--------------- dance-single - Fred-104 ----------------
#NOTEDATA:;
#STEPSTYPE:dance-single;
#DESCRIPTION:Fred-104;
#DIFFICULTY:Beginner;
#METER:6;
#BPMS:0=195,48=97.5,52=195,108=97.5,112=195,144=97.5,152=195,164=97.5,166=195,222=97.5,224=48.75,225=195,247=97.5,252=195;
#TIMESIGNATURES:0=4=4,164=2=4,166=4=4,222=3=4,225=4=4,245=3=4,248=4=4;
#CREDIT:Fred-104;
#NOTES:
0000
0000
0000
0000
,
0000
0000
0000
0000
,
0000
0000
0000
0000
,
0000
0000
0000
0000
,
0001
0001
0001
0001
,
2002
0000
0000
3003
,
1000
0000
0010
0000
,
0001
0000
0100
1000
,
0001
0000
0100
0000
,
1000
0000
0010
0001
,
1000
1000
0001
0000
,
0100
0010
0200
0300
,
1001
0000
0000
0000
,
0001
0000
0010
0000
,
1000
0100
0001
0000
,
1000
0000
0100
0000
,
0001
0000
0010
1000
,
0001
0000
0010
0000
,
0100
0100
1000
1000
,
0001
0000
0100
0000
,
0001
0001
1000
0001
,
2000
0000
3002
0000
,
2003
0000
3002
0000
,
0203
0000
0320
0000
,
0230
0000
0320
0000
,
1030
0000
0001
0000
,
0010
0000
0100
0100
,
0110
0000
0000
0000
,
1001
0000
0001
0000
,
1000
0000
0010
0000
,
0100
0000
0010
0000
,
1000
0000
0001
0000
,
0010
0000
0100
0000
,
1000
0000
0001
0000
,
1000
1000
1000
0000
,
0001
0001
1001
0000
,
1001
0000
0000
0000
,
1000
0010
0100
0100
,
0001
0000
1000
0000
,
0100
0100
0100
0100
,
0010
0010
0001
0010
,
1001
0000
1000
0000
,
0001
0000
0100
0100
,
0100
0000
0001
0000
,
0010
0000
0001
0001
,
0001
0001
0001
0000
,
1000
0000
0010
0010
,
0010
0000
0100
0000
,
0001
0000
2000
0000
,
0000
3000
1001
0000
,
0001
0000
0100
0010
,
0100
0000
0001
0000
,
1000
0000
0001
1000
,
0001
1000
0002
0003
,
1000
0000
0100
0100
,
0010
0010
0110
0000
,
0000
0001
0000
1000
,
0000
0100
0000
0010
,
0000
0001
0000
1000
,
0000
0001
0001
0001
,
0000
2000
0000
0000
,
0000
0000
0000
3000
,
1001
0000
0000
0000
,
0002
0000
1003
0000
,
0001
0000
0100
0000
,
0010
0010
0010
0000
,
0100
0100
0100
0000
,
0001
0000
1000
0000
,
0100
0100
0100
0000
,
0010
0000
0001
0000
,
2002
0000
0000
3003
,
0001
0000
1000
0000
,
0010
1000
0100
0000
,
0010
0000
0001
0000
,
1000
0001
0100
0000
,
0001
0000
1000
0000
,
0100
0000
0010
0000
,
0002
0000
0000
0003
,
2000
0000
0000
3000
,
2002
0000
3003
0000
;

//--------------- dance-single - Fred-104 ----------------
#NOTEDATA:;
#STEPSTYPE:dance-single;
#DESCRIPTION:Fred-104;
#DIFFICULTY:Easy;
#METER:9;
#BPMS:0=195,48=97.5,52=195,108=97.5,112=195,144=97.5,152=195,164=97.5,166=195,222=97.5,224=48.75,225=195,247.5=97.5,252=195;
#STOPS:247=0.077,247.25=0.077;
#TIMESIGNATURES:0=4=4,164=2=4,166=4=4,222=3=4,225=4=4,245=3=4,248=4=4;
#CREDIT:Fred-104;
#NOTES:
0000
0000
0000
0000
,
0000
0000
0000
0000
,
0000
0000
0000
0000
,
0000
0000
0000
0000
,
1000
0000
0001
0000
0100
0010
0100
0000
,
0220
0000
0000
0330
,
0001
0000
1000
0000
,
0100
0010
0001
0000
,
1000
0010
1000
0100
,
1000
0001
0200
0300
,
0001
0000
1000
0000
,
0100
0100
0010
0002
,
1003
0000
0001
0000
0100
0010
0110
0000
,
0001
0000
0000
0010
0000
0010
0000
0100
,
0000
0100
0000
0000
1000
0000
0001
0000
,
0100
0000
0000
0010
0000
0010
0000
0100
,
0000
0100
0000
0000
0001
0000
1000
0000
,
0100
0000
0000
0010
0000
0010
0000
0001
,
0000
0001
0000
0000
1000
0000
0001
0000
,
0100
0100
0010
0010
,
0100
0010
0000
0010
0100
0000
1001
0000
,
0002
0023
0230
2300
,
3002
0203
0320
2030
,
3002
2003
3200
0320
,
0032
2003
3020
0230
,
0301
1000
0100
0010
,
0001
0000
1000
0000
0001
0100
0001
0000
,
1000
0000
0000
0001
0000
0000
1000
0000
2002
0000
0000
0000
0000
0000
3003
0000
,
1001
0000
0001
0000
,
1000
0100
0001
0100
,
1000
0000
0001
0000
,
0100
0010
1000
0001
,
0010
0000
0100
0000
,
0010
0001
1000
0001
,
0100
0010
0000
0010
0100
0000
0001
0000
,
1000
0100
0110
0000
,
0001
0000
0011
0000
1000
0010
0100
0000
,
0001
0000
1001
0000
1000
0001
0010
0010
,
0100
1000
0001
0001
,
0100
0100
0000
0010
0000
0010
0000
0010
,
0100
0100
0001
1000
,
2002
0000
0000
3003
0001
0000
0010
0000
,
0100
0000
1000
0000
0001
0000
0000
0100
,
0000
0010
1000
0100
,
0010
0000
0100
0000
1000
0000
0000
0010
,
0000
1000
0001
0010
,
0100
0000
0010
0000
0100
0000
0000
1000
,
0000
0010
0100
0010
,
0100
0000
0100
0000
0001
1000
0001
0000
,
0010
0100
0010
0000
0100
1000
0100
0000
,
1000
0000
0001
0000
0100
0000
0000
0001
,
0000
0010
0100
1000
,
0001
0100
0002
2003
,
3200
0320
0032
1003
,
0001
0100
0001
0000
0010
0000
0100
0000
,
1000
0000
0000
0000
0001
0000
0000
0000
0100
0000
0000
0100
0000
0000
0100
0000
,
0220
0330
2002
3003
1100
0000
0000
0000
0100
0000
0000
0000
0010
0000
0000
0000
,
0000
1000
0000
0010
0000
0001
0000
0010
,
0100
1000
0001
0100
,
0010
0000
0100
0000
0000
0110
0000
0000
,
1001
0002
0023
2030
,
3200
0000
0302
0000
2003
0000
3002
0003
,
1000
0000
0001
0000
0010
0100
0110
0000
,
2002
0000
0000
3003
0001
0000
0000
1000
,
0000
0100
0010
0001
,
1000
0010
1000
0000
0001
0000
0010
0000
,
0100
0100
0000
1000
0000
0001
1000
0000
,
0001
0100
0001
0000
0100
0000
0010
1000
,
0000
0001
1000
0000
0100
0000
0010
0000
,
0001
1000
0001
0000
0100
0010
0100
0000
,
0002
2003
3200
0320
,
0031
0000
1000
0000
0001
0100
0001
0000
,
0100
0010
0100
0000
0001
0000
1000
0000
,
0100
0010
0100
0000
0010
0000
0001
0000
,
1000
0000
0000
0001
0000
0000
0100
0000
,
0020
0000
0130
0000
0001
1000
0010
0000
,
0100
0000
0001
0000
1000
0100
1000
0100
,
0020
0032
2003
3002
,
0103
0100
0000
0010
0100
0010
0010
0000
,
2002
0000
3003
0000
;

//--------------- dance-single - Fred-104 ----------------
#NOTEDATA:;
#STEPSTYPE:dance-single;
#DESCRIPTION:Fred-104;
#DIFFICULTY:Medium;
#METER:14;
#BPMS:0=195,48=97.5,52=195,110=97.5,112=195,144=97.5,152=195,164=97.5,166=195,224=97.5,225=195,247.5=97.5,252=195;
#STOPS:108=0.116,108.375=0.115,108.75=0.115,109.125=0.115,109.5=0.077,109.75=0.077,222=0.115,222.375=0.116,222.75=0.116,223.125=0.115,223.5=0.077,223.75=0.076,224=0.308,224.5=0.308,247=0.077,247.25=0.077;
#TIMESIGNATURES:0=4=4,164=2=4,166=4=4,222=3=4,225=4=4,245=3=4,248=4=4;
#CREDIT:Fred-104;
#NOTES:
0000
0000
0000
0000
,
0000
0000
0000
0000
,
0000
0000
0000
0000
,
0000
0000
0000
0000
,
1000
0100
0010
0001
0100
0010
1000
0000
,
2002
0000
0000
3003
,
0001
0000
0010
0000
0100
0000
1000
1000
,
0000
0001
0000
0100
0100
0000
0110
0000
,
0001
1000
0010
1000
0100
1000
0001
1000
,
0000
0100
0000
0100
0010
0000
0011
0000
,
1000
0100
0001
0000
1000
0010
0001
0000
,
1000
0100
0010
0000
0001
0010
0200
0000
,
1300
1000
0000
0001
0001
0000
0110
0000
1000
0100
0010
0000
0001
0000
0011
0000
,
1001
0000
0001
0010
0100
0010
0100
1000
,
0001
0100
0010
0000
1000
0100
0010
0000
,
0011
0000
1000
0001
0100
0001
1000
0100
,
0010
0100
1000
0000
0010
0100
0001
0000
,
1001
0000
1000
0001
0010
1000
0010
1000
,
0010
0001
1000
0000
0100
0010
0001
1000
,
0100
0001
0100
1000
0001
0100
0010
1000
,
0001
0001
0000
0010
0100
1000
1100
0000
,
0001
0100
1000
0000
0001
0010
1000
0000
,
0001
0010
1000
0000
0001
0100
1000
0000
,
0001
1000
0010
0000
0001
1000
0100
0000
,
0001
1000
0100
0000
0001
1000
0010
0000
,
0001
0010
0100
1000
0001
0100
0010
1000
,
0010
0100
0001
1000
0100
0010
0001
0000
,
1000
0000
0000
1000
0000
0000
0001
0000
0000
0001
0000
0000
1000
0000
0001
0000
2002
0000
0000
0000
0000
0000
0000
0000
0000
0000
0000
0000
3003
0000
0000
0000
,
0110
0000
1000
0000
,
0001
0010
1000
0100
,
0001
0000
1000
0000
,
0100
0000
0001
0000
0100
0010
0001
0000
,
1000
0000
0001
0010
0100
0000
1000
1000
,
0000
0001
0000
0100
0010
0000
0110
0000
,
1000
0100
0000
0001
0100
0000
1100
0000
,
0001
0100
1000
0000
0100
0001
2000
0000
,
3100
0000
0010
0000
0011
0000
1000
0000
0001
0010
0100
0000
1000
0010
0100
0000
,
0010
0000
1000
0100
0000
0010
0001
1000
0000
0001
0100
0000
0010
1000
0010
1000
,
0001
0100
0110
1001
,
0001
0001
0010
0010
0100
0100
1000
1000
,
0001
0100
0010
1000
0001
0010
0100
0000
,
2002
0000
0000
0000
0000
0000
3003
0000
1100
0000
0000
0000
0101
0000
0000
1000
,
0000
0001
0010
0100
1000
0001
0100
0010
,
0000
0000
0010
0000
1000
0000
0001
0000
0011
0000
0000
0000
1001
0000
0000
1000
,
0000
0001
1000
0100
0001
0100
0010
0001
,
0000
0000
0001
0000
1000
0000
0001
0000
0101
0000
0000
0000
0011
0000
0000
1000
,
0000
0001
0100
0010
1000
0010
0100
1000
,
0000
0000
1000
0000
0100
0000
0010
0000
1000
0000
0100
0000
0010
0000
0000
0001
,
0000
1000
0001
0100
0010
1000
0100
0010
,
0100
0000
1000
0000
1001
0000
0000
0000
0001
0000
0001
0000
1001
0000
0000
1000
,
0000
0001
1000
0010
0100
0001
1000
0100
,
0000
0000
0100
0000
0010
0000
0001
0000
1001
0000
0000
0000
0110
0000
0000
0001
,
0000
1000
0001
0010
0002
0023
0230
2300
,
3002
0000
0023
0000
0230
0000
2300
0000
3002
0000
0000
0000
1003
0000
0000
0001
,
0000
0100
1000
0100
0001
1000
0100
0001
,
0100
0000
0000
0000
1000
0000
0000
0000
0001
0000
0000
0000
0000
0000
0000
0000
0100
0000
0000
0100
0000
0000
0010
0000
0000
0010
0000
0000
0100
0000
0010
0000
,
0220
0330
0000
0000
0000
0000
0000
0000
2002
3003
0000
0000
0000
0000
0000
0000
0110
0000
0000
0000
0000
0000
0000
0000
0000
0000
0000
0000
0000
0000
0000
0000
1000
0000
0000
0000
0000
0000
0000
0000
0100
0000
0000
0000
0000
0000
0000
0000
0001
0000
0000
0000
0000
0000
0000
0000
0100
0000
0000
0000
0000
0000
0000
0000
,
1000
0002
0000
2003
0000
3200
0310
0001
,
1000
0000
0011
0000
1000
0001
0010
0100
,
1000
0000
0001
0001
0100
0100
0000
0010
,
1000
0002
0023
0230
,
2300
0000
0000
0000
3002
0000
0000
0000
0203
0000
0000
0000
0310
0010
0020
0000
,
0130
0100
0000
0001
0001
0000
2001
0000
3001
0010
0200
0000
1300
0001
1001
0000
,
2002
0000
0000
3003
0001
0100
0010
0200
,
0000
1300
0100
0010
1000
0100
0010
0001
,
2000
3020
0230
0302
0013
0100
1000
0001
,
0100
0110
0000
1001
0000
0001
1000
0000
,
0100
0100
0010
0010
0001
1000
0010
0200
,
0000
0301
1000
0100
0001
0100
0010
0001
,
1000
0010
0001
0010
0100
1000
0100
0001
,
0020
0230
2300
3002
,
0103
0010
0100
0010
0100
0001
1000
0100
,
0010
0001
0010
0001
0010
0000
1001
0000
,
0001
0010
1000
0010
0100
0001
0100
1000
,
0001
0010
0100
1000
0000
0001
0100
0010
,
2000
0000
3001
0010
0100
0010
0001
1000
,
0010
0010
0100
0100
0002
2003
3002
2003
,
3100
0100
0010
0010
0001
0001
1000
1000
,
0001
0101
0000
1000
0100
0010
0001
1000
,
2002
0000
3003
0000
;

//--------------- dance-single - Fred-104 ----------------
#NOTEDATA:;
#STEPSTYPE:dance-single;
#DESCRIPTION:Fred-104;
#DIFFICULTY:Hard;
#METER:16;
#BPMS:0=195,48=97.5,51.5=195,110=97.5,111.5=195,144=97.5,152=195,164=97.5,165.5=195,214=97.5,214.25=195,214.5=390,215=195,224=97.5,225=195,247.5=97.5,251.5=195,300=390,300.5=195,300.75=97.5,301=195;
#STOPS:51.5=0.154,108=0.115,108.375=0.116,108.75=0.115,109.125=0.115,109.5=0.077,109.75=0.077,111.5=0.154,165.5=0.154,222=0.115,222.375=0.115,222.75=0.116,223.125=0.116,223.5=0.077,223.75=0.076,224=0.308,224.5=0.307,247=0.077,247.25=0.077,251.5=0.154;
#TIMESIGNATURES:0=4=4,164=2=4,166=4=4,222=3=4,225=4=4,245=3=4,248=4=4;
#CREDIT:Fred-104;
#NOTES:
0000
0000
0000
0000
,
0000
0000
0000
0000
,
0000
0000
0000
0000
,
0000
0000
0000
0000
,
0001
0001
0100
0100
0010
0010
1000
1000
,
2002
0000
0000
0000
3003
0100
0110
0000
,
1001
0000
0000
0000
1000
0000
0000
0100
0010
0000
0000
0000
1000
0000
0010
0000
,
0000
0001
0000
0010
0100
0000
1001
1000
,
0001
0100
1000
0100
0001
1000
0100
0010
,
0000
0011
0000
0001
0100
0000
1001
0000
,
1000
0010
1000
0010
0100
0001
0100
0001
,
1000
0100
0010
0001
0010
0100
2000
0000
,
3001
0000
0000
0000
1000
0000
0000
0000
0000
0000
0000
0000
0100
0000
0000
0000
0010
0000
0000
0000
0000
0000
0000
0000
0012
0000
0000
0000
0000
0000
0000
0000
1003
0000
0000
0000
0100
0000
0000
0000
0002
0000
0000
0000
0000
0000
0000
0000
0103
0000
0000
0000
0000
0000
0000
0000
0220
0330
0000
0000
0000
0000
0000
0000
,
1001
0000
0001
0010
1000
0010
0001
1000
,
0010
0001
0010
1000
0001
0010
0100
0000
,
1001
0000
1000
0100
0001
0100
1000
0001
,
0100
1000
0100
0001
1000
0100
0010
0000
,
0001
0100
0010
0001
1000
0100
0010
1000
,
0100
0010
1000
0001
0100
0010
0001
1000
,
0010
0100
1000
0001
0010
0100
0010
1000
,
0001
0000
0010
0000
0100
0000
1000
0000
0001
1000
0001
1000
0002
0000
0000
0000
,
2003
3001
0200
1300
0002
0013
0200
0310
,
2000
3001
0020
1030
0002
0103
0020
0031
,
2000
3100
0002
0103
0020
1030
0020
0031
,
2000
3020
0130
0020
0031
2000
3200
0301
,
1000
0010
1000
0010
1000
0000
0001
0000
0010
0100
0010
0100
0010
0000
0001
0000
,
1000
0100
1000
0100
1000
0000
0001
0000
0100
0010
0100
0010
0100
0000
0001
0000
,
1000
0000
0000
0000
0000
0000
1000
0000
0000
0000
0000
0000
0001
0000
0000
0000
0000
0000
0001
0000
0000
0000
0000
0000
1000
0000
0000
0000
0001
0000
0000
0000
0010
0000
0000
0000
0010
0000
0000
0000
0010
0000
0000
0000
0010
0000
0000
0000
0100
0000
0000
0000
0000
0000
0000
0000
2002
3003
0000
0000
0000
0000
0000
0000
,
1100
0000
0000
0000
0101
0000
0000
1000
0100
0000
0000
0000
0010
0000
0010
0000
,
0000
1001
0000
0001
0100
0000
0110
0000
,
1000
0000
0001
0000
0010
0000
0000
0010
0100
0000
0000
0000
1000
0000
0010
0000
,
0001
0010
0100
0010
1000
0000
1001
0000
,
1100
0000
0000
0000
0011
0000
0000
1000
0010
0000
0000
0000
0100
0000
0001
0000
,
0000
1001
0000
1000
0100
0000
0011
0000
,
0001
0100
0000
1000
0100
0000
0001
0000
,
1000
0100
0010
0000
0011
0000
1001
0000
,
0001
0000
1000
0000
0110
0000
0001
1000
0100
0010
0001
1000
0010
0100
0001
0000
,
1000
0000
0001
1000
0000
0010
1000
0001
0100
0010
0100
0000
0001
0001
1000
1000
,
0100
0000
0010
0001
0011
0000
1000
0001
,
1000
1000
0100
0100
0001
0001
0100
0100
,
0010
0000
0001
0000
1000
0000
0010
0000
0100
0001
0100
0001
1000
0100
0010
0000
,
0022
0000
0000
0000
0000
0000
0033
0000
0110
0000
0000
0001
1000
0000
0010
0100
,
0000
0100
0001
0000
1000
0000
0100
0000
0010
0001
0010
0000
0100
0000
2000
0000
,
0000
0000
3001
0000
0100
0000
0010
0000
1010
0000
0000
0001
1000
0000
0100
0010
,
0000
0010
0001
0000
1000
0000
0001
0000
0100
0010
0100
0000
0001
0000
2000
0000
,
0000
0000
3100
0000
0010
0000
0100
0000
1100
0000
0000
0010
0100
0000
0001
1000
,
0000
0100
0010
0000
0001
0000
1000
0000
0001
0010
0001
0000
1000
0000
0020
0000
,
0000
0000
0130
0000
0001
0000
1000
0000
0100
0000
0110
0000
0110
0000
0010
0001
,
0000
0010
0001
0000
1000
0000
0001
0000
0100
0001
0100
0001
0200
0000
0310
1000
,
0020
0000
2030
0000
3002
0000
0023
0000
0130
0000
0100
0000
1100
0000
0001
1000
,
0000
0010
1000
0000
0001
0000
0010
0000
0100
1000
0100
1000
0100
0000
0002
0000
,
0000
0000
0103
0000
0010
0000
0001
1000
0001
0000
0000
0001
0100
0000
0010
1000
,
0000
0010
0100
0000
0010
0000
1000
0000
0001
0000
0010
0100
1000
0000
0001
0010
,
0100
0000
1000
0001
0010
0000
0100
1000
0002
0000
0000
0000
1003
0000
0010
0100
,
0001
0000
0001
0000
1000
0000
0100
0000
0010
0000
0010
0100
0010
0000
0100
0000
,
0002
0000
0000
0000
0203
0000
0000
0000
2300
0000
0000
0000
3002
0000
0000
0000
0103
0000
0000
0100
0000
0000
0010
0000
0000
0010
0000
0000
0100
0000
0010
0000
,
0220
0330
0000
0000
0000
0000
0000
0000
2002
3003
0000
0000
0000
0000
0000
0000
1100
0000
0000
0000
0000
0000
0000
0000
0000
0000
0000
0000
0000
0000
0000
0000
0001
0000
0000
0000
0000
0000
0000
0000
1000
0000
0000
0000
0000
0000
0000
0000
0100
0000
0000
0000
0000
0000
0000
0000
0001
0000
0000
0000
0000
0000
0000
0000
,
1000
0020
0130
2000
3001
0200
0310
1000
,
1001
0000
0110
0000
1000
0001
0010
0100
,
1000
0001
0100
0110
0010
0110
0000
0100
,
1001
0000
0000
0000
0001
0010
0001
0000
1000
0010
1000
0000
0001
0100
0001
0000
,
1000
0000
0000
0000
0100
0000
0000
0000
1000
0000
0000
0000
0000
0000
0000
0000
0010
0000
0000
0000
0100
0000
0000
0000
0010
0000
0000
0000
0000
0000
0000
0000
1000
0000
0000
0000
0001
0000
0000
0000
1000
0000
0000
0000
0000
0000
0000
0000
0200
0300
0000
0000
0200
0300
0000
0000
0020
0000
0000
0000
0000
0000
0000
0000
,
0031
0000
0000
0000
0010
0000
0000
0000
0000
0000
0000
0000
1000
0000
0000
0000
0010
0000
0000
0000
0000
0000
0000
0000
0012
0000
0000
0000
0000
0000
0000
0000
1003
0000
0000
0000
0100
0000
0000
0000
0002
0000
0000
0000
0000
0000
0000
0000
1003
0000
0000
0000
0010
0000
0000
0000
0002
0003
0000
0000
0000
0000
0000
0000
,
2002
0000
0000
0000
0000
0000
3003
0000
1000
0100
1000
0100
0010
0000
0002
0000
,
0000
0000
1003
0000
0001
0000
0100
0000
0010
1000
0010
1000
0020
0000
0230
0000
,
0302
0000
2003
0000
3200
0000
0320
0000
0031
1000
0010
1000
0001
0000
0010
0100
,
1000
1100
0000
0101
0000
1001
0001
1000
,
0020
0000
0230
0000
0320
0000
2030
0000
3001
1000
0001
1000
0100
0000
0110
0000
,
0000
0000
0011
0000
1000
0000
0001
0000
0100
0010
0100
0010
0100
0000
0100
0000
,
0001
0000
1000
0100
1000
0000
0001
0010
0001
0000
1000
0100
1000
0000
0001
0000
,
2000
3200
0302
0023
,
1030
0000
0001
1000
0010
0000
1000
0001
0010
0000
0100
1000
0001
0000
0100
0000
,
0010
0010
0100
0100
0110
0000
1001
0000
,
0001
0100
0001
0000
1000
0100
1000
0000
0001
0010
0001
0000
1000
0010
1000
0000
,
0001
0000
0010
0000
0100
1000
0100
0000
1000
0000
0001
0000
0100
0000
0010
0000
,
0200
0000
0000
0000
0301
0000
0001
0000
1000
0010
1000
0010
0100
0000
0010
0000
,
1000
0001
0010
0000
0001
1000
0010
0000
0200
0000
0302
0000
2003
0000
3002
0000
,
0013
0100
0010
0000
0001
1000
0001
0000
0100
0010
1000
0010
0100
0010
1000
0010
,
0100
0000
0110
0000
0000
0000
0001
0000
1000
0000
0100
0000
0010
0000
0001
1000
,
0002
0000
0003
0000
;

//--------------- dance-single - Fred-104† ----------------
#NOTEDATA:;
#STEPSTYPE:dance-single;
#DESCRIPTION:Fred-104†;
#DIFFICULTY:Challenge;
#METER:18;
#CREDIT:Fred-104†;
#NOTES:
0000
0000
0000
0000
,
0000
0000
0000
0000
,
0000
0000
0000
0000
,
0000
0000
0000
0000
,
0001
0010
0100
1000
0001
0100
0010
1000
,
2002
0000
0000
0000
3003
0100
1001
0000
,
0110
0000
0000
0000
0001
0000
1000
0100
0001
0000
0000
0000
1000
0000
0010
0000
,
0000
0001
0000
0100
0010
0000
0110
1000
,
0001
0100
1000
0100
0010
0001
0010
0100
,
0000
0101
0000
0001
1000
0100
0110
0000
,
0001
0000
1000
0001
0010
0000
0100
1000
0001
0000
0100
0000
1000
0000
0001
0000
,
0010
0100
0010
0100
0010
1000
0002
0000
,
1003
0000
0000
0000
0100
0000
0000
0000
0000
0000
0000
0000
0001
0000
0000
0000
0100
0000
0000
0000
0000
0000
0000
0000
0120
0000
0000
0000
0000
0000
0000
0000
0031
0000
0000
0000
0100
0000
0000
0000
2000
0000
0000
0000
0000
0000
0000
0000
3100
0000
0000
0000
0010
0000
1000
0000
0002
0003
0000
0000
0000
0000
0000
0000
,
1001
0000
0000
0000
0000
0000
0000
0000
0000
0000
0000
0000
0000
0000
0000
0000
0110
0000
0000
0000
0000
0000
0000
0000
1000
0000
0000
0000
0001
0000
0000
0000
0200
0000
0000
0000
0000
0000
0000
0000
0001
0000
0000
0000
1000
0000
0000
0300
0200
0000
0000
0000
0000
0000
0000
0000
1000
0000
0000
0000
0001
0000
0000
0300
,
0200
0000
0000
0000
0000
0000
0000
0000
0001
0000
0000
0000
1000
0000
0000
0300
0200
0000
0000
0000
0000
0000
0000
0000
0000
0000
0000
0000
0000
0000
0000
0000
0310
0000
0000
0000
0000
0000
0000
0000
0001
0000
0000
0000
1000
0000
0000
0000
0010
0000
0000
0000
0000
0000
0000
0000
0100
0000
0000
0000
0000
0000
0000
0000
,
1001
0000
0000
0000
0000
0000
0000
0000
0000
0000
0000
0000
0000
0000
0000
0000
0110
0000
0000
0000
0000
0000
0000
0000
1000
0000
0000
0000
0001
0000
0000
0000
0020
0000
0000
0000
0000
0000
0000
0000
0001
0000
0000
0000
1000
0000
0000
0030
0020
0000
0000
0000
0000
0000
0000
0000
1000
0000
0000
0000
0001
0000
0000
0030
,
0020
0000
0000
0000
0000
0000
0000
0000
0001
0000
0000
0000
1000
0000
0000
0030
0020
0000
0000
0000
0000
0000
0000
0000
1030
0000
0000
0000
0000
0000
0000
0000
1100
0000
0000
0000
0000
0000
0000
0000
0110
0000
0000
0000
0000
0000
0000
0000
0011
0000
0000
0000
0000
0000
0000
0000
0000
0000
0000
0000
0000
0000
0000
0000
,
1001
0000
0000
0000
0000
0000
0000
0000
0001
0000
0000
0000
0010
0000
0000
0000
0200
0000
0000
0000
0000
0000
0000
0000
1000
0000
0000
0000
0010
0000
0000
0300
0200
0000
0000
0000
0000
0000
0000
0000
0001
0000
0000
0000
0010
0000
0000
0300
0200
0000
0000
0000
0000
0000
0000
0000
1000
0000
0000
0000
0010
0000
0000
0300
,
0200
0000
0000
0000
0000
0000
0000
0000
0001
0000
0000
0000
0010
0000
0000
0300
0200
0000
0000
0000
0000
0000
0000
0000
1300
0000
0000
0000
0000
0000
0000
0000
0001
0000
0000
0000
0000
0000
0000
0000
0100
0000
0000
0000
0010
0000
0000
0000
1000
0000
0000
0000
0000
0000
0000
0000
0001
0000
0000
0000
0100
0000
0000
0000
,
0020
0000
0000
0000
0000
0000
0000
0000
1000
0000
0000
0000
0100
0000
0000
0030
0020
0000
0000
0000
0000
0000
0000
0000
0100
0000
0000
0000
1000
0000
0000
0030
0010
0000
0000
0000
0100
0000
0000
0000
0001
0000
0000
0000
1000
0000
0000
0000
0001
0000
0000
0000
0000
0000
0000
0000
0100
0000
0000
0000
0000
0000
0000
0000
,
0101
0000
0000
0000
1001
0000
0000
0000
0000
0000
0000
0000
1000
0000
0100
0000
0010
0000
0001
0000
0100
0000
0010
0000
2000
0000
0000
0000
0000
0000
0000
3000
,
0001
0100
0001
0100
0010
0000
1000
0000
0001
0010
0001
0010
0100
0000
1000
0000
,
0001
1000
0001
1000
0100
0000
0010
0000
0001
1000
0001
1000
0010
0000
0100
0000
,
0001
1000
0100
1000
0001
0000
1000
0000
0100
0010
0001
0010
0100
0000
1000
0000
,
0001
0100
0010
1000
0001
0000
0010
0000
0100
1000
0001
1000
0010
0000
1000
0000
,
0001
0010
0100
1000
0001
1000
0010
0000
0100
0001
0100
0010
1000
0001
1000
0000
,
0001
1000
0100
0010
0001
0010
0100
0000
1000
0001
0100
0010
1000
0001
0010
0100
,
1000
0000
0000
0000
0000
0000
0100
0000
0000
0000
0000
0000
0001
0000
0000
0000
0000
0000
0010
0000
0000
0000
0000
0000
2000
3000
0000
0000
0002
0003
0000
0000
1000
0000
0000
0000
0001
0000
0100
0000
0001
0000
0100
0000
0001
0000
0100
0000
0001
0000
1000
0000
0001
0000
1000
0000
0002
0003
0000
0000
0000
0000
0000
0000
,
1001
0000
0000
0000
0110
0000
0000
1000
0100
0000
0000
0000
0010
0000
0010
0000
,
0000
0011
0000
1000
0001
0100
0110
0010
,
1000
0000
0100
0000
0001
0000
0000
0100
0010
0000
0000
0000
0001
0000
1000
0001
,
0010
0000
0001
1000
0010
0000
0100
0000
0002
0000
0000
0000
1003
0000
0000
0000
,
0110
0000
0000
0000
1001
0000
0000
0001
0100
0000
0000
0000
1000
0000
0100
0000
,
0000
0110
0000
1010
0101
0000
0110
0000
,
1000
0010
0000
0001
0010
0000
0101
0000
,
1000
0200
0001
0000
0310
0200
1300
0002
,
0103
0000
0010
0000
1001
0000
1000
0100
0001
1000
0010
0001
0010
0100
1000
0010
,
0100
0000
0001
0010
0100
0001
1000
0010
0001
0100
0100
0000
0110
0010
1000
1000
,
1001
0000
1000
0100
0110
0000
0001
1000
,
0001
2100
3001
2010
3001
0210
1300
0120
,
0031
0000
0100
0001
1000
0000
0001
0010
0100
1000
0001
0100
0010
1000
0010
0100
,
0002
0000
0000
0000
0000
0000
0000
0000
0000
0000
0000
0000
0000
0000
0000
0000
0000
0000
0000
0000
1003
0000
0000
0000
2002
3003
0000
0000
0000
0000
0000
0000
0110
0000
0000
0000
0000
0000
0000
0000
0000
0000
0000
0000
0000
0000
0000
0000
1001
0000
0000
0000
0000
0000
0000
0000
1000
0000
0000
0000
0100
0000
0000
0000
,
0000
0010
0100
0000
0010
0000
0001
0000
0100
0010
1000
0000
0020
0000
0100
0000
,
0000
0000
0031
0000
0010
0000
1000
0000
1010
0000
0000
0000
1001
0000
0001
0100
,
0000
0010
0100
0000
0010
0000
1000
0000
0001
0010
0100
1000
0200
0000
0010
0000
,
0000
0000
0301
0000
0100
0000
1000
0000
1001
0000
0000
0000
1100
0000
0001
1000
,
0000
0100
1000
0000
0010
0000
0100
0000
0001
1000
0100
0000
0020
0000
0001
0000
,
0000
0000
0130
0000
1000
0000
0001
0000
0100
0000
0110
0000
0110
0000
0001
1000
,
0000
0000
0000
0010
0000
0000
1000
0000
0000
0000
0000
0000
0100
0000
0000
0000
0000
0000
1000
0000
0000
0000
0000
0000
0001
0000
0010
0000
0100
0000
1000
0000
0100
0000
0010
0000
0002
0000
0000
0000
0000
0000
1003
0000
0010
0000
0100
0000
,
0002
0000
1003
0001
0010
0000
0110
0000
1100
0000
1000
0000
1001
0000
1000
0100
,
0000
0010
0001
0000
1000
0010
0100
0000
0001
1000
0100
1000
0002
0000
1000
0000
,
0000
0000
0023
0000
0230
0000
0310
0001
1000
0000
0001
0000
0100
0000
0010
0100
,
0000
0000
0000
0001
0000
0000
0010
0000
0000
0000
0000
0000
0100
0000
0000
1000
0000
0000
0001
0000
0000
0000
0000
0000
2000
0000
0000
0000
0000
0000
3100
0000
0010
0000
0001
0000
2000
0000
0000
0000
0000
0000
3010
0000
0100
0000
0001
0000
,
2000
0000
0000
0000
0000
0000
3100
0000
0010
0000
0001
0000
2000
0000
0000
0000
0000
0000
3010
0000
0100
0000
0001
0000
2000
0000
0000
0000
0000
0000
0000
0000
0000
3000
0000
0000
1001
0000
0000
0000
0000
0000
1000
0000
0000
0001
0000
0000
,
0010
0100
0010
0000
0001
1000
0010
0000
0100
0000
0100
0001
0100
0000
0001
0000
,
2000
0000
0000
0000
3200
0000
0000
0000
0320
0000
0000
0000
0032
0000
0000
0000
1003
0000
0000
0010
0000
0000
0001
0000
0000
0100
0000
0000
1000
0000
0001
0000
,
2002
3003
0000
0000
0000
0000
0000
0000
0220
0330
0000
0000
0000
0000
0000
0000
1001
0000
0000
0000
0000
0000
0000
0000
0000
0000
0000
0000
0000
0000
0000
0000
1000
0000
0000
0000
0001
0000
0000
0000
0010
0000
0000
0000
0100
0000
0000
0000
1000
0000
0000
0000
0000
0000
0000
0000
0001
0000
0000
0000
0000
0000
0000
0000
,
0200
0000
0000
0000
0000
0000
0000
0000
0010
0000
0000
0000
1000
0000
0000
0300
0200
0000
0000
0000
0000
0000
0000
0000
0010
0000
0000
0000
0001
0000
0000
0300
0200
0000
0000
0000
0000
0000
0000
0000
0010
0000
0000
0000
1000
0000
0000
0300
0100
0000
0000
0000
0000
0000
0000
0000
0010
0000
0000
0000
0000
0000
0000
0000
,
0011
0000
0000
0000
1000
0000
0001
0000
0100
0010
1000
0001
0010
0000
0100
0000
,
1000
0010
0100
0110
0100
0101
0000
1100
,
1001
0000
0000
0000
0001
1000
0100
0010
0001
1000
0010
0100
0010
1000
0001
0010
,
0100
0000
0000
0000
0010
0000
0000
0000
0001
0000
0000
0000
0100
0000
0000
0000
0010
0000
0000
0000
1000
0000
0000
0000
0001
0000
0000
0000
0010
0000
0000
0000
0100
0000
0000
0000
1000
0000
0000
0000
0010
0000
0000
0000
0100
0000
0000
0000
0002
0003
0000
0000
0002
0003
0000
0000
2000
0000
0000
0000
0000
0000
0000
0000
,
3001
0000
0000
0000
0100
0000
0000
0000
0000
0000
0000
0000
1000
0000
0000
0000
0100
0000
0000
0000
0000
0000
0000
0000
0120
0000
0000
0000
0000
0000
0000
0000
1030
0000
0000
0000
0001
0000
0000
0000
0020
0000
0000
0000
0000
0000
0000
0000
0130
0000
1000
0000
0100
0000
1000
0000
0200
0300
0000
0000
0000
0000
0000
0000
,
2002
0000
0000
0000
0000
0000
3003
0000
0001
0010
0100
1000
0002
0000
1000
0000
,
0000
0000
0103
0000
0010
0000
0100
0000
0001
1000
0100
1000
0020
0000
0230
0000
,
0302
0000
0000
0000
0000
0000
0010
0000
0000
0000
0000
0000
2003
0000
0000
0000
0000
0000
0100
0000
0000
0000
0000
0000
3001
0000
0000
1000
0000
0000
0100
0000
0000
1000
0000
0000
0010
0000
0000
0100
0000
0000
0001
0000
0010
0000
0001
0000
,
0010
0000
0011
0000
0000
0000
1010
0000
0000
0000
0101
0000
1000
0100
0010
0000
,
0002
0000
0100
0000
1000
0000
0013
0000
0001
0010
0100
1000
0010
0000
1010
0000
,
0000
0000
1100
0000
0001
0000
1000
0000
0001
0100
0010
1000
0001
0000
0110
0000
,
1000
0000
1000
0100
0001
0000
0001
0100
1000
0100
0010
0001
1000
0010
0100
0000
,
0001
1000
0100
0010
0001
0100
0010
1000
0100
0010
0001
0100
0010
1000
0001
0010
,
0100
0000
1000
0100
0100
0000
0001
0100
0100
0000
1000
0100
0010
0001
0100
0010
,
2000
0010
0001
3100
0110
0000
1001
0000
,
0001
0100
0001
1000
0100
0010
0100
1000
0001
0100
0010
0100
0001
0010
0100
1000
,
0001
0000
0000
0000
0000
0000
1000
0000
0000
0000
0000
0000
0100
0000
0010
0000
0001
0000
1000
0000
0000
0000
0000
0000
0010
0000
0000
0100
0000
0000
0001
0000
0000
0100
0000
0000
0010
0000
0000
0000
0000
0000
1000
0000
0000
0000
0000
0000
,
2002
0000
0000
0000
0000
0000
0000
0000
0000
3003
0000
0000
1100
0000
0000
0000
0000
0000
0110
0000
0000
0000
0000
0000
0010
0000
0000
0001
0000
0000
0010
0000
0000
1000
0000
0000
0020
0000
0000
0000
0000
0000
0130
0000
1000
0000
0100
0000
,
1000
0001
0020
0000
1030
0001
0200
0000
1300
0100
0010
0001
1000
0100
0010
0001
,
0010
0100
1000
0010
0100
0001
0010
0100
1000
0100
0010
0001
0100
0010
1000
0001
,
0010
0000
0011
0000
0000
0000
1010
0000
0101
0000
1100
0000
1000
0001
0100
0010
,
2000
0000
3000
0000
;

//--------------- dance-double - Fred-104 ----------------
#NOTEDATA:;
#STEPSTYPE:dance-double;
#DESCRIPTION:Fred-104;
#DIFFICULTY:Easy;
#METER:9;
#BPMS:0=195,48=97.5,52=195,108=97.5,112=195,144=97.5,152=195,164=97.5,166=195,222=97.5,224=48.75,225=195,247.5=97.5,252=195;
#STOPS:247=0.077,247.25=0.077;
#TIMESIGNATURES:0=4=4,164=2=4,166=4=4,222=3=4,225=4=4,245=3=4,248=4=4;
#CREDIT:Fred-104;
#NOTES:
00000000
00000000
00000000
00000000
,
00000000
00000000
00000000
00000000
,
00000000
00000000
00000000
00000000
,
00000000
00000000
00000000
00000000
,
00000001
00000010
00001000
00010000
,
00022000
00000000
00000000
00033000
,
00001000
00000000
00010000
00000000
,
01000000
00100000
00010000
00000000
,
10000000
00100000
01000000
00100000
,
10000000
01000000
00200000
00300000
,
00001000
00000000
00010000
00000000
,
00000100
00001000
00000001
00000020
,
00000130
00000000
00010000
00000000
00001000
00010000
00011000
00000000
,
00001000
00000000
00000000
00100000
00000000
00100000
00000000
01000000
,
00000000
01000000
00000000
00000000
00100000
00000000
00010000
00000000
,
10000000
00000000
00000000
00100000
00000000
00100000
00000000
01000000
,
00000000
01000000
00000000
00000000
00010000
00000000
00100000
00000000
,
00001000
00000000
00000000
00010000
00000000
00001000
00000000
00000010
,
00000000
00001000
00000000
00000000
00010000
00000000
00000100
00000000
,
00001000
00000001
00000100
00001000
,
00010000
00001000
00000000
00010000
00001000
00000000
00011000
00000000
,
00002000
00023000
02030000
23000000
,
30200000
00320000
00032000
00003200
,
00000302
00000023
00002030
00023000
,
00032000
02003000
03002000
00023000
,
00031000
00010000
01000000
00100000
,
00010000
00000000
00100000
00000000
01000000
10000000
00100000
00000000
,
00010000
00000000
00000000
00001000
00000000
00000000
00010000
00000000
00022000
00000000
00000000
00000000
00000000
00000000
00033000
00000000
,
00000110
00000000
00000001
00000000
,
00000100
00000010
00000100
00001000
,
00010000
00000000
00001000
00000000
,
01000000
00001000
00010000
00100000
,
10000000
00000000
01000000
00000000
,
00100000
00001000
00010000
00001000
,
00100000
00001000
00000000
00001000
00010000
00000000
00000010
00000000
,
00000100
00000010
00001001
00000000
,
00000001
00000000
00000110
00000000
00010000
00001000
01000000
00000000
,
00100000
00000000
10010000
00000000
00001000
00010000
00100000
10000000
,
00010000
10000000
01000000
01000000
,
00100000
00100000
00000000
00001000
00000000
00001000
00000000
00001000
,
00010000
00000010
00010000
00000000
00001000
00100000
00001000
00000000
,
00022000
00000000
00000000
00033000
00010000
00000000
00001000
00000000
,
00000100
00000000
00000010
00000000
00000100
00000000
00000000
00000001
,
00000000
00001000
00000010
00000100
,
00001000
00000000
00010000
00000000
00001000
00000000
00000000
00100000
,
00000000
00001000
00010000
00100000
,
01000000
00000000
00010000
00000000
10000000
00000000
00000000
01000000
,
00000000
00010000
00001000
00010000
,
00000010
00000000
00010000
00000000
00001000
00100000
00001000
00000000
,
00010000
00000100
00010000
00000000
00001000
00001000
00001000
00000000
,
00010000
00000000
01000000
00000000
10000000
00000000
00000000
00010000
,
00000000
10000000
01000000
00100000
,
00010000
01000000
00100000
20000000
,
30200000
00320000
00032000
00013000
,
00001000
01000000
00001000
00000000
00010000
00000000
00001000
00000000
,
00000100
00000000
00000000
00000000
00000001
00000000
00000000
00000000
00000010
00000000
00000000
00000010
00000000
00000000
00000010
00000000
,
00000220
00000330
00022000
00033000
01100000
00000000
00000000
00000000
00010000
00000000
00000000
00000000
10000000
00000000
00000000
00000000
,
00000000
00100000
00000000
00010000
00000000
00100000
00000000
00010000
,
00001000
00010000
00000100
00000010
,
00000100
00000000
00001000
00000000
00000000
00000110
00000000
00000000
,
00001001
00000002
00000203
00002300
,
00023000
00000000
00230000
00000000
20300000
00000000
30020000
00030000
,
10000000
00000000
01000000
00000000
00010000
00001000
00011000
00000000
,
00022000
00000000
00000000
00033000
00001000
00000000
00000000
00001000
,
00000000
00010000
00001000
00000100
,
00000010
00001000
00000010
00000000
00000100
00000000
00000001
00000000
,
00000010
00000010
00000000
00000100
00000000
00010000
00001000
00000000
,
00010000
01000000
00010000
00000000
01000000
00000000
00100000
00010000
,
00000000
00010000
10000000
00000000
01000000
00000000
00010000
00000000
,
00001000
00010000
00001000
00000000
00010000
00100000
01000000
00000000
,
00020000
00230000
02300000
03200000
,
00301000
00000000
00010000
00000000
00000010
00001000
00000010
00000000
,
00010000
00000100
00010000
00000000
00001000
00000000
00010000
00000000
,
00000100
00001000
00000001
00000000
00000100
00000000
00001000
00000000
,
00010000
00000000
00000000
00010000
00000000
00000000
00010000
00000000
,
00002000
00000000
00013000
00000000
00100000
10000000
00100000
00000000
,
10000000
00000000
01000000
00000000
00100000
00010000
00100000
00001000
,
00020000
00030020
00002030
00003020
,
00010030
00010000
00000000
00001000
00010000
00010000
00001000
00010000
,
00022000
00000000
00033000
00000000
;

//--------------- dance-double - Fred-104 ----------------
#NOTEDATA:;
#STEPSTYPE:dance-double;
#DESCRIPTION:Fred-104;
#DIFFICULTY:Medium;
#METER:14;
#BPMS:0=195,48=97.5,52=195,110=97.5,112=195,144=97.5,152=195,164=97.5,166=195,224=97.5,225=195,247.5=97.5,252=195;
#STOPS:108=0.116,108.375=0.115,108.75=0.115,109.125=0.115,109.5=0.077,109.75=0.077,222=0.115,222.375=0.116,222.75=0.116,223.125=0.115,223.5=0.077,223.75=0.076,224=0.308,224.5=0.308,247=0.077,247.25=0.077;
#TIMESIGNATURES:0=4=4,164=2=4,166=4=4,222=3=4,225=4=4,245=3=4,248=4=4;
#CREDIT:Fred-104;
#NOTES:
00000000
00000000
00000000
00000000
,
00000000
00000000
00000000
00000000
,
00000000
00000000
00000000
00000000
,
00000000
00000000
00000000
00000000
,
00010000
00001000
00000010
00000001
00000010
00000100
00010000
00001000
,
00022000
00000000
00000000
00033000
,
10010000
00000000
00010000
10000000
01000000
00000000
00100000
00001000
,
00000000
00011000
00000000
00010000
00000100
00000000
00001001
00000000
,
00000001
00000010
00000100
00010000
00001000
01000000
00010000
10000000
,
00000000
01100000
00000000
00001000
00010000
00000000
00011000
00000000
,
00001000
00010000
00001000
00010000
00100000
10000000
00100000
01000000
,
00010000
00100000
01000000
10000000
01000000
00100000
00002000
00000000
,
00013000
00010000
00000000
00000100
00000100
00000000
00000120
00000000
00000031
00000100
00002000
00000000
00013000
00001000
00011000
00000000
,
00010010
00000000
00010000
00000010
00001000
00000010
00010000
00000010
,
00001000
00000001
00000010
00000000
00000100
00010000
00001000
00000000
,
00011000
00000000
00001000
00010000
00100000
10000000
00010000
00100000
,
01000000
10000000
00010000
00000000
01000000
00100000
01000000
00100000
,
01000000
00000000
00010000
00100000
01000000
00010000
00001000
00000010
,
00000100
00001000
00000010
00000100
00001000
00010000
00001000
00000000
,
00010000
00001000
00000010
00000001
00000010
00000100
00001000
00000001
,
00000100
00000100
00000000
00001000
00001000
00010000
00011000
00000000
,
00001000
00010000
00100000
00000000
10000000
01000000
00010000
00000000
,
00001000
00000010
00000001
00000000
00000010
00000100
00001000
00000000
,
00000001
00000100
00001000
00000000
00010000
00100000
10000000
00000000
,
10000000
01000000
00010000
00000000
00001000
00000010
00000001
00000000
,
00001000
00000010
00000100
00000001
00001000
00000100
00000010
00001000
,
00010000
01000000
00100000
00010000
10000000
00010000
01000000
00001000
,
00010000
00000000
00000000
00010000
00000000
00000000
00001000
00000000
00000000
00001000
00000000
00000000
00010000
00000000
00001000
00000000
00022000
00000000
00000000
00000000
00000000
00000000
00000000
00000000
00000000
00000000
00000000
00000000
00033000
00000000
00000000
00000000
,
00011000
00000000
00010000
00001000
00000100
00000000
00000001
00000001
,
00000000
00000010
00000000
00000100
00010000
00000000
00011000
00000000
,
00001000
00000000
00010000
00100000
10000000
00000000
00010000
00100000
,
00000000
01100000
00000000
01000000
10000000
00000000
10010000
00000000
,
10000000
00000000
01000000
00100000
00001000
00000000
00010000
00001000
,
00000000
00011000
00000000
00010000
00000010
00001000
00000001
00000000
,
00000010
00000010
00000000
00000100
00010000
00000000
00011000
00000000
,
00001000
00010000
00100000
01000000
00100000
00010000
00002000
00000000
,
00013000
00000000
00001000
00000000
01001000
00000000
01000000
00000000
00010000
10000000
01000000
00000000
00100000
00001000
00010000
00000000
,
00000100
00000000
00001000
00000100
00000000
00000010
00000001
00000100
00000000
00001000
00010000
00000000
00001000
01000000
00001000
00010000
,
00001000
00000000
00010000
00100000
10000000
00000000
01000000
00010000
,
00001000
00000010
00000001
00000000
00001000
00000010
00000100
00000000
,
00001000
00010000
00000010
00001000
00010000
01000000
00100000
10000000
,
20020000
00000000
00000000
00000000
00000000
00000000
30030000
00000000
01100000
00000000
00000000
00000000
10010000
00000000
00000000
10000000
,
00000000
00100000
00010000
00001000
00010000
00000010
00001000
00000001
,
00000000
00000000
00000001
00000000
00000010
00000000
00000100
00000000
00001100
00000000
00000000
00000000
00010100
00000000
00000000
00001000
,
00000000
01000000
00001000
00010000
00100000
01000000
00100000
10000000
,
00000000
00000000
10000000
00000000
01000000
00000000
00100000
00000000
00101000
00000000
00000000
00000000
00010010
00000000
00000000
00010000
,
00000000
00001000
00000100
00000010
00001000
00000100
00000010
00000100
,
00000000
00000000
00000100
00000000
00010000
00000000
00001000
00000000
00010000
00000000
00010000
00000000
00010000
00000000
00000000
00000010
,
00000000
00001000
00000001
00000010
00000001
00000100
00001000
00010000
,
00100000
00000000
10000000
00000000
00010000
00000000
00000000
00000000
00100000
00000000
00100000
00000000
01100000
00000000
00000000
10000000
,
00000000
00010000
00100000
01000000
00010000
00001000
00000010
00000001
,
00000000
00000000
00000001
00000000
00000010
00000000
00000100
00000000
00001100
00000000
00000000
00000000
00001001
00000000
00000000
00000001
,
00000000
00000100
00000010
00000100
00001000
00010000
00100000
10000000
,
01000000
00000000
00100000
00000000
00001000
00000000
00010000
00000000
00002000
00000000
00000000
00000000
00013000
00000000
00000000
00001000
,
00000000
00000100
00001000
00010000
00001000
01000000
00010000
10000000
,
00010000
00000000
00000000
00000000
00100000
00000000
00000000
00000000
01000000
00000000
00000000
00000000
00000000
00000000
00000000
00000000
10000000
00000000
00000000
10000000
00000000
00000000
00010000
00000000
00000000
00010000
00000000
00000000
10000000
00000000
00100000
00000000
,
20200000
30300000
00000000
00000000
00000000
00000000
00000000
00000000
00220000
00330000
00000000
00000000
00000000
00000000
00000000
00000000
00011000
00000000
00000000
00000000
00000000
00000000
00000000
00000000
00000000
00000000
00000000
00000000
00000000
00000000
00000000
00000000
00010000
00000000
00000000
00000000
00000000
00000000
00000000
00000000
00000100
00000000
00000000
00000000
00000000
00000000
00000000
00000000
00001000
00000000
00000000
00000000
00000000
00000000
00000000
00000000
00000010
00000000
00000000
00000000
00000000
00000000
00000000
00000000
,
00010000
00000200
00000000
00000320
00000000
00000031
00000010
00000100
,
00010000
00000000
00001000
00010000
00100000
10000000
00010000
00100000
,
01000000
10000000
00100000
00010000
00001000
00010000
00000000
00000010
,
00010000
00002000
00023000
00230000
,
20300000
00000000
00000000
00000000
32000000
00000000
00000000
00000000
03020000
00000000
00000000
00000000
00031000
00001000
00002000
00000000
,
00013000
00001000
00000000
00010000
00100000
00000000
02100000
00000000
03010000
10000000
02000000
00000000
03010000
00001000
00011000
00000000
,
00000220
00000000
00000000
00000330
00001000
00000100
00000001
00000100
,
00000000
00010000
00001000
00000100
00000001
00000010
00000100
00001000
,
00000100
00000100
00010000
00010000
00001000
00010000
00100000
10000000
,
00010000
00110000
00000000
10000000
00100000
00010000
00001000
00000000
,
00010000
00010000
00001000
00001000
00000100
00000100
00000001
00000002
,
00000000
00000013
00000100
00001000
00000001
00000100
00001000
00010000
,
00001000
00000010
00001000
00010000
01000000
00100000
00010000
10000000
,
00200000
00320000
00032000
00203000
,
01300000
10000000
00100000
01000000
10000000
01000000
00010000
00100000
,
01000000
00010000
00001000
00010000
00011000
00000000
00010010
00000000
,
00010000
00001000
00000010
00000100
00000010
00000001
00000100
00000010
,
00000100
00001000
00010000
00100000
00000000
01000000
00100000
10000000
,
00020000
00000000
10030000
00100000
00010000
00001000
00010000
00000010
,
00010000
00001000
00000100
00000010
00002000
00003002
00000023
00000230
,
00002300
00003020
00000230
00002300
,
00013000
00010000
00000000
00001000
00010000
00100000
10000000
01000000
,
02200000
00000000
03300000
00000000
;

//--------------- dance-double - Fred-104 ----------------
#NOTEDATA:;
#STEPSTYPE:dance-double;
#DESCRIPTION:Fred-104;
#DIFFICULTY:Hard;
#METER:17;
#BPMS:0=195,48=97.5,51.5=195,110=97.5,111.5=195,144=97.5,152=195,164=97.5,165.5=195,214=97.5,214.25=195,214.5=390,215=195,224=97.5,225=195,247.5=97.5,251.5=195,300=390,300.5=195,300.75=97.5,301=195;
#STOPS:51.5=0.154,108=0.115,108.375=0.116,108.75=0.115,109.125=0.115,109.5=0.077,109.75=0.077,111.5=0.154,165.5=0.154,222=0.115,222.375=0.115,222.75=0.116,223.125=0.116,223.5=0.077,223.75=0.076,224=0.308,224.5=0.307,247=0.077,247.25=0.077,251.5=0.154;
#TIMESIGNATURES:0=4=4,164=2=4,166=4=4,222=3=4,225=4=4,245=3=4,248=4=4;
#CREDIT:Fred-104;
#NOTES:
00000000
00000000
00000000
00000000
,
00000000
00000000
00000000
00000000
,
00000000
00000000
00000000
00000000
,
00000000
00000000
00000000
00000000
,
10000000
01000000
00001000
00000100
00010000
00001000
00000100
00000010
,
00002020
00000000
00000000
00000000
00003030
00000001
00001001
00000000
,
00011000
00000000
00000000
00000000
01000000
00000000
00000000
00010000
00100000
00000000
00000000
00000000
10000000
00000000
00100000
00000000
,
00000000
00001000
00000000
00000010
00000001
00000000
00001010
00001000
,
00000001
00000100
00001000
00010000
00001000
00100000
10000000
00100000
,
00000000
00110000
00000000
10000000
00100000
00010000
00001000
00000000
,
00010000
00001000
00010000
00001000
00000010
00000100
00000010
00000001
,
00001000
00000001
00000100
00000001
00000010
00001000
00020000
00000000
,
00031000
00000000
00000000
00000000
00010000
00000000
00000000
00000000
00000000
00000000
00000000
00000000
00100000
00000000
00000000
00000000
01000000
00000000
00000000
00000000
00000000
00000000
00000000
00000000
01020000
00000000
00000000
00000000
00000000
00000000
00000000
00000000
10030000
00000000
00000000
00000000
00100000
00000000
00000000
00000000
00020000
00000000
00000000
00000000
00000000
00000000
00000000
00000000
00130000
00000000
00000000
00000000
01000000
00000000
00000000
00000000
02200000
03300000
00000000
00000000
00000000
00000000
00000000
00000000
,
10010000
00000000
10000000
01000000
00001000
00000100
00000001
00000100
,
00010000
00001000
00010000
00100000
01000000
00010000
10000000
01000000
,
01100000
00000000
00010000
01000000
00100000
00001000
00000010
00000001
,
00000010
00010000
00001000
00000010
00000100
00000001
00002000
00000000
,
00013000
01000000
10000000
00010000
01000000
00100000
00001000
00000010
,
00010000
00001000
00000100
00000001
00001000
00000100
00000010
00000001
,
00001000
00000010
00010000
00100000
00001000
00000010
00010000
00001000
,
00010000
00000100
00001000
01000000
00010000
00000100
00002000
00000000
,
00003002
00000013
00002000
00103000
00020000
00030010
00002000
00103000
,
00020000
10030000
00200000
00301000
00000020
00010030
00200000
00301000
,
00000002
00000103
00002000
01003000
00020000
00030100
00002000
01003000
,
00020000
20030000
32000000
03002000
00003200
00020300
02030000
03001000
,
00000100
00000010
00000100
00000010
00000001
00000000
00001000
00000000
00000010
00000100
00000010
00000100
00001000
00000000
00010000
00000000
,
00100000
01000000
00100000
01000000
00010000
00000000
10000000
00000000
01000000
00000000
00010000
00000000
00001000
00000000
00000010
00000000
,
00000001
00000000
00000000
00000000
00000000
00000000
00000100
00000000
00000000
00000000
00000000
00000000
00001000
00000000
00000000
00000000
00000000
00000000
00010000
00000000
00000000
00000000
00000000
00000000
00100000
00000000
00000000
00000000
10000000
00000000
00000000
00000000
00010000
00000000
00000000
00000000
00010000
00000000
00000000
00000000
00010000
00000000
00000000
00000000
00010000
00000000
00000000
00000000
00100000
00000000
00000000
00000000
00000000
00000000
00000000
00000000
20020000
30030000
00000000
00000000
00000000
00000000
00000000
00000000
,
00011000
00000000
00000000
00000000
00001001
00000000
00000000
00000001
00000100
00000000
00000000
00000000
00001000
00000000
00001000
00000000
,
00000000
00011000
00000000
00100000
10000000
01000000
00100000
00000000
,
00001000
00000000
00010000
00000000
00000010
00000000
00000000
00010000
00001000
00000000
00000000
00000000
00000100
00000000
00000001
00000000
,
00000010
00001000
00010000
00001000
00000100
00001000
00010000
00000000
,
00011000
00000000
00000000
00000000
01100000
00000000
00000000
10000000
01000000
00000000
00000000
00000000
00001000
00000000
00000100
00000000
,
00000000
00000101
00000000
00001000
00000100
00000000
00000110
00000000
,
00000001
00000100
00000000
00001000
00010000
00000000
00011000
00000000
,
00010000
00100000
10000000
00000000
01000000
00100000
00001000
00010000
,
00001000
00000000
00010000
00000000
00001010
00000000
00010000
00001000
00000010
00000100
00001000
00000010
00000100
00001000
00010000
00100000
,
01000000
00000000
00010000
10000000
00000000
01000000
00001000
00000100
00000000
00000001
00000100
00000000
00010000
00001000
00000100
00000001
,
00000010
00000000
00001000
00100000
00001000
00000000
00011000
00000000
,
00001000
00200000
00310000
00000020
00001030
00200000
00310000
00000020
,
00001030
00000000
00010000
00000000
00001000
00000000
01000000
00000000
00010000
10000000
01000000
00100000
00010000
00100000
00001000
00010000
,
00002000
00000000
00000000
00000000
00000000
00000000
00003000
00000000
10010000
00000000
00000000
00000000
01100000
00000000
00001000
00010000
,
00000000
00000100
00010000
00000000
00001000
00000000
00000010
00000000
00000100
00001000
00000001
00000000
00000100
00000000
00020000
00000000
,
00000000
00000000
10030000
00000000
00100000
00000000
01000000
00000000
01010000
00000000
00000000
00000000
10010000
00000000
10000000
01000000
,
00000000
00010000
00001000
00000000
00000010
00000000
00000100
00000000
00001000
00000001
00000100
00000000
00010000
00000000
02000000
00000000
,
00000000
00000000
03001000
00000000
00010000
00000000
00100000
00000000
10100000
00000000
00000000
00000000
00011000
00000000
00010000
00000010
,
00000000
00010000
00001000
00000000
00010000
00000000
00100000
00000000
01000000
00010000
00100000
00000000
10000000
00000000
00200000
00000000
,
00000000
00000000
00301000
00000000
00000010
00000000
00000100
00000000
00001000
00000000
00001100
00000000
00001100
00000000
00000001
00001000
,
00000000
00000010
00010000
00000000
00001000
00000000
01000000
00000000
00001000
00010000
00001000
00010000
00200000
00000000
10300000
00010000
,
00200000
00000000
02300000
00000000
03020000
00000000
00032000
00000000
00013000
00000000
00010000
00000000
00011000
00000000
00010000
00001000
,
00000000
00000100
00000001
00000000
00000010
00000000
00000100
00000000
00010000
00001000
00010000
00000010
00001000
00000000
00000020
00000000
,
00000000
00000000
00000031
00000000
00000010
00000000
00001000
00000001
00000010
00000000
00000000
00000000
00001001
00000000
00000001
00000100
,
00000000
00001000
00010000
00000000
01000000
00000000
00100000
00000000
00010000
00000000
10000000
01000000
00100000
00000000
00010000
10000000
,
01000000
00000000
00100000
00010000
10000000
00000000
01000000
00100000
00002000
00000000
00000000
00000000
00013000
00000000
00000100
00000010
,
00000001
00000000
00000001
00000000
00001000
00000000
00000010
00000000
00000100
00000000
00000100
00000001
00000100
00000000
00000001
00000000
,
00000020
00000000
00000000
00000000
00002030
00000000
00000000
00000000
00023000
00000000
00000000
00000000
02030000
00000000
00000000
00000000
13000000
00000000
00000000
00100000
00000000
00000000
00010000
00000000
00000000
00001000
00000000
00000000
00000100
00000000
00000001
00000000
,
00000220
00000330
00000000
00000000
00000000
00000000
00000000
00000000
00022000
00033000
00000000
00000000
00000000
00000000
00000000
00000000
01100000
00000000
00000000
00000000
00000000
00000000
00000000
00000000
00000000
00000000
00000000
00000000
00000000
00000000
00000000
00000000
00010000
00000000
00000000
00000000
00000000
00000000
00000000
00000000
10000000
00000000
00000000
00000000
00000000
00000000
00000000
00000000
00100000
00000000
00000000
00000000
00000000
00000000
00000000
00000000
00001000
00000000
00000000
00000000
00000000
00000000
00000000
00000000
,
00000010
00020000
00031000
00000020
00000130
00000002
00000103
00002000
,
00003001
00000000
00000110
00000000
00000001
00001000
00010000
01000000
,
00001000
00010000
01000000
10000000
00100000
00010000
00000010
00010000
,
00001000
00000000
00000000
00000000
00010000
00000100
00001000
00000000
00000001
00001000
00000010
00000000
00010000
00001000
00100000
00000000
,
00010000
00000000
00000000
00000000
10000000
00000000
00000000
00000000
00100000
00000000
00000000
00000000
00000000
00000000
00000000
00000000
10000000
00000000
00000000
00000000
01000000
00000000
00000000
00000000
00100000
00000000
00000000
00000000
00010000
00000000
00000000
00000000
00100000
00000000
00000000
00000000
00001000
00000000
00000000
00000000
00010000
00000000
00000000
00000000
00000010
00000000
00000000
00000000
00020000
00030000
00000000
00000000
00020000
00030000
00000000
00000000
00020000
00000000
00000000
00000000
00000000
00000000
00000000
00000000
,
00031000
00000000
00000000
00000000
00010000
00000000
00000000
00000000
00000000
00000000
00000000
00000000
00000100
00000000
00000000
00000000
00000010
00000000
00000000
00000000
00000000
00000000
00000000
00000000
00000021
00000000
00000000
00000000
00000000
00000000
00000000
00000000
00000031
00000000
00000000
00000000
00000100
00000000
00000000
00000000
00002000
00000000
00000000
00000000
00000000
00000000
00000000
00000000
00013000
00000000
00000000
00000000
01000000
00000000
00000000
00000000
20000000
30000000
00000000
00000000
00000000
00000000
00000000
00000000
,
20020000
00000000
00000000
00000000
00000000
00000000
30030000
00000000
10000000
01000000
10000000
01000000
00010000
00000000
00002000
00000000
,
00000000
00000000
00013000
00000000
00000010
00000000
00000001
00000000
00000010
00000100
00000010
00000100
00000001
00000000
00001000
00000000
,
00000200
00000000
00002300
00000000
02003000
00000000
03020000
00000000
00031000
00010000
00001000
00010000
00000010
00000000
00010000
00001000
,
00010000
00010100
00000000
01001000
00000000
00010010
00101000
00011000
,
00002000
00000000
00023000
00000000
00230000
00000000
20300000
00000000
31000000
00100000
01000000
00100000
00001000
00000000
00011000
00000000
,
00000000
00000000
00010000
00000000
00000010
00000000
00001000
00000000
00000100
00000010
00000100
00000010
00000001
00000000
00000001
00000000
,
00000100
00010000
01000000
00001000
00000100
00010000
01000000
00100000
,
00020000
00032000
00003020
00000230
,
00001300
00000000
00000001
00000010
00000100
00000000
00001000
00000100
00010000
00000000
00001000
00100000
00010000
00000000
10000000
00000000
,
00100000
00010000
00001000
00010000
00011000
00000000
00001001
00000000
,
00000001
00000010
00001000
00100000
00010000
00000010
00001000
00100000
,
00010000
00000000
10000000
00000000
00100000
01000000
00100000
00000000
00010000
00000000
00001000
00000000
00000100
00000000
00000001
00000000
,
00002000
00000000
00000000
00000000
00003010
00000000
00000010
00000000
00000100
00000001
00001000
00000100
00000010
00000000
00001000
00000000
,
00010000
01000000
00100000
10000000
00020000
00032000
00003020
00000230
,
00000310
00000001
00001000
00000000
00000001
00001000
00000010
00000000
00010000
00001000
01000000
00001000
00010000
00000100
00001000
00000100
,
00000010
00000000
00000011
00000000
00000000
00000000
00000001
00000000
00000100
00000000
00001000
00000000
00010000
00000000
00100000
10000000
,
00020000
00000000
00030000
00000000
;

//--------------- dance-double - Fred-104† ----------------
#NOTEDATA:;
#STEPSTYPE:dance-double;
#DESCRIPTION:Fred-104†;
#DIFFICULTY:Challenge;
#METER:18;
#CREDIT:Fred-104†;
#NOTES:
00000000
00000000
00000000
00000000
,
00000000
00000000
00000000
00000000
,
00000000
00000000
00000000
00000000
,
00000000
00000000
00000000
00000000
,
10000000
01000000
00100000
00001000
00010000
00000100
00000010
00000001
,
00002002
00000000
00000000
00000000
00003003
00000100
00001001
00000000
,
00000110
00000000
00000000
00000000
00001000
00000000
00000001
00000100
00001000
00000000
00000000
00000000
00010000
00000000
01000000
00000000
,
00000000
10000000
00000000
01000000
00100000
00000000
00011000
00001000
,
00010000
00001000
00000010
00000100
00000010
00000001
00000100
00001000
,
00000000
00011000
00000000
00100000
01000000
00010000
10010000
00000000
,
10000000
01000000
00100000
00010000
00001000
00000100
00000010
00000001
,
00001000
00000010
00000100
00001000
00010000
00100000
20000000
00000000
,
30010000
00000000
00000000
00000000
00100000
00000000
00000000
00000000
00000000
00000000
00000000
00000000
10000000
00000000
00000000
00000000
00100000
00000000
00000000
00000000
00000000
00000000
00000000
00000000
00120000
00000000
00000000
00000000
00000000
00000000
00000000
00000000
10030000
00000000
00000000
00000000
01000000
00000000
00000000
00000000
00020000
00000000
00000000
00000000
00000000
00000000
00000000
00000000
00031000
00000000
00000000
00000000
00000100
00000000
00000001
00000000
00000020
00000030
00000000
00000000
00000000
00000000
00000000
00000000
,
00000110
00000000
00000000
00000000
00001001
00000000
00000001
00000010
00000100
00000000
00000010
00000100
00001000
00000000
00000100
00010000
,
00001000
00000000
00100000
00010000
10000000
00000000
00100000
00000000
00010000
00000000
00001000
00000000
00010000
00000000
00100000
00000000
,
01100000
00000000
00000000
00000000
00000000
00000000
00000000
00000000
00000000
00000000
00000000
00000000
00000000
00000000
00000000
00000000
10010000
00000000
00000000
00000000
00000000
00000000
00000000
00000000
00010000
00000000
00000000
00000000
10000000
00000000
00000000
00000000
02000000
00000000
00000000
00000000
00000000
00000000
00000000
00000000
10000000
00000000
00000000
00000000
00010000
00000000
00000000
03000000
02000000
00000000
00000000
00000000
00000000
00000000
00000000
00000000
00010000
00000000
00000000
00000000
10000000
00000000
00000000
03000000
,
02000000
00000000
00000000
00000000
00000000
00000000
00000000
00000000
10000000
00000000
00000000
00000000
00010000
00000000
00000000
03000000
02000000
00000000
00000000
00000000
00000000
00000000
00000000
00000000
03100000
00000000
00000000
00000000
00000000
00000000
00000000
00000000
10100000
00000000
00000000
00000000
00000000
00000000
00000000
00000000
10010000
00000000
00000000
00000000
00000000
00000000
00000000
00000000
00110000
00000000
00000000
00000000
00000000
00000000
00000000
00000000
00000000
00000000
00000000
00000000
00000000
00000000
00000000
00000000
,
00011000
00000000
00000000
00000000
00000000
00000000
00000000
00000000
00100000
00000000
00000000
00000000
00001000
00000000
00000000
00000000
00020000
00000000
00000000
00000000
00000000
00000000
00000000
00000000
00001000
00000000
00000000
00000000
00100000
00000000
00000000
00030000
00020000
00000000
00000000
00000000
00000000
00000000
00000000
00000000
00100000
00000000
00000000
00000000
00001000
00000000
00000000
00030000
00020000
00000000
00000000
00000000
00000000
00000000
00000000
00000000
00001000
00000000
00000000
00000000
00100000
00000000
00000000
00030000
,
00020000
00000000
00000000
00000000
00000000
00000000
00000000
00000000
00100000
00000000
00000000
00000000
00001000
00000000
00000000
00030000
00020000
00000000
00000000
00000000
00000000
00000000
00000000
00000000
00031000
00000000
00000000
00000000
00000000
00000000
00000000
00000000
00000010
00000000
00000000
00000000
00000000
00000000
00000000
00000000
00000001
00000000
00000000
00000000
00000010
00000000
00000000
00000000
00000100
00000000
00000000
00000000
00000000
00000000
00000000
00000000
00001000
00000000
00000000
00000000
00000000
00000000
00000000
00000000
,
00000200
00000000
00000000
00000000
00000000
00000000
00000000
00000000
00001000
00000000
00000000
00000000
00000010
00000000
00000000
00000300
00000200
00000000
00000000
00000000
00000000
00000000
00000000
00000000
00000010
00000000
00000000
00000000
00001000
00000000
00000000
00000300
00000100
00000000
00000000
00000000
00000010
00000000
00000000
00000000
00000001
00000000
00000000
00000000
00001000
00000000
00000000
00000000
00000010
00000000
00000000
00000000
00000000
00000000
00000000
00000000
00010000
00000000
00000000
00000000
00000000
00000000
00000000
00000000
,
00011000
00000000
00101000
00000000
00000000
00000000
00001000
00010000
00100000
01000000
00100000
10000000
00020000
00000000
00000000
00000000
,
10030000
01000000
00100000
00010000
00100000
00000000
00001000
00000000
00010000
00000010
00001000
00000010
00000100
00000000
00000001
00000000
,
00000010
00000100
00001000
00000100
00010000
00000000
00001000
00000000
01000000
00010000
10000000
01000000
00100000
00000000
00001000
00000000
,
00010000
00000010
00000100
00000010
00001000
00000000
00000001
00000000
00000010
00000100
00001000
00000100
00000010
00000000
00000001
00000000
,
00000100
00001000
00010000
00001000
00010000
00000000
00100000
00000000
01000000
00010000
10000000
00010000
00100000
00000000
00010000
00000000
,
10000000
01000000
00100000
00010000
00100000
00001000
00010000
00000000
00001000
00010000
00000010
00001000
00000010
00010000
00001000
00000000
,
00010000
00000100
00001000
00000100
00000010
00000001
00001000
00000000
00000001
00000010
00000100
00001000
00000010
00000100
00000001
00001000
,
00000001
00000000
00000000
00000000
00000000
00000000
00010000
00000000
00000000
00000000
00000000
00000000
00001000
00000000
00000000
00000000
00000000
00000000
10000000
00000000
00000000
00000000
00000000
00000000
00001000
00000000
00000000
00000000
00010000
00000000
00000000
00000000
00001000
00000000
00000000
00000000
00010000
00000000
00001000
00000000
00010000
00000000
00001000
00000000
00010000
00000000
00001000
00000000
00010000
00000000
00000010
00000000
00010000
00000000
00000010
00000000
00020000
00030000
00000000
00000000
00000000
00000000
00000000
00000000
,
00011000
00000000
00000000
00000000
00000110
00000000
00000000
00001000
00000001
00000000
00000000
00000000
00000100
00000000
00010000
00000000
,
00000000
01000000
00000000
00001000
00010000
00100000
01000000
00010000
,
00100000
00000000
00001000
00000000
00000010
00000000
00000000
00000001
00001000
00000000
00000000
00000000
00000100
00000000
00000010
00000001
,
00000100
00000000
00001000
00010000
00100000
00000000
10000000
00000000
02000000
00000000
00000000
00000000
03100000
00000000
00000000
00000000
,
01100000
00000000
00000000
00000000
10010000
00000000
00000000
10000000
00100000
00000000
00000000
00000000
00001000
00000000
00000010
00000000
,
00000000
00000101
00000000
00001000
00000100
00000010
00001001
00000000
,
00000001
00000010
00000000
00010000
00100000
00000000
01100000
00000000
,
10000000
00200000
00010000
00000000
01300000
00200000
10300000
02000000
,
03100000
00000000
00001000
00000000
00011000
00000000
00010000
00001000
00000100
00000010
00000001
00001000
00010000
00001000
00100000
01000000
,
00100000
00000000
00010000
00100000
01000000
00010000
10000000
00100000
00010000
01000000
00100000
00010000
00001000
00001000
00010000
00010000
,
00011000
00000000
00010000
00000010
00001010
00000000
00001000
00000100
,
00000010
00001002
00000103
00002001
00003010
00001002
00000103
00000120
,
00001030
00000000
00000001
00000100
00001000
00000000
00010000
00100000
10000000
00010000
00100000
01000000
00100000
00010000
00001000
00000100
,
00000020
00000000
00000000
00000000
00000000
00000000
00000000
00000000
00000000
00000000
00000000
00000000
00000000
00000000
00000000
00000000
00000000
00000000
00000000
00000000
00000031
00000000
00000000
00000000
00002002
00003003
00000000
00000000
00000000
00000000
00000000
00000000
00011000
00000000
00000000
00000000
00000000
00000000
00000000
00000000
00000000
00000000
00000000
00000000
00000000
00000000
00000000
00000000
10010000
00000000
00000000
00000000
00000000
00000000
00000000
00000000
00010000
00000000
00000000
00000000
00100000
00000000
00000000
00000000
,
00000000
10000000
00100000
00000000
00010000
00000000
10000000
00000000
01000000
00100000
00010000
00000000
00200000
00000000
01000000
00000000
,
00000000
00000000
00301000
00000000
00010000
00000000
00001000
00000000
00011000
00000000
00000000
00000000
00000110
00000000
00001000
00000100
,
00000000
00000001
00000100
00000000
00000010
00000000
00000001
00000000
00001000
00000010
00000100
00000001
00000020
00000000
00000100
00000000
,
00000000
00000000
00001030
00000000
00000010
00000000
00000001
00000000
00001001
00000000
00000000
00000000
00010010
00000000
00000010
00010000
,
00000000
00001000
00100000
00000000
00010000
00000000
10000000
00000000
00100000
01000000
10000000
00000000
02000000
00000000
00010000
00000000
,
00000000
00000000
03100000
00000000
01000000
00000000
00010000
00000000
10000000
00000000
11000000
00000000
11000000
00000000
00010000
10000000
,
00000000
00000000
00000000
01000000
00000000
00000000
00100000
00000000
00000000
00000000
00000000
00000000
00001000
00000000
00000000
00000000
00000000
00000000
00001000
00000000
00000000
00000000
00000000
00000000
00010000
00000000
00001000
00000000
00010000
00000000
00001000
00000000
00010000
00000000
00001000
00000000
00020000
00000000
00000000
00000000
00000000
00000000
00031000
00000000
00000000
00000010
00000000
00000000
,
00000002
00000000
00000013
00000100
00001000
00000000
00001100
00000000
00010100
00000000
00010000
00000000
00011000
00000000
00001000
00010000
,
00000000
00100000
01000000
00000000
00010000
10000000
01000000
00000000
10000000
00010000
01000000
00200000
00010000
00000000
20300000
00000000
,
31000000
00000000
00020000
00000000
00032000
00000000
00003010
00000001
00000010
00000000
00000100
00000000
00001000
00000000
00000010
00000100
,
00000000
00000000
00000000
00001000
00000000
00000000
00010000
00000000
00000000
00000000
00000000
00000000
00100000
00000000
00000000
01000000
00000000
00000000
00010000
00000000
00000000
00000000
00000000
00000000
10000000
00000000
00000000
00000000
00000000
00000000
01000000
00000000
00100000
00000000
01000000
00000000
00100000
00000000
00000000
00000000
00000000
00000000
00001000
00000000
00010000
00000000
00001000
00000000
,
00010000
00000000
00000000
00000000
00000000
00000000
00000010
00000000
00001000
00000000
00000010
00000000
00001000
00000000
00000000
00000000
00000000
00000000
00000001
00000000
00000100
00000000
00000001
00000000
00000200
00000000
00000000
00000000
00000000
00000000
00000000
00000000
00000000
00000300
00000000
00000000
00000110
00000000
00000000
00000000
00000000
00000000
00001000
00000000
00000000
00000001
00000000
00000000
,
00000010
00000100
00000010
00000000
00001000
00010000
00001000
00000000
01000000
00000000
01000000
00100000
01000000
00000000
00010000
00000000
,
00200000
00000000
00000000
00000000
02300000
00000000
00000000
00000000
23000000
00000000
00000000
00000000
30020000
00000000
00000000
00000000
10030000
00000000
00000000
00001000
00000000
00000000
00010000
00000000
00000000
00000001
00000000
00000000
00010000
00000000
00001000
00000000
,
00022000
00033000
00000000
00000000
00000000
00000000
00000000
00000000
00022000
00033000
00000000
00000000
00000000
00000000
00000000
00000000
10010000
00000000
00000000
00000000
00000000
00000000
00000000
00000000
00000000
00000000
00000000
00000000
00000000
00000000
00000000
00000000
10000000
00000000
00000000
00000000
01000000
00000000
00000000
00000000
00100000
00000000
00000000
00000000
01000000
00000000
00000000
00000000
00010000
00000000
00000000
00000000
00000000
00000000
00000000
00000000
00001000
00000000
00000000
00000000
00000000
00000000
00000000
00000000
,
00000200
00000000
00000000
00000000
00000000
00000000
00000000
00000000
00000001
00000000
00000000
00000000
00001000
00000000
00000000
00000300
00000200
00000000
00000000
00000000
00000000
00000000
00000000
00000000
00001000
00000000
00000000
00000000
00000001
00000000
00000000
00000300
00000200
00000000
00000000
00000000
00000000
00000000
00000000
00000000
00000001
00000000
00000000
00000000
00001000
00000000
00000000
00000300
00000100
00000000
00000000
00000000
00000000
00000000
00000000
00000000
00000010
00000000
00000000
00000000
00000000
00000000
00000000
00000000
,
00000011
00000000
00000000
00000000
00001000
00000000
00000001
00000000
00000100
00000010
00000100
00000010
00000100
00000000
00001000
00000000
,
00010000
00100000
10000000
10100000
10000000
11000000
00000000
00110000
,
00101000
00000000
00000000
00000000
00010000
00001000
00000010
00000100
00000010
00000001
00002000
00000000
00003001
00000100
00001000
00010000
,
00001000
00000000
00000000
00000000
00000010
00000000
00000000
00000000
00002000
00000000
00000000
00000000
00000000
00000000
00000000
00000000
00013000
00000000
00000000
00000000
01000000
00000000
00000000
00000000
10000000
00000000
00000000
00000000
00010000
00000000
00000000
00000000
01000000
00000000
00000000
00000000
00100000
00000000
00000000
00000000
10000000
00000000
00000000
00000000
01000000
00000000
00000000
00000000
00200000
00300000
00000000
00000000
00200000
00300000
00000000
00000000
00200000
00000000
00000000
00000000
00000000
00000000
00000000
00000000
,
00301000
00000000
00000000
00000000
00010000
00000000
00000000
00000000
00000000
00000000
00000000
00000000
00000001
00000000
00000000
00000000
00001000
00000000
00000000
00000000
00000000
00000000
00000000
00000000
00002001
00000000
00000000
00000000
00000000
00000000
00000000
00000000
00003001
00000000
00000000
00000000
00000100
00000000
00000000
00000000
00002000
00000000
00000000
00000000
00000000
00000000
00000000
00000000
00013000
00000000
00001000
00000000
00010000
00000000
00001000
00000000
00020000
00030000
00000000
00000000
00000000
00000000
00000000
00000000
,
00022000
00000000
00000000
00000000
00000000
00000000
00033000
00000000
00001000
00010000
00100000
10000000
00020000
00000000
00100000
00000000
,
00000000
00000000
10030000
00000000
00100000
00000000
01000000
00000000
00010000
10000000
01000000
00100000
00001000
00000000
00010000
00000000
,
00002000
00000000
00010000
00000000
00203000
00000000
00010000
00000000
00301000
00010000
00000010
00001000
00000100
00000010
00000001
00000000
,
00000011
00000000
00001010
00000000
00000000
00000000
00000101
00000000
00000000
00000000
00001100
00000000
00000001
00000010
00000100
00000000
,
00020000
00000000
00001000
00000000
00000010
00000000
00031000
00000000
00010000
00001000
00100000
00010000
10000000
00000000
10100000
00000000
,
00000000
00000000
01010000
00000000
10000000
00000000
01000000
00000000
00100000
00001000
00100000
00001000
00010000
00000000
00011000
00000000
,
00010000
00000000
00001000
00000010
00000001
00000000
00000001
00000100
00001000
00010000
00001000
00000000
01000000
00010000
10000000
00000000
,
00010000
01000000
00001000
00010000
00000010
00001000
00000100
00010000
00001000
01000000
00010000
00100000
00001000
00010000
00000010
00001000
,
00000100
00000000
00010000
00001000
00010000
00000000
00100000
01000000
00010000
00000000
00100000
01000000
10000000
00100000
01000000
00010000
,
00200000
10000000
01000000
00310000
11000000
00000000
00011000
00000000
,
00010000
00001000
00000100
00000010
00001000
00000100
00000010
00000001
00001000
00000010
00000100
00001000
00010000
00001000
01000000
00001000
,
00010000
00000000
00000000
00000000
00000000
00000000
00001000
00000000
00000000
00000000
00000000
00000000
00100000
00000000
00010000
00000000
10000000
00000000
00010000
00000000
00000000
00000000
00000000
00000000
01000000
00000000
00000000
00100000
00000000
00000000
10000000
00000000
00000000
00100000
00000000
00000000
01000000
00000000
00000000
00000000
00000000
00000000
00001000
00000000
00000000
00000000
00000000
00000000
,
00022000
00000000
00000000
00033000
00011000
00000000
00010010
00000000
00000010
00001000
00000100
00000001
00000200
00000000
00001300
00000001
,
00000010
00001000
00020000
00000000
00130000
10000000
00020000
00000000
00130000
01000000
00100000
00010000
10000000
00100000
00010000
00001000
,
00010000
00000100
00001000
00000010
00010000
00001000
00100000
00010000
01000000
00001000
00010000
00000010
00001000
00000100
00010000
00001000
,
00010000
00000000
00010010
00000000
00000000
00000000
01001000
00000000
00010100
00000000
00101000
00000000
00001000
00010000
00000010
00001000
,
00000002
00000000
00000003
00000000
;
