#VERSION:0.83;
#TITLE:Arcanos;
#ARTIST:DJ Totoriott;
#GENRE:NOSTALGIC ARTCORE;
#BANNER:Arcanos.png;
#BACKGROUND:Arcanos-bg.png;
#CDTITLE:./CDTitles/RB colette -All Seasons-.png;
#MUSIC:Arcanos.ogg;
#SAMPLESTART:80.31;
#SAMPLELENGTH:15;
#BPMS:0=96;
#TIMESIGNATURES:0=3=4;
#BGSTAGE:14;

//--------------- dance-single - Fred-104 ----------------
#NOTEDATA:;
#STEPSTYPE:dance-single;
#DESCRIPTION:Fred-104;
#DIFFICULTY:Beginner;
#METER:4;
#CREDIT:Fred-104;
#NOTES:
0000
0000
0000
0000
,
0000
0000
0000
0000
,
0000
0000
0000
0000
,
0000
0000
0000
0000
,
0000
0000
0000
0000
1000
0000
0000
1000
,
0000
0000
0001
0000
0000
0001
0000
0000
,
1000
0000
0000
1000
0000
0000
0001
0000
,
0000
0001
0000
0000
1000
0000
0000
0010
,
0000
0000
0100
0000
0000
0001
0000
0000
,
1000
0000
0000
0100
0000
0000
1000
0000
,
0000
1001
0000
0000
0001
0000
0000
1000
,
0000
0000
0001
0000
0000
1000
0000
0000
,
0100
0000
0000
1000
0000
0000
0001
0000
,
1000
0000
0001
0000
1000
0000
0000
1000
,
0000
0000
0100
0000
0000
0100
0000
0000
,
0010
0000
0000
0010
0000
0000
0001
0000
,
0000
0001
0000
0000
0100
0000
0000
0100
,
0000
0000
0010
0000
0000
0010
0000
0000
,
1000
0000
0000
0001
0000
0000
1000
0000
,
0001
0000
0100
0000
0001
0000
0000
0001
,
0000
0000
0010
0000
0000
0010
0000
0000
,
1000
0000
0000
1000
0000
0000
0100
0000
,
0000
0100
0000
0000
0001
0000
0000
0001
,
0000
0000
0010
0000
0000
0010
0000
0000
,
0100
0000
0000
0100
0000
0000
1000
0000
,
0000
1000
0001
1001
0000
0000
0000
0000
,
0000
0000
0001
0000
0000
1000
0000
0000
,
0100
0000
0000
1000
0000
0000
0010
0000
,
0000
1000
0000
0000
0100
0000
0000
0010
,
0000
0000
0001
0000
0000
0100
0000
0000
,
0010
0000
0000
1000
0000
0000
0001
0000
,
0000
1000
0000
0000
2002
0000
0000
0000
,
3003
0000
1000
0000
0000
0100
0000
0000
,
0010
0000
0000
0100
0000
0000
1000
0000
,
0000
0001
0000
0000
0100
0000
0000
0001
,
0000
0000
1000
0000
0000
0001
0000
0000
,
0100
0000
0000
0001
0000
0000
1000
0000
,
0000
0100
0000
0000
0010
0000
0000
0010
,
0010
0001
0002
0000
0003
0020
0000
0030
,
2000
0000
3000
0200
0000
0300
0002
0000
,
0003
2000
0000
3000
0200
0000
0300
0010
,
0001
1000
2002
0000
0000
0000
0000
3003
,
0220
0000
0000
0000
0000
0330
2002
0000
,
0000
0000
0000
3003
0220
0000
0000
0000
,
0000
0330
0000
0000
;

//--------------- dance-single - Fred-104 ----------------
#NOTEDATA:;
#STEPSTYPE:dance-single;
#DESCRIPTION:Fred-104;
#DIFFICULTY:Easy;
#METER:9;
#CREDIT:Fred-104;
#NOTES:
0000
0000
0000
0000
,
0000
0000
0000
0000
,
0000
0000
0000
0000
,
0000
0000
0000
0000
,
0000
0000
0000
0000
1000
0100
1000
1100
,
0001
0100
0101
0001
0100
0110
1000
0100
,
2000
0000
3001
0002
0000
1003
1000
0010
,
0100
0000
0001
0000
0010
0000
0100
0000
1000
0000
0000
0001
0000
0000
0100
0000
,
0010
0000
1000
0000
0100
0000
0000
0010
0000
0000
0100
0000
1000
0000
0001
0000
,
0100
0000
0000
0001
0000
0000
1000
0000
0010
0000
1000
0000
0100
0000
0000
0010
,
0000
0100
1000
0001
1001
1000
0100
0010
,
0100
0000
0010
0000
0100
0000
0000
1000
0000
0000
0001
0000
0000
0100
0000
0000
,
0001
0000
0010
0011
0000
0001
1000
0100
,
0001
1000
0010
0001
1000
0010
0100
0001
,
1001
0000
0110
0000
2001
0000
0000
0001
0000
0000
0002
0000
0000
0000
3003
0000
,
0001
0000
0010
0000
0100
0000
1000
0000
1001
0000
0110
0000
2001
0000
0000
0001
,
0000
0002
0000
3003
1000
0100
0001
0100
,
1000
0000
0010
0000
0120
0000
0000
0100
0000
0000
0130
0000
0001
0000
1000
0000
,
0100
0000
0010
0100
1000
0001
0100
0100
,
0001
0000
1000
0000
0001
0000
0001
1000
0200
0000
0000
2300
0000
0000
3100
0000
,
0010
0000
0001
0000
0200
0000
0000
0320
0000
0000
0130
0000
0001
0000
1000
0000
,
0200
0000
0000
0320
0000
0000
0031
0000
1000
0000
0010
0000
0200
0000
0000
0320
,
0000
0130
0001
1000
0001
0100
1000
0001
,
0010
1000
0001
0010
1000
0001
0100
1000
,
0001
0000
0000
0001
0000
0000
1000
0000
0000
1000
0000
0000
0001
0010
0001
0000
,
1000
0010
1000
0000
0001
0000
1001
0000
0000
0000
0000
0000
0000
0000
0000
0000
,
0000
0000
0002
0000
0000
2003
0000
0000
,
3002
0000
0000
0203
0000
0000
0320
0000
,
0000
1030
0100
0010
0001
0000
1000
1001
,
0000
0000
0002
0000
0000
0023
0000
0000
,
0032
0000
0000
0000
0000
0000
0203
0000
0000
0000
0000
0000
0301
0000
0000
1000
,
0000
0001
0100
0000
0010
0000
1000
0000
0010
0000
0100
0000
0010
0000
1000
0000
,
0001
1001
1000
0001
0001
0100
0010
0010
,
0100
0001
0001
0010
1000
0010
0001
0000
,
1000
0100
0010
0100
1000
0001
1000
0010
,
0010
0000
0100
0000
0101
0000
0000
0000
0001
0100
0001
0000
0000
0000
1000
0000
,
0001
0000
0000
0000
1000
0100
0010
0000
0000
0000
0001
0010
0100
0000
0000
0000
,
1000
0010
0100
0000
0000
0000
0001
0100
0010
0000
0000
0000
1000
0001
1000
0000
,
0010
0000
0100
0000
0001
0000
0000
0001
0000
0000
0001
0000
0100
0000
1010
0000
,
1000
0000
0000
1000
0000
0000
1000
0000
0100
0000
0011
0000
0001
0000
0000
0001
,
0000
0000
0001
0000
0010
0000
0110
0000
0100
0000
0000
0100
0000
0000
1000
0000
,
0001
1000
2200
0000
3300
0202
0000
0303
,
0022
0000
0033
2020
0000
3030
2200
0000
,
3300
0220
0000
0330
0022
0000
0033
2002
,
0000
3003
0000
0000
;

//--------------- dance-single - Fred-104 ----------------
#NOTEDATA:;
#STEPSTYPE:dance-single;
#DESCRIPTION:Fred-104;
#DIFFICULTY:Medium;
#METER:13;
#CREDIT:Fred-104;
#NOTES:
0000
0000
0000
0000
,
0000
0000
0000
0000
,
0000
0000
0000
0000
,
0000
0000
0000
0000
,
0000
0000
0000
0000
0000
0000
0000
0000
0001
0000
0100
1000
0100
0000
0101
0000
,
0001
0000
1001
0000
1000
0000
0001
0100
0010
1000
0100
0000
0010
0000
0100
0000
,
2002
0000
0000
0000
3003
0000
0220
0000
0000
0000
0330
0000
0001
0100
0010
1000
,
0100
0010
0001
0100
1000
0000
0100
0001
0010
0000
0100
1000
0001
0000
1000
0100
,
0001
0000
1000
0010
0002
0000
0000
1003
0001
0100
0010
0000
0110
0000
1010
0000
,
0001
0000
1000
0001
0010
0000
1000
0001
0100
0000
1000
0100
0020
0000
0000
0031
,
1000
0001
0100
0000
0101
0000
1001
0000
1001
0000
0001
0010
1000
0000
0001
0100
,
0010
0000
0001
0100
0020
0000
0000
1030
0100
0010
0100
0000
1000
0000
0001
0100
,
0001
0000
1000
0000
0001
0000
0011
0000
1000
0001
0100
0010
1000
0100
0010
0001
,
0010
0100
1000
0000
1010
0000
0101
0000
1001
0000
1000
0001
0100
0010
1000
0100
,
0100
0000
0001
0100
0100
0000
1000
0010
0100
0001
2000
0000
3002
0000
0203
0000
,
0310
0000
1000
0010
0100
0001
1000
0010
0010
0000
0001
0010
0010
0000
1000
0100
,
0000
0010
0002
0000
2003
0000
3020
0000
0130
0000
0001
0100
0001
0100
1000
0100
,
0010
0000
1000
0100
0010
0000
0001
0100
0010
0100
1000
0000
0100
0000
0001
1000
,
0100
0000
0001
0000
0100
0000
0010
0001
1000
0000
0001
1000
2002
0000
0000
0000
,
0000
0000
0000
0000
0000
0000
3003
0000
0001
0001
0000
1000
1000
0000
0100
0010
,
0001
0000
1000
0000
0010
0010
0000
0100
0100
0000
0001
1000
0100
0000
0010
0000
,
0100
0100
0000
1000
1000
0000
0100
0010
0001
0000
0100
0000
0001
0001
0000
0010
,
0010
0000
1100
0000
0101
0000
1001
0000
1000
1000
0000
0100
0100
0000
1000
0010
,
0100
0001
1000
0000
0001
0001
0000
0100
0100
0000
0001
0010
0100
1000
0001
0000
,
1000
0100
0000
0001
0100
0000
1000
0010
0000
0001
0010
0000
1000
0100
0010
0001
,
0100
0010
1010
0000
0101
0000
1001
0000
0000
0000
0000
0000
0000
0000
0000
0000
,
0000
0000
0000
0000
0002
0000
0000
0000
1003
0100
2000
0000
0000
0000
3001
0000
,
0002
0000
0000
0000
0103
0010
0200
0000
0000
0000
0310
1000
0020
0000
0000
0100
,
0000
0000
0130
0001
1000
0000
1100
0000
0110
0000
0000
0000
1000
0001
2000
0000
,
0000
0000
3001
0100
0020
0000
0000
0000
1030
0001
2000
0000
0000
0000
3001
0000
,
0002
0000
0000
0000
0013
0001
0020
0000
0000
0000
0130
0100
1000
0000
0000
0001
,
0000
1000
0010
0000
0100
0000
0001
0000
0100
0001
0100
0001
0100
1000
0100
1000
,
0100
0000
0020
0000
1030
0000
0001
0100
0010
0100
0010
0000
1000
0100
0010
0100
,
0010
0000
0001
0000
0100
0010
1000
0000
0001
0000
0010
0100
1000
0000
0010
0001
,
1000
0100
0001
0000
0101
0000
0110
0000
1010
0000
1000
0000
0001
1000
0010
0000
,
0001
1000
0100
0001
1000
0000
0001
0100
1000
0100
0001
0000
1000
0100
0001
0100
,
1000
0000
0001
0000
0010
0100
1000
0000
1010
0000
0001
0100
0010
0000
0110
0000
,
1000
0100
0010
0000
0110
0000
0001
0100
0010
0000
0110
0000
1000
0100
0010
1000
,
0001
0100
0010
0001
1000
1000
0000
0001
0001
0000
0100
0000
0010
0000
1000
0000
,
0100
0100
0000
0010
0010
0000
0001
0000
0100
0000
0010
0000
1000
1000
0000
0001
,
0001
0000
0100
0000
1000
0000
0100
0000
0001
0010
0000
0100
1000
0000
0001
0010
,
0100
0000
1000
0000
0001
1000
0001
0000
1000
0000
0000
0000
0010
0000
0000
0000
0001
0000
0000
0000
1000
0000
0000
0000
0100
0000
0000
0000
0001
0000
0000
0000
,
1000
0100
0001
1000
0010
0001
0001
0010
,
1000
0001
0100
1000
0001
0100
1000
0001
,
0010
2000
3000
0000
0000
0000
0000
0000
;

//--------------- dance-single - Fred-104 ----------------
#NOTEDATA:;
#STEPSTYPE:dance-single;
#DESCRIPTION:Fred-104;
#DIFFICULTY:Hard;
#METER:15;
#CREDIT:Fred-104;
#NOTES:
0000
0000
0000
0000
,
0000
0000
0000
0000
,
0000
0000
0000
0000
,
0000
0000
0000
0000
,
0000
0000
0000
0000
0000
0000
0000
0000
1000
0000
0001
0010
0011
0000
0110
0000
,
1100
0000
0000
0000
1001
0000
0000
0000
0001
0000
0000
0000
0100
0000
0001
0000
1000
0000
0100
1000
0002
0000
0000
0000
1003
0000
0100
0000
0010
0000
0001
0000
,
1001
0000
0001
0100
0010
1000
1001
0000
0001
0010
0100
1000
0010
0100
0001
1000
,
0100
0000
0000
0000
0000
0000
0010
0000
0000
0000
0000
0000
0001
0000
0000
0100
0000
0000
0010
0000
0000
0000
0000
0000
0100
0000
0000
0000
0000
0000
0001
0000
0000
0000
0000
0000
1000
0000
0000
0000
0000
0000
0100
0000
0000
0000
0000
0000
0110
0000
0000
0000
0000
0000
0000
0000
0000
0000
0000
0000
0001
0000
0000
0000
0000
0000
1000
0000
0000
0000
0000
0000
0010
0000
0000
0000
0000
0000
0001
0000
0000
0000
0000
0000
0010
0000
0000
0000
1000
0000
0000
0000
0001
0000
0000
0000
,
1000
0000
0000
0000
0001
0000
1000
0000
1002
0000
0000
0000
0000
0000
0103
0001
0100
0000
0010
0000
0200
0000
0000
0000
0302
0000
0000
0000
1003
0000
0100
0000
,
0110
0000
0000
0000
0000
0000
1000
0000
0000
0010
0000
0000
0001
0000
0000
0010
0000
0000
1000
0000
0001
0000
0010
0000
0100
0000
0000
0000
0000
0000
1000
0000
0000
0001
0000
0000
0210
0000
0000
0000
0000
0000
0000
0000
0000
0301
0000
0000
,
1000
0000
0000
0000
0000
0000
1010
0000
0000
0000
0000
0000
0011
0000
0000
0000
0000
0000
0100
0000
0000
0001
0000
0000
1001
0000
0000
0000
0000
0000
0001
0000
0000
0010
0000
0000
0100
0000
0000
1000
0000
0000
0001
0000
0100
0000
1000
0000
,
0100
0000
0000
0000
0001
0000
0010
0000
0210
0000
0000
0000
0000
0000
1300
0100
1000
0000
0001
0000
0100
0000
0001
0000
1000
0000
0100
0000
0010
0000
0001
0000
,
1000
0000
0000
0000
0000
0000
0000
0000
0001
0000
0000
0000
1001
0000
0000
0000
0000
0000
0100
0000
0001
0000
1000
0000
0001
0000
0010
0100
1000
0000
0001
0000
,
0100
0000
0000
0001
0000
0000
0010
0000
0000
0100
0000
0000
1000
0000
0000
0001
0000
0000
0100
0000
0000
0100
0000
0000
0110
0000
0000
0000
0000
0000
0001
0000
0000
1000
0000
0000
0010
0000
0000
0100
0000
0000
0001
0000
0010
0000
0001
0000
,
0100
0000
0000
0000
0001
0000
1000
0000
1001
0000
0000
0000
0000
0000
0001
1000
0100
0000
0010
0000
0210
0000
0000
0000
0320
0000
0000
0000
0031
0000
0100
0000
,
0110
0000
0000
0000
0000
0000
1000
0000
0000
0001
0000
0000
1000
0000
0000
0001
0000
0000
0010
0000
0100
0000
1000
0000
0001
0000
0000
0000
0000
0000
1000
0000
0000
0010
0000
0000
0110
0000
0000
0000
0000
0000
0001
0000
0000
0100
0000
0000
,
0010
0000
0000
0000
0000
0000
1000
0000
0000
0100
0000
0000
0010
0000
0000
0001
0000
0000
0100
0000
0000
0010
0000
0000
1010
0000
0000
0000
0000
0000
1000
0000
0000
0100
0000
0000
0001
0000
0000
0100
0000
0000
1000
0000
0010
0000
0100
0000
,
0001
0000
0000
0000
1000
0000
0001
0000
1001
0000
0000
0000
1000
0000
0010
0100
0010
0000
1000
0000
1002
0000
0000
0000
0103
0000
0010
0000
1000
0000
0100
0000
,
0010
0000
0001
0100
1000
0100
0001
1000
0100
0010
0100
1000
0001
0010
0100
0001
,
1000
0000
0010
0000
0100
0000
1000
0000
0001
0000
0100
0000
0010
1000
0010
1000
0001
0000
0101
0000
0000
0000
1000
0000
1100
0000
0000
0000
0010
0000
1000
0000
,
0001
0010
0100
1000
0100
1100
0000
0100
0110
0000
0001
0010
1000
0001
0100
1000
,
0001
0011
0000
0010
0110
0000
1000
0010
0001
0010
0100
0001
1000
1001
0000
0001
,
0011
0000
0001
1000
0010
1000
0001
0001
1000
0100
0001
0100
1100
0000
0001
0100
,
1000
0100
0001
1000
0001
0010
1000
0010
0011
0000
1000
0010
0001
0010
1000
0001
,
1000
0000
2000
0000
3002
0000
1003
0000
1001
0000
0000
0000
0001
0000
0002
0000
2003
0000
3001
0000
1001
0000
0000
0000
0001
0000
1000
0000
0010
0000
0100
0001
,
0100
0001
0100
0010
0100
0000
0000
0000
0110
0000
0000
0000
1001
0000
0000
0000
0000
0000
0000
0000
0000
0000
0000
0000
0000
0000
0000
0000
0000
0000
0000
0000
,
0000
0000
0000
0000
0000
0000
0000
0000
2000
0000
0000
0000
0000
0000
3001
1000
0001
1000
0001
1000
0200
0000
0000
0000
0000
0000
0000
0000
0310
0000
0000
0000
,
0002
0000
0000
0000
0000
0000
1003
0010
1000
0000
0001
0000
0010
0000
0000
0000
0000
0000
0100
0000
1000
0000
0001
0000
2000
0000
0000
0000
0000
0000
3001
1000
,
0010
1000
0001
0000
0010
0000
0100
0000
1000
0000
0010
0100
0010
0000
1000
0000
0002
0000
0000
0000
0000
0000
0000
0000
0000
0000
0013
0100
0010
0000
0000
0000
,
0001
0000
0000
0000
1000
0001
1000
0100
2000
0000
0000
0000
0000
0000
3001
0100
0001
0100
0001
1000
0002
0000
0000
0000
0000
0000
0000
0000
1003
0000
0000
0000
,
0020
0000
0000
0000
0000
0000
0130
0001
0100
0000
0001
0000
1000
0000
0000
0000
0100
0000
0010
0001
0010
0000
0001
0000
0201
0000
0000
0000
1300
0000
0200
0000
,
0000
0301
0100
0000
0010
0000
0001
0000
1000
1000
0010
0010
0100
0100
0001
0001
,
1000
0001
1000
0001
2000
0000
0000
0000
3001
0000
0000
0000
1000
0000
0001
0000
1000
0100
0010
0100
1000
0000
0001
0000
1000
0000
0010
0000
0100
0000
0001
0000
,
0011
0000
0000
0000
0001
0000
0010
0000
0100
0000
1000
0000
0010
0000
0000
0000
0100
0000
0001
0010
0001
0000
1000
0000
1001
0000
0000
0000
1000
0000
0001
0000
,
0010
0001
1000
0000
0010
0000
0100
0000
0001
0000
0010
0100
0010
0000
0001
0000
1000
0000
0000
0000
0001
0000
0100
0000
1000
0000
0100
0000
0001
0000
1000
0000
,
0100
0000
0010
0000
0001
1000
0001
1000
0001
0000
0000
0000
1000
0000
0001
0000
0010
0100
0010
0100
0010
0000
0001
0000
1000
0000
0010
0000
2010
0000
0000
0000
,
3001
0000
1000
0100
0001
0100
1100
0000
0001
0100
1000
0100
0101
0000
1000
0010
,
0001
0000
0010
0000
1010
0000
0000
0000
0001
0000
0001
0010
1000
0000
0010
0000
0011
0000
0000
0000
1000
0000
0010
0000
0001
0000
0010
0000
1000
0000
0001
0000
,
0100
0010
0100
0010
0100
0000
0001
0000
1000
0000
1100
0000
0000
0000
0001
0000
0101
0000
0000
0000
1000
0000
0100
0000
0010
0000
0001
0000
0100
0000
0010
0000
,
1000
0000
1010
0000
0000
0000
0001
0000
0011
0000
0000
0000
1000
0000
0001
0100
0001
0000
0010
0000
0001
0000
0100
0000
0001
0000
0101
0000
0000
0000
1000
0000
,
1100
0000
0000
0000
0001
0000
0100
0000
0010
0000
0100
0001
0100
0000
0001
0000
1000
0000
0110
0000
0000
0000
0001
0000
0110
0000
0000
0000
1000
0000
0100
0000
,
0010
0000
0001
0010
0001
1000
0010
1000
0002
0000
0000
0000
0000
0000
0000
0000
0000
0000
0000
0000
0023
0000
0000
0000
0000
0000
0000
0000
0000
0000
0000
0000
,
2030
0000
0000
3002
0000
0000
0203
0000
,
0000
2300
0000
0000
3002
0000
0000
0203
,
0000
0300
1001
0000
0000
0000
0000
0000
;

//--------------- dance-single - Fred-104 ----------------
#NOTEDATA:;
#STEPSTYPE:dance-single;
#DESCRIPTION:Fred-104;
#DIFFICULTY:Challenge;
#METER:17;
#CREDIT:Fred-104;
#NOTES:
0000
0000
0000
0000
,
0000
0000
0000
0000
,
0000
0000
0000
0000
,
0000
0000
0000
0000
,
0000
0000
0000
0000
0000
0000
0000
0000
1001
0000
0001
1000
0100
0000
0010
0001
,
1000
0000
0010
0000
0100
0000
0100
0000
0110
0000
0000
0000
0101
0000
0001
0000
1000
0000
0100
0010
0100
0000
0010
0000
0001
0000
1000
0000
1100
0000
0100
0000
,
0110
0000
0101
0100
0010
1000
1100
0000
1010
0010
0100
0001
0101
0001
0010
1000
,
0010
0000
0000
0000
0000
0000
0001
0000
0000
1000
0000
0000
0001
0000
0000
0000
0000
0000
1000
0000
0000
0000
0000
0000
0100
0000
0000
0000
0000
0000
0010
0000
0000
0000
0000
0000
0100
0000
0000
0000
0000
0000
0010
0000
0000
0000
0000
0000
1001
0000
0000
0000
0000
0000
0000
0000
0000
0000
0000
0000
1010
0000
0000
0000
0000
0000
0010
0000
0000
0000
0000
0000
0100
0000
0000
0000
0000
0000
0001
0000
0000
0000
0000
0000
1000
0000
0000
0000
0100
0000
0000
0000
0010
0000
0000
0000
,
0001
0000
0100
0000
0010
0000
0100
0000
0101
0000
0000
0000
0010
0000
0001
1000
0100
0000
0010
0000
0110
0000
0000
0000
0001
0000
0100
0000
0010
0000
1000
0000
,
1010
0000
0000
0000
0000
0000
0000
0000
0000
0000
0000
0000
1001
0000
0000
0000
0000
0000
0001
0000
0000
0000
0000
0000
0010
0000
0000
0000
0000
0000
0100
0000
0000
0000
0000
0000
1000
0000
0000
0000
0010
0000
0000
0000
0100
0000
0000
0000
0001
0000
0000
0000
0000
0000
1000
0000
0000
0000
0000
0000
0100
0000
0000
0000
0000
0000
0010
0000
0000
0000
0000
0000
0011
0000
0000
0000
0000
0000
0000
0000
0000
0000
0000
0000
0001
0000
0000
0000
0000
0000
1000
0000
0000
0001
0000
0000
,
1000
0000
0000
0010
0000
0000
0110
0000
0000
0000
0000
0000
0001
0000
0000
1000
0000
0000
0100
0000
0000
0010
0000
0000
0012
0000
0000
0000
0000
0000
1003
0000
0000
0100
0000
0000
0001
0000
0000
1000
0000
0000
0010
0000
0001
0000
0010
0000
,
0100
0000
0000
0000
1001
0000
0001
0000
0102
0000
0000
0000
1003
0000
0100
0001
0100
0000
1000
0000
1100
0000
0000
0000
1010
0000
0010
0000
0100
0000
0001
0000
,
0202
0000
0000
0000
0303
0000
0000
0000
1100
0000
0000
0000
0012
0000
0000
0000
0000
0000
0013
0001
1000
0000
0010
0000
0110
0000
0010
1000
0100
0000
0010
0000
,
0011
0000
0000
0000
0000
0000
0010
0000
0000
0000
0000
0000
0110
0000
0000
0000
0000
0000
0100
0000
0000
0000
0000
0000
1100
0000
0000
0000
0000
0000
1000
0000
0000
0000
0000
0000
0001
0000
0000
0100
0000
0000
0010
0000
0000
1000
0000
0000
0001
0000
0000
0000
0000
0000
0000
0000
0000
0000
0000
0000
1100
0000
0000
0000
0000
0000
0100
0000
0000
0000
0000
0000
0001
0000
0000
0000
0000
0000
0100
0000
0000
0000
0000
0000
1000
0000
0000
0000
1000
0000
0000
0000
1000
0000
0000
0000
,
0001
0000
0100
0000
0010
0000
1000
0000
2010
0000
0000
0000
3001
0000
0100
0010
0100
0000
0001
0000
0011
0000
0000
0000
2001
0000
0000
0000
3001
0000
1000
0000
,
1010
0000
0000
0000
0000
0000
0011
0000
0000
0010
0000
0000
0100
0000
0000
1000
0000
0000
0001
0000
0001
0000
0001
0000
1000
0000
0000
0001
0000
0000
0100
0000
0000
0010
0000
0000
2010
0000
0000
0000
0000
0000
3001
0000
0000
0100
0000
0000
,
0010
0000
0000
0000
0000
0000
1000
0000
0000
0000
0000
0000
1100
0000
0000
0000
0000
0000
1000
0000
0000
0000
0000
0000
1001
0000
0000
0000
0000
0000
1000
0000
0000
0001
0000
0000
0100
0000
0000
0000
0000
0000
0001
0000
0000
0000
0000
0000
1001
0000
0000
0000
0000
0000
0000
0000
0000
0000
0000
0000
0011
0000
0000
0000
0000
0000
0001
0000
0000
0000
0000
0000
0100
0000
0000
0000
0000
0000
0010
0000
0000
0000
0000
0000
1000
0000
0000
0000
1000
0000
0000
0000
1000
0000
0000
0000
,
0001
0000
0010
0000
0010
0000
1000
0000
2001
0000
0000
0000
3001
0000
0101
0000
0100
0010
1000
0000
2100
0000
0000
0000
3001
0000
0100
0000
0010
0000
0100
0000
,
0101
0000
0000
0000
0000
0000
1000
0000
0000
0100
0000
0000
0010
0000
0000
0001
0000
0000
1000
0000
1000
0000
1000
0000
0001
0000
0000
0100
0000
0000
0100
0000
0000
1000
0000
0000
1001
0000
0000
0000
0000
0000
0110
0000
0000
1000
0000
0000
,
0001
0000
0010
0000
0110
0000
0100
0000
1100
0000
1000
0000
1000
0010
0100
0001
1000
0000
1100
0000
0000
0000
0001
0000
0101
0000
0000
0000
1000
0000
0100
0000
,
0001
0000
0100
0000
1000
0000
0001
0000
1000
0000
1010
0000
0000
0000
0001
0000
0011
0000
0000
0000
1000
0100
0010
0001
0100
0000
0010
1000
0100
0010
0001
0000
,
1000
1100
0000
0001
0011
0000
0001
0100
0010
1000
0001
1000
0100
0110
0000
0001
,
1001
0000
1000
0100
0001
1000
0010
0001
0101
0100
0001
0100
0101
0000
0011
0010
,
0100
0000
1000
0000
0001
0000
1000
0000
1100
0000
0100
0000
1000
0000
0100
0000
1100
0000
0000
0000
1010
0000
0010
0000
1000
0000
0001
0000
0010
0100
1000
0000
,
1100
0000
1001
0000
0000
0000
0101
0000
1001
0000
0000
0000
0011
0000
1001
0000
0000
0000
1010
0000
1001
0000
0000
0000
1000
0010
1000
0010
0100
0001
0100
0001
,
1000
0100
0010
0001
0100
0000
0000
0000
0110
0000
0000
0000
1001
0000
0000
0000
0000
0000
0000
0000
0000
0000
0000
0000
0000
0000
0000
0000
0000
0000
0000
0000
,
0000
0000
0000
0000
0002
0000
0000
0000
2003
0000
0000
0000
0000
0000
3001
0010
0001
0010
0100
0010
0002
0000
0000
0000
0000
0000
1000
0000
1003
0000
0010
0000
,
0210
0000
0000
0000
0310
0000
1000
0010
0100
0000
0001
0000
0101
0000
0100
0000
0001
0000
1000
0100
1000
0000
0010
0000
1020
0000
0000
0000
0000
0000
1030
0000
,
0010
0100
0001
0010
0100
0000
1000
0000
0010
0000
0100
0001
0100
0000
0010
0000
2020
0000
0000
0000
0000
0000
0000
0000
0030
0000
3100
0010
0001
0000
1000
0000
,
0010
0000
1000
0000
0001
0010
0100
1000
0001
0000
0000
0000
0011
0000
0010
0001
1000
0001
1000
0001
0100
0000
1000
0000
0100
0000
0010
0000
1000
0000
0001
0000
,
1001
0000
0000
0000
1000
0000
0001
0100
0010
0000
1000
0000
1100
0000
0100
0000
1000
0000
0100
0010
0001
0000
1000
0000
1002
0000
0000
0000
0103
0000
1000
0000
,
0000
0000
0100
0000
0002
0000
0000
0000
0023
0000
0000
0000
0230
0000
0000
0000
1300
0000
0010
0000
0100
0000
0001
0000
1000
0100
1000
0100
0010
0001
0010
0001
,
1000
0001
1000
0001
2000
0000
0000
3000
1001
0000
1000
0000
0100
0000
0010
0001
1000
0010
0100
0001
1000
0000
0010
0000
0001
0000
1000
0000
0100
0000
0010
0000
,
1010
0000
1001
0001
0100
0010
1010
0000
1100
0100
0010
0001
0101
0000
0011
0010
,
0100
1000
0001
0100
0010
0000
0100
0000
0001
0000
0010
0100
1000
0000
0001
0000
2001
0000
0000
0000
3010
0000
0100
0000
0001
0000
1000
0000
1100
0000
0100
0000
,
0110
0000
0010
0000
0001
0010
0100
1000
0001
0000
0100
0000
0010
0000
1000
0001
0010
0001
0100
0010
1000
0000
0001
0000
1001
0000
1000
0000
1010
0000
0010
0000
,
0110
0000
0000
0000
1001
0000
1000
0100
0010
0000
0001
0000
0011
0000
0000
0000
0101
0000
0001
0010
0100
0000
1000
0000
1100
0000
0000
0000
1000
0000
0001
0100
,
0001
0000
1000
0000
1001
0000
0000
0000
0001
0000
1000
0100
1000
0000
0001
0000
1001
0000
1000
0000
0001
0000
0100
0001
0010
0000
0100
0000
1000
0001
1000
0010
,
0100
0001
1000
0100
0010
0001
1000
0000
1001
0000
0101
0000
0000
0000
1001
0000
1100
0000
0000
0000
1010
0000
1000
0000
0001
0000
0100
0000
0001
0000
0010
0000
,
0011
0000
1001
0000
0000
0000
1010
0000
1001
0000
0000
0000
0011
0000
0001
0100
1000
0000
0100
0000
1000
0100
0001
0000
0011
0000
1001
0000
0000
0000
1010
0000
,
1001
0000
0000
0000
0000
0000
0000
0000
0000
0000
0000
0000
1000
0000
0000
0000
0000
0000
0100
0000
0000
0000
0000
0000
0010
0000
0000
0000
0000
0000
0001
0000
1000
0000
0001
0000
1000
0000
0000
0000
0000
0000
0001
0000
0000
0000
0000
0000
1000
0000
0000
0100
0000
0000
1000
0000
0000
0001
0000
0000
0100
0000
0000
0000
0000
0000
0001
0000
0000
0100
0000
0000
0001
0000
0000
1000
0000
0000
0100
0000
0000
0000
0000
0000
1000
0000
0000
0001
0000
0000
0010
0000
0000
0001
0000
0000
,
1000
0010
1000
0001
0010
0100
1000
0001
1000
0000
0010
0000
0100
0000
0010
0000
0001
0000
1000
0000
0100
0000
1000
0000
0100
0000
0001
0000
1001
0000
0000
0000
,
0001
0010
0100
0010
1000
0001
0100
0001
0100
1000
1001
0000
1000
0100
1000
0100
,
0001
1000
0010
0100
0010
0001
1001
0000
0001
0100
0001
0100
1000
0001
0010
0100
,
0010
1000
2002
0000
3003
0000
0000
0000
0000
0000
0000
0000
0000
0000
0000
0000
;

//--------------- dance-double - Fred-104 ----------------
#NOTEDATA:;
#STEPSTYPE:dance-double;
#DESCRIPTION:Fred-104;
#DIFFICULTY:Easy;
#METER:9;
#CREDIT:Fred-104;
#NOTES:
00000000
00000000
00000000
00000000
,
00000000
00000000
00000000
00000000
,
00000000
00000000
00000000
00000000
,
00000000
00000000
00000000
00000000
,
00000000
00000000
00000000
00000000
10000000
01000000
00100000
00101000
,
00010000
00001000
00011000
00010000
00001000
00001100
00000100
00000001
,
00002000
00000000
00000000
00003002
00000000
00000000
00000013
00000100
,
00000010
00001000
00010000
00100000
01000000
00000000
00010000
10000000
,
01000000
00100000
00010000
00000000
01000000
00100000
01000000
00010000
,
10000000
00000000
00100000
00010000
00001000
00000100
00000010
00000000
,
00001000
00000001
00000010
00000100
00001100
00000000
00000001
00000100
,
00001000
00010000
01000000
00000000
10000000
10000000
00000000
00010000
,
00010000
00000000
10000000
10010000
00000000
10000000
00100000
00010000
,
00001000
00000000
00000010
00000000
00000001
00000000
00001000
00000000
00000001
00000000
00000000
00000100
00000000
00000000
00000010
00000000
,
00000100
00000000
00001000
00000000
00010000
00000000
00000000
00001000
00000000
00000000
00001000
00000000
01000000
00000000
00001000
00000000
,
00010000
00000000
00000000
00000010
00000000
00000000
00001000
00000000
00000100
00000000
00000010
00000000
00000001
00000000
00000000
00000100
,
00000000
00000000
00001000
00000000
00010000
00000000
00100000
00000000
01000000
00000000
00000000
00010000
00000000
00010000
10000000
00000000
,
01000000
00000000
00100000
00000000
00001000
00000000
00000000
00010000
00000000
00010000
00001000
00000000
00000010
00000000
00000100
00000000
,
00000010
00000000
00000001
00000000
00001000
00000000
00000010
00000100
00000010
00000000
00001000
00000100
00001000
00000000
00000100
00000000
,
00000001
00000000
00001000
00000000
00000010
00000000
00000001
00000000
00001001
00000000
00000000
00001010
00000000
00000000
00001010
00000000
,
00000001
00000000
00000100
00000000
00001001
00000000
00000000
00001100
00000000
00000000
00001100
00000000
00000100
00000000
00010000
00000000
,
00011000
00000000
00000000
00101000
00000000
00000000
00011000
00000000
00001000
00000000
01000000
00000000
01010000
00000000
00000000
01100000
,
00000000
00000000
01010000
00000000
00010000
00000000
01000000
00100000
10000000
00000000
01000000
00000000
00010000
00000000
00001000
00000000
,
00000010
00000001
00000001
00000100
00001000
00010000
00100000
10000000
,
01000000
00000000
00000000
00100000
00000000
00000000
00001000
00000000
00000000
00010000
00000000
00000000
00000100
00000000
00000010
00000000
,
00000001
00001000
00000100
00011000
00000000
00000000
00000000
00000000
,
00000000
00000000
00002000
00000000
00000000
00023000
00000000
00000000
,
00230000
00000000
00000000
00320000
00000000
00000000
00032000
00000000
,
00000000
00013000
00001000
00000010
00000001
00000000
00000000
00001001
,
00000000
00000000
00000002
00000000
00000000
00000203
00000000
00000000
,
00002300
00000000
00000000
00000000
00000000
00000000
00023000
00000000
00000000
00000000
00000000
00000000
00130000
00000000
00000000
01000000
,
00000000
01000000
00010000
00000000
10000000
00000000
01000000
00000000
00010000
00000000
00000010
00000000
00010000
00000000
00001000
00000000
,
00022000
00000000
00033000
00000000
00010000
00000000
00000000
00000000
00001000
00000100
00000020
00000000
00000000
00000000
00001030
00000000
,
00000001
00000000
00000000
00000000
00000100
00000010
00000200
00000000
00000000
00000000
00001300
00000000
00010000
00000000
00000000
00000000
,
00001000
00010000
00002000
00000000
00100000
00000000
00103000
00000000
00001000
00000000
00010000
00000000
00100000
00000000
10000000
00000000
,
00010000
00000000
00100000
00000000
01000000
00000000
10000000
00000000
00100000
01000000
00100000
00000000
00010000
00000000
00001000
00000000
,
00010000
00000000
00001000
00000000
00000100
00000010
00000200
00000000
00000000
00000000
00000301
00001000
00000002
00000000
00000000
00000000
,
00001003
00000100
00002000
00000000
00000000
00000000
00003010
00010000
00000020
00000000
00000000
00000000
00001030
00000100
00001000
00000000
,
00000001
00000000
00000010
00000000
00000200
00000000
00000000
00001000
00000000
00000000
00001300
00000000
00000010
00000000
00010000
00000000
,
00002000
00000000
00000000
00010000
00000000
00000000
00013000
00000000
00100000
00000000
01000000
00000000
00020000
00000000
00000000
10000000
,
00000000
00000000
10030000
00000000
01000000
00000000
00100000
00000000
00002000
00000000
00000000
00010000
00000000
00000000
00013000
00000000
,
00001000
00000100
00000002
00000000
00000003
00000020
00000000
00000030
,
00002000
00000000
00003000
00020000
00000000
00030000
00200000
00000000
,
00300000
20000000
00000000
30000000
02000000
00000000
03000000
00020000
,
00000000
00030000
00011000
00000000
00000000
00000000
00000000
00000000
;

//--------------- dance-double - Fred-104 ----------------
#NOTEDATA:;
#STEPSTYPE:dance-double;
#DESCRIPTION:Fred-104;
#DIFFICULTY:Medium;
#METER:13;
#CREDIT:Fred-104;
#NOTES:
00000000
00000000
00000000
00000000
,
00000000
00000000
00000000
00000000
,
00000000
00000000
00000000
00000000
,
00000000
00000000
00000000
00000000
,
00000000
00000000
00000000
00000000
00000000
00000000
00000000
00000000
00001000
00000000
00010000
00001000
00000010
00000000
00000100
00000000
,
00001000
00000000
00000001
00000000
00000100
00000000
00001000
00010000
00100000
01000000
00010000
00000000
10000000
00000000
01000000
00000000
,
02200000
00000000
03300000
00000000
00001000
00000000
00022000
00000000
00033000
00000000
00010000
00000000
00001000
00010000
00001000
00010000
,
00001000
00000100
00000001
00001000
00000100
00000000
00000010
00000000
00001001
00000000
00000001
00000100
00000010
00001000
00000001
00000010
,
00000100
00000000
00010000
00000000
00002000
00000000
00023000
00000000
00130000
01000000
00200000
00000000
20300000
00000000
30010000
00100000
,
01000000
00000000
10000000
00100000
01000000
00100000
00010000
00001000
00010000
00000000
00001000
00000100
00000001
00000000
00001000
00000100
,
00000010
00000000
00000011
00000000
00001010
00000000
00000101
00000000
00001001
00000000
00000001
00001000
00000100
00001000
00000010
00000100
,
00000001
00000000
00000100
00001000
00010000
00000000
01000000
00000000
10000000
00010000
01000000
00000000
00010000
00000000
10000000
00000000
,
02000000
00000000
00000000
00000000
03200000
00000000
00302000
00000000
00000000
00000000
01003000
00000000
00001000
00010000
00000100
00001000
,
00000100
00010000
00002000
00000000
00000000
00000000
00003000
00000000
00011000
00000000
00010000
00001000
00000100
00000001
00001000
00000100
,
00000010
00000000
00000100
00000010
00000001
00000000
00000100
00000010
00001000
00000010
00010000
00000000
00011000
00000000
00010010
00000000
,
00101000
00000000
00001000
00010000
00001000
00100000
01000000
10000000
00010000
00000000
10000000
01000000
00010000
00000000
00001000
00000000
,
00010000
00000000
00010100
00000000
00001100
00000000
00000101
00000000
00001001
00000000
00000001
00000100
00000010
00000100
00001000
00000100
,
00000001
00000000
00001000
00000100
00000010
00000000
00001000
00010000
00001000
00000000
00011000
00000000
00001000
00010000
01000000
00100000
,
00010000
00000000
10000000
00000000
00100000
01000000
00100000
00010000
00001000
00000000
00010000
00000100
00020000
00000000
00000000
00000000
,
00000000
00000000
00000000
00000000
00030000
00000000
00001000
00010000
00001000
00010000
00000000
00100000
10000000
00000000
01000000
10000000
,
01000000
00100000
00001000
00000000
00010000
00001000
00000000
00000100
00001000
00000000
00010000
00001000
00000010
00000001
00001000
00000000
,
00000001
00000100
00000000
00001000
00000100
00000000
00000001
00000010
00000100
00000010
00001000
00000000
00010000
00001000
00000000
01000000
,
00001000
00000000
00010000
01000000
00100000
00010000
10000000
00000000
01000000
00010000
00000000
00001000
00000100
00000000
00000001
00001000
,
00000100
00000010
00001000
00000000
00010000
00100000
00000000
01000000
00010000
00000000
10000000
01000000
00010000
00001000
00010000
00000000
,
00001000
00001000
00000000
00010000
00010000
00000000
00000001
00000001
00000000
00001000
00001000
00000000
00000001
00000010
00000100
00001000
,
00000010
00000100
00000110
00000000
00011000
00000000
01100000
00000000
00000000
00000000
00000000
00000000
00000000
00000000
00000000
00000000
,
00000000
00000000
20010000
00000000
00000000
30020000
00000000
00000000
,
02030000
00000000
00000000
00000000
00000000
00000000
03001000
00000000
00010000
00000000
00001000
00000000
00101000
00000000
00000000
00002000
,
00000000
00010000
00010000
00013000
00002000
00000000
01003000
01100000
,
00000000
00000000
00010000
10000000
02000000
00000000
00000000
00000000
03100000
00000000
00200000
00000000
00000000
00000000
00301000
00000000
,
00002000
00000000
00000000
00000000
00013000
00000000
00020000
00000000
00000000
00000000
00031000
00010000
00000010
00000000
00000000
00001000
,
00000000
00001000
00000100
00000000
00000010
00000000
00000001
00000000
00000100
00001000
00010000
00000000
00100000
01000000
00010000
00000000
,
00100000
01000000
10000000
00000000
10010000
00000000
10000000
01000000
00010000
01000000
00010000
00000000
00001000
00010000
00001000
00000100
,
00000001
00000000
00001000
00000000
00000001
00000010
00000100
00000000
00001000
00000000
00000010
00000100
00001000
00000000
00010000
00000000
,
00002000
00023000
00230000
20300000
31000000
00100000
00001000
00011000
,
00010010
00000000
00001000
00010000
00001000
00000000
00010000
00001000
00000100
00001000
00010000
00000000
00000100
00001000
00010000
00001000
,
00000100
00000000
00010000
00000000
00001000
00000100
00000001
00000000
00001001
00000000
00000001
00000100
00001000
00000000
00011000
00000000
,
00010000
00100000
10000000
00000000
10010000
00000000
10000000
01000000
00010000
00000000
00011000
00000000
00001000
00000100
00000001
00001000
,
00000100
00000010
00000001
00000000
00000100
00000100
00000000
00001000
00001000
00000000
00010000
00001000
00010000
00100000
01000000
00000000
,
00010000
00010000
00000000
10000000
10000000
00000000
01000000
00100000
00001000
00010000
00000010
00000000
00001000
00001000
00000000
00000100
,
00000100
00000000
00000010
00000001
00000100
00001000
00010000
00000000
00001000
00001000
00000000
00100000
00100000
00000000
01000000
10000000
,
00100000
00010000
00001000
00000100
00000002
00000000
00000000
00000000
00000000
00000000
00000023
00000000
00000000
00000000
00000000
00000000
,
00002030
00000000
00000000
00023000
00000000
00000000
02030000
00000000
,
00000000
23000000
00000000
00000000
30200000
00000000
00000000
00320000
,
00000000
00031000
00000000
00000000
;

//--------------- dance-double - Fred-104 ----------------
#NOTEDATA:;
#STEPSTYPE:dance-double;
#DESCRIPTION:Fred-104;
#DIFFICULTY:Hard;
#METER:16;
#CREDIT:Fred-104;
#NOTES:
00000000
00000000
00000000
00000000
,
00000000
00000000
00000000
00000000
,
00000000
00000000
00000000
00000000
,
00000000
00000000
00000000
00000000
,
00000000
00000000
00000000
00000000
00000000
00000000
00000000
00000000
00000001
00000000
00000010
00000100
00000110
00000000
00000001
00000100
,
00001000
00000000
00010000
00000000
00100000
00000000
10000000
00000000
00010000
00000000
00000000
00000000
00100000
00000000
01000000
00000000
10000000
00000000
00100000
01000000
00100000
00000000
10000000
00000000
01000000
00000000
00010000
00000000
00001000
00000000
00000100
00000000
,
00000001
00000000
00000010
00001000
00010000
01000000
10000000
00000000
00100000
00010000
00001000
00000100
00000001
00000000
00001000
00000100
,
00000010
00000000
00000000
00001000
00000000
00000000
00010000
00000000
00000000
01000000
00000000
00000000
00100000
00000000
00000000
00000000
00000000
00000000
00010000
00000000
00000000
01000000
00000000
00000000
00100000
00000000
00000000
00000000
00000000
00000000
10000000
00000000
00000000
00010000
00000000
00000000
10000000
00000000
00000000
01000000
00000000
00000000
00100000
00000000
00001000
00000000
00010000
00000000
,
00001000
00000000
00000000
00000000
00000100
00000000
00000001
00000000
00000010
00000000
00000000
00000000
00000000
00000000
00010000
00100000
01000000
00000000
10000000
00000000
10010000
00000000
00000000
00000000
01100000
00000000
00000000
00000000
00010000
00000000
10000000
00000000
,
01000000
00000000
00000000
00000000
00000000
00000000
00010000
00000000
00000000
00001000
00000000
00000000
00000100
00000000
00000000
00000010
00000000
00000000
00001000
00000000
00000100
00000000
00000010
00000000
00000001
00000000
00000000
00000000
00000000
00000000
00001000
00000000
00000000
00000010
00000000
00000000
00000100
00000000
00000000
00000000
00000000
00000000
00000000
00000000
00000000
00010000
00000000
00000000
,
01000000
00000000
00000000
00100000
00000000
00000000
10100000
00000000
00000000
00000000
00000000
00000000
01010000
00000000
00000000
00000000
00000000
00000000
10000000
00000000
00000000
01000000
00000000
00000000
01100000
00000000
00000000
00000000
00000000
00000000
00001000
00000000
00000000
00010000
00000000
00000000
00100000
00000000
00000000
10000000
00000000
00000000
00010000
00000000
00100000
00000000
01000000
00000000
,
10000000
00000000
00000000
00000000
00010000
00000000
10000000
00000000
00100000
00000000
00000000
00000000
00000000
00000000
00001000
00000010
00000100
00000000
00000001
00000000
00000101
00000000
00000000
00000000
00001000
00000000
00000001
00000000
00000010
00000000
00001000
00000000
,
00010000
00000000
00000000
00000000
00100000
00000000
01000000
00000000
00010000
00000000
00000000
00000000
01100000
00000000
00000000
00000000
00000000
00000000
10000000
01000000
00100000
00000000
00001000
00000000
00010000
00000000
00001000
00000100
00000001
00000000
00000010
00000000
,
00000100
00000000
00000000
00010000
00000000
00000000
01000000
00000000
00000000
00100000
00000000
00000000
00001000
00000000
00000000
00010000
00000000
00000000
00100000
00000000
00000000
10000000
00000000
00000000
11000000
00000000
00000000
00000000
00000000
00000000
00010000
00000000
00000000
10000000
00000000
00000000
00100000
00000000
00000000
00010000
00000000
00000000
00001000
00000000
00000100
00000000
00000010
00000000
,
00001000
00000000
00000000
00000000
00000100
00000000
00000010
00000000
00000001
00000000
00000000
00000000
00000100
00000000
00001000
00010000
00001000
00000000
01000000
00000000
00010000
00000000
00000000
00000000
01100000
00000000
00000000
00000000
10000000
00000000
01000000
00000000
,
01100000
00000000
00000000
00000000
00000000
00000000
00001000
00000000
00000000
00010000
00000000
00000000
00100000
00000000
00000000
01000000
00000000
00000000
10000000
00000000
01000000
00000000
00010000
00000000
10000000
00000000
00000000
00000000
00000000
00000000
01000000
00000000
00000000
00001000
00000000
00000000
00000100
00000000
00000000
00000000
00000000
00000000
00000010
00000000
00000000
00000100
00000000
00000000
,
00010000
00000000
00000000
00001000
00000000
00000000
00011000
00000000
00000000
00000000
00000000
00000000
01100000
00000000
00000000
00000000
00000000
00000000
00010000
00000000
00000000
10000000
00000000
00000000
10100000
00000000
00000000
00000000
00000000
00000000
00010000
00000000
00000000
01000000
00000000
00000000
00100000
00000000
00000000
01000000
00000000
00000000
10000000
00000000
01000000
00000000
00100000
00000000
,
10000000
00000000
00000000
00000000
01000000
00000000
00100000
00000000
00001000
00000000
00000000
00000000
00000000
00000000
00010000
00001000
00000100
00000000
00000010
00000000
00001010
00000000
00000000
00000000
00000001
00000000
00000100
00000000
00001000
00000000
00000100
00000000
,
00000001
00000000
00000000
00000000
00000000
00000000
00000010
00000000
00000000
00000100
00000000
00000000
00010000
00000000
00000000
00001000
00000000
00000000
00100000
00000000
00010000
00000000
00100000
00000000
01000000
00000000
00000000
10000000
00000000
00000000
00100000
00000000
00000000
01000000
00000000
00000000
00100000
00000000
00000000
10000000
00000000
00000000
01000000
00000000
00000000
00100000
00000000
00000000
,
00001000
00010000
00001000
00000100
00000001
00000010
00000100
00010000
00001000
00010000
00000000
00100000
10000000
00000000
01000000
00010000
,
00001000
00010000
00100000
00010000
00001000
00000100
00000000
00000001
00001000
00000000
00000100
00000010
00000001
00000100
00000010
00001000
,
00000001
00000010
00000000
00001000
00010000
00000000
00100000
01000000
00100000
00010000
00001000
00100000
00001000
00010000
00000000
00100000
,
10000000
00000000
01000000
00100000
00001000
00010000
00000100
00000010
00000001
00000100
00001000
00010000
00100000
00000000
10000000
01000000
,
00010000
00000000
00001000
00000000
00000010
00000000
00000001
00001000
00000001
00000000
00000010
00000000
00001000
00000000
00010000
00000000
01000000
00000000
00000000
00000000
10000000
00000000
00100000
00000000
00010000
00000000
00001000
00000000
00000100
00000000
00000001
00000010
,
00000001
00000000
00000100
00000000
00001000
00000000
00010000
00000000
00011000
00000000
00000000
00000000
00001000
00000000
00010000
00000000
00100000
00000000
10000000
00000000
10010000
00000000
00000000
00000000
10000000
00000000
01000000
00000000
00010000
00000000
00001000
00010000
,
00001000
00010000
00000010
00010000
00001000
00000000
00000000
00000000
00011000
00000000
00000000
00000000
00001001
00000000
00000000
00000000
00000000
00000000
00000000
00000000
00000000
00000000
00000000
00000000
00000000
00000000
00000000
00000000
00000000
00000000
00000000
00000000
,
00000000
00000000
00000000
00000000
00000000
00000000
00000000
00000000
00000002
00000000
00000000
00000000
00000000
00000000
00000013
00000100
00000010
00000100
00010000
00000000
00002000
00000000
00000000
00000000
00000000
00000000
00000000
00000000
00013000
00000000
00100000
00000000
,
20000000
00000000
00000000
00000000
00000000
00000000
31000000
00100000
01000000
00000000
00100000
00000000
00002000
00000000
00000000
00000000
00013000
00000000
00001000
00000000
00000100
00000000
00000001
00000000
00000020
00000000
00000000
00000000
00000000
00000000
00000130
00001000
,
00000100
00010000
00001000
00000000
00010000
00000000
00100000
00000000
01000000
00000000
00010000
00100000
10000000
00000000
00100000
00000000
00002000
00000000
00000000
00000000
00000000
00000000
00000000
00000000
00000000
00000000
00013000
00000010
00020000
00000000
00000000
00000000
,
00000000
00000000
00030000
00000000
00000001
00001000
00000001
00001000
00000200
00000000
00000000
00000000
00000000
00000000
00010300
00001000
00100000
00001000
00010000
00001000
00200000
00000000
00000000
00000000
00000000
00000000
00310000
00000000
01000000
00000000
10000000
00000000
,
01000000
00000000
00010000
10000000
00100000
00010000
00001000
00000000
00000100
00001000
00010000
00001000
00000010
00000000
00000001
00000100
,
00000000
00001000
00011000
00000000
00010010
00000000
00011000
00000000
00001000
01000000
00010000
00000010
00001000
00100000
00010000
00000100
,
00001000
00010000
00001000
00010000
00002000
00000000
00003000
00000000
00011000
00000000
00000000
00000000
00001000
00000000
00010000
00000000
00100000
00000000
10000000
00000000
00010000
00000000
00100000
00000000
01000000
00000000
00001000
00000000
00000100
00000000
00000010
00000000
,
00000001
00000000
00001000
00000010
00000100
00001000
00010000
00100000
10000000
00010000
01000000
00001000
00000100
00000000
00000010
00001000
,
00000001
00000010
00000001
00000000
00000100
00000000
00000010
00000000
00000100
00000000
00001000
00010000
00001000
00000000
00100000
00000000
01000000
00000000
00000000
00000000
10000000
00000000
00100000
00000000
00010000
00000000
00001000
00100000
00001000
00000000
00000010
00000000
,
00000100
00000000
00001000
00000000
00000001
00001000
00000010
00001000
00000001
00000000
00000000
00000000
00000100
00000000
00001000
00010000
00001000
00000000
00010000
00000000
01000000
00000000
00100000
00000000
10000000
00000000
00100000
00000000
01000000
00000000
10000000
00000000
,
00010000
00000000
10000000
00100000
00010000
00001000
00011000
00000000
00000001
00000010
00001000
00010000
00011000
00000000
10000000
01000000
,
00010000
00000000
00001000
00000000
00011000
00000000
00000000
00000000
00000001
00000000
00000100
00000010
00000100
00000000
00001000
00000000
00010000
00000000
00100000
00000000
01000000
00000000
00010000
00000000
00100000
00000000
01000000
00000000
10000000
00000000
00010000
00000000
,
01000000
00100000
01000000
00100000
01000000
00000000
00010000
00000000
10000000
00000000
11000000
00000000
00000000
00000000
00010000
00000000
01010000
00000000
00000000
00000000
10000000
00000000
00100000
00000000
00010000
00000000
00001000
00000000
00000100
00000000
00000001
00000000
,
00000010
00000000
00000110
00000000
00000000
00000000
00010000
00000000
00011000
00000000
00000000
00000000
00001000
00000000
00100000
00010000
00100000
00000000
00001000
00000000
01000000
00000000
00010000
00000000
00100000
00000000
01100000
00000000
00000000
00000000
10000000
00000000
,
11000000
00000000
00000000
00000000
10000000
00000000
00100000
00000000
01000000
00000000
00100000
00010000
00001000
00000000
00010000
00000000
00011000
00000000
00011000
00000000
00000000
00000000
00010010
00000000
00001010
00000000
00000000
00000000
00000001
00000000
00000010
00000000
,
00000100
00000000
00010000
00001000
01000000
00010000
01000000
00001000
00020000
00000000
00000000
00000000
00032000
00000000
00000000
00000000
00003020
00000000
00000000
00000000
00000032
00000000
00000000
00000000
00000203
00000000
00000000
00000000
00002300
00000000
00000000
00000000
,
00023000
00230000
20300000
32000000
03020000
00032000
00023000
00030200
,
00000320
00000032
00000203
00002300
00023000
00230000
02300000
03020000
,
20030000
32000000
03000000
00000000
00000000
00000000
00000000
00000000
;

//--------------- dance-double - Fred-104 ----------------
#NOTEDATA:;
#STEPSTYPE:dance-double;
#DESCRIPTION:Fred-104;
#DIFFICULTY:Challenge;
#METER:18;
#CREDIT:Fred-104;
#NOTES:
00000000
00000000
00000000
00000000
,
00000000
00000000
00000000
00000000
,
00000000
00000000
00000000
00000000
,
00000000
00000000
00000000
00000000
,
00000000
00000000
00000000
00000000
00000000
00000000
00000000
00000000
10010000
00000000
10000000
00100000
00110000
00000000
00010000
00001000
,
00011000
00000000
00000000
00000000
00000100
00000000
00000001
00000000
00000101
00000000
00000000
00000000
00001001
00000000
00000001
00000000
00000100
00000000
00000010
00001000
00000001
00000000
00001000
00000000
00000100
00000000
00010000
00000000
00011000
00000000
00001000
00000000
,
01001000
00000000
00011000
00010000
01000000
10000000
10010000
00000000
00011000
00001000
00010000
00000010
00001010
00001000
00000001
00000010
,
00000100
00000000
00000000
00000000
00000000
00000000
00000010
00000000
00000000
00001000
00000000
00000000
00010000
00000000
00000000
00000000
00000000
00000000
00001000
00000000
00000000
00000000
00000000
00000000
00011000
00000000
00000000
00000000
00000000
00000000
00000000
00000000
00000000
00000000
00000000
00000000
01100000
00000000
00000000
00000000
00000000
00000000
01000000
00000000
00000000
00000000
00000000
00000000
10010000
00000000
00000000
00000000
00000000
00000000
00000000
00000000
00000000
00000000
00000000
00000000
10000000
00000000
00000000
00000000
00000000
00000000
00010000
00000000
00000000
00000000
00000000
00000000
00001000
00000000
00000000
00000000
00000000
00000000
00000100
00000000
00000000
00000000
00000000
00000000
00001000
00000000
00000000
00000000
00000010
00000000
00000000
00000000
00000010
00000000
00000000
00000000
,
00000001
00000000
00000000
00000000
00000100
00000000
00001000
00000000
00011000
00000000
00000000
00000000
00010000
00000000
00000010
00010000
00001000
00000000
00100000
00000000
00110000
00000000
00000000
00000000
11000000
00000000
00000000
00000000
00011000
00000000
00010000
00000000
,
00010010
00000000
00000000
00000000
00000000
00000000
00000000
00000000
00000000
00000000
00000000
00000000
00010000
00000000
00000000
00000000
00000000
00000000
00001000
00000000
00000000
00000000
00000000
00000000
00000100
00000000
00000000
00000000
00000000
00000000
00000001
00000000
00000000
00000000
00000000
00000000
00001000
00000000
00000000
00000000
00000001
00000000
00000000
00000000
00000010
00000000
00000000
00000000
00000010
00000000
00000000
00000000
00000000
00000000
00000000
00000000
00000000
00000000
00000000
00000000
00010000
00000000
00000000
00000000
00000000
00000000
00001000
00000000
00000000
00000000
00000000
00000000
00011000
00000000
00000000
00000000
00000000
00000000
00000000
00000000
00000000
00000000
00000000
00000000
00010000
00000000
00000000
00000000
00000000
00000000
00000010
00000000
00000000
00001000
00000000
00000000
,
00000001
00000000
00000000
00000100
00000000
00000000
00000110
00000000
00000000
00000000
00000000
00000000
00011000
00000000
00000000
00000000
00000000
00000000
01100000
00000000
00000000
01000000
00000000
00000000
10010000
00000000
00000000
00000000
00000000
00000000
00001000
00000000
00000000
00100000
00000000
00000000
01000000
00000000
00000000
10000000
00000000
00000000
00010000
00000000
01000000
00000000
01000000
00000000
,
10000000
00000000
00000000
00000000
00100000
00000000
00010000
00000000
00011000
00000000
00000000
00000000
00010000
00000000
00001000
00000100
00000010
00000000
00001000
00000000
00000100
00000000
00000010
00000000
00001000
00000000
00010000
00000000
00100000
00000000
00010000
00000000
,
00012000
00000000
00000000
00000000
00000000
00000000
00000000
00000000
00013000
00000000
00000000
00000000
00012000
00000000
00000000
00000000
00000000
00000000
00013000
00001000
00010000
00000000
00000010
00000000
00001000
00000000
00000001
00000010
00000100
00000000
00001000
00000000
,
00001100
00000000
00000000
00000000
00000000
00000000
00000100
00000000
00000000
00000000
00000000
00000000
00010100
00000000
00000000
00000000
00000000
00000000
00010000
00000000
00000000
00000000
00000000
00000000
00011000
00000000
00000000
00000000
00000000
00000000
00001000
00000000
00000000
00000000
00000000
00000000
00010000
00000000
00000000
00100000
00000000
00000000
01000000
00000000
00000000
00010000
00000000
00000000
10000000
00000000
00000000
00000000
00000000
00000000
00000000
00000000
00000000
00000000
00000000
00000000
01000000
00000000
00000000
00000000
00000000
00000000
00010000
00000000
00000000
00000000
00000000
00000000
00001000
00000000
00000000
00000000
00000000
00000000
00000100
00000000
00000000
00000000
00000000
00000000
00000001
00000000
00000000
00000000
00000010
00000000
00000000
00000000
00000010
00000000
00000000
00000000
,
00001000
00000000
00000100
00000000
00000010
00000000
00000001
00000000
00000101
00000000
00000000
00000000
00000001
00000000
00000010
00001000
00000010
00000000
00000100
00000000
00001100
00000000
00000000
00000000
00011000
00000000
00000000
00000000
01000000
00000000
00100000
00000000
,
01100000
00000000
00000000
00000000
00000000
00000000
00010000
00000000
00000000
10000000
00000000
00000000
01000000
00000000
00000000
00010000
00000000
00000000
00001000
00000000
00000100
00000000
00000010
00000000
00001000
00000000
00000000
00000100
00000000
00000000
00000010
00000000
00000000
00000001
00000000
00000000
00001001
00000000
00000000
00000000
00000000
00000000
00010000
00000000
00000000
00001000
00000000
00000000
,
00011000
00000000
00000000
00000000
00000000
00000000
00000000
00000000
00000000
00000000
00000000
00000000
01001000
00000000
00000000
00000000
00000000
00000000
00000000
00000000
00000000
00000000
00000000
00000000
00001010
00000000
00000000
00000000
00000000
00000000
00000000
00000000
00000000
00010000
00000000
00000000
00001000
00000000
00000000
00000000
00000000
00000000
01000000
00000000
00000000
00000000
00000000
00000000
01100000
00000000
00000000
00000000
00000000
00000000
00000000
00000000
00000000
00000000
00000000
00000000
00001000
00000000
00000000
00000000
00000000
00000000
00100000
00000000
00000000
00000000
00000000
00000000
10000000
00000000
00000000
00000000
00000000
00000000
00100000
00000000
00000000
00000000
00000000
00000000
01000000
00000000
00000000
00000000
10000000
00000000
00000000
00000000
00010000
00000000
00000000
00000000
,
01000000
00000000
00100000
00000000
00010000
00000000
00001000
00000000
00011000
00000000
00000000
00000000
00000001
00000000
00000010
00000000
00001000
00010000
00001000
00000000
00011000
00000000
00000000
00000000
10000000
00000000
00100000
00000000
00010000
00000000
00001000
00000000
,
00011000
00000000
00000000
00000000
00000000
00000000
00010000
00000000
00000000
00001000
00000000
00000000
00000100
00000000
00000000
00000010
00000000
00000000
00000001
00000000
00000010
00000000
00001000
00000000
00000001
00000000
00000000
00000010
00000000
00000000
00000110
00000000
00000000
00000100
00000000
00000000
00010100
00000000
00000000
00010000
00000000
00000000
00011000
00000000
00000000
00001000
00000000
00000000
,
01001000
00000000
01000000
00000000
01010000
00000000
00010000
00000000
10010000
00000000
10000000
00000000
01000000
00100000
00001000
00010000
00001000
00000000
00010010
00000000
00000000
00000000
00010000
00000000
00101000
00000000
00000000
00000000
00010000
00000000
00001000
00000000
,
00000100
00000000
00000001
00000000
00000010
00000000
00000100
00000000
00010000
00000000
00010100
00000000
00000000
00000000
00001000
00000000
01001000
00000000
00000000
00000000
00001000
00010000
01000000
00010000
00001000
00000000
00010000
00001000
00000010
00001000
00010000
00000000
,
00001000
00010100
00000000
00010000
00101000
00000000
10000000
01000000
00010000
00001000
00000100
00000001
00001000
00001010
00000000
00000001
,
00000011
00000000
00001000
00000001
00000100
00000010
00001000
00000001
00000011
00000001
00000100
00001000
00011000
00000000
00001000
00010000
,
00100000
00000000
01000000
00000000
00010000
00000000
10000000
00000000
11000000
00000000
01000000
00000000
00010000
00000000
00001000
00000000
00011000
00000000
00000000
00000000
00011000
00000000
00001000
00000000
00000100
00000000
00000001
00000000
00001000
00000100
00010000
00000000
,
00011000
00000000
00010100
00000000
00000000
00000000
00000101
00000000
00001100
00000000
00000000
00000000
00001010
00000000
00010010
00000000
00000000
00000000
00101000
00000000
00110000
00000000
00000000
00000000
00001000
00010000
00100000
01000000
00010000
00100000
01000000
10000000
,
00010000
01000000
00100000
00010000
00001000
00000000
00000000
00000000
00000110
00000000
00000000
00000000
00001001
00000000
00000000
00000000
00000000
00000000
00000000
00000000
00000000
00000000
00000000
00000000
00000000
00000000
00000000
00000000
00000000
00000000
00000000
00000000
,
00000000
00000000
00000000
00000000
00000002
00000000
00000000
00000000
00000203
00000000
00000000
00000000
00000000
00000000
00000301
00001000
00000001
00000010
00000100
00000010
00002000
00000000
00000000
00000000
00000000
00000000
00013000
00000000
00100000
00000000
00010000
00000000
,
00002000
00000000
00000000
00000000
00103000
00000000
00010000
00100000
01000000
00000000
10000000
00000000
10010000
00000000
00010000
00000000
10000000
00000000
00100000
00000000
00010000
00000000
00001000
00000000
00021000
00000000
00000000
00000000
00000000
00000000
00031000
00000000
,
00010000
00001000
00010000
00100000
01000000
00000000
10000000
00000000
01000000
00000000
00100000
10000000
01000000
00000000
00010000
00000000
00000100
00000000
00001000
00000000
00000001
00000000
00000010
00000000
00000100
00000000
00000010
00000001
00001000
00000000
00000010
00000000
,
00001000
00000000
00000001
00000000
00000100
00000010
00000100
00001000
00020000
00000000
00000000
00000000
00030000
00000000
00001000
00100000
00001000
00100000
00010000
00100000
01000000
00000000
10000000
00000000
00100000
00000000
00010000
00000000
00001000
00000000
00010000
00000000
,
00100000
00000000
01000000
00000000
00010000
00000000
00100000
01000000
00010000
00000000
00001000
00000000
00010000
00000000
00001000
00000000
00000010
00000000
00000100
00001000
00000010
00000000
00010000
00000000
00011000
00000000
00000000
00000000
00000001
00000000
00000100
00000000
,
00000000
00000000
00001000
00000000
02000000
00000000
00000000
00000000
03020000
00000000
00000000
00000000
00230000
00000000
00000000
00000000
01300000
00000000
10000000
00000000
00100000
00000000
00010000
00000000
00001000
00010000
00000010
00010000
00001000
00100000
00010000
00100000
,
00001000
00010000
00000100
00010000
00002000
00000000
00000000
00003000
00011000
00000000
00010000
00000000
00001000
00000000
00000100
00000001
00001000
00000100
00000010
00000001
00001000
00000000
00000010
00000000
00000100
00000000
00001000
00000000
00010000
00000000
01000000
00000000
,
11000000
00000000
00000000
00000000
10010000
00000000
10000000
00000000
00100000
00000000
00010000
00000000
00011000
00000000
00000000
00000000
00000110
00000000
00000001
00001000
00000010
00000000
00010000
00000000
00011000
00000000
00000000
00000000
01001000
00000000
00001000
00000000
,
00010000
01000000
10000000
00010000
01000000
00000000
00100000
00000000
00010000
00000000
00001000
00000100
00000001
00000000
00000100
00000000
00000110
00000000
00000000
00000000
00001000
00000000
00000001
00000000
00000100
00000000
00001000
00000000
00011000
00000000
00010000
00000000
,
00011000
00000000
00001000
00000000
00010000
00001000
00010000
01000000
00100000
00000000
01000000
00000000
10000000
00000000
00010000
01000000
00100000
00010000
00001000
00010000
00000100
00000000
00000010
00000000
00000011
00000000
00000010
00000000
00001010
00000000
00000010
00000000
,
00000011
00000000
00000000
00000000
00001100
00000000
00000100
00000000
00010000
00000000
00001000
00000000
01001000
00000000
00000000
00000000
11000000
00000000
10000000
00010000
01000000
00000000
00001000
00000000
00011000
00000000
00000000
00000000
00010010
00000000
00000010
00000000
,
00001000
00000000
00000001
00000000
00000011
00000000
00000000
00000000
00000001
00000000
00000100
00001000
00000100
00000000
00000001
00000000
00000010
00000000
00000100
00000000
00000010
00000000
00001000
00000000
00010000
00000000
01000000
00000000
10000000
00010000
00100000
01000000
,
10000000
00100000
01000000
00010000
00100000
01000000
10000000
00010000
01010000
00000000
01001000
00000000
00000000
00000000
00011000
00000000
01001000
00000000
00000000
00000000
00010100
00000000
00010000
00000000
00000100
00000000
00001000
00000000
00000100
00000000
00010000
00000000
,
00011000
00000000
00010010
00000000
00000000
00000000
00001010
00000000
00010010
00000000
00000000
00000000
00000110
00000000
00000001
00000010
00000100
00000000
00000010
00000000
00000001
00000100
00001000
00000000
00011000
00000000
00010010
00000000
00000000
00000000
00011000
00000000
,
01001000
00000000
00000000
00000000
00000000
00000000
00000000
00000000
00000000
00000000
00000000
00000000
01000000
00000000
00000000
00000000
00000000
00000000
00010000
00000000
00000000
00000000
00000000
00000000
10000000
00000000
00000000
00000000
00000000
00000000
01000000
00000000
10000000
00000000
01000000
00000000
00100000
00000000
00000000
00000000
00000000
00000000
00001000
00000000
00000000
00000000
00000000
00000000
00010000
00000000
00000000
00001000
00000000
00000000
00000010
00000000
00000000
00001000
00000000
00000000
00010000
00000000
00000000
00000000
00000000
00000000
00001000
00000000
00000000
00010000
00000000
00000000
01000000
00000000
00000000
00010000
00000000
00000000
00001000
00000000
00000000
00000000
00000000
00000000
00010000
00000000
00000000
00001000
00000000
00000000
00000100
00000000
00000000
00000001
00000000
00000000
,
00001000
00000001
00000010
00001000
00010000
00100000
10000000
00010000
10000000
00000000
01000000
00000000
00010000
00000000
00001000
00000000
00000010
00000000
00000001
00000000
00000010
00000000
00000100
00000000
00010000
00000000
00001000
00000000
00011000
00000000
00000000
00000000
,
00000001
00000100
00001000
00010000
00100000
10000000
00100000
01000000
00001000
00010000
00011000
00000000
10000000
00100000
00010000
00001000
,
00000100
00000001
00000100
00000010
00010000
00001000
00011000
00000000
00000001
00000010
00001000
00010000
01000000
10000000
01000000
00100000
,
00001000
00010000
00022000
00000000
00033000
00000000
00000000
00000000
00000000
00000000
00000000
00000000
00000000
00000000
00000000
00000000
;
