#VERSION:0.83;
#TITLE:Apple Butter;
#ARTIST:good-cool;
#GENRE:MECHANICAL JAZZ;
#CREDIT:YonabearCWY & Fred-104;
#BANNER:Apple Butter.png;
#BACKGROUND:Apple Butter-bg.png;
#CDTITLE:./CDTitles/pnm 19 TUNE STREET.png;
#MUSIC:Apple Butter.ogg;
#SAMPLESTART:86.44;
#SAMPLELENGTH:15;
#BPMS:0=170;
#TIMESIGNATURES:0=4=4,108=3=4,156=4=4,160=5=4,165=4=4;
#BGSTAGE:2;

//--------------- dance-single - YonabearCWY ----------------
#NOTEDATA:;
#STEPSTYPE:dance-single;
#DESCRIPTION:YonabearCWY;
#DIFFICULTY:Beginner;
#METER:4;
#CREDIT:YonabearCWY;
#NOTES:
0000
0000
0000
0000
,
0000
0000
0000
0000
,
0000
0000
0000
0000
,
1000
0000
0000
1000
,
0000
0000
1000
1000
,
1000
0000
0000
1000
,
0000
0000
1000
1000
,
0001
0000
0000
0001
,
0000
0000
0001
0001
,
0001
0000
1000
0000
,
0001
1000
0110
0000
,
0010
0000
0010
0000
,
0010
0000
0000
0000
,
0100
0000
0100
0000
,
0100
0000
0000
0000
,
0010
0010
0010
0010
,
0010
0000
0010
0000
,
0220
0000
0330
0000
,
2002
0000
3003
0000
,
1000
0000
1000
0000
,
1000
0000
0000
0000
,
0001
0000
0001
0000
,
0001
0000
0000
0000
,
1000
1000
1000
1000
,
1000
0000
1000
0000
,
2002
0000
3003
0000
,
0220
0000
0330
0000
,
0010
0000
0010
0000
,
0010
0000
0100
0000
,
0100
0000
0100
0000
,
0001
0001
0001
0000
,
0001
0000
1000
1000
,
1000
0000
1000
0000
,
0010
0000
0000
0010
,
0000
0000
0100
0000
,
0000
0100
0000
0000
,
0001
0000
0000
0001
,
0000
0000
1000
0000
,
0000
1000
0000
0000
,
2002
0000
0000
0000
,
0000
0000
0000
3003
,
0000
0220
0000
0000
,
0000
0000
0000
0330
,
0000
1000
0000
1000
,
0000
1000
0000
0000
,
0000
1000
0000
1000
,
0000
1000
0000
0000
,
0000
0001
0000
0001
,
0000
0001
0000
0000
,
0000
0001
0000
0001
,
0000
0001
0000
0000
,
0000
0010
0000
0010
,
0000
0010
0000
0000
,
0000
0100
0000
0100
,
0000
0100
0000
0000
,
0000
0010
0000
0010
,
0000
0010
0000
0000
,
0000
0100
0000
0100
,
0000
0100
0000
0000
,
0000
2002
0000
0000
,
0000
0000
0000
3003
,
0000
1000
1000
1000
,
0000
1000
0000
0000
,
0000
0010
0000
0010
,
0000
0010
0000
0000
,
0000
0100
0100
0100
,
0000
0100
0000
0000
,
0000
0001
0000
0001
,
0000
1001
0000
0110
,
0000
1000
1000
1000
,
1000
1000
0000
0100
,
0000
0010
0000
0001
,
0000
0110
0000
1001
,
0000
0001
0001
0001
,
0001
0001
0000
0010
,
0000
0100
0000
1000
,
0000
2002
0000
3003
,
0000
0010
0000
0010
,
0000
0010
0000
0000
,
0000
0100
0000
0100
,
0000
0100
0000
0000
,
0000
0010
0000
0010
,
0000
0010
0000
0000
,
0000
0100
0000
0100
,
0000
2002
0000
0000
,
0000
0000
0000
3003
;

//--------------- dance-single - YonabearCWY ----------------
#NOTEDATA:;
#STEPSTYPE:dance-single;
#DESCRIPTION:YonabearCWY;
#DIFFICULTY:Easy;
#METER:7;
#CREDIT:YonabearCWY;
#NOTES:
0000
0000
0000
0000
,
0000
0000
0000
0000
,
0000
0000
0000
0000
,
1000
0000
0000
0010
0000
0000
1000
0000
,
0000
0010
0000
0000
0100
0000
0001
0000
,
0010
0000
0000
0100
0000
0000
0010
0000
,
0000
0100
0000
0000
1000
0000
0001
0000
,
0110
0000
0000
0001
0000
0000
1000
0000
,
0000
0001
0000
0000
1000
0000
0010
0000
,
0100
0001
0010
0100
,
2002
3003
0110
0000
,
0001
0000
0001
0000
,
0001
0000
0001
1000
,
0010
0000
0000
0010
0000
0000
0010
0000
,
0000
0010
0000
0000
0010
0000
0100
0000
,
0001
0100
0001
0000
,
1000
0010
1000
0000
,
0010
0100
0010
0000
,
2002
0000
0000
3003
,
1000
0000
1000
0000
,
1000
0000
1000
0010
,
0100
0000
0000
0100
0000
0000
0100
0000
,
0000
0100
0000
0000
0100
0000
0001
0000
,
0010
0100
0010
0000
,
0100
1000
0100
0000
,
0010
0001
0010
0100
,
2002
0000
0000
3003
,
0010
0000
1000
0000
,
0100
0000
0010
0001
,
0100
0001
0010
0001
,
1000
0000
0001
0000
,
0010
0000
0100
1000
,
0010
1000
0100
0010
,
0001
0000
0000
1000
0000
0000
0001
0000
,
1000
0000
0001
0000
0100
0000
0000
0010
,
0000
0100
0010
0100
,
1000
0000
0000
0100
0000
0000
0010
0000
,
1000
0001
0010
0100
,
1000
0010
0001
0010
,
1000
0010
0000
1000
0000
0000
0001
0000
,
0000
0100
0000
0000
0001
0010
0000
0001
,
0000
2002
0000
0000
,
0000
0000
0000
0000
,
3003
1000
0010
1000
,
0010
0000
0000
0100
0000
0000
0001
0000
0000
0100
0000
0100
,
0000
0001
0010
0001
,
0100
0000
0000
0001
0000
0000
1000
0000
1000
0000
0000
0010
,
0000
0110
0001
0110
,
0001
1010
0100
1010
,
0100
0001
0100
1000
,
0100
0000
0000
0010
0000
0000
0100
0000
0000
0001
0000
0001
,
0000
2010
0100
0001
,
0100
3002
1000
0010
,
1000
0000
1003
0000
0000
0000
0101
0000
0000
0000
0000
0000
,
1010
0000
0110
0000
,
1001
0000
1001
0000
0000
0000
0010
0000
0000
0100
0000
0000
,
1000
0100
0010
0100
,
0001
0010
0001
1000
,
0010
0000
0000
1000
0000
0000
0100
0000
0000
1001
0000
1001
,
0000
0210
0000
0010
,
0000
0000
0000
0010
0000
0000
0000
0000
0310
0000
0000
0000
,
0000
0001
0100
1000
,
0100
0101
0000
0010
,
0010
0010
0000
0100
,
0000
1000
0000
0100
,
0000
0010
0100
0001
,
0100
0010
1000
0001
,
1000
0010
0000
0010
,
0000
0100
0000
0100
,
0000
0001
0100
1000
,
0100
0000
0001
0000
1000
0010
1000
0000
,
0001
0100
0001
0010
,
1000
0000
0010
0000
0001
1000
0001
0000
,
0100
0010
0000
0010
,
0000
0100
0000
0100
,
0000
0001
0000
1000
,
0000
2002
0000
0000
,
3003
0000
0010
0000
0010
0000
0020
2000
,
0000
0000
0000
0000
0000
3030
0000
0001
,
0100
0002
0000
0000
1003
0000
0010
0000
,
0100
0001
0100
1000
,
1001
0000
0100
0000
0100
0000
0200
0002
,
0000
0000
0000
0000
0000
0303
0000
0010
,
1000
0020
0000
0000
0130
0000
0001
0000
,
0010
2002
0000
0000
,
0000
0000
3000
1003
;

//--------------- dance-single - YonabearCWY ----------------
#NOTEDATA:;
#STEPSTYPE:dance-single;
#DESCRIPTION:YonabearCWY;
#DIFFICULTY:Medium;
#METER:10;
#CREDIT:YonabearCWY;
#NOTES:
0000
0000
0000
0000
,
0000
0000
0000
0000
,
0000
0000
0000
0000
,
2001
0000
3010
0100
0000
0010
0100
0000
,
0001
1000
0000
0001
1000
0100
0010
0000
,
0120
0000
1030
0001
0000
1000
0001
0000
,
0010
0100
0000
0010
0100
0000
1000
0000
,
0001
0100
0001
0100
0000
0010
1000
0000
,
0100
0000
0010
0001
0010
0000
0100
0000
,
1000
0010
1000
0010
0100
0001
0100
0001
,
1001
0000
0010
0100
0220
0000
0330
0000
,
1010
0000
0000
0100
0000
0000
0001
0000
,
0000
0010
0000
0001
1000
0000
0100
0010
,
0100
0000
0000
0010
0000
0000
0100
0000
,
0000
1000
0000
0001
0100
0000
0010
0000
,
1000
0100
1000
0000
0001
0000
0100
0000
,
0001
0010
0001
0000
1000
0010
0001
0000
,
0110
0000
0001
0010
1000
0000
0010
0000
,
2002
0000
0000
0000
3003
0000
1000
0010
,
0100
0000
0000
0001
0000
0000
0010
0000
,
0000
0001
0000
0100
0001
0000
0010
0001
,
0010
0000
0000
0001
0000
0000
1000
0000
,
0000
0010
0000
0100
1000
0000
0100
0010
,
0100
0000
0010
0000
1000
0001
1000
0000
,
0001
0100
0001
0000
0010
0000
0100
0000
,
1000
0000
0000
0100
0000
0000
1000
0000
0010
0000
0000
0100
0000
0000
0002
0000
,
2000
0000
0000
3003
,
0100
0010
0001
0010
0100
1000
0100
0000
,
0010
0000
1000
0000
0001
1000
0100
1000
,
0100
0000
1000
0010
1000
0010
0001
0000
,
0010
0100
0010
1000
0001
1000
0010
0000
,
0100
0000
0001
0000
0010
0001
0010
0100
,
0010
0000
0100
1000
0100
0001
0100
0000
,
1000
0000
0010
0000
0100
0001
0100
0010
,
0001
0010
0100
0000
0010
0000
1000
0000
,
0100
0001
0100
1000
,
0010
0000
1000
0010
0100
1000
0100
0010
,
0100
0000
0001
0000
0010
0001
1000
0001
,
0100
0001
1000
0001
0100
0001
0010
0000
,
0100
0100
0000
1100
0000
0000
0101
0000
,
0000
1010
0000
0000
1000
1000
0000
0110
,
0000
2002
0000
0000
,
0000
0000
0000
0000
,
3003
0000
0000
1000
0000
0000
0010
0000
1000
0010
0000
0000
,
0100
0000
0000
0001
0000
0000
0100
0000
0000
0001
0000
0010
,
0001
0100
0010
1000
,
0100
0000
0000
0010
0000
0001
1000
0000
0001
1000
0000
0000
,
0010
0000
0000
0100
0000
0000
0001
0000
0100
0010
0000
0000
,
1000
0000
0000
0010
0000
0000
0100
0000
0001
0010
0000
0010
,
0000
0000
0100
1000
0000
0000
0010
0000
0000
0100
0000
0000
,
0001
0000
0000
1000
0000
0010
0100
0000
0010
0100
0000
0000
,
0001
0110
1000
0100
,
0001
0110
0001
0010
,
1000
0010
0101
0010
,
1100
0010
1001
0100
,
0110
0000
0210
0000
0000
0000
1000
0000
0000
0001
0000
0000
,
1000
0302
1000
0010
,
1000
0023
0001
1000
,
0001
0000
0000
1030
0000
0000
0110
0000
0000
1001
0000
1001
,
0000
0120
0000
0100
,
0000
0000
0000
0100
0000
0000
0000
0000
0130
0000
0000
0000
,
0000
0000
1000
0010
0000
0100
0001
0000
,
0010
0000
1100
0000
0000
0001
0100
0010
,
1000
0010
0000
1000
0000
0001
0000
1000
,
0000
0001
0000
0100
0000
0010
0100
0000
,
0100
0001
0000
0000
1000
0000
0010
0000
,
0001
0000
0010
0000
1000
0010
0001
0000
,
0110
0100
0000
0001
0000
0100
0000
1000
,
0000
0100
0000
0001
1000
0100
0010
0001
,
0100
0000
0010
1000
0010
0000
1000
0100
,
1000
0000
0001
0000
0100
0001
0100
0000
,
0001
0010
0001
0000
1000
0100
0010
0000
,
0100
0010
0001
0010
0000
0100
1000
0001
,
0100
0010
0000
0100
0000
0001
0000
0010
,
0000
0001
0000
1000
0000
0010
0100
0000
,
0010
1000
0100
0010
0001
0100
0010
1000
,
0001
1000
2002
0000
0000
0000
3003
0000
,
0110
0000
1000
1000
1000
0000
0001
0100
,
0000
0100
0010
0000
0010
1000
0000
1000
,
0100
0001
0000
0000
1100
0000
0010
0000
,
0101
0000
0010
0000
1001
0000
0100
0010
,
0110
0000
0001
0001
0001
0000
0010
0100
,
0000
0100
0001
0000
0001
0100
0000
0100
,
1000
0010
0000
0100
0001
0010
0100
1000
,
0001
2002
0000
0000
,
0000
0000
0003
3001
;

//--------------- dance-single - YonabearCWY ----------------
#NOTEDATA:;
#STEPSTYPE:dance-single;
#DESCRIPTION:YonabearCWY;
#DIFFICULTY:Hard;
#METER:13;
#CREDIT:YonabearCWY;
#NOTES:
0000
0000
0000
0000
,
0000
0000
0000
0000
,
0000
0000
0000
0000
,
2010
0000
3002
0100
0000
2003
0100
0000
,
3010
0200
0000
0301
1000
0100
0001
0100
,
0012
0000
2003
0010
0000
3002
0010
0000
,
1003
0100
0010
0001
0100
0100
0100
0000
,
0021
0000
0032
0100
0000
0023
1000
0000
,
0032
0010
0000
1003
0010
0001
0010
0100
,
0010
0010
1000
0100
0100
1000
0001
0001
,
1000
0100
0010
0001
0220
0000
0330
0000
,
2010
0000
0100
0100
0000
0001
0100
0000
,
0100
0100
0000
3001
0100
1000
0100
0001
,
1000
0010
0001
0010
1000
0100
0010
0001
,
0100
0000
0010
0000
1000
0000
0001
0000
0010
0001
0010
0000
0101
0000
0000
0000
,
1002
0000
0010
0000
0103
0010
0002
0000
,
0013
0000
0100
0000
2000
0000
0000
0000
3100
0000
0010
1000
0010
0000
0100
0000
,
0002
0000
0203
0010
0000
0301
0100
0001
,
1000
0010
1000
0100
0010
0001
0000
0100
,
0102
0000
1000
1000
0000
0010
0100
0000
,
1000
1000
0000
0013
0100
0010
0001
0010
,
1000
0010
0100
0010
0001
0010
0100
1000
,
0001
0000
0100
0000
1000
0000
0100
0000
0001
1000
0001
0000
1010
0000
0000
0000
,
0210
0000
1000
0000
0301
0100
0020
0000
,
1030
0100
0002
0000
0103
1000
0001
0100
,
0101
0000
0000
0011
0000
0000
0001
0000
1001
0000
0000
1010
0000
0000
0100
0000
,
0220
0000
0000
0330
,
1000
0100
0001
1000
0010
0001
0100
0010
,
0200
0000
0302
0000
1003
0001
0010
1000
,
0001
0100
1000
0001
0010
1000
0201
0000
,
1300
0010
0001
1000
0100
0001
0010
0100
,
0020
0000
2030
0000
3010
0100
1000
0100
,
0010
0000
0001
0000
0101
0000
0000
0000
0010
0000
0001
0000
1000
0010
1000
0010
,
1000
0010
0100
0001
0001
1000
0001
0001
,
1000
0010
0100
0001
0010
0010
0100
1000
,
1000
0100
0010
0002
0000
0103
0010
1000
,
0001
1000
1000
0001
1000
1000
0001
1000
,
0010
0200
0000
0301
0010
0010
0100
0100
,
0010
0000
0010
0000
0001
0100
0001
0000
1000
0000
0010
0100
0010
0000
0100
0000
,
0011
0011
0000
1010
0000
0000
1001
0000
,
0000
0101
0000
0000
1100
1100
0000
1001
,
0000
0220
0000
0000
,
0330
0000
0000
1000
0001
1000
0001
0100
0010
0100
0010
1000
,
0001
1000
0001
0100
0000
0100
0010
0000
0000
1000
0000
0000
,
0001
0000
0000
0010
0100
1000
0100
0000
0100
1000
0000
1000
,
0001
0000
0000
0100
0000
0100
0001
0000
0000
0100
0000
0000
,
0010
0100
0001
0100
0000
0100
0010
0000
1010
0000
0000
0100
,
0000
0001
0010
0001
0000
1000
0010
0000
0000
0101
0000
0000
,
0010
0001
1000
0001
0000
0102
0000
0000
1003
0200
0000
0000
,
0000
0310
0001
1000
0000
0010
0100
0000
0000
0010
0000
1000
,
0001
0000
0000
0100
0001
0100
0010
0000
0010
1000
0000
1100
,
0000
1000
0001
2000
0000
0000
0010
0000
0000
0100
0000
0000
,
0001
0000
0000
0100
0000
0000
0010
0000
0000
3100
1000
0100
,
0010
0001
0100
0000
0000
0001
0010
0000
0010
0001
0000
1000
,
0010
0000
0010
1000
0000
0001
0100
0000
0100
0001
0000
1000
,
0010
0000
0120
0000
0000
0000
1000
0000
0000
0001
0000
0000
,
1030
0010
0100
0002
0000
0000
1000
0000
0000
0010
0000
0000
,
1003
0001
0010
0200
0000
0000
0001
0000
0000
1000
0000
0000
,
0310
0100
1000
0100
0000
0000
1010
0000
1000
0100
0000
0110
,
0000
0001
2000
0010
0000
0000
0000
0000
0000
0010
0000
0000
,
0000
0000
0000
0000
0000
0000
0000
0000
0000
0000
0000
0000
3010
0000
0000
0000
0000
0000
0000
0000
0000
0000
0000
0000
0000
0000
0000
0000
0000
0000
0000
0000
0010
0000
0000
0000
0000
0000
0000
0000
0000
0000
0010
0000
0000
1000
0000
0000
,
0002
0000
0000
0000
0103
0000
0001
0000
0010
0000
0100
1000
0100
0000
1000
0000
,
0010
0000
0100
0000
0201
0000
0000
0000
0000
0000
0310
0001
0010
0000
0100
0000
,
0010
1000
0010
0200
0000
0301
0010
0010
,
0100
0000
0100
0000
0010
0000
0010
0000
0100
0000
1000
0100
1000
0000
0001
0000
,
0010
0000
0200
0000
0000
0000
1300
0010
1000
0000
0001
0100
0001
0000
0010
0001
,
0010
0000
0100
0000
1000
0000
0001
0000
0100
0000
0010
0000
1000
0000
0000
0001
,
0020
0000
0230
0010
0000
0301
0100
1000
,
0100
0001
0100
0010
0000
0001
2000
0000
,
0000
0010
3010
1000
0001
1000
0010
0010
,
0100
0000
0001
0000
0010
0001
0010
0000
0100
0000
2000
0000
0000
0000
3010
0000
,
0100
0001
0200
0000
0301
0020
1000
0000
,
1030
0000
0010
0000
0001
1000
0002
0000
0000
0000
1003
0000
0010
0000
0100
0000
,
0000
0010
0001
0000
1001
0000
0100
0000
0100
0000
0010
0000
1000
0000
0010
0000
,
0100
0000
0100
0000
0001
0000
1000
0000
0010
0000
1000
0000
0100
2000
0000
0000
,
3001
0000
0200
0000
1000
0000
0000
0000
1300
0000
0100
0000
0001
0000
0000
0100
,
0010
1000
2002
0000
0000
0000
3003
0010
,
1001
0000
0000
0000
0100
0001
0100
0001
0100
0000
0010
0000
1000
0000
0200
0000
,
0000
0010
0010
0000
1000
1300
0000
0110
,
0110
0210
0000
0000
0000
0301
0010
0100
,
1000
0000
0001
0000
0100
0000
0010
0000
1000
0000
0001
0000
0010
0001
0010
0001
,
0020
0000
0000
0000
0031
1000
0001
1000
0001
0000
0100
0000
0010
0000
2000
0000
,
0000
0100
0100
0000
0010
3010
0000
1001
,
1001
1002
0000
0103
0010
1000
0100
0010
,
0001
1000
2002
0000
0000
0000
0000
0000
,
0000
0000
0003
3001
;

//--------------- dance-single - YonabearCWY ----------------
#NOTEDATA:;
#STEPSTYPE:dance-single;
#DESCRIPTION:YonabearCWY;
#DIFFICULTY:Challenge;
#METER:16;
#CREDIT:YonabearCWY;
#NOTES:
0000
0000
0000
0000
,
0000
0000
0000
0000
,
0000
0000
0000
0000
,
1000
0010
0000
0010
0100
0000
0100
0001
0000
0001
0010
0000
0100
1000
0000
1000
,
0010
0000
0100
0010
0000
0010
0001
0000
0010
0100
0000
0100
0001
0000
1000
0000
,
0010
0100
0000
0100
1000
0000
0100
0010
0000
0010
0100
0000
0100
0001
0000
0001
,
0010
0000
0100
1000
0100
0000
1000
0000
0001
0100
0001
0100
0002
0000
0000
0000
,
0013
0001
0000
0001
0100
0000
0100
0010
0000
0010
1000
0000
1000
0100
0000
0100
,
0010
0000
0010
0001
0000
0001
1000
0000
0010
0100
0000
0100
1000
0000
0100
0000
,
0010
0100
0010
0100
0010
0000
0100
0001
0100
0001
0100
0000
0001
1000
0001
1000
,
0001
0010
0100
1000
0220
0000
0330
0000
,
0011
0000
0000
1000
0010
0000
0100
0000
0000
0001
1000
0000
0010
0000
0100
0000
,
0001
0100
0001
0000
0010
0000
0100
1000
0100
0000
0010
0000
0001
0000
1000
0000
,
1010
0000
0000
0001
0100
0000
0010
0000
0000
1000
0100
0000
0010
0000
0001
0100
,
0001
0000
0010
0000
0100
0000
1000
0000
0001
0100
0001
0010
0002
0000
1000
0000
,
1003
0000
0100
0000
0000
0010
0001
0000
1000
0000
0010
0000
0001
0000
0010
0000
,
1000
0100
1000
0001
2000
0000
0000
0000
3001
0100
0001
1000
0001
0000
0010
0000
,
0001
0000
0000
0100
0010
0000
1000
0000
0000
0001
0100
0000
0010
0000
1000
0000
,
0100
0000
0000
0010
0001
0000
1000
0000
0000
0100
0010
0100
0010
0000
0100
0000
,
1100
0000
0000
0010
0001
0000
0100
0000
0000
0010
1000
0000
0001
0000
0100
0000
,
0001
0000
0010
0001
0010
0000
0001
0000
0100
0000
0010
0000
1000
0010
1000
0000
,
0110
0000
0000
0001
1000
0000
0010
0000
0000
0100
0001
0000
0010
0000
0100
0000
,
1000
0010
1000
0000
0001
0000
0100
0000
0001
1000
0010
0100
0020
0000
0100
0000
,
0130
0000
0001
0000
0000
0010
0100
0010
0100
0000
1000
0000
0010
0000
0001
0000
,
0010
1000
0010
0100
0020
0000
0000
0000
0130
0001
0100
0010
0200
0000
0010
0000
,
0310
0000
0000
1010
0000
0000
1000
0000
0001
0000
0000
0101
0000
0000
0010
0000
,
0100
0110
0000
0101
0000
1001
0000
1000
,
0010
0001
1000
0100
0001
1000
0010
0001
,
0210
0000
0302
0000
0013
0100
1000
0001
,
0010
0100
0001
1000
0010
0100
1000
0001
,
0100
1000
0100
0001
0010
0100
0010
1000
,
0012
0000
2003
0000
3010
1000
0100
0010
,
1000
0000
0010
0000
0001
0000
0010
0100
0010
0100
1000
0100
1000
0000
0010
0000
,
0101
0001
1000
1010
0100
0010
0021
0100
,
0130
1000
0010
0001
0110
1000
0100
0101
,
0010
0100
1020
1000
0000
0001
0000
0130
,
0110
0100
0002
0000
1003
0020
0001
0000
,
0130
0001
0010
0100
0010
0001
1000
0010
,
0100
0000
1000
0000
0100
0000
0010
0100
0010
0100
0001
0100
0001
0000
1000
0000
,
1010
1100
0000
0101
0000
0000
0110
0000
,
0000
1001
0000
0000
0101
0011
0000
0110
,
0000
0000
0000
1001
0000
0000
1000
0000
0010
0000
1000
0000
0010
0000
0000
0000
0100
0000
0001
0000
0010
0000
0001
0000
,
0010
0000
0100
1000
0100
0001
0100
1000
0001
0100
1000
0100
,
0001
0100
0010
1000
0000
1000
0010
0000
0010
0100
0000
0100
,
0001
0000
0001
0010
0001
0000
0001
0100
0000
0100
0010
1000
,
0010
0000
0010
0100
0000
0100
0001
0000
0001
1000
0000
1000
,
0100
0010
0001
0100
0000
0100
0010
0000
2010
0000
0000
3001
,
0100
0000
0000
0000
0100
0010
0100
0000
0000
0000
0010
0000
1000
0000
0000
0000
0000
0000
1002
0000
0000
0000
0000
0000
,
0013
0100
1000
0100
0000
0100
0010
0000
0010
0001
0000
0001
,
0100
0000
0000
0000
0001
1000
0001
0000
0000
0000
0100
0000
0010
0000
0000
0000
0000
0000
0110
0000
0000
0000
0001
0000
,
1000
0000
0000
0100
0010
0001
1000
0010
1000
0001
0000
0101
,
0000
0001
1000
0002
0000
0000
0013
0001
1000
0200
0000
0000
,
1300
0010
0001
0020
0000
0000
0130
0001
0100
2000
0000
3100
,
0010
0001
0020
0000
0000
0130
1001
0000
0000
0011
0000
0100
,
0001
0000
0000
1010
0000
0100
1000
0000
1000
0001
0000
0010
,
0110
0000
2001
0000
0000
0000
0010
0000
0000
0100
0000
0000
,
3010
1000
0001
0020
0000
0000
0100
0000
0000
0001
0000
0000
,
0130
0010
1000
0002
0000
0000
0010
0000
0000
0100
0000
0000
,
1003
0100
0010
0001
0000
0001
0010
0000
0010
0100
0000
1100
,
0000
0001
0010
0120
0000
0000
0000
0000
0000
0100
0000
0000
,
0000
0000
0000
0000
0000
0000
0000
0000
0000
0000
0000
0000
0130
0000
0000
0000
0000
0000
0000
0000
0000
0000
0000
0000
0000
0000
0000
0000
0000
0000
0000
0000
0100
0000
0000
0000
0000
0000
0000
0000
0000
0000
0010
0000
0000
1000
0000
0000
,
1001
0000
0000
0000
0110
0000
0100
0001
0010
0100
0010
0100
1000
0000
0010
0000
,
0100
0000
0000
0000
0001
0000
0000
0000
0010
0000
0000
0000
0011
0000
0000
0000
0000
0000
0002
0000
0000
0000
0000
0000
0000
0000
0000
0000
0000
0000
1003
0000
0000
0010
0000
0000
1000
0000
0000
0000
0000
0000
0001
0000
0000
0000
0000
0000
,
0100
0000
1000
0000
0100
0000
0002
0000
0000
0000
0013
0000
0100
1000
0100
0000
,
1000
0000
0010
0000
0100
0000
0001
0100
0001
0000
0010
0000
0011
0000
0000
0000
,
1000
0000
1020
0000
0000
0000
0130
0001
0100
0000
0010
1000
0010
0000
1000
0100
,
1000
0000
0100
0010
0100
0000
0001
0000
0100
0000
1000
0000
0020
0000
0000
0130
,
0001
0000
2010
0010
0000
3001
0010
1000
,
0010
0000
0001
0000
0100
0000
0010
0100
1000
0000
0100
0000
0010
0001
0010
0100
,
0010
0100
1000
0000
0100
0000
0001
0000
0100
0000
0010
0000
0100
0000
0001
0000
,
1000
0100
1000
0000
0001
0010
0000
0000
0100
0000
1000
0010
0000
0000
0100
0000
,
0001
0010
0200
0000
1300
0020
0001
0000
,
0031
0010
2000
0100
0000
3020
0100
0100
,
0130
0000
1001
0000
0000
0000
0100
0001
0100
0000
0001
0000
0010
0100
0010
0000
,
0100
0000
1000
0000
0001
0100
0001
1000
0010
0000
1000
0000
0100
0010
0000
0000
,
0001
0000
0100
0000
0010
1000
0000
1000
0100
0000
0010
0000
0001
0100
1000
0000
,
0000
0000
1000
0100
1002
0000
1000
0000
0010
0000
0010
0000
1000
0000
1003
0000
,
1001
0000
0000
0000
0001
0100
1000
0100
0002
0000
0100
0000
0100
0000
0103
0000
,
0000
0010
1000
0000
0100
1000
0000
1000
0010
0000
0100
0010
0000
0010
1000
0000
,
0001
2001
0000
3020
0100
0230
1000
2300
,
0100
0000
3200
0000
0010
0000
0320
0000
0001
0000
0001
0000
1030
0100
0001
0100
,
1000
0000
0000
0000
0001
0010
1000
0010
0002
0000
0010
0000
0010
0000
0013
0000
,
0000
0001
1000
0000
0100
0010
0000
0010
0001
0000
0010
0100
0000
0100
0001
0000
,
1000
0000
1001
0000
0001
0100
0010
1000
0100
1000
0001
0100
0001
0010
1000
0010
,
0001
0100
0010
0100
2002
0000
0000
0000
0000
0000
0000
0000
0000
0000
0000
0000
,
0000
0000
0003
3001
;

//--------------- dance-double - Fred-104 ----------------
#NOTEDATA:;
#STEPSTYPE:dance-double;
#DESCRIPTION:Fred-104;
#DIFFICULTY:Easy;
#METER:8;
#CREDIT:Fred-104;
#NOTES:
00000000
00000000
00000000
00000000
,
00000000
00000000
00000000
00000000
,
00000000
00000000
00000000
00000000
,
00000001
00000000
00000000
00000010
00000000
00000000
00000100
00000000
,
00000000
00001000
00000000
00000000
00000100
00000000
00010000
00000000
,
00001000
00000000
00000000
00010000
00000000
00000000
01000000
00000000
,
00000000
00100000
00000000
00000000
00010000
00000000
01000000
00000000
,
00100000
00000000
00000000
10000000
00000000
00000000
01000000
00000000
,
00000000
00010000
00000000
00000000
00001000
00000000
00000100
00000000
,
00000001
00000000
00000010
00000000
00000100
00001000
00000100
00000000
,
00002002
00000000
00000000
00000000
00003003
00000000
00000100
00000100
,
00000001
00000000
00000000
00000010
00000000
00000000
00000100
00000000
,
00010000
00010000
00001000
00000000
,
01000000
00010000
10000000
01000000
,
00010000
00001000
00011000
00000000
,
00010000
00000000
00001000
00010000
,
00001000
00000010
00000001
00000100
,
00000010
00000100
00001000
00010000
,
00022000
00000000
00000000
00033000
,
00001000
00000000
00000000
01000000
00000000
00000000
00001000
00000000
,
00010000
00001000
01000000
00010000
,
00100000
01000000
10000000
00100000
,
00010000
00001000
00011000
00000000
,
00010000
00000000
00001000
00010000
,
00000100
00000010
00000001
00001000
,
00000010
00000000
00000000
00000000
00000100
00000000
00000000
00000000
00001000
00000000
00000000
00001000
00000000
00000000
00001000
00000000
,
00022000
00000000
00000000
00033000
,
00001000
00001000
00010000
00100000
,
10000000
01000000
00100000
00100000
,
00001000
00010000
00001000
00000100
,
00000010
00001000
00000100
00000010
,
00000010
00000001
00001000
00000010
,
00000100
00001000
00010000
00010000
,
00001000
01000000
00010000
00010000
,
00100000
01000000
10000000
00100000
,
10000000
01000000
00010000
00001000
,
00000100
00000001
00001000
00000100
,
00000010
00000001
00000100
00000010
,
00000100
00001000
00010000
00001000
,
00010000
00010000
00000000
00011000
00000000
00000000
01100000
00000000
,
00000000
10010000
00000000
00000000
10000000
01000000
00000000
01100000
,
00000000
00022000
00000000
00000000
,
00000000
00000000
00000000
00000000
,
00033000
00010000
00001000
00000100
,
00000001
00001000
00000100
00000010
,
00000010
00000001
00000100
00000010
,
00000100
00001000
00010000
00001000
,
00100000
00110000
00011000
00001010
,
00011000
00001010
00011000
00110000
,
00011000
00010000
00001000
00010000
,
00100000
10000000
01000000
00010000
,
00001000
00021000
00000000
00031000
,
00000100
00000002
00000000
00000013
,
00000100
00001000
00001100
00010000
,
01010000
00001000
00011000
00010000
,
00001000
00021000
00001000
00001000
,
00031000
00200000
00010000
00010000
,
00310000
02000000
00100000
03100000
,
10000000
01000000
00010000
00001000
,
00010000
00011000
00000000
00000000
,
00000000
00000000
00000000
00000000
,
00000000
00010000
00001000
00000100
,
00000001
00000110
00000000
00001000
,
00001000
00001000
00000001
00000100
,
00001000
00000000
00010000
00001000
00010000
00001000
00010000
00000000
,
00000000
00001000
00100000
00010000
,
00100000
01000000
10000000
00100000
,
01000000
00100000
00000000
10000000
,
01000000
00100000
01000000
00010000
,
00000000
00001000
00010000
00000010
,
00001000
00000000
00000100
00000000
00000010
00000001
00000000
00000001
,
00001000
00000001
00000100
00000010
,
00000100
00000000
00001000
00000000
00010000
00001000
00010000
00000000
,
00001000
00100000
00010000
00010000
,
10000000
00100000
00100000
00010000
,
00001000
00010000
00001000
00000100
,
00000001
00002002
00000000
00000000
,
00003003
00000000
00000001
00000100
00000001
00000000
00002000
00000200
,
00000000
00000000
00000000
00000000
00003000
00000000
00000000
00010300
,
00001000
00020000
00000000
00000000
00031000
00000000
00010000
00000000
,
00100000
01000000
00010000
10000000
,
10010000
00000000
10000000
01000000
10000000
00000000
02000000
00200000
,
00000000
00000000
00000000
00000000
03000000
00000000
00000000
00301000
,
00010000
00002000
00000000
00000000
00003100
00000000
00000010
00000000
,
00001000
00002002
00000000
00000000
,
00000000
00000000
00000000
00003003
;

//--------------- dance-double - Fred-104 ----------------
#NOTEDATA:;
#STEPSTYPE:dance-double;
#DESCRIPTION:Fred-104;
#DIFFICULTY:Medium;
#METER:11;
#CREDIT:Fred-104;
#NOTES:
00000000
00000000
00000000
00000000
,
00000000
00000000
00000000
00000000
,
00000000
00000000
00000000
00000000
,
10000000
00100000
10000000
01000000
00000000
00100000
00001000
00000000
,
00010000
00000100
00000000
00000010
00000100
00001000
00000001
00000000
,
00000100
00000001
00000010
00000001
00000000
00000100
00000010
00000000
,
00001000
00000001
00000000
00000010
00001000
00010000
00001000
00000000
,
01000000
00010000
00100000
00010000
00000000
10000000
00010000
00000000
,
00100000
01000000
00000000
00010000
00001000
00010000
00000100
00001000
,
00000100
00000010
00000001
00000100
00001000
00010000
00001000
00010000
,
01000000
00000000
00100000
00000000
20020000
30030000
01000000
01000000
,
00010000
00000000
10000000
01000000
00000000
00100000
00001000
00000000
,
00010000
00001000
00000000
00001000
00010000
00000000
00000100
00001000
,
00000001
00000010
00000001
00000000
00000100
00000010
00001000
00000000
,
00000100
00010000
00001000
00010000
01000000
00000000
10000000
00000000
,
10010000
00000000
10000000
01000000
00100000
00010000
00100000
00000000
,
00001000
00010000
00000010
00000000
00001000
00000100
00000000
00010000
,
00001000
00000000
00010000
00001000
00000000
00000100
00000001
00000000
,
00000220
00000000
00000000
00000000
00000330
00000000
00001000
00000100
,
00000010
00000000
00000001
00000100
00000000
00000010
00010000
00000000
,
00001000
00000000
00100000
00010000
00100000
00000000
01000000
10000000
,
00100000
10000000
01000000
00000000
00100000
00001000
00010000
00000000
,
00001000
00000100
00000001
00001000
00000100
00000000
00000010
00000000
,
00001001
00000000
00000001
00000100
00000001
00000100
00001000
00000000
,
00010000
00001000
01000000
00000000
00010000
00100000
00001000
00010000
,
00001000
00000000
00000000
00000000
00000100
00000000
00000001
00000000
00000010
00000000
00000000
00000100
00000000
00000000
00010000
00000000
,
00001000
00011000
00000000
01001000
00000000
01100000
00000000
00010000
,
10000000
01000000
00100000
00000000
00001000
00010000
00000010
00000000
,
00001000
00000100
00000010
00000000
00000001
00001000
00000010
00000000
,
00000100
00001000
00010000
00000000
00001000
00010000
00100000
00000000
,
01000000
00010000
00100000
00000000
01000000
10000000
00100000
00000000
,
10000000
01000000
00010000
00000000
00001000
00010000
00000100
00000000
,
00000010
00000001
00001000
00000010
00001000
00000010
00000100
00000000
,
00001000
00010000
00001000
00000000
01000000
00010000
00100000
01000000
,
00100000
01000000
10000000
00000000
00010000
10000000
00100000
00000000
,
01000000
00100000
00010000
00001000
00010000
00001000
00010000
00000000
,
00000100
00001000
00000001
00000000
00000100
00000010
00001000
00000001
,
00000010
00000001
00000100
00000000
00001000
00010000
00001000
00010000
,
00001000
01000000
00001000
01000000
00010000
00100000
01000000
00000000
,
10000000
10000000
00000000
11000000
00000000
00000000
00110000
00000000
,
00000000
00101000
00000000
00000000
00000010
00000010
00000000
00000110
,
00000000
00002002
00000000
00000000
,
00000000
00000000
00000000
00000000
,
00003003
00000000
00000000
00000110
00000000
00000000
00001000
00000000
00000001
00000010
00000000
00000000
,
00000100
00000000
00000000
00010000
00000000
00000000
00001000
00000000
01000000
00001000
00000000
00000000
,
00010000
00100000
10000000
01000000
,
00010000
00000000
00000000
00001000
00000000
00001000
00010000
00000000
00010000
00001000
00000000
00000000
,
00011000
00000000
00000000
00010000
00000000
00000000
00001000
00000000
00001000
00000100
00000000
00000000
,
00000001
00000000
00000001
00000010
00000000
00000000
00000100
00000000
00000100
00010000
00000000
00001000
,
00000000
00000000
00001000
00010000
00000000
00010000
00001000
00000000
00000000
01000000
00000000
01000000
,
00010000
00000000
00000000
00100000
00000000
01000000
00100000
00000000
01000000
00100000
00000000
00000000
,
00001000
00011000
00010000
00001000
,
00000100
00000101
00001000
00000001
,
00000010
00000100
00011000
01000000
,
00110000
10000000
01010000
10000000
,
00110000
00000000
00100000
00002000
00000000
00000000
00010000
00000000
00000000
00010000
00000000
00000000
,
00013000
00000020
00001000
00001000
,
00001030
00000200
00000010
00000010
,
00000310
00000000
00000000
00000001
00000000
00000000
00000110
00000000
00000000
00010000
00000000
00011000
,
00000000
00011000
00000000
00010000
,
00000000
00000000
00000000
00010000
00000000
00000000
00000000
00000000
00011000
00000000
00000000
00000000
,
00000000
00000000
00001000
00010000
00000000
00000100
00001000
00000100
,
00000010
00000001
00001000
00000000
00000000
00000001
00000100
00000010
,
00000100
00001000
00010000
00001000
01000000
00000000
00010000
00100000
,
01000000
00000000
10000000
00100000
01000000
00100000
10000000
01000000
,
00100000
00000000
00001000
00010000
00000100
00010000
00001000
00010000
,
00000010
00000000
00001000
00000001
00001000
00000100
00000010
00000000
,
00000011
00000000
00001000
00000001
00000000
00000100
00001000
00010000
,
00001000
00000000
00001000
00010000
00100000
01000000
00010000
10000000
,
01000000
00000000
00100000
00010000
00100000
00000000
00001000
00010000
,
00000010
00000000
00001000
00000000
00000100
00000010
00000000
00000001
,
00000100
00000010
00000100
00000000
00001000
00010000
00001000
00000000
,
00001000
01000000
00010000
00100000
01000000
10000000
00020000
00000000
,
20030000
00000000
31000000
00100000
00010000
00000000
00100000
00001000
,
00010000
00000000
00001000
00000100
00000001
00001000
00000100
00000000
,
00000010
00000000
00000000
00000000
00000001
00000000
00000000
00000100
00000000
00000000
00001000
00000000
00010000
00000000
00001000
00000000
,
00010000
00022000
00000000
00000000
,
00033000
00000000
00001000
00001000
00001000
01000000
00010000
00100000
,
00000000
00100000
01000000
00000000
10000000
00000000
00010000
01000000
,
00100000
10000000
00000000
10000000
00010000
00000000
01000000
00001000
,
00010000
00001000
00000100
00000001
00001000
00000100
00000010
00000001
,
00001000
00000000
00000100
00000100
00000100
00010000
00001000
00010000
,
00000000
01000000
00100000
00000000
00010000
10000000
00000000
00100000
,
10000000
01000000
00100000
00001000
00010000
00001000
01000000
00001000
,
00010000
00022000
00000000
00000000
,
00000000
00000000
00000000
00033000
;

//--------------- dance-double - Fred-104 ----------------
#NOTEDATA:;
#STEPSTYPE:dance-double;
#DESCRIPTION:Fred-104;
#DIFFICULTY:Hard;
#METER:14;
#CREDIT:Fred-104;
#NOTES:
00000000
00000000
00000000
00000000
,
00000000
00000000
00000000
00000000
,
00000000
00000000
00000000
00000000
,
00011000
00000000
00001000
00010000
00100000
10000000
00010000
10000000
,
01000000
00010000
00001000
00010000
00001000
00000100
00000001
00000010
,
00000110
00000000
00001000
00000001
00000100
00000010
00000100
00001000
,
00010000
00000000
00100000
00000000
01000000
00000000
00010000
00000000
00100000
00000000
01000000
10000000
01000000
00000000
00000000
00000000
,
10000000
00100000
00100000
00010000
00001000
00001000
00000100
00000010
,
00000010
00001000
00000100
00000100
00000010
00000001
00001000
00000001
,
00000100
00000100
00001000
00010000
00010000
01000000
00100000
00100000
,
00010000
10000000
00010000
01000000
02200000
03300000
01000000
01000000
,
00010000
00000000
10000000
01000000
00010000
01000000
10000000
00010000
,
01000000
10000000
01000000
00010000
10000000
10000000
01000000
00010000
,
00001000
00010000
00000100
00000010
00000001
00001000
00000010
00000100
,
00001000
00000000
00010000
00000000
00001000
00000000
01000000
00000000
00100000
10000000
00100000
00000000
01100000
00000000
00000000
00000000
,
10010000
00000000
10000000
01000000
00010000
00001000
00100000
00001000
,
00000010
00000000
00000100
00000000
00002000
00000000
00000000
00000000
00003010
00000000
00000100
00000001
00000100
00000000
00001000
00000000
,
00020000
00000000
00031000
01000000
00010000
00100000
01000000
10000000
,
00010000
00000000
01000000
00000000
00100000
00000000
10000000
01000000
10000000
01000000
10000000
00000000
01000000
00000000
00100000
00000000
,
00120000
00000000
10030000
00100000
00010000
00001000
00000010
00000100
,
00002000
00000000
00003001
00001000
00000020
00000000
00000130
00001000
,
00010000
00100000
01000000
00100000
00010000
00001000
02000000
00000000
,
03010000
00000000
10000000
00000000
01000000
00000000
00010000
00000000
00001000
00010000
00001000
00000000
00021000
00000000
00000000
00000000
,
00030020
00000000
00001000
00001030
00000200
00000010
00000310
00000000
,
00000001
00000000
00001000
00000001
00001000
00000000
00000100
00000000
00010000
00000000
01000000
00000000
00100000
00000000
00010000
00000000
,
10000000
00000000
00010000
00000000
01000000
00000000
00001000
00000000
00010000
00000000
00000100
00001000
00000000
00001000
00000001
00000000
,
00000010
00000011
00000000
00001010
00000000
00011000
00000000
00010000
,
00001000
00010000
01000000
00100000
00010000
10000000
00100000
10000000
,
01000000
00010000
00001000
00000000
00010000
00001000
00010000
00000100
,
00000010
00000001
00001000
00000010
00000100
00001000
00010000
00000000
,
00001000
00010000
01000000
00100000
00010000
10000000
00100000
00010000
,
00001000
00010000
00000100
00000000
00000010
00000001
00001000
00000010
,
00000100
00000000
00001000
00000000
01000000
00000000
00010000
10000000
00010000
00000000
00100000
00000000
01000000
00100000
01000000
00100000
,
00010000
10000000
00100000
01000000
00100000
00010000
00001000
00000100
,
00000001
00000010
00000100
00001000
00000001
00000100
00001000
00010000
,
00001000
01000000
00100000
00010000
00100000
01000000
00000000
00010000
,
10000000
00010000
00100000
01000000
00010000
00002000
00010000
00000000
,
00000010
00000000
00003010
00010000
00001000
00010000
00000100
00000010
,
00000001
00000000
00001000
00000000
00000001
00000000
00001000
00000010
00010000
00000000
00001000
00000000
00100000
00001000
00010000
00000000
,
00001000
01001000
00000000
00010100
00000000
00000000
00101000
00000000
,
00000000
00010010
00000000
00000000
00000100
00000110
00000000
00011000
,
00000000
01000000
02200000
00000000
00000000
00000000
00000000
00000000
,
00000000
00000000
00000000
00000000
,
03300000
00000000
00000000
10010000
00000000
10000000
01000000
00000000
01000000
00010000
00000000
00010000
,
00001000
00000000
00001000
00010000
00000100
00010000
00000100
00001000
00000100
00000010
00000000
00000001
,
00000010
00000000
00000001
00001000
00000000
00000010
00010000
00000000
00000000
00010000
00000000
00010000
,
00001000
00100000
00010000
00100000
00000000
00100000
01000000
00000000
11000000
00000000
00000000
00010000
,
00000000
10000000
01000000
00100000
00000000
00001000
00010000
00000000
00000000
00011000
00000000
00000000
,
00010000
00000100
00001000
00000001
00000000
00000100
00000000
00000000
00000010
00000100
00000000
00001000
,
00000000
00000000
00010000
00001000
00000000
00010000
00100000
00000000
00000000
00100000
00000000
00010000
,
00001000
00000000
00000000
01000000
00010000
10000000
01000000
00000000
01000000
00100000
00000000
00001000
,
00010000
00000000
00001000
00010000
00000000
00000000
00011000
00000000
00010000
00000100
00000000
00000100
,
00000010
00000000
00000010
00000001
00000000
00000100
00000000
00000000
00000001
00000010
00000000
00000100
,
00010000
00001000
00010000
00001000
00000000
00001000
01000000
00000000
00000000
00010000
00000000
00010000
,
10000000
00000000
00000000
01000000
00000000
01000000
00100000
00000000
00000000
00001000
00000000
00001000
,
00010000
00000000
00010020
00000000
00000000
00000000
00001000
00000000
00000000
00000001
00000000
00000000
,
00000130
00000001
00001000
00000002
00000000
00000000
00000100
00000000
00000000
00001000
00000000
00000000
,
00000013
00000100
00010000
00002000
00000000
00000000
00010000
00000000
00000000
00000010
00000000
00000000
,
00013000
00001000
00100000
00010000
00000000
00000000
01100000
00000000
10000000
01000000
00000000
01100000
,
00000000
00100000
00001000
00010000
00000000
00000000
00000000
00000000
00000000
00010000
00000000
00000000
,
00000000
00000000
00000000
00000000
00000000
00000000
00000000
00000000
00000000
00000000
00000000
00000000
00010000
00000000
00000000
00000000
00000000
00000000
00000000
00000000
00000000
00000000
00000000
00000000
00000000
00000000
00000000
00000000
00000000
00000000
00000000
00000000
00010000
00000000
00000000
00000000
00000000
00000000
00000000
00000000
00000000
00000000
00001000
00000000
00000000
00010000
00000000
00000000
,
00001000
00000000
00000000
00000000
00010000
00000000
00100000
00000000
01000000
00000000
00010000
10000000
00010000
00000000
00100000
00000000
,
01000000
00010000
00002000
00000000
00013000
00001000
00000010
00000100
,
00000001
00000100
00001000
00002000
00000000
00003001
00000100
00001000
,
00010000
00000000
00001000
00000000
00100000
00000000
00010000
00000000
01000000
00000000
00001000
00010000
00001000
00000000
00100000
00000000
,
01000000
00000000
20000000
00000000
00000000
00000000
30100000
10000000
00100000
00000000
01000000
00010000
01000000
00000000
00010000
00100000
,
01000000
00000000
10000000
00000000
00010000
00000000
01000000
00000000
00100000
00000000
00010000
00001000
00010000
00000000
00001000
00010000
,
00002000
00000000
00003200
00000001
00000000
00000301
00000010
00000100
,
00001000
00000000
00000010
00000000
00000100
00000000
00001000
00010000
00001000
00000000
00100000
00010000
00100000
00000000
00010000
01000000
,
00100000
10000000
00010000
00000000
00100000
00000000
01000000
00000000
10000000
00000000
00100000
00000000
01000000
00000000
00100000
00000000
,
00010000
00000000
00001000
00000000
00010000
00000100
00010000
00000000
00000100
00000000
00000010
00000000
00000100
00000000
00001000
00000000
,
00000010
00010000
00001000
00000000
00010000
00002000
00000100
00000000
,
00003100
00000000
00001000
00000000
00010000
00001000
00010000
00000000
00001000
00000000
01000000
00100000
01000000
00000000
00010000
00000000
,
00100000
01000000
11000000
10000000
00100000
01000000
00010000
00100000
,
01000000
00000000
10000000
00000000
00100000
00000000
00010000
00000000
00001000
00000000
00000010
00000100
00000010
00000000
00000001
00000000
,
00001000
00000000
00000010
00000000
00010000
00000000
00000000
00001000
00000000
00000000
00100000
00000000
00010000
10000000
00010000
00000000
,
01000000
00100000
01000000
00000000
02020000
00000000
00000000
00000000
00000000
00000000
00000000
00000000
00000000
00000000
00000000
00000000
,
03030000
00000000
00000000
00000000
00010000
10000000
00010000
10000000
01000000
00000000
00010000
00000000
00002000
00000000
00010000
00000000
,
00000000
00013000
00000020
00000000
00001030
00000100
00000010
00000001
,
00001000
00002010
00000000
00000000
00000000
00003001
00000100
00001000
,
00010000
00000000
01000000
00000000
10000000
00000000
00010000
00000000
01000000
00000000
00100000
00000000
10000000
00010000
10000000
00010000
,
20000000
00000000
00000000
00000000
30100000
01000000
00100000
01000000
00100000
00000000
00010000
00000000
00002000
00000000
00010000
00000000
,
00000000
00013000
00000100
00000000
00000001
00000100
00001000
00000001
,
00000100
00000120
00000000
00001030
00000001
00000100
00001000
00010000
,
00100000
10000000
02000000
00000000
00000000
00000000
00000000
00000000
,
00000000
00000000
00000000
03100000
;

//--------------- dance-double - Fred-104 ----------------
#NOTEDATA:;
#STEPSTYPE:dance-double;
#DESCRIPTION:Fred-104;
#DIFFICULTY:Challenge;
#METER:17;
#CREDIT:Fred-104;
#NOTES:
00000000
00000000
00000000
00000000
,
00000000
00000000
00000000
00000000
,
00000000
00000000
00000000
00000000
,
00010000
00001000
00010000
00000000
00001000
00000000
00000100
00000001
00000100
00000000
00000010
00000000
00001000
00000001
00001000
00000000
,
00000001
00000000
00000010
00000100
00000010
00000000
00001000
00000000
00010000
00100000
01000000
00000000
10000000
01000000
00010000
00000000
,
10000000
00010000
10000000
00000000
01000000
00000000
00100000
01000000
00010000
00000000
00001000
00000000
00000010
00000100
00000010
00000000
,
00000001
00000000
00001000
00000010
00000100
00000000
00001000
00000000
00010000
00100000
01000000
00100000
10000000
00000000
00010000
00000000
,
10000000
01000000
00100000
00000000
01000000
00000000
00010000
00001000
00000010
00000000
00000100
00000000
00001000
00000001
00000100
00000000
,
00000001
00000000
00000010
00000100
00010000
00000000
00001000
00000000
00100000
00001000
00010000
00000000
00001000
01000000
00010000
00000000
,
10000000
01000000
00100000
01000000
10000000
00000000
00100000
01000000
10000000
01000000
00100000
00000000
10000000
01000000
00100000
00001000
,
00010000
00001000
00000100
00000001
00002002
00003003
00000100
00000100
,
00000001
00000000
00000000
00000010
00000100
00000000
00001000
00000000
00000001
00000100
00000010
00000000
00000100
00000000
00001000
00000000
,
00010000
00001000
01000000
00000000
00010000
00000000
00100000
01000000
20000000
00000000
00100000
00000000
30020000
00000000
01000000
00000000
,
10030000
10000000
00010000
00010000
00001000
00000200
00000010
00000000
,
00001300
00000001
00000100
00002000
00010000
00000000
01003000
00001000
,
00010000
00000000
00100000
00000000
10000000
00000000
01000000
00100000
01000000
00000000
00010000
00000000
00001000
00100000
00010000
00000000
,
01000000
00010000
10000000
01000000
00200000
00000000
00010000
00000000
00000000
00000000
10000000
00000000
00000000
00000000
00310000
00000000
,
10010000
00000000
10000000
01000000
00100000
00000000
00101000
00000000
00001000
00000000
00010000
00000000
00000010
00001000
00000100
00000000
,
00000010
00000000
00000001
00000000
00001001
00000000
00001000
00000010
00001000
00000010
00000100
00000000
00000001
00000010
00000100
00010000
,
00001000
00000000
00010000
00000000
01000000
00000000
00100000
00010000
10000000
00000000
00010000
00000000
01000000
00100000
00010000
00000000
,
00001000
00000000
00000100
00000000
00000010
00000000
00001000
00000100
00000010
00000000
00000001
00000100
00000010
00000000
00001000
00000000
,
00000100
00000010
00001000
00100000
00010000
01000000
01100000
00000000
,
00010000
10000000
01000000
00000000
00100000
00000000
00001000
00010000
00001000
00000000
00000010
00000000
00001000
00000000
00010000
00000100
,
00001000
00000000
00000010
00000000
00000001
00000000
00001000
00000000
00000100
00000000
00000010
00000000
00001000
00000001
00000010
00000000
,
00000100
00001000
00000100
00010000
00001000
00000000
01000000
00000000
00010000
00100000
02000000
00000000
03100000
01000000
20000000
00000000
,
30010000
00000000
01000000
00100000
10000000
00000000
01000000
00100000
00010000
00100000
00001000
00010000
00001000
01000000
00010000
00000000
,
10000000
11000000
00000000
01010000
00000000
00011000
00000000
00010100
,
00001100
00001000
00000100
00000010
00001000
00000010
00000100
00001000
,
00020000
00000000
00230000
00000000
00310000
01000000
00100000
00010000
,
00100000
01000000
00010000
00100000
01000000
00010000
02000000
00000000
,
03100000
00010000
00100000
01000000
00010000
00001000
01000000
00010000
,
00001000
00000010
00020000
00000000
00031000
00000100
00000010
00010000
,
00001000
00000000
00000100
00000000
00000010
00000000
00000100
00001000
00000100
00000010
00001000
00000100
00010000
00001000
00010000
00000000
,
00000010
00000100
00001000
00010000
00100000
01000000
00010000
00100000
,
01000000
00010000
00001000
01000000
00001000
00010000
00001000
00000010
,
00000100
00001000
00000010
00000100
00001000
01000000
00010000
00001000
,
00010000
01000000
00001000
00100000
01000000
00010000
00002000
00000000
,
00100000
00000000
00000000
00000000
00013000
00000000
00001000
00010000
00001000
00000000
00010000
00000000
00001000
00000000
00000010
00000000
,
00000100
00000000
00000010
00000000
00001000
00000000
00010000
00001000
00100000
00010000
00100000
00010000
01000000
00001000
00010000
00000000
,
00011000
00010100
00000000
00001001
00000000
00000000
00000011
00000000
,
00000000
00001010
00000000
00000000
00011000
01010000
00000000
11000000
,
00000000
00000000
00000000
10010000
00000000
00000000
10000000
00000000
00100000
00000000
10000000
00000000
00100000
00000000
00000000
00000000
00010000
00000000
00100000
00000000
00010000
00000000
00100000
00000000
,
10000000
00000000
00010000
10000000
01000000
00010000
00001000
00000100
00000001
00001000
00000100
00000010
,
00000001
00000010
00000100
00001000
00000000
00001000
00000001
00000000
00000001
00000010
00000000
00000010
,
00001000
00000000
00001000
00010000
00001000
00010000
00001000
01000000
00010000
01000000
00010000
00100000
,
01000000
00000000
01000000
10000000
00000000
10000000
00100000
00000000
00100000
00010000
00000000
00010000
,
00001000
00100000
00001000
00010000
00000000
00010000
00000010
00000000
00002010
00000000
00000000
00003001
,
00000010
00000000
00000100
00001000
00000100
00000000
00010000
00000000
00000000
00000000
00010000
00000000
00001000
00000000
00000000
00000000
00000000
00000000
02010000
00000000
00000000
00000000
00000000
00000000
,
03001000
00000000
00001000
00010000
00000000
00010000
00001000
00000000
00001000
00000100
00000000
00000100
,
00000001
00000000
00000000
00000000
00000001
00001000
00000001
00000000
00000000
00000000
00001000
00000000
00000010
00000000
00000000
00000000
00000000
00000000
00011000
00000000
00000000
00000000
01000000
00000000
,
00010000
00000000
00000000
10000000
01000000
10000000
01000000
00000000
01000000
00010000
00001000
00000100
,
00000001
00001000
00000001
00000020
00000000
00000000
00000130
00001000
00000001
00000200
00000000
00000000
,
00001300
00010000
00001000
00100000
00000000
00010000
10000000
00000000
01100000
00000000
00000000
00010000
,
10000000
01000000
00010000
00001000
00000000
00001000
00011000
00000000
00000000
00010010
00000000
00001000
,
00010000
00000000
00000000
00101000
00000000
00010000
00001000
00000000
00001000
00010000
00000000
00001000
,
00000100
00000000
00000102
00000000
00000000
00000000
00000013
00000000
00000010
00000100
00000000
00001000
,
00000010
00000100
00001000
00020000
00000000
00000000
00001000
00000000
00000000
01000000
00000000
00000000
,
00031000
00010000
01000000
20000000
00000000
00000000
00100000
00000000
00000000
00010000
00000000
00000000
,
31000000
00100000
00010000
10000000
00000000
10000000
00100000
00000000
00100000
00010000
00000000
00011000
,
00000000
00010000
00001000
00011000
00000000
00000000
00000000
00000000
00000000
00001000
00000000
00000000
,
00000000
00000000
00000000
00000000
00000000
00000000
00000000
00000000
00000000
00000000
00000000
00000000
00001000
00000000
00000000
00000000
00000000
00000000
00000000
00000000
00000000
00000000
00000000
00000000
00000000
00000000
00000000
00000000
00000000
00000000
00000000
00000000
00001000
00000000
00000000
00000000
00000000
00000000
00000000
00000000
00000000
00000000
00001000
00000000
00000000
00010000
00000000
00000000
,
00011000
00000000
00000000
00000000
00011000
00000000
00010000
00000100
00001000
00000010
00000100
00000001
00000010
00000000
00000100
00000000
,
00000001
00000000
00000000
00000000
00000100
00000000
00000000
00000000
00001000
00000000
00000000
00000000
00001002
00000000
00000000
00000000
00000000
00000000
00002003
00000000
00000000
00000000
00000000
00000000
00000000
00000000
00000000
00000000
00000000
00000000
00003001
00000000
00000000
00000100
00000000
00000000
00000010
00000000
00000000
00000000
00000000
00000000
00000100
00000000
00000000
00000000
00000000
00000000
,
00001000
00000000
00010000
00000000
02000000
00000000
10000000
00000000
00000000
00000000
13000000
01000000
00100000
00000000
00001000
00000000
,
00000010
00000000
00000100
00000000
00010000
00000000
00001000
00000100
00000010
00000000
00010000
00001000
00000100
00000000
00000010
00000000
,
00001000
00000000
00000100
00000000
00000010
00000000
00000001
00001000
00000001
00000000
00000100
00000010
00000100
00000000
00001000
00010000
,
00001000
00000000
01000000
00010000
00100000
00000000
01000000
00000000
00100000
00000000
00010000
00000000
02000000
00000000
00000000
03010000
,
10000000
00000000
02000000
00100000
00000000
03100000
00010000
10000000
,
00100000
00000000
00010000
00000000
00001000
00000000
00010000
00000100
00001000
00000000
00000100
00000010
00000001
00000100
00000010
00001000
,
00000001
00001000
00000100
00000000
00000001
00000000
00000100
00000000
00001000
00000000
00000001
00000000
00000100
00000000
00001000
00000000
,
00010000
00001000
00010000
00000000
00100000
01000000
00010000
00000000
00100000
00000000
01000000
10000000
00010000
00000000
01000000
00000000
,
00100000
00010000
00002000
00000000
00103000
00001000
00000020
00000000
,
00000031
00000000
00001000
00000000
00000010
00000000
00000100
00000000
00001000
00000000
00010000
00001000
00100000
00000000
00010000
10000000
,
00100000
00000000
01000000
00000000
00010000
00000000
00100000
01000000
00100000
00000000
00001000
00000000
00010000
00000010
00010000
00000000
,
00001000
00000000
00100000
00000000
00001000
00010000
00001000
00000000
00000100
00000000
00000010
00001000
00000100
00000000
00000010
00000001
,
00000010
00000000
00000100
00000000
00001000
00000000
00000001
00000100
00000010
00000000
00000100
00000000
00001000
00010000
00000010
00001000
,
00000100
00010000
00001000
00100000
00002000
00000000
00000000
00000000
00000000
00000000
00000000
00000000
00000000
00000000
00003000
00000000
,
00011000
00000000
00000000
00000000
00001000
00100000
00001000
00100000
01000000
00000000
00010000
00000000
00001000
00000000
00100000
00000000
,
00010000
00000010
00000100
00001000
00000010
00000100
00001000
01000000
,
00010000
00100000
00001000
01000000
00010000
00001000
00000010
00010000
,
00000100
00000000
00010000
00000000
00001000
00000000
00010000
00000000
01000000
00000000
00010000
00000000
00001000
00010000
00100000
00010000
,
00001000
00000000
00000000
00000000
00010000
00001000
00010000
00001000
00000100
00000000
00000010
00000000
00001000
00000000
00000100
00000000
,
00000010
00001000
00100000
01000000
00010000
00001000
01000000
00001000
,
00010000
00000000
00001000
00000000
00010000
00000100
00001000
00000001
00000100
00000001
00001000
00000100
00010000
00001000
00100000
00010000
,
10000000
00010000
01000000
00100000
20000000
00000000
00000000
00000000
00000000
00000000
00000000
00000000
00000000
00000000
00000000
00000000
,
00000000
00000000
00000000
30010000
;
