#VERSION:0.83;
#TITLE:Apocalypse;
#ARTIST:Morrigan feat. リリィ;
#ARTISTTRANSLIT:Morrigan feat. Lily;
#GENRE:EPIC D'N'B;
#BANNER:Apocalypse.png;
#BACKGROUND:Apocalypse-bg.png;
#CDTITLE:./CDTitles/RB Reflesia.png;
#MUSIC:Apocalypse.ogg;
#SAMPLESTART:82.877;
#SAMPLELENGTH:15;
#DISPLAYBPM:82.5:165;
#BPMS:0=165,51=164.5,52=165,62.5=175,63=165,64=82.5,65=165,95=166.667,95.25=165,124.75=82.5,125=165,148=82.5,150=165,153=165.25,154=165,162=82.5,164=165,165.75=82.5,166=165,180.75=330,181=165,208.5=165.8,209=165,273.5=82.5,274=165,335.5=82.5,336=165;
#STOPS:65=0.37,94=0.091,94.25=0.092,94.5=0.091,94.75=0.092,95=0.091,95.25=0.091,95.5=0.091,95.75=0.091,110=0.136,110.375=0.137,110.75=0.091,123=0.091,123.25=0.091,123.5=0.091,123.75=0.091,124=0.091,124.25=0.091,124.5=0.045,124.625=0.046,139=0.136,139.375=0.136,139.75=0.091,164=0.091,164.25=0.091,164.5=0.091,164.75=0.091,165=0.091,165.25=0.091,165.5=0.045,165.625=0.046,180=0.136,180.375=0.136,180.75=0.137,209.5=0.091,209.75=0.091,210=0.091,210.25=0.091,272=0.182,272.5=0.091,272.75=0.091,273=0.091,273.25=0.091,334=0.091,334.25=0.091,334.5=0.091,334.75=0.091,335=0.091,335.25=0.091;
#TIMESIGNATURES:0=4=4,64=2=4,66=4=4,94=2=4,96=4=4,108=3=4,111=4=4,123=2=4,125=4=4,137=3=4,140=4=4,148=2=4,150=4=4,162=2=4,166=4=4,178=3=4,181=4=4,209=3=4,212=4=4,272=2=4,274=4=4,334=2=4,336=4=4;
#BGSTAGE:14;

//--------------- dance-single - Fred-104 ----------------
#NOTEDATA:;
#STEPSTYPE:dance-single;
#DESCRIPTION:Fred-104;
#DIFFICULTY:Beginner;
#METER:4;
#CREDIT:Fred-104;
#NOTES:
0000
0000
0000
0000
,
0000
0000
0000
0000
,
0000
0000
0000
0000
,
0000
0000
0000
0000
,
0000
0000
0000
0000
,
1000
0000
0000
0000
,
0001
0000
0000
0000
,
0100
0000
0000
0000
,
0001
0000
0000
0000
,
2000
0000
0000
0000
,
3002
0000
0000
0000
,
2003
0000
0000
0000
,
3000
0000
0000
0000
,
1000
0000
0010
0000
,
1000
0000
0001
0001
,
0001
0000
1000
0000
,
0001
0000
1000
0000
,
0001
0000
0100
0100
,
0100
0000
0001
0000
,
0010
0000
0001
0001
,
0001
0000
1000
0000
,
0100
0000
1000
1000
,
1000
0000
0001
0000
,
1000
0000
0002
0000
,
1003
0000
0001
0000
,
0100
0000
0100
0000
,
0001
0000
0010
0000
,
0002
0000
0003
1000
,
0000
0001
0000
1000
,
0000
0010
0000
1000
,
0000
0001
0000
0200
,
0000
0310
0000
0100
,
0000
0001
0000
1000
,
0000
0001
0000
1000
,
0000
0200
0000
0300
,
1000
0000
0010
0000
,
1000
0000
0001
0001
,
0001
0000
1001
0000
,
0000
0000
1000
0000
,
0020
0000
0000
0000
,
0000
0000
0030
0000
,
0000
0000
1000
0000
,
0001
0000
0100
0100
,
0100
0000
0001
0000
,
0010
0000
0001
0001
,
0002
1003
0000
0001
,
0000
1000
0000
0010
,
0010
0010
0000
1000
,
0000
0100
0000
1000
,
1000
1000
0000
0001
,
0000
1000
0000
0100
,
0100
0100
0000
0010
,
0000
1001
0000
0000
,
0001
0000
0010
0000
,
0200
0000
0300
1000
,
1000
0000
0001
1000
,
0001
0000
1000
0000
,
0010
0000
0100
0000
,
0010
0000
1000
0000
,
0001
0000
1000
0000
,
0001
0001
0001
0001
,
0001
0000
0100
0000
,
0002
0000
0003
1000
,
0010
0000
1000
1000
,
1000
0000
0001
0000
,
1000
0000
0100
0000
,
1000
1000
1000
0000
,
0001
0001
0001
0000
,
1001
0000
0002
0000
,
0103
0000
2000
0000
,
3100
0000
0001
0000
,
0010
0000
0001
0001
,
0001
0000
1000
0000
,
0010
0000
1000
0000
,
0100
0000
1000
0000
,
0001
0000
1000
1000
,
1000
1000
2000
0000
,
3010
0000
0002
0000
,
0013
0000
1000
0000
,
0001
0000
1000
1000
,
1000
0000
0010
0010
,
0010
0000
0100
0100
,
0100
0100
0002
0000
,
0000
0000
0003
0000
,
2002
0000
0000
0000
,
0000
0000
0000
0000
,
0000
0000
0000
0000
,
0000
0000
0000
0000
,
0000
0000
0000
0000
,
0000
0000
0000
0000
,
0000
0000
0000
0000
,
0000
0000
0000
0000
,
3003
0000
0000
0000
;

//--------------- dance-single - Fred-104 ----------------
#NOTEDATA:;
#STEPSTYPE:dance-single;
#DESCRIPTION:Fred-104;
#DIFFICULTY:Easy;
#METER:9;
#CREDIT:Fred-104;
#NOTES:
0000
0000
0000
0000
,
0000
0000
0000
0000
,
0000
0000
0000
0000
,
0000
0000
0000
0000
,
0000
0000
0000
0000
,
1000
0100
0002
0000
,
1003
0010
0002
0003
,
0001
0100
2000
0000
,
3001
0010
1000
0001
,
2000
0000
0100
0000
,
3200
0000
0010
0000
,
0320
0000
0032
0000
,
2000
0000
0000
3003
,
1000
0010
1000
0000
,
0100
0000
1000
0000
0001
0001
0001
0000
,
0100
0010
0100
0000
,
2002
3003
1000
0100
,
0020
0030
1000
0010
,
0200
0300
1000
0100
,
0002
0003
1000
0010
,
0002
0003
1000
0001
,
0200
0300
0001
0010
,
0100
1000
0010
1000
,
0002
0000
0003
0000
1000
1000
0001
0001
,
1000
0100
1000
0000
,
0001
0000
0100
0000
0001
0010
0001
0000
,
0100
0010
0100
0000
,
0001
1000
0002
1003
,
0000
0100
0000
0000
1000
0000
0000
0001
,
0000
0100
0010
0100
,
0001
0000
1000
0000
0000
0000
0001
0001
,
1000
1000
0001
0000
0100
0000
0001
0000
,
0000
0010
0100
1000
,
0010
0100
0010
1000
,
0000
0100
1000
0020
,
1030
0000
0000
0100
0000
0000
0001
0000
,
0000
0010
0000
0000
1000
0000
0001
0000
,
2000
0000
0002
0000
,
3003
0000
0000
0000
0001
0001
0000
0100
,
0100
0010
0100
0001
,
1000
0000
0000
0000
0100
0000
0000
0000
1000
0000
0000
0010
1000
0000
0010
0100
,
0010
0010
0100
0200
0301
0000
0100
0000
,
2000
0000
3100
0001
,
1000
0001
0010
0100
,
0010
0001
1000
0010
,
1000
0000
0000
1000
0000
0000
1000
0000
1001
0000
0000
0000
0000
0000
0000
0000
0001
0000
0000
0000
0000
0000
0000
0000
0010
0000
0000
0000
0010
0000
0000
0000
,
0010
0000
0001
0000
0100
0000
0010
0010
,
0010
0000
1000
0000
0100
0000
1000
1000
,
1000
0000
0001
0000
0100
0000
0001
0001
,
0001
0000
0010
0000
0100
0000
0010
0001
,
1000
0000
0100
0000
1000
0000
0001
1000
,
0010
0000
1000
0000
0100
0000
1000
0010
,
1000
0000
0000
0000
0002
0000
0000
1000
0000
1000
0003
0000
1001
0000
0000
0000
,
0001
0100
0001
0000
0100
0001
0100
0000
,
0010
1000
0010
0000
1000
0000
0100
1000
,
0100
0000
1000
0001
1000
0000
0010
0000
,
0100
0000
0001
0010
0000
0000
0001
0000
,
0100
0000
0001
0000
1000
0001
1000
0000
,
0010
0000
0010
0000
0100
0001
0100
0000
,
0010
0000
0000
1000
0000
0000
0100
0000
,
1000
0100
0110
0000
,
0010
0001
0010
0000
0001
0010
0001
0000
,
0001
0100
0001
0000
0100
0000
0010
1000
,
0010
0000
0100
0000
0001
1000
0001
0000
,
0100
0000
0000
0110
0000
0000
0000
0000
,
1000
0010
1000
0000
0100
1000
0100
0000
,
1000
0010
1000
0000
0001
0100
0001
0000
,
0001
0010
1000
0100
,
0001
0001
1000
2000
3001
0000
0100
0101
,
0000
0000
0000
0000
1000
0000
0010
1010
,
0000
0010
0100
0100
,
0001
0010
0001
0000
1000
0000
0100
0000
,
1001
0000
0001
0010
,
1000
0010
0001
0100
,
0001
1000
0001
0000
1000
0000
0010
1010
,
0000
0000
0001
0000
0100
0101
0000
1000
,
0000
0001
1000
0000
0100
0000
0010
0110
,
0000
0000
0000
0000
0010
0000
0001
0011
,
0000
0001
0100
0001
,
0010
0100
0010
0000
0001
0000
0100
0000
,
1001
0000
0001
0100
,
1000
0010
0001
1000
,
0010
0000
0100
0000
0001
0010
0001
0000
,
1000
0000
0100
0000
1000
0000
0000
0000
0001
0000
0001
0000
1000
0000
2000
3000
,
2002
0000
0000
0000
,
0000
0000
0000
0000
,
0000
0000
0000
0000
,
0000
0000
0000
0000
,
0000
0000
0000
0000
,
0000
0000
0000
0000
,
0000
0000
0000
0000
,
0000
0000
0000
0000
,
3003
0000
0000
0000
;

//--------------- dance-single - Fred-104 ----------------
#NOTEDATA:;
#STEPSTYPE:dance-single;
#DESCRIPTION:Fred-104;
#DIFFICULTY:Medium;
#METER:13;
#CREDIT:Fred-104;
#NOTES:
0000
0000
0000
0000
,
0000
0000
0000
0000
,
0000
0000
0000
0000
,
0000
0000
0000
0000
,
0000
0000
0000
0000
,
0001
0100
0001
0010
0001
2000
0000
3010
,
1000
0100
0010
0001
2000
0000
0000
0000
,
3001
0100
1000
0100
0001
0020
0000
0130
,
1000
0001
1000
0200
0000
0000
1300
0100
,
1000
0010
0000
1000
0100
0000
0010
0000
,
0001
1000
0000
0010
0100
0000
0001
0000
,
1000
0100
0010
0001
0100
0000
0010
0000
,
2002
0000
0000
3003
,
0001
0100
1000
0100
0001
0010
0000
1000
,
0010
0001
0100
0001
1000
0000
1001
0000
,
1000
0100
0001
0100
1000
0020
0000
0130
,
2002
3003
0101
1100
,
0001
0011
0000
0010
0100
1000
0001
0100
,
0010
1000
0100
0000
1100
0000
0101
0000
,
1000
1010
0000
1000
0010
0100
0001
1000
,
0100
0010
0001
0100
0110
0000
1001
0000
,
0001
0101
0000
0100
0010
1000
0001
0100
,
0010
0001
0010
0100
0101
0000
1001
0000
,
1000
0000
0100
0000
0000
0000
1000
0000
0002
2003
3002
2003
3002
0023
0230
2300
,
3001
0100
0010
0100
0001
0011
0000
0010
,
0100
0000
1000
0000
0001
0000
0100
0000
0000
0000
0001
0010
0001
0000
1000
0000
,
0010
0100
0010
1000
0100
0110
0000
0010
,
0001
1000
0001
0100
0002
0000
1003
0100
,
1000
0001
0100
0001
1000
0010
1000
0001
,
0010
0100
0010
0001
0100
0101
0000
1100
,
0000
0000
0101
0000
0000
0000
2002
0000
0000
0000
3003
0000
0002
0023
0032
2003
,
3020
0230
0302
0000
1003
0000
0010
0000
1000
0000
0100
0000
0010
0000
0011
0000
,
0000
0001
1000
0010
0001
0010
0100
0001
,
1000
0000
0001
0010
0100
0010
0001
1001
,
0000
1000
0010
0001
0010
0100
0002
0000
,
1003
0100
0001
1000
0010
0001
1000
0100
,
0001
1000
0010
0001
1000
0001
0100
0010
,
2000
0000
0002
0000
,
0000
0000
0000
0000
3003
0000
0000
0000
0001
0000
0010
0000
0100
0000
1000
0010
,
1000
0001
0100
0010
1000
0100
0010
0100
,
1000
0000
0001
0000
0100
0000
0000
0000
0001
0010
0000
0010
0100
0000
0010
0000
,
0002
0203
0320
2030
3200
0320
0230
0000
1300
0000
0100
0000
0001
0000
0100
0000
,
1000
0001
0100
0010
0100
0001
0010
0001
,
1000
0001
0100
0000
0001
0010
0100
1000
,
0010
0100
0001
1000
0100
0010
0001
0100
,
0020
0000
0000
0000
1030
0000
0010
0000
1000
0000
0100
1000
0100
0000
0010
0000
,
0100
0000
1000
0000
0001
0000
0100
0000
0001
0000
0010
0100
0010
0000
0001
0000
,
1000
0000
0000
0000
0100
0000
1000
0000
0001
0000
1000
0010
1000
0000
0100
0000
,
0010
0000
0001
0000
1000
0000
0010
0000
0100
0000
0001
0000
0010
0001
1000
0000
,
0001
0000
0000
0000
0010
0000
0100
0000
1000
0000
0010
0000
0100
0001
0100
0000
,
0001
0000
0010
0000
0001
0000
1000
0000
0100
0000
0010
0000
0100
1000
0100
0000
,
0010
0000
0100
0000
1000
0000
0010
0000
0100
0000
0001
0000
1000
0100
1000
0000
,
0010
0000
0100
0000
0002
0000
0000
1000
0000
1000
0003
0000
1001
0000
0000
0000
,
2000
0010
3002
0100
,
0023
0000
0100
0000
0001
0000
0130
1000
,
0002
0010
2003
0001
,
3100
0000
0000
2002
0000
0000
3003
0000
,
2000
0000
0100
0000
3001
0010
0100
0010
,
0002
0000
0100
0000
1003
0001
0100
0010
,
0200
0000
0310
2000
0000
3001
2000
0000
,
3001
0100
1000
0001
0010
1000
1001
0000
,
0001
0100
0001
0010
0100
1000
0010
0100
,
0001
0000
0010
0000
0100
0000
0010
0000
0001
0000
1000
0000
0010
0100
0010
0000
,
1000
0001
0100
0001
1000
0001
0010
0001
,
0200
0000
0310
0200
0000
0310
1010
0000
,
0002
0000
0000
0000
0100
0000
0000
0000
1003
0000
0100
0010
0100
0000
1000
0000
,
0020
0000
0000
0000
0100
0000
0000
0000
1030
0000
0001
0010
0001
0000
0100
0000
,
0010
1000
0100
1000
0001
0100
0010
0000
,
1001
0000
0002
0203
2300
3200
0302
0000
1003
0000
0100
0000
0100
0000
1000
0000
,
0100
0100
1000
0000
0001
0100
0100
0001
,
0100
0100
0001
0020
0000
0031
0100
0010
,
1000
0100
0010
0001
0200
0000
0010
0000
,
0301
1000
0001
0000
1000
0100
0010
0100
,
1000
0001
0100
0101
0000
0001
0010
0001
,
0100
0001
1000
0001
0011
0000
0000
1010
,
0000
0000
0101
0000
0001
0010
0100
0001
,
0100
1000
0001
0000
1000
0010
0010
1000
,
0010
0010
1000
0000
0001
0100
0100
0001
,
0100
0100
0001
0020
0000
0130
1000
0010
,
1000
0001
0100
0010
0200
0000
0010
0000
,
0301
1000
0100
0000
1000
0001
0100
0001
,
0010
0100
0010
0011
0000
0001
0100
1000
,
0100
0001
0010
0100
1000
0010
0100
0001
,
1000
0000
0100
0000
0010
0000
0000
0000
0002
2003
3020
0230
0302
2003
3002
0003
,
2002
0000
0000
0000
,
0000
0000
0000
0000
,
0000
0000
0000
0000
,
0000
0000
0000
0000
,
0000
0000
0000
0000
,
0000
0000
0000
0000
,
0000
0000
0000
0000
,
0000
0000
0000
0000
,
3003
0000
0000
0000
;

//--------------- dance-single - Fred-104 ----------------
#NOTEDATA:;
#STEPSTYPE:dance-single;
#DESCRIPTION:Fred-104;
#DIFFICULTY:Hard;
#METER:16;
#CREDIT:Fred-104;
#NOTES:
0000
0000
0000
0000
,
0000
0000
0000
0000
,
0000
0000
0000
0000
,
0000
0000
0000
0000
,
0000
0000
0000
0000
,
0100
0000
0001
0000
1000
0000
0001
0100
0001
0000
0020
0000
0000
0000
0130
0000
,
1000
0000
0001
0000
0100
0000
0010
1000
0010
0000
1000
0000
0002
0000
0000
0000
,
1003
0000
0100
0000
0010
0000
0001
1000
0001
0000
0200
0000
0000
0000
0310
0000
,
1000
0100
0001
0020
0000
0000
1030
0001
,
2000
0010
0000
0001
0000
3100
0010
0001
,
0200
0010
0000
0001
0000
1300
0100
0001
,
0020
0100
0000
0001
0000
1030
0010
0001
,
2002
0000
0000
3003
,
0002
0000
0100
0000
2003
0000
0010
0000
3100
0000
0020
0000
0000
0000
0031
1000
,
0001
0000
0100
0001
0010
0000
0100
1000
0010
0000
0100
0000
0110
0000
0000
0000
,
0001
0020
0100
0031
1000
0002
0000
2003
,
3200
0000
0000
0000
0320
0000
0000
0000
0032
0000
0000
0000
2003
0000
0000
0000
0000
3000
0000
0000
0000
0000
0000
0000
0000
0000
0000
0000
0000
0000
0000
0000
2000
0000
0000
0000
0000
0000
0000
0000
0100
0000
0000
0000
0000
0000
0000
0000
3002
0000
0000
0000
0000
0000
0000
0000
0010
0000
0000
0000
0000
0000
0000
0000
,
0203
0000
0320
0000
0000
0000
1030
0000
0001
0100
0010
0000
1000
0001
0010
0000
,
0001
1000
1001
0000
2000
0010
3002
0100
,
1003
0000
1002
0000
0000
0000
1003
0000
0100
0010
0001
0000
0010
0001
0100
0000
,
0010
1000
1001
0000
2000
0100
3002
0010
,
0203
0000
0320
0000
0000
0000
1030
0000
0100
0010
0100
0000
1000
0001
1000
0000
,
0010
0100
0101
0000
0002
1000
0203
0010
,
0301
0000
0000
0000
0200
0000
0000
0000
0000
0000
0000
0000
0301
0000
0000
0000
2000
3000
0200
0300
2000
3000
0200
0300
0002
0003
0020
0030
0002
0003
0020
0030
,
1000
0100
1000
0000
0001
0100
0001
0000
0100
0000
0020
0000
0000
0000
1030
0000
,
0001
0000
0010
0000
0100
0000
1000
0001
0100
0010
1000
0000
0010
0000
0100
0000
,
0010
1000
0100
0000
0010
0001
1000
0000
0010
0000
2000
0000
0000
0000
3100
0000
,
0010
0000
0000
0000
0001
0000
1000
0000
0001
0000
0000
0000
0100
0000
0010
0000
1000
0000
0000
1000
0000
0000
1000
0000
0001
0000
1000
0000
0100
0000
0000
0000
,
0010
0000
0001
1000
0100
0000
0010
0000
0001
1000
0010
0000
2000
0000
0100
0000
,
3002
0010
0103
0010
1000
1200
0300
0102
,
0003
0000
0000
0000
0021
0000
0000
0000
0030
0000
0000
0000
2020
0000
0000
0000
0000
0000
0000
0000
3030
0000
0000
0000
2000
3000
0200
0300
0002
0003
2000
3000
,
0020
0000
0030
0000
0002
0000
0003
0000
2000
3000
0002
0003
2000
0000
0000
0000
3001
0000
0000
0000
0000
0000
0000
0000
1000
0000
0000
0000
0001
0000
0000
0000
0010
0000
0000
0000
0000
0000
0000
0000
0100
0000
0000
0000
1000
0000
0000
0000
0010
0000
0000
0000
0000
0000
0000
0000
0200
0000
0000
0000
0000
0000
0000
0000
,
0000
0000
0301
0000
1000
0010
0100
0001
0100
0000
0020
0000
0000
0000
0130
0000
,
0001
0000
1000
0000
0010
0000
1000
0001
0010
0000
0100
0010
0001
0000
0200
0000
,
0000
0000
0000
0000
0310
0000
0000
0000
1000
0000
0000
0000
0001
0000
0100
0000
0010
0000
0000
0000
1000
0000
0000
0000
0100
0000
0000
0100
0000
0000
0100
0000
,
1000
0010
0100
0000
0010
0000
1000
0001
0010
0000
0100
0000
0010
0001
1000
0000
,
0001
0000
0100
0001
0010
0000
0100
1000
0020
0000
0230
0000
0302
0000
2003
0000
,
3001
0010
1000
0001
0100
2000
0000
3002
1003
0000
0100
0000
1000
0000
2002
0000
,
0000
0000
0000
0000
3003
0000
0000
0000
1000
0010
0100
0000
0001
0000
0010
0001
,
1000
0000
0000
0000
0000
0000
0000
0000
0020
0030
0000
0000
0000
0000
0000
0000
0020
0030
0000
0000
0000
0000
0000
0000
0001
0000
0000
0000
0000
0000
0000
0000
0100
0000
0000
0000
0001
0000
0000
0000
0100
0000
0000
0000
0001
0000
0000
0000
0100
0000
0000
0000
0000
0000
0000
0000
0001
0000
0000
0000
1000
0000
0000
0000
,
0010
0000
0100
0000
1001
0000
0000
0000
1000
0100
0000
0100
0010
0000
0010
0001
,
2000
0000
3000
0000
0200
0000
0300
0000
0002
0000
0003
0000
0200
0000
0300
0000
2000
0000
3000
0000
0020
0000
0030
0000
0200
0300
0002
0003
0200
0000
0000
0000
0310
0000
0000
0000
0000
0000
0000
0000
1000
0000
0000
0000
0010
0000
0000
0000
0100
0000
0000
0000
0000
0000
0000
0000
0010
0000
0000
0000
1000
0000
0000
0000
,
0002
0000
1003
0000
0001
0100
0010
0000
1000
0000
0010
1000
0001
0000
0100
0010
,
1000
0001
0100
0000
0001
1000
0001
0000
0010
0000
0100
0010
0001
0000
1000
0001
,
0010
0001
0100
0000
0001
1000
0010
0000
1000
0100
0010
0000
0100
0000
1000
0001
,
1000
0000
0000
0000
0000
0000
0020
0030
0000
0000
0000
0000
0020
0000
0000
0000
0031
0000
0000
0000
0000
0000
0000
0000
1000
0000
0000
0000
0000
0000
0000
0000
0001
0000
0000
0000
0000
0000
0000
0000
0100
0000
0000
0000
0001
0000
0000
0000
0010
0000
0000
0000
0001
0000
0000
0000
1000
0000
0000
0000
0000
0000
0000
0000
,
0001
0010
0100
0000
0010
0001
1000
0000
0001
0000
0100
0001
1000
0001
0010
0000
,
0100
0000
1000
0000
0001
0000
0010
0000
0001
0000
1000
0001
0010
0001
0100
0000
,
0010
1000
0001
1000
0100
0010
0001
0000
0100
0000
0010
0001
0010
0100
1000
0100
,
0010
1000
0100
0010
0001
0000
1000
0000
0001
0000
1000
0010
0100
0001
0100
0000
,
0001
0000
0010
0000
0100
1000
0100
0000
1000
0000
0010
0100
0010
1000
0010
0000
,
0100
0001
1000
0000
0001
0000
0010
0000
0100
1000
0100
0010
0100
1000
0010
0100
,
0001
0000
0000
0000
1000
0000
0000
0000
0001
0000
1000
0000
0002
0003
0200
0300
2000
3000
0020
0030
0002
0000
0003
0000
2002
0000
0000
0000
3003
0000
0000
0000
,
1000
0100
1000
0000
0100
0000
0010
0000
0001
0100
0001
0000
0100
0000
0010
0000
,
1000
0001
0100
0000
0010
0000
1000
0000
0100
0010
0001
0000
1000
0000
0001
0000
,
0010
0001
1000
0001
0100
0000
0010
0100
0001
0100
0001
0000
1001
0000
0000
0000
,
0001
0100
0001
0000
1000
0000
0001
0010
0001
0000
1000
0000
1001
0000
0000
0000
,
0001
0000
0100
0001
0010
0000
0100
0000
1000
0010
1000
0010
0100
0000
0001
0000
,
1000
0000
0100
0010
0001
0000
1000
0000
0001
0100
0001
0100
0010
0000
0100
0000
,
0001
0000
0010
0100
1000
0000
0010
0000
0100
0001
1000
0000
1001
0000
0000
0000
,
1000
0100
0001
1000
0010
0001
1001
0000
,
0001
1000
0010
0000
0100
0000
0001
0000
0010
0100
0010
0000
0001
0000
1000
0000
,
0001
0100
0001
0100
0010
0000
1000
0100
0010
0001
0100
0000
0010
1000
0001
0000
,
1000
0010
0100
0010
1000
0000
0010
0100
0001
0100
0001
0000
1001
0000
0000
0000
,
1000
0100
1000
0001
0100
0000
0001
1000
0010
1000
0001
0000
1001
0000
0000
0000
,
0001
0000
0100
0001
0010
0000
0100
0000
0010
0001
1000
0001
0100
0000
0010
0000
,
1000
0000
0100
0010
0100
0000
1000
0000
0010
0100
0001
1000
0100
0000
0010
0000
,
0001
0000
0000
0000
0000
0000
0100
0000
0000
0001
0000
0000
0010
0000
0000
0001
0000
0000
1000
0000
0000
0000
0000
0000
0001
0000
0000
0000
0100
0000
0000
0000
0001
0000
0000
0000
1000
0000
0000
0000
0010
0000
0000
0000
1000
0000
0000
0000
,
0002
0003
0000
0000
2000
3000
0200
0300
0020
0030
0002
0003
1000
0001
2000
0000
3001
0000
0100
0000
0001
0000
0000
0000
1000
0000
0000
0000
0100
0000
0010
0000
,
0001
0000
1000
0000
1010
0000
0000
0000
0001
1000
0010
0000
0100
0000
0001
0010
,
0001
0000
1000
0000
0100
0000
0210
0000
0000
0000
0310
0000
0001
0000
1000
0001
,
0010
0000
0100
0010
0001
0000
0100
0000
0001
1000
0010
0000
0100
0000
0001
0010
,
0100
0000
1000
0000
1001
0000
0000
0000
0001
0000
0100
0001
0100
0000
0001
0010
,
0100
0000
1000
0010
0100
0000
0120
0000
0000
0000
1030
0000
0001
0010
0100
0000
,
0010
0000
0000
0000
0001
0000
0000
0000
1000
0000
0000
0000
0000
0000
0000
0000
0100
0000
0000
0000
1000
0000
0000
0000
0001
0000
0000
0000
0000
0000
0000
0000
1000
0000
0000
0000
0000
0000
0000
0000
0020
0030
0000
0000
0000
0000
0000
0000
0020
0030
0000
0000
0000
0000
0000
0000
0001
0000
0000
0000
0000
0000
0000
0000
,
0200
0300
0000
0000
0000
0000
0000
0000
0200
0300
0000
0000
0000
0000
0000
0000
1000
0000
0000
0000
0000
0000
0000
0000
0200
0300
0000
0000
0000
0000
0000
0000
0200
0300
0000
0000
0000
0000
0000
0000
0001
0000
0000
0000
0000
0000
0000
0000
0020
0030
0000
0000
0000
0000
0000
0000
0020
0030
0000
0000
0000
0000
0000
0000
,
1000
0000
0001
0000
1001
0000
0000
0000
1000
0100
1000
0001
0100
0000
0001
1000
,
0010
1000
0001
0000
0010
0000
0001
0000
0100
0001
1000
0001
0100
0000
0010
1000
,
0001
1000
0100
0000
0010
0000
0012
0000
0000
0000
1003
0000
0001
0000
0100
0010
,
1000
0001
1000
0000
0001
0000
2001
0000
0000
0000
3100
0000
0010
0000
0001
0000
,
1000
0000
0010
0000
0110
0000
0000
0000
1000
0010
1000
0000
0001
0100
0001
0000
,
1000
0000
0100
0010
0001
0000
2001
0000
0000
0000
3001
1000
0010
0000
1000
0001
,
0010
0000
0001
1000
0100
0010
0001
0000
1000
0000
0001
0100
0001
0000
1000
0000
,
0100
0000
0000
0000
0000
0000
0000
0000
0010
0000
0000
0000
0000
0000
0000
0000
0001
0000
0000
0000
0000
0000
0000
0000
0100
0000
0000
0000
0000
0000
0000
0000
0010
0000
0000
0000
0000
0000
0000
0000
1000
0000
0000
0000
0000
0000
0000
0000
0002
0000
0000
0003
0000
0000
0020
0000
0000
0030
0000
0000
0200
0000
0000
0300
0000
0000
2000
0000
0000
3000
0000
0000
0020
0000
0000
0030
0000
0000
0200
0000
0000
0300
0000
0000
0001
0000
0000
1000
0000
0000
0002
0000
0000
0003
0000
0000
,
2002
0000
0000
0000
,
0000
0000
0000
0000
,
0000
0000
0000
0000
,
0000
0000
0000
0000
,
0000
0000
0000
0000
,
0000
0000
0000
0000
,
0000
0000
0000
0000
,
0000
0000
0000
0000
,
3003
0000
0000
0000
;

//--------------- dance-single - Fred-104† ----------------
#NOTEDATA:;
#STEPSTYPE:dance-single;
#DESCRIPTION:Fred-104†;
#DIFFICULTY:Challenge;
#METER:18;
#CREDIT:Fred-104†;
#NOTES:
0000
0000
0000
0000
,
0000
0000
0000
0000
,
0000
0000
0000
0000
,
0000
0000
0000
0000
,
0000
0000
0000
0000
,
1000
0010
1000
0010
0001
0020
0000
0130
,
0001
1000
0100
0010
0002
0000
0000
0000
,
1003
0100
0010
1000
0010
0002
0000
1003
,
0001
0100
1000
0200
0000
0000
0301
1000
,
0200
0000
0000
0000
,
0320
0000
0000
0000
,
0032
0000
0000
0003
,
2002
0000
0000
3003
,
1000
0010
1000
0000
0100
0000
0010
0100
1000
0100
0001
0000
0000
0000
0001
0100
,
1000
0000
0001
0100
0010
0100
0001
0010
0100
0000
0010
0000
0001
1000
0001
0000
,
1000
0000
0001
1000
0010
1000
0010
0000
0001
0000
0020
0000
0000
0000
0230
0000
,
0302
0000
0000
0000
0203
0000
0000
0000
0302
0000
0000
0000
2003
0000
0000
0000
0000
3000
0000
0000
0000
0000
0000
0000
0000
0000
0000
0000
0000
0000
0000
0000
1020
0000
0000
0000
0000
0000
0000
0000
0130
0000
0000
0000
0000
0000
0000
0000
0002
0000
0000
0000
0000
0000
0000
0000
1003
0000
0000
0000
0000
0000
0000
0000
,
0120
2030
3001
0200
0302
0023
2030
3020
,
0031
0100
0001
0000
0010
0001
1000
0000
1002
0000
0013
0000
0200
0000
0310
0000
,
0102
2003
3100
0020
0032
2003
3020
0230
,
0310
1000
0001
0000
1000
0100
0010
0000
0012
0000
1003
0000
0002
0000
0103
0000
,
0120
2030
3001
2000
3200
0320
0032
0203
,
0301
1000
0001
0000
0010
0001
0100
0000
0120
0000
1030
0000
0200
0000
1300
0000
,
0102
0000
0000
0000
0000
0000
0000
0000
2003
0000
0000
0000
0000
0000
0000
0000
3010
0000
0000
0000
0000
0000
0000
0000
2000
0000
0000
0000
0000
0000
0000
0000
3002
0003
0000
0000
0020
0030
0000
0000
2000
3000
0000
0000
0200
0300
0000
0000
0002
0003
0000
0000
2000
3000
0000
0000
0200
0300
0000
0000
0020
0030
0000
0000
,
0001
0000
0100
0000
0010
0000
0001
0010
0100
1000
0100
0000
0010
0000
1000
0000
,
0100
0010
0001
0000
0100
0010
0001
0000
0010
0000
0100
1000
0100
0010
1000
0000
,
0001
0000
0010
0000
0100
0000
1000
0000
0010
0100
1000
0000
0100
0000
0010
0001
,
0010
0000
0000
0000
0100
0000
0000
0000
0001
0000
1000
0000
0001
0000
1000
0000
0001
0000
0000
0001
0000
0000
0001
0000
1000
0000
0010
0000
0100
0000
0000
0000
,
1000
0000
0001
0010
1000
0001
0100
0000
0010
0000
2000
0000
0000
0000
3001
0100
,
1000
0000
1000
0100
0001
0000
0010
1000
0010
0000
0012
0000
0103
0000
2010
0000
,
3100
0000
0000
0000
0000
0000
0000
0000
1002
0000
0000
0000
0000
0000
0000
0000
0013
0000
0000
0000
0000
0000
0000
0000
0220
0000
0000
0000
0000
0000
0000
0000
0000
0000
0000
0000
0000
0000
0000
0000
0330
0000
0000
0000
0000
0000
0000
0000
2000
3000
0000
0000
0200
0300
0000
0000
0002
0003
0000
0000
0020
0030
0000
0000
,
2000
3000
0000
0000
0200
0300
0000
0000
2000
3000
0002
0003
2000
0000
0000
0000
3001
0000
0000
0000
0010
0000
0000
0000
1000
0000
0000
0000
0000
0000
0000
0000
1000
0000
0000
0000
0010
0000
0000
0000
0001
0000
0000
0000
0000
0000
0000
0000
1000
0000
0000
0000
0100
0000
0000
0000
0010
0000
0000
0000
0000
0000
0000
0000
,
0001
0000
0010
0100
1000
0000
0010
0100
1000
0000
0001
0000
0010
0000
1000
0001
,
0010
0000
0001
0000
1000
0100
0001
0000
0100
1000
0010
0000
0100
1000
0100
0000
,
0001
0000
0000
0000
1000
0000
0010
0000
1000
0000
0000
0000
0100
0000
0010
0000
0001
0000
1000
0000
0001
0000
0000
0000
0100
0000
0000
0100
0000
0000
0100
0000
,
0001
0010
0100
0000
1000
0000
0001
0010
0100
0000
1000
0000
0001
0010
0100
0000
,
1000
0000
0010
1000
0001
0000
0100
0000
0001
0010
1000
0000
1000
0010
0001
0000
,
1000
0100
0010
1000
0010
0002
0000
1003
0001
0000
0010
0100
1000
0001
2002
0000
,
0000
0000
0000
0000
3003
0000
0000
0000
1020
0000
0230
0000
0301
0000
1000
0100
,
0120
0000
0001
0000
0100
0000
0031
0000
1000
0100
0010
0001
1000
0000
0010
0100
,
0001
1000
0100
0000
1000
0001
1000
0001
1000
0100
0001
1000
0010
0001
0100
1000
,
0002
0003
0000
0000
0020
0030
0000
0000
2000
3000
0000
0000
0002
0003
0000
0000
0020
0030
0000
0000
0200
0300
0000
0000
2000
3000
0002
0003
2000
0000
0000
0000
3001
0000
0000
0000
0010
0000
0000
0000
0100
0000
0000
0000
1000
0000
0000
0000
0001
0000
0000
0000
0000
0000
0000
0000
0100
0000
0000
0000
0010
0000
0000
0000
,
1000
0001
0010
0000
0001
1000
0100
0000
1000
0010
0100
0001
1000
0000
0100
0010
,
0001
1000
0010
0000
0100
0001
1000
0000
0001
1000
0100
0010
0001
0000
0100
0010
,
0001
0000
0000
0010
0000
0000
1000
0000
0000
0000
0000
0000
0001
0000
0000
1000
0000
0000
0001
0000
0000
0000
0000
0000
1000
0000
0010
0000
1000
0000
0100
0000
0000
0000
0000
0000
0010
0000
0000
0000
0000
0000
0001
0000
0100
0000
0010
0000
,
1000
0000
0000
1000
0000
0000
2000
0000
3001
0000
0000
0000
1000
0000
0000
0000
0100
0000
0000
0000
0010
0000
0001
0000
1000
0000
0100
0000
0010
0000
0000
0000
,
1000
0010
1000
0010
0100
1000
0100
1000
0001
0000
0010
1000
0010
0001
0100
0000
,
0001
0000
1000
0000
0100
0000
1000
0000
0000
0000
0000
0000
0001
0000
0000
1000
0000
0000
0001
0000
0000
0010
0000
0000
0100
0000
0000
1000
0000
0000
0010
0000
0000
0100
0000
0000
1000
0000
0000
0100
0000
0000
0010
0000
0000
0000
0000
0000
,
0001
0010
0100
0001
0010
0100
1000
0001
1000
0000
0010
1000
0001
0010
0100
0010
,
0001
0000
1000
0000
0001
0000
1000
0000
0000
0001
0000
0000
2000
0000
0000
0000
0000
0000
0010
0000
0000
0000
0000
0000
3001
0000
0000
0000
0000
0000
0100
0000
0000
0001
0000
0000
0010
0000
0000
0001
0000
0000
0100
0000
0000
0000
0000
0000
,
1000
0100
0001
0010
0001
2000
0010
0000
3100
0000
0010
1000
0010
0001
1000
0000
,
0001
0000
1000
0000
0001
0000
0100
0000
0000
0000
0000
0000
0002
0000
0000
0000
0000
0000
0100
0000
0000
0000
0000
0000
1003
0000
0000
0100
0000
0000
1000
0000
0000
0001
0000
0000
0100
0000
0000
0020
0000
0000
1000
0000
0000
0000
0000
0000
,
0130
0000
0000
0000
0000
0000
0000
0000
0000
0000
0000
0000
0001
0000
0000
0000
0000
0000
0000
0000
0000
0000
0000
0000
1000
0000
0000
0000
0000
0000
0000
0000
0000
0000
0000
0000
0000
0000
0000
0000
0000
0000
0000
0000
0000
0000
0000
0000
0001
0000
0000
0000
0000
0000
0000
0000
0010
0000
0000
0000
0000
0000
0000
0000
0100
0000
0000
0000
0000
0000
0000
0000
2000
0000
0000
3000
0000
0000
0000
0000
0000
0000
0000
0000
0002
0000
0000
0003
0000
0000
0000
0000
0000
0000
0000
0000
0200
0000
0000
0300
0000
0000
0000
0000
0000
0000
0000
0000
0020
0000
0000
0030
0000
0000
0000
0000
0000
0000
0000
0000
2000
0000
0000
0000
0000
0000
0000
0000
0000
0000
0000
0000
3000
0000
0000
0000
0000
0000
0000
0000
0000
0000
0000
0000
2002
0000
0000
0000
0000
0000
0000
0000
0000
0000
0000
0000
0000
0000
0000
0000
0000
0000
0000
0000
0000
0000
0000
0000
3003
0000
0000
0000
0000
0000
0000
0000
0000
0000
0000
0000
0000
0000
0000
0000
0000
0000
0000
0000
0000
0000
0000
0000
,
1000
0010
1000
0100
1000
0010
0100
0001
1000
0100
0010
0001
0010
0100
1000
0001
,
0100
0001
0010
0001
1000
0001
0100
0010
1000
0010
0100
0001
1000
0000
0100
0000
,
0010
0001
1000
0001
0100
0010
1000
0001
0010
0100
1000
0100
0010
0001
1000
0010
,
0100
0010
1000
0001
0010
0001
0100
0010
0100
0001
1000
0100
1000
0000
1000
0000
,
0001
0010
0100
1000
0010
0100
1000
0100
0010
0001
0010
0100
0001
0010
0100
1000
,
0001
0010
1000
0010
0001
0100
0010
0001
0010
1000
0001
0100
0001
0000
1000
0000
,
0001
1000
0010
0100
0010
0000
1000
0001
0010
0100
1000
0000
0001
1000
0001
0000
,
1000
0100
0001
0000
0100
0000
1000
0010
0001
0000
0010
0000
1001
0000
0000
0000
,
0001
0100
0010
1000
0001
0010
0100
1000
0001
1000
0010
0001
1000
0100
0010
1000
,
0001
1000
0100
0010
0001
0100
0010
1000
0010
0100
0001
1000
0010
0000
1000
0000
,
0100
0010
0001
0100
0010
0001
0010
0100
1000
0100
0010
1000
0100
0010
0001
1000
,
0001
0100
0010
1000
0001
0000
1000
0100
0010
0001
1000
0001
1000
0000
0000
0000
,
0001
1000
0010
0100
0001
1000
0010
1000
0100
0001
0100
0010
0001
0000
1000
0000
,
0001
0100
1000
0001
0010
1000
0001
1000
0100
0001
0100
1000
0001
0000
0100
0000
,
0010
0000
0000
1000
0000
0000
0001
0000
0000
0010
0000
0000
0100
0000
0000
1000
0000
0000
0010
0000
0000
0000
0000
0000
1000
0000
0000
0000
0010
0000
0000
0000
0010
0000
0000
0000
0001
0000
0000
0000
0100
0000
0000
0000
0100
0000
0000
0000
,
2000
0000
0000
3000
0000
0000
0000
0000
0000
0000
0000
0000
0000
0000
0000
0000
0000
0000
0000
0000
0000
0000
0000
0000
0002
0000
0000
0003
0000
0000
0000
0000
0000
0000
0000
0000
0020
0000
0000
0030
0000
0000
0000
0000
0000
0000
0000
0000
0200
0000
0000
0300
0000
0000
0000
0000
0000
0000
0000
0000
2000
0000
0000
3000
0000
0000
0000
0000
0000
0000
0000
0000
0001
0000
0000
0000
1000
0000
0000
0000
0001
0000
0000
0000
2000
0000
0000
0000
0000
0000
0000
0000
0000
0000
0000
0000
3001
0000
0000
0000
0000
0000
0000
0000
0000
0000
0000
0000
0010
0000
0000
0000
0000
0000
0000
0000
0000
0000
0000
0000
0100
0000
0000
0000
0000
0000
0000
0000
0000
0000
0000
0000
1000
0000
0000
0000
0000
0000
0000
0000
0000
0000
0000
0000
0001
0000
0000
0000
0000
0000
0000
0000
0000
0000
0000
0000
0000
0000
0000
0000
0000
0000
0000
0000
0000
0000
0000
0000
0100
0000
0000
0000
0000
0000
0000
0000
0000
0000
0000
0000
0010
0000
0000
0000
0000
0000
0000
0000
0000
0000
0000
0000
,
1000
0001
0010
0001
0100
0000
0000
0000
0001
0100
0010
1000
0100
0000
1000
0001
,
0010
0100
1000
0010
0100
0000
0001
0000
1000
0100
0010
0001
1000
0000
0001
0100
,
0010
1000
0100
0000
1000
0001
0100
0001
0010
0100
1000
0010
0100
0000
1000
0100
,
0010
0001
0010
0100
0001
0000
1000
0000
0001
0010
0100
0000
0010
0001
1000
0000
,
0001
1000
0100
0010
0001
0000
2001
0000
0000
0000
3001
1000
0010
0000
1000
0000
,
0010
0100
0001
0000
1000
0001
0100
0000
0001
0010
0001
1000
0010
0000
1000
0001
,
0100
0001
0010
0100
0010
0000
0002
0000
0100
0000
2003
0000
0010
0000
3002
0000
,
0100
0000
0013
0000
0110
0000
0000
0000
1000
0100
0010
0001
0100
0000
0001
0010
,
0001
1000
0010
1000
0100
0000
0000
0000
1000
0001
0010
0100
0010
0000
0001
1000
,
0100
1000
0010
0100
0010
0000
1000
0000
0001
0010
0100
1000
0010
0000
0100
0001
,
1000
0010
1000
0000
0001
1000
0010
0000
1000
0001
0100
0000
0001
0000
1000
0010
,
0001
1000
0100
0010
1000
0001
1000
0000
0001
0010
0100
0000
1000
0100
0010
0000
,
0001
0100
0010
1000
0001
0000
1002
0000
0000
0000
1003
0100
0001
0000
0001
0100
,
2000
0000
0000
0000
0000
0000
3002
0000
0000
0000
0000
0000
1003
0000
0001
0000
1000
0000
0001
0000
1000
0000
0001
0000
1000
0000
0000
0000
0000
0000
0001
0000
0000
1000
0000
0000
0010
0000
0000
0100
0000
0000
0010
0000
0000
0000
0000
0000
,
1000
0000
0000
0000
0000
0000
0000
0000
0000
0000
0000
0000
0000
0000
0000
0000
0100
0000
0000
0000
0000
0000
0000
0000
0000
0000
0000
0000
0000
0000
0000
0000
0100
0000
0000
0000
0000
0000
0000
0000
0000
0000
0000
0000
0000
0000
0000
0000
0001
0000
0000
0000
0000
0000
0000
0000
0000
0000
0000
0000
0000
0000
0000
0000
0010
0000
0000
0000
0000
0000
0000
0000
0000
0000
0000
0000
0000
0000
0000
0000
0010
0000
0000
0000
0000
0000
0000
0000
0000
0000
0000
0000
0000
0000
0000
0000
2000
0000
0000
3000
0000
0000
0000
0000
0000
0000
0000
0000
0020
0000
0000
0030
0000
0000
0000
0000
0000
0000
0000
0000
0002
0000
0000
0003
0000
0000
0000
0000
0000
0000
0000
0000
2000
0000
0000
3000
0000
0000
0000
0000
0000
0000
0000
0000
0200
0000
0000
0300
0000
0000
0000
0000
0000
0000
0000
0000
0002
0000
0000
0003
0000
0000
0000
0000
0000
0000
0000
0000
1000
0000
0000
0000
0001
0000
0000
0000
1000
0000
0000
0000
0002
0000
0000
0000
0000
0000
0003
0000
0000
0000
0000
0000
,
2002
0000
0000
0000
,
0000
0000
0000
0000
,
0000
0000
0000
0000
,
0000
0000
0000
0000
,
0000
0000
0000
0000
,
0000
0000
0000
0000
,
0000
0000
0000
0000
,
0000
0000
0000
0000
,
3003
0000
0000
0000
;

//--------------- dance-double - Fred-104 ----------------
#NOTEDATA:;
#STEPSTYPE:dance-double;
#DESCRIPTION:Fred-104;
#DIFFICULTY:Easy;
#METER:9;
#CREDIT:Fred-104;
#NOTES:
00000000
00000000
00000000
00000000
,
00000000
00000000
00000000
00000000
,
00000000
00000000
00000000
00000000
,
00000000
00000000
00000000
00000000
,
00000000
00000000
00000000
00000000
,
00010000
01000000
20000000
00000000
,
30010000
00100000
20000000
30000000
,
10000000
01000000
00020000
00000000
,
10030000
00100000
00010000
10000000
,
00020000
00000000
00230000
00000000
,
00302000
00000000
00023000
00000000
,
00030020
00000000
00000230
00000000
,
00000002
00000000
00000000
00000303
,
00000001
00001000
00000010
00000000
,
00001000
00000000
00000001
00000000
00000100
00000100
00000100
00000000
,
00001000
00010000
00001000
00000000
,
00022000
00033000
00001000
00010000
,
00200000
00300000
01000000
00010000
,
20000000
30000000
10000000
01000000
,
00020000
00030000
00001000
00000010
,
00000002
00000003
00000100
00000010
,
00000200
00000300
00000001
00001000
,
00000010
00000100
00000010
00010000
,
00002000
00000000
00003000
00000000
00010000
00010000
00001000
00001000
,
00010000
00001000
00100000
00000000
,
00010000
00000000
10000000
00000000
00100000
01000000
00100000
00000000
,
10000000
01000000
00100000
00000000
,
01000000
10000000
00020000
10030000
,
00000000
01000000
00000000
00000000
00010000
00000000
00000000
00001000
,
00000000
00000010
00000100
00001000
,
00000001
00000000
00001000
00000000
00000000
00000000
00000001
00000100
,
00001000
00000010
00000001
00000000
00001000
00000000
00000001
00000000
,
00000000
00000010
00001000
00010000
,
01000000
00100000
00010000
01000000
,
00000000
00010000
10000000
00020000
,
01030000
00000000
00000000
00100000
00000000
00000000
10000000
00000000
,
00000000
01000000
00000000
00000000
00100000
00000000
00001000
00000000
,
00020000
00000000
00002000
00000000
,
00033000
00000000
00000000
00000000
00010000
00010000
00000000
00000100
,
00000100
00001000
00000010
00000100
,
00000001
00000000
00000000
00000000
00001000
00000000
00000000
00000000
00000001
00000000
00000000
00000100
00001000
00000000
00000100
00000001
,
00000010
00000100
00010000
00002000
00013000
00000000
00001000
00000000
,
00200000
00000000
00310000
01000000
,
00010000
01000000
00100000
10000000
,
00100000
01000000
00100000
10000000
,
10000000
00000000
00000000
10000000
00000000
00000000
10000000
00000000
10010000
00000000
00000000
00000000
00000000
00000000
00000000
00000000
01000000
00000000
00000000
00000000
00000000
00000000
00000000
00000000
00100000
00000000
00000000
00000000
00100000
00000000
00000000
00000000
,
00100000
00000000
00001000
00000000
00010000
00000000
00000100
00000100
,
00000100
00000000
00001000
00000000
00000001
00000000
00000010
00000010
,
00000010
00000000
00000001
00000000
00000010
00000000
00001000
00001000
,
00001000
00000000
00010000
00000000
00100000
00000000
01000000
01000000
,
01000000
00000000
00010000
00000000
10000000
00000000
01000000
01000000
,
01000000
00000000
00100000
00000000
00001000
00000000
00010000
00010000
,
00010000
00000000
00000000
00000000
00002000
00000000
00000000
00010000
00000000
00010000
00003000
00000000
00011000
00000000
00000000
00000000
,
00010000
00001000
00000010
00000001
,
00000100
00000000
00001000
00000000
00010000
00000000
00001000
00010000
,
00001000
00000000
00010000
00100000
10000000
00000000
01000000
00000000
,
00010000
00000000
00001000
00010000
00000000
00000000
00001000
00000000
,
00010000
00000000
00001000
00000000
00000010
00000100
00001000
00000000
,
00000001
00000000
00000100
00000000
00000010
00001000
00000001
00000000
,
00000010
00000000
00000100
00010000
00000000
00001000
00000100
00000000
,
00000001
00001000
00001001
00000000
,
00000001
00000010
00000100
00000000
00000010
00000100
00001000
00000000
,
00000100
00010000
00001000
00000000
00100000
00000000
00010000
01000000
,
00100000
00000000
01000000
00010000
10000000
00010000
00100000
00000000
,
01000000
00000000
00000000
10010000
00000000
00000000
00000000
00000000
,
10000000
01000000
00010000
00000000
00001000
00000000
00010000
00000000
,
00001000
00000100
00000010
00000000
00001000
00000000
00000001
00000000
,
00000010
00000100
00001000
00000100
,
00010000
00001000
00010000
00002000
00013000
00000000
00001000
00011000
,
00000000
00000000
00000000
00000000
01000000
00000000
00100000
01100000
,
00000000
00010000
01000000
00100000
,
10000000
00100000
10000000
00000000
01000000
00000000
00100000
00000000
,
00110000
00000000
00001000
01000000
,
00010000
00000100
00001000
00010000
,
00001000
00010000
00001000
00000000
01000000
00000000
00100000
01100000
,
00000000
00000000
10000000
00000000
00100000
10100000
00000000
00010000
,
00000000
00100000
00001000
00000000
00010000
00000000
00000010
00001010
,
00000000
00000000
00000000
00000000
00001000
00000000
00000100
00000110
,
00000000
00000001
00000010
00000100
,
00001000
00000010
00001000
00000000
00000001
00000000
00000010
00000000
,
00001001
00000000
00000001
00000010
,
00001000
00010000
01000000
00100000
,
00010000
00000000
10000000
00000000
01000000
00100000
01000000
00000000
,
00100000
00001000
00100000
00000000
00001000
00001000
00010000
00010000
,
00022000
00000000
00000000
00000000
,
00000000
00000000
00000000
00000000
,
00000000
00000000
00000000
00000000
,
00000000
00000000
00000000
00000000
,
00000000
00000000
00000000
00000000
,
00000000
00000000
00000000
00000000
,
00000000
00000000
00000000
00000000
,
00000000
00000000
00000000
00000000
,
00033000
00000000
00000000
00000000
;

//--------------- dance-double - Fred-104 ----------------
#NOTEDATA:;
#STEPSTYPE:dance-double;
#DESCRIPTION:Fred-104;
#DIFFICULTY:Medium;
#METER:13;
#CREDIT:Fred-104;
#NOTES:
00000000
00000000
00000000
00000000
,
00000000
00000000
00000000
00000000
,
00000000
00000000
00000000
00000000
,
00000000
00000000
00000000
00000000
,
00000000
00000000
00000000
00000000
,
10000000
01000000
10000000
00100000
01000000
00200000
00000000
10300000
,
01000000
00100000
00001000
00010000
00002000
00000000
00000000
00000000
,
00013000
00001000
00000010
00001000
00010000
00002000
00000000
00003100
,
00001000
00010000
01000000
00020000
00000000
00000000
00031000
00010000
,
00001000
00010000
00000000
00010000
00000100
00000000
00010000
00000000
,
00001000
01000000
00000000
01000000
00001000
00000000
00010000
00000000
,
00000100
00010000
00000000
00001000
00010000
00000000
00001000
00000000
,
00022000
00000000
00000000
00033000
,
00001000
00010000
00100000
01000000
00010000
10000000
00000000
00010000
,
01000000
00100000
10000000
01000000
00100000
00000000
00101000
00000000
,
00001000
00010000
00000010
00010000
00001000
00020000
00000000
00031000
,
00022000
00033000
00010010
00101000
,
00001000
00011000
00000000
00001000
00010000
01000000
00010000
00001000
,
00010000
00000100
00010000
00000000
01001000
00000000
00010100
00000000
,
00010000
00011000
00000000
00010000
00001000
00000010
00001000
00010000
,
00001000
00000100
00001000
00010000
00011000
00000000
00000110
00000000
,
00001000
00001001
00000000
00000001
00000010
00000100
00000010
00000001
,
00000100
00001000
00010000
01000000
11000000
00000000
10010000
00000000
,
10000000
00000000
00100000
00000000
00000000
00000000
01000000
00000000
00020000
00230000
00302000
00023000
00030020
00002030
00003200
00020300
,
00031000
00010000
00000010
00001000
00000100
00000110
00000000
00000001
,
00000010
00001000
00010000
01000000
00000000
00100000
00010000
10000000
,
00100000
01000000
00001000
00010000
00001000
00011000
00000000
01000000
,
00001000
00010000
00001000
00000100
00000020
00000000
00001030
00000001
,
00000010
00000100
00000010
00000001
00000100
00001000
00010000
00100000
,
10000000
01000000
00010000
00001000
00010000
00011000
00000000
01001000
,
00000000
00000000
00010100
00000000
00000000
00000000
00022000
00000000
00000000
00000000
00033000
00000000
00020000
00032000
00003020
00000230
,
00002300
00003002
00000203
00000000
00000310
00000000
00001000
00000000
00000010
00000000
00010000
00000000
00001000
00000000
00011000
00000000
,
00000000
00010000
00000010
00001000
00000100
00010000
00001000
01000000
,
00010000
00000000
00100000
00001000
00010000
00001000
00000010
00000110
,
00000000
00001000
00000001
00000010
00000100
00001000
00020000
00000000
,
00130000
01000000
10000000
00010000
00100000
01000000
00100000
00001000
,
00010000
00001000
00000010
00000100
00001000
00000001
00000100
00001000
,
00020000
00000000
00002000
00000000
,
00000000
00000000
00000000
00000000
00033000
00000000
00000000
00000000
00001000
00000000
00010000
00000000
01000000
00000000
00100000
00010000
,
00100000
01000000
10000000
00010000
10000000
00100000
01000000
00001000
,
00010000
00000000
01000000
00000000
10000000
00000000
00000000
00000000
00010000
01000000
00000000
00100000
10000000
00000000
01000000
00000000
,
00200000
00320000
00230000
00302000
00023000
00030020
00020030
00000000
00031000
00000000
00010000
00000000
01000000
00000000
00100000
00000000
,
00010000
10000000
00010000
00000000
10000000
01000000
00100000
00010000
,
01000000
00100000
10000000
00000000
00010000
01000000
00010000
00100000
,
01000000
00100000
00010000
01000000
00001000
00010000
00000100
00010000
,
00002000
00000000
00013000
00000100
00001000
00000001
00000100
00000010
,
00001000
00000001
00000100
00001000
00010000
00100000
01000000
00010000
,
10000000
00000000
00010000
00100000
01000000
00100000
00010000
10000000
,
00100000
00010000
00001000
00000100
00000010
00001000
00000001
00000010
,
00000100
00000000
00001000
00000001
00000010
00000100
00000010
00001000
,
00010000
01000000
00100000
00010000
10000000
00100000
01000000
00010000
,
10000000
00000000
00000000
00000000
00010000
00000000
00100000
00000000
01000000
00000000
10000000
00000000
00100000
01000000
00100000
00000000
,
10000000
00000000
01000000
00000000
00200000
00000000
00000000
00001000
00000000
00001000
00300000
00000000
00011000
00000000
00000000
00000000
,
00020000
00001000
00030200
00001000
,
00020300
00000000
00001000
00000000
00100000
00000000
00031000
01000000
,
00020000
00100000
20030000
31000000
,
20000000
00000000
31000000
02200000
00000000
00000000
03300000
00000000
,
10100000
00000000
01010000
00000000
10000000
01000000
00010000
00001000
,
00010000
00000000
00011000
00000000
00001000
00000100
00000010
00001000
,
00000001
00000000
00000100
00000010
00000000
00001000
00000010
00000000
,
00001000
00000001
00000010
00001000
00010000
00100000
10000000
00000000
,
00010000
01000000
00010000
01000000
00100000
10000000
01000000
00100000
,
01000000
10000000
00100000
00010000
00001000
00000010
00000100
00000000
,
00001000
00000001
00000100
00000010
00001000
00000001
00000100
00000010
,
00000100
00001000
00010000
00100000
01000000
00010000
10000000
00000000
,
00010000
00000000
00000000
00000000
10000000
00000000
01000000
10000000
00100000
00000000
01000000
00000000
00100000
00000000
10000000
00000000
,
01000000
00000000
00000000
00000000
00100000
00000000
00001000
00010000
00001000
00000000
00000010
00000000
00000100
00000000
00001000
00000000
,
00000100
00000010
00000001
00001000
00000001
00000100
00000010
00000000
,
00001001
00000000
00000002
00000023
00002030
00023000
00032000
00000000
00013000
00000000
00001000
00000000
00001000
00000000
01000000
00000000
,
00001000
00001000
00010000
00000000
00001000
00010000
00010000
00000100
,
00010000
00010000
00001000
00021000
00000000
00031000
00100000
00010000
,
10000000
00010000
01000000
00100000
10000000
01000000
00010000
00001000
,
00000010
00000001
00001001
00000000
00001000
00000010
00010000
00001000
,
00100000
00001000
00010000
00000200
00000000
00001300
00000010
00010000
,
00001000
01000000
00010000
00100000
00101000
00000000
00000000
00010010
,
00000000
00000000
01001000
00000000
00000000
00010100
00000000
00010000
,
00001000
00010000
00011000
00000000
00010000
00001000
00000010
00000001
,
00000100
00001000
00010000
00000000
00001000
00010000
00100000
10000000
,
01000000
00010000
00001000
00020000
00000000
00031000
00010000
00001000
,
00010000
00000010
00001000
00000100
00010000
00001000
01000000
00010000
,
00100000
01000000
11000000
00000000
00010000
01000000
10000000
01000000
,
00010000
10000000
01000000
00200000
00000000
00301000
00010000
00001000
,
00000010
00000100
00001000
00000001
00000100
00000010
00000100
00001000
,
00010000
00000000
00100000
00000000
01000000
00000000
00000000
00000000
00020000
20030000
32000000
03020000
00032000
00003020
00000032
00000003
,
00002002
00000000
00000000
00000000
,
00000000
00000000
00000000
00000000
,
00000000
00000000
00000000
00000000
,
00000000
00000000
00000000
00000000
,
00000000
00000000
00000000
00000000
,
00000000
00000000
00000000
00000000
,
00000000
00000000
00000000
00000000
,
00000000
00000000
00000000
00000000
,
00003003
00000000
00000000
00000000
;

//--------------- dance-double - Fred-104 ----------------
#NOTEDATA:;
#STEPSTYPE:dance-double;
#DESCRIPTION:Fred-104;
#DIFFICULTY:Hard;
#METER:16;
#CREDIT:Fred-104;
#NOTES:
00000000
00000000
00000000
00000000
,
00000000
00000000
00000000
00000000
,
00000000
00000000
00000000
00000000
,
00000000
00000000
00000000
00000000
,
00000000
00000000
00000000
00000000
,
00010000
00000000
00001000
00000000
00010000
00000000
00000010
00001000
00000100
00000000
00020000
00000000
00000000
00000000
00031000
00000000
,
00100000
00000000
00010000
00000000
01000000
00000000
00001000
00010000
00001000
00000000
00000010
00000000
00000200
00000000
00000000
00000000
,
00001300
00000000
00000001
00000000
00000100
00000000
00000001
00000010
00000001
00000000
00002000
00000000
00000000
00000000
00003001
00000000
,
00000100
00001000
00010000
00200000
00000000
01300000
00010000
10000000
,
00020000
01000000
00000000
00100000
00000000
10030000
01000000
00100000
,
00002000
00010000
00000000
00000010
00000000
00013000
00000100
00001000
,
00000020
00000100
00000000
00001000
00000000
00000031
00000010
00001000
,
00002002
00000000
00000000
00003003
,
00002000
00000010
00003002
00000100
00000013
00000200
00000000
00010300
,
00001000
00000000
00100000
00001000
00100000
00000000
00010000
10000000
00100000
00000000
01000000
00000000
01010000
00000000
00000000
00000000
,
00010000
02000000
00100000
03010000
10000000
02000000
00000000
03020000
,
00032000
00000000
00000000
00000000
00003200
00000000
00000000
00000000
00000320
00000000
00000000
00000000
00002030
00000000
00000000
00000000
00000000
00003000
00000000
00000000
00000000
00000000
00000000
00000000
00000000
00000000
00000000
00000000
00000000
00000000
00000000
00000000
00000101
00000000
00000000
00000000
00000000
00000000
00000000
00000000
00000000
00000000
00000000
00000000
00000001
00000000
00000000
00000000
00000100
00000000
00000000
00000000
00000000
00000000
00000000
00000000
00000000
00000000
00000000
00000000
00000100
00000000
00000000
00000000
,
00000010
00000000
00002000
00000000
00000000
00000000
00003001
00000000
00000010
00000000
00000100
00001000
00000010
00000000
00010000
00001000
,
00100000
00000000
00010000
00000000
10000000
00000000
00100000
00000000
01100000
00000000
00000000
01000000
00010000
00000000
00000000
00010000
,
10000000
00000000
00020000
00000000
00000000
00000000
01030000
00000000
00001000
00000000
00010000
00001000
00000010
00000000
00000100
00001000
,
00000001
00000000
00000100
00000000
00000010
00000000
00001000
00000000
00001100
00000000
00000000
00000100
00000001
00000000
00000000
00000001
,
00000100
00000000
00002000
00000000
00000000
00000000
00003001
00000000
00000010
00000000
00001000
00010000
00001000
00000000
00010000
00100000
,
01000000
00000000
00010000
00000000
10000000
00000000
00010000
00000000
00110000
00000000
00000000
00010000
01000000
00000000
00000000
01000000
,
00100000
00000000
00000000
00000000
20000000
00000000
00000000
00000000
00000000
00000000
00000000
00000000
30100000
00000000
00000000
00000000
20000000
30000000
02000000
03000000
00200000
00300000
00020000
00030000
00002000
00003000
00000200
00000300
00000020
00000030
00000002
00000003
,
00001000
00000001
00000010
00000000
00000001
00001000
00000010
00000000
00000100
00000000
00000002
00000000
00000000
00000000
00000013
00000001
,
00001000
00000000
00000100
00010000
00001000
00000000
00020000
00000000
00000000
00000000
00031000
00000000
00100000
00000000
00010000
00000000
,
01000000
00000000
00001000
00010000
00001000
00000000
00100000
00010000
01000000
00000000
00002000
00000000
00000000
00000000
00013000
00000000
,
00000010
00000000
00000000
00000000
00001000
00000000
00000100
00000000
00010000
00000000
00000000
00000000
00001000
00000000
00010000
00000000
00001000
00000000
00000000
00001000
00000000
00000000
00001000
00000000
00010000
00000000
00001000
00000000
00100000
00000000
00000000
00000000
,
00010000
00000000
01000000
00001000
00010000
00000000
00001000
00000000
00000010
00000100
00001000
00000000
00000002
00000000
00000010
00000000
,
00002003
00000100
00003010
00000100
00000001
00000021
00000030
00002010
,
00003000
00000000
00000000
00000000
00021000
00000000
00000000
00000000
00030000
00000000
00000000
00000000
02020000
00000000
00000000
00000000
00000000
00000000
00000000
00000000
03030000
00000000
00000000
00000000
20000000
30000000
02000000
03000000
00020000
00030000
00002000
00003000
,
00020000
00030000
00200000
00300000
10000000
00010000
20000000
00000000
30010000
00000000
00000000
00000000
00100000
00000000
01000000
00000000
00100000
00000000
00000000
00000000
00010000
00000000
10000000
00000000
00100000
00000000
00000000
00000000
20000000
00000000
00000000
00000000
,
00000000
00000000
31000000
00000000
00100000
00000000
00001000
00010000
00001000
00000000
00000010
00000000
00000001
00001000
00000010
00000000
,
00000100
00000001
00001000
00000000
00000001
00000000
00000010
00000100
00000010
00000000
00000001
00000100
00001000
00000000
00020000
00000000
,
00000000
00000000
00000000
00000000
01030000
00000000
00100000
00000000
00010000
00000000
00000000
00000000
10000000
00000000
00100000
00000000
01000000
00000000
00000000
00000000
00010000
00000000
00000000
00000000
00100000
00000000
00000000
00001000
00000000
00000000
00010000
00000000
,
00000010
00001000
00000100
00000000
00000010
00000000
00000001
00000100
00001000
00000000
00010000
00000000
00100000
01000000
00010000
00000000
,
10000000
01000000
00010000
00001000
00000010
00000100
00001000
00000001
,
00000100
00000001
00000010
00000100
00001000
00000200
00000000
00010300
00001000
00000000
00100000
00000000
00001000
00000000
00022000
00000000
,
00000000
00000000
00000000
00000000
00033000
00000000
00000000
00000000
00010000
00000000
00000100
00000000
00001000
00000000
00000010
00010000
,
00001000
00000000
00100000
00000000
00010000
00000000
01000000
00000000
00100000
10000000
00100000
00000000
01000000
00000000
00001000
00010000
,
00000100
00000000
00001000
00000000
00001010
00000000
00000000
00000000
00000001
00000100
00000000
00000010
00000100
00000000
00000001
00001000
,
00000002
00000003
00000020
00000030
00000200
00000300
00020000
00030000
00002000
00003000
00200000
00300000
01000000
10000000
00020000
00000000
10030000
00000000
00000000
00000000
00010000
00000000
00100000
00000000
01000000
00000000
00000000
00000000
10000000
00000000
00100000
00000000
,
02000000
00000000
03010000
00000000
10000000
01000000
00100000
00000000
00001000
00000000
00010000
00000000
00001000
00000000
01000000
00001000
,
00010000
00001000
00100000
00000000
00001000
00010000
00001000
00000000
00000010
00000000
00000100
00000000
00000010
00000000
00000001
00000100
,
00000001
00001000
00000001
00000000
00000100
00000010
00001000
00000000
00000001
00000010
00001000
00000000
00000010
00000000
00000001
00000100
,
00000010
00000000
00000000
00010000
00000000
00000000
00200000
00000000
01300000
00000000
00000000
00000000
00010000
00000000
00000000
00000000
01000000
00000000
00000000
00000000
00100000
00000000
10000000
00000000
01000000
00000000
10000000
00000000
00010000
00000000
00000000
00000000
,
01000000
00100000
01000000
00000000
00100000
10000000
01000000
00000000
00100000
00000000
00010000
01000000
00100000
01000000
00010000
00000000
,
00100000
00000000
00001000
00000000
00010000
00000000
00001000
00000000
00000010
00000000
00000100
00000010
00000100
00001000
00000001
00000000
,
00000100
00000001
00000010
00000000
00000001
00000100
00000010
00000000
00001000
00000000
00000001
00000010
00000100
00001000
00000001
00000010
,
00000100
00001000
00000100
00000000
00010000
00001000
00010000
00000000
00000010
00000000
00001000
00000100
00010000
00001000
00010000
00000000
,
00001000
00100000
00010000
00000000
10000000
00010000
00100000
00000000
01000000
00000000
10000000
00100000
10000000
01000000
10000000
00000000
,
00100000
01000000
00010000
00000000
10000000
00000000
01000000
00000000
00010000
00000000
00001000
00010000
00001000
00000100
00000010
00000000
,
00001000
00000000
00000001
00000000
00000010
00000000
00000000
00000000
00000001
00000000
00000100
00000000
00002000
00003000
00020000
00030000
00200000
00300000
20000000
30000000
00010000
00000000
00000000
00000000
20020000
00000000
00000000
00000000
30030000
00000000
00000000
00000000
,
00010000
01000000
00010000
00000000
00100000
00000000
01000000
00000000
10000000
00100000
10000000
00000000
00100000
00000000
01000000
00000000
,
00001000
00010000
00001000
00000000
00010000
00000000
00000100
00000000
00001000
00000000
00000010
00000100
00000001
00000000
00001000
00000000
,
00000001
00000100
00000001
00000000
00000010
00000000
00000100
00000000
00001000
00000010
00000100
00000000
00000010
00001000
00000001
00000000
,
00000010
00001000
00010000
00000000
01000000
00000000
00100000
00010000
10000000
00000000
01000000
00000000
01100000
00000000
00000000
00000000
,
00010000
00000000
00100000
01000000
00100000
00000000
00010000
00000000
10000000
00000000
00100000
01000000
00100000
00000000
10000000
00000000
,
01000000
00000000
00100000
00010000
00100000
00000000
00001000
00000000
00010000
00000000
00000100
00001000
00000100
00000000
00000010
00000000
,
00000001
00000010
00000100
00010000
00001000
00000100
00000001
00000000
,
00001000
00000001
00000010
00001000
00010000
01000000
10010000
00000000
,
00010000
01000000
00010000
00000000
00100000
00000000
01000000
00000000
00100000
00010000
00100000
00000000
00010000
00000000
10000000
00000000
,
00010000
01000000
00001000
00000000
00010000
00000000
00000100
00000000
00001000
00000010
00000100
00000000
00000100
00000001
00001000
00000000
,
00000001
00000010
00000001
00000000
00001000
00000000
00000010
00000000
00000100
00000001
00000100
00000000
00000010
00001000
00000001
00000000
,
00000100
00000010
00000100
00000010
00001000
00000000
00000100
00010000
00001000
00100000
00010000
10000000
00010000
00000000
00000000
00000000
,
01000000
00000000
00100000
01000000
00100000
00000000
10000000
00000000
00010000
00100000
01000000
10000000
00100000
00000000
01000000
00000000
,
00010000
00000000
10000000
00100000
01000000
00000000
00010000
00000000
00100000
00001000
00010000
00001000
00000010
00000000
00000100
00000000
,
00000010
00000000
00000000
00000000
00000000
00000000
00000001
00000000
00000000
00000100
00000000
00000000
00000001
00000000
00000000
00000000
00000000
00000000
00001000
00000000
00000000
00000000
00000000
00000000
00000001
00000000
00000000
00000000
00000100
00000000
00000000
00000000
00001000
00000000
00000000
00000000
00010000
00000000
00000000
00000000
00100000
00000000
00000000
00000000
01000000
00000000
00000000
00000000
,
00020000
00030000
00000000
00000000
20000000
30000000
02000000
03000000
00200000
00300000
00020000
00030000
10000000
00010000
20000000
00000000
30010000
00000000
01000000
00000000
00100000
00000000
00000000
00000000
01000000
00000000
00000000
00000000
00010000
00000000
00100000
00000000
,
00001000
00000000
00010000
00000000
00010100
00000000
00000000
00000000
00000100
00001000
00010000
00000000
00100000
00000000
01000000
00100000
,
00010000
00000000
00001000
00000100
00000010
00000000
00000001
00000000
00000000
00000000
00001000
00000000
00000010
00000000
00010000
00000000
,
00001000
00000000
01000000
00000000
00010000
00000000
00100000
00000000
01000000
10000000
00010000
00000000
10000000
00000000
00100000
00010000
,
00001000
00010000
00011000
00000000
00001000
00000010
00000100
00001000
,
00000001
00000000
00000100
00000001
00000010
00000000
00000012
00000000
00000000
00000000
00001003
00000001
00000010
00000000
00000100
00000010
,
00000001
00000000
00000000
00000000
00000000
00000000
00000000
00000000
00000100
00000000
00000000
00000000
00001000
00000000
00000000
00000000
00000100
00000000
00000000
00000000
00000000
00000000
00000000
00000000
00000001
00000000
00000000
00000000
00000000
00000000
00000000
00000000
00001000
00000000
00000000
00000000
00000000
00000000
00000000
00000000
00000020
00000030
00000000
00000000
00000000
00000000
00000000
00000000
00000020
00000030
00000000
00000000
00000000
00000000
00000000
00000000
00000001
00000000
00000000
00000000
00000000
00000000
00000000
00000000
,
00000200
00000300
00000000
00000000
00000000
00000000
00000000
00000000
00000200
00000300
00000000
00000000
00000000
00000000
00000000
00000000
00010000
00000000
00000000
00000000
00000000
00000000
00000000
00000000
00002000
00003000
00000000
00000000
00000000
00000000
00000000
00000000
00002000
00003000
00000000
00000000
00000000
00000000
00000000
00000000
00000010
00000000
00000000
00000000
00000000
00000000
00000000
00000000
00020000
00030000
00000000
00000000
00000000
00000000
00000000
00000000
00020000
00030000
00000000
00000000
00000000
00000000
00000000
00000000
,
00100000
00000000
00010000
00000000
10010000
00000000
00000000
00000000
00010000
10000000
00100000
10000000
00010000
00000000
01000000
00001000
,
00010000
00001000
00100000
00000000
00001000
00000000
00010000
00000000
00000010
00001000
00000100
00010000
00001000
00000000
01000000
00010000
,
00100000
00001000
00010000
00000000
00000010
00000000
00002000
00000000
00000000
00000000
00003100
00000000
00000010
00000000
00000001
00000000
,
00000100
00000000
00001000
00000000
00000100
00000000
00000001
00000000
00000010
00000001
00001000
00000000
00000010
00000000
00010000
00001000
,
00010000
00000000
00001000
00000000
00011000
00000000
00000000
00000000
00001000
00100000
00001000
00000000
00010000
00000010
00010000
00000000
,
00001000
00000000
00100000
00010000
01000000
00000000
01200000
00000000
00000000
00000000
01300000
00001000
00010000
00000000
00000100
00001000
,
00000010
00000000
00000100
00000000
00000001
00000000
00001000
00000000
00000001
00000000
00001000
00000010
00000100
00000001
00001000
00000000
,
00000010
00000000
00000000
00000000
00000000
00000000
00000000
00000000
00010000
00000000
00000000
00000000
00000000
00000000
00000000
00000000
00001000
00000000
00000000
00000000
00000000
00000000
00000000
00000000
01000000
00000000
00000000
00000000
00000000
00000000
00000000
00000000
00010000
00000000
00000000
00000000
00000000
00000000
00000000
00000000
00100000
00000000
00000000
00000000
00000000
00000000
00000000
00000000
00002000
00000000
00000000
00003000
00000000
00000000
00020000
00000000
00000000
00030000
00000000
00000000
00000020
00000000
00000000
00000030
00000000
00000000
00002000
00000000
00000000
00003000
00000000
00000000
00000200
00000000
00000000
00000300
00000000
00000000
00020000
00000000
00000000
00030000
00000000
00000000
00001000
00000000
00000000
00010000
00000000
00000000
00002000
00000000
00000000
00003000
00000000
00000000
,
00022000
00000000
00000000
00000000
,
00000000
00000000
00000000
00000000
,
00000000
00000000
00000000
00000000
,
00000000
00000000
00000000
00000000
,
00000000
00000000
00000000
00000000
,
00000000
00000000
00000000
00000000
,
00000000
00000000
00000000
00000000
,
00000000
00000000
00000000
00000000
,
00033000
00000000
00000000
00000000
;

//--------------- dance-double - Fred-104† ----------------
#NOTEDATA:;
#STEPSTYPE:dance-double;
#DESCRIPTION:Fred-104†;
#DIFFICULTY:Challenge;
#METER:18;
#CREDIT:Fred-104†;
#NOTES:
00000000
00000000
00000000
00000000
,
00000000
00000000
00000000
00000000
,
00000000
00000000
00000000
00000000
,
00000000
00000000
00000000
00000000
,
00000000
00000000
00000000
00000000
,
00000001
00000100
00000001
00000010
00000001
00002000
00000000
00003010
,
00010000
00001000
00010000
00100000
20000000
00000000
00000000
00000000
,
30010000
01000000
10000000
01000000
00001000
00020000
00000000
00031000
,
00000100
00000001
00000010
00000200
00000000
00000000
00001300
00000001
,
00000200
00000000
00000000
00000000
,
00002300
00000000
00023000
00000000
,
00230000
00000000
20300000
30000000
,
20020000
00000000
00000000
30030000
,
10000000
01000000
00010000
00000000
00001000
00000000
00100000
00001000
00010000
00001000
00100000
00000000
00000000
00000000
00001000
00010000
,
00000010
00000000
00001000
00000001
00000100
00000000
00000010
00000000
00001000
00000000
00100000
00000000
00010000
00001000
00010000
00000000
,
00001000
00000000
00000010
00001000
00010000
00001000
00010000
00000000
00100000
00000000
00020000
00000000
00000000
00000000
00031000
00000000
,
00020000
00000000
00000000
00000000
00032000
00000000
00000000
00000000
02003000
00000000
00000000
00000000
03002000
00000000
00000000
00000000
00000000
00003000
00000000
00000000
00000000
00000000
00000000
00000000
00000000
00000000
00000000
00000000
00000000
00000000
00000000
00000000
00001002
00000000
00000000
00000000
00000000
00000000
00000000
00000000
00000103
00000000
00000000
00000000
00000000
00000000
00000000
00000000
00000020
00000000
00000000
00000000
00000000
00000000
00000000
00000000
00001030
00000000
00000000
00000000
00000000
00000000
00000000
00000000
,
00002001
00003002
00000103
00000020
00000230
00000302
00000023
00000230
,
00001300
00000100
00010000
00000000
00001000
00010000
00001000
00000000
00021000
00000000
00130000
00000000
10000000
00000000
00010000
00000000
,
12000000
03100000
00010000
20000000
30020000
02030000
23000000
32000000
,
03010000
10000000
01000000
00000000
01000000
10000000
00010000
00000000
00210000
00000000
00301000
00000000
00020000
00000000
00031000
00000000
,
00001020
00000032
00001003
00000200
00000320
00000032
00000203
00002300
,
00013000
00001000
00010000
00000000
00100000
01000000
00010000
00000000
20010000
00000000
31000000
00000000
00200000
00000000
01300000
00000000
,
01020000
00000000
00000000
00000000
00000000
00000000
00000000
00000000
02030000
00000000
00000000
00000000
00000000
00000000
00000000
00000000
03100000
00000000
00000000
00000000
00000000
00000000
00000000
00000000
20000000
00000000
00000000
00000000
00000000
00000000
00000000
00000000
30020000
00030000
00000000
00000000
20000000
30000000
00000000
00000000
02000000
03000000
00000000
00000000
00020000
00030000
00000000
00000000
00002000
00003000
00000000
00000000
00000020
00000030
00000000
00000000
00000002
00000003
00000000
00000000
00002000
00003000
00000000
00000000
,
00000001
00000000
00001000
00000000
00000001
00000000
00001000
00000100
00000010
00000001
00000100
00000000
00000010
00000000
00000001
00000000
,
00000010
00000100
00001000
00000000
00000100
00000010
00001000
00000000
00000100
00000000
00000010
00000001
00001000
00000010
00010000
00000000
,
00001000
00000000
00100000
00000000
00010000
00000000
00001000
00000000
00000100
00010000
00001000
00000000
00001000
00000000
00100000
01000000
,
00100000
00000000
00000000
00000000
00001000
00000000
00000000
00000000
00010000
00000000
00001000
00000000
00010000
00000000
00001000
00000000
00010000
00000000
00000000
00000010
00000000
00000000
00100000
00000000
00001000
00000000
00010000
00000000
00000100
00000000
00000000
00000000
,
00001000
00000000
00000100
00000010
00000001
00000000
00000100
00000000
00001000
00000000
00000200
00000000
00000000
00000000
00000301
00000010
,
00001000
00000000
00010000
01000000
00100000
00000000
00010000
00000000
10000000
00000000
00200000
00000000
01000000
00000000
20300000
00000000
,
00100000
00000000
00000000
00000000
00000000
00000000
00000000
00000000
30020000
00000000
00000000
00000000
00000000
00000000
00000000
00000000
10030000
00000000
00000000
00000000
00000000
00000000
00000000
00000000
20020000
00000000
00000000
00000000
00000000
00000000
00000000
00000000
00000000
00000000
00000000
00000000
00000000
00000000
00000000
00000000
30030000
00000000
00000000
00000000
00000000
00000000
00000000
00000000
20000000
30000000
00000000
00000000
02000000
03000000
00000000
00000000
00020000
00030000
00000000
00000000
00002000
00003000
00000000
00000000
,
00000020
00000030
00000000
00000000
00000002
00000003
00000000
00000000
00001000
00000000
00000001
00000000
00002000
00000000
00000000
00000000
00003001
00000000
00000000
00000000
00000010
00000000
00000000
00000000
00000100
00000000
00000000
00000000
00000000
00000000
00000000
00000000
00000010
00000000
00000000
00000000
00000001
00000000
00000000
00000000
00001000
00000000
00000000
00000000
00000000
00000000
00000000
00000000
00000010
00000000
00000000
00000000
00001000
00000000
00000000
00000000
00010000
00000000
00000000
00000000
00000000
00000000
00000000
00000000
,
00001000
00000000
00010000
01000000
00100000
00000000
00010000
01000000
00100000
00000000
10000000
00000000
00010000
00000000
00010000
10000000
,
01000000
00100000
00010000
00000000
00100000
01000000
00010000
00000000
00001000
00000010
00000100
00000000
00001000
00000000
00000001
00000000
,
00000100
00000000
00000000
00000000
00000010
00000000
00001000
00000000
00000001
00000000
00000000
00000000
00000100
00000000
00000000
00000000
00001000
00000000
00010000
00000000
00001000
00000000
00010000
00000000
00001000
00000000
00000000
01000000
00000000
00000000
00000100
00000000
,
00010000
00001000
00000010
00000000
00001000
00000000
00010000
00001000
00000100
00000000
00001000
00000000
00010000
00001000
00000010
00000000
,
00001000
00000000
00010000
00001000
00000100
00000000
00001000
00000000
00010000
00001000
00000010
00000000
00001000
00010000
00001000
00000000
,
00010000
00001000
00000010
00000001
00000100
00002000
00000000
00013000
00100000
00000000
01000000
00010000
10000000
00000000
02200000
00000000
,
00000000
00000000
00000000
00000000
03300000
00000000
00000000
00000000
10020000
00000000
20030000
00000000
31000000
00000000
00100000
00010000
,
20000000
00000000
00100000
00000000
01000000
00000000
30100000
00000000
01000000
00100000
00010000
00001000
00000100
00000000
00000010
00001000
,
00000100
00000010
00000001
00000000
00000100
00000010
00001000
00000100
00000010
00001000
00010000
01000000
00100000
00010000
01000000
00100000
,
20000000
30000000
00000000
00000000
02000000
03000000
00000000
00000000
00200000
00300000
00000000
00000000
00020000
00030000
00000000
00000000
00002000
00003000
00000000
00000000
00000200
00000300
00000000
00000000
00000020
00000030
00000002
00000003
00002000
00000000
00000000
00000000
00003001
00000000
00000000
00000000
00001000
00000000
00000000
00000000
00000100
00000000
00000000
00000000
00001000
00000000
00000000
00000000
00000001
00000000
00000000
00000000
00000000
00000000
00000000
00000000
00000100
00000000
00000000
00000000
00000001
00000000
00000000
00000000
,
00001000
00000001
00000010
00000000
00000001
00001000
00000100
00000000
00010000
00001000
00100000
00001000
00010000
00000000
00000010
00001000
,
00000100
00010000
00001000
00000000
00100000
00010000
10000000
00000000
00010000
00100000
00001000
00100000
00010000
00000000
01000000
00100000
,
10000000
00000000
00000000
00100000
00000000
00000000
01000000
00000000
00000000
00000000
00000000
00000000
00010000
00000000
00000000
10000000
00000000
00000000
01000000
00000000
00000000
00000000
00000000
00000000
00100000
00000000
00001000
00000000
00010000
00000000
00001000
00000000
00000000
00000000
00000000
00000000
00010000
00000000
00000000
00000000
00000000
00000000
00001000
00000000
00010000
00000000
00001000
00000000
,
00010000
00000000
00000000
00000010
00000000
00000000
00200000
00000000
00301000
00000000
00000000
00000000
00010000
00000000
00000000
00000000
00001000
00000000
00000000
00000000
00010000
00000000
00000100
00000000
00001000
00000000
00000100
00000000
00000010
00000000
00000000
00000000
,
00000001
00001000
00000010
00000000
00001000
00000100
00000010
00000000
00001000
00000000
00000010
00000001
00001000
00000001
00000100
00000000
,
00001000
00010000
00100000
00000000
01000000
00010000
10000000
00100000
10000000
00000000
00010000
00100000
10000000
00100000
00010000
00000000
,
01000000
00100000
10000000
01000000
00010000
00001000
00010000
00001000
00000010
00000000
00000100
00001000
00000001
00000100
00000010
00000000
,
00000100
00000001
00000010
00000001
00002000
00000000
00000010
00000000
00003100
00000000
00000010
00000001
00000100
00001000
00010000
00000000
,
00001000
00010000
00100000
00000000
20000000
00000000
01000000
00000000
31000000
00000000
10000000
00100000
01000000
00100000
00010000
00001000
,
00000100
00000010
00001000
00000000
00000100
00000010
00000001
00000000
00000100
00001000
00010000
00001000
01000000
00100000
10000000
01000000
,
00010000
00000000
00000000
00000000
00000000
00000000
00000000
00000000
00000000
00000000
00000000
00000000
00001000
00000000
00000000
00000000
00000000
00000000
00000000
00000000
00000000
00000000
00000000
00000000
00010000
00000000
00000000
00000000
00000000
00000000
00000000
00000000
00000000
00000000
00000000
00000000
00000000
00000000
00000000
00000000
00000000
00000000
00000000
00000000
00000000
00000000
00000000
00000000
00001000
00000000
00000000
00000000
00000000
00000000
00000000
00000000
00010000
00000000
00000000
00000000
00000000
00000000
00000000
00000000
00001000
00000000
00000000
00000000
00000000
00000000
00000000
00000000
02000000
00000000
00000000
03000000
00000000
00000000
00000000
00000000
00000000
00000000
00000000
00000000
00002000
00000000
00000000
00003000
00000000
00000000
00000000
00000000
00000000
00000000
00000000
00000000
00020000
00000000
00000000
00030000
00000000
00000000
00000000
00000000
00000000
00000000
00000000
00000000
00000020
00000000
00000000
00000030
00000000
00000000
00000000
00000000
00000000
00000000
00000000
00000000
00000200
00000000
00000000
00000000
00000000
00000000
00000000
00000000
00000000
00000000
00000000
00000000
00000300
00000000
00000000
00000000
00000000
00000000
00000000
00000000
00000000
00000000
00000000
00000000
00000220
00000000
00000000
00000000
00000000
00000000
00000000
00000000
00000000
00000000
00000000
00000000
00000000
00000000
00000000
00000000
00000000
00000000
00000000
00000000
00000000
00000000
00000000
00000000
00000330
00000000
00000000
00000000
00000000
00000000
00000000
00000000
00000000
00000000
00000000
00000000
00000000
00000000
00000000
00000000
00000000
00000000
00000000
00000000
00000000
00000000
00000000
00000000
,
00001000
00000001
00000010
00000100
00000010
00001000
00010000
01000000
00100000
00010000
01000000
00100000
00010000
00001000
00000100
00000010
,
00010000
00001000
00000100
00000001
00000010
00000100
00000010
00001000
00010000
01000000
00100000
00010000
10000000
00000000
00010000
00000000
,
01000000
00010000
10000000
00100000
10000000
01000000
00100000
00010000
01000000
00010000
00100000
00001000
00010000
00000100
00001000
00000010
,
00001000
00000100
00010000
00001000
00100000
00010000
01000000
00001000
00010000
00000010
00001000
00000001
00000010
00000000
00000010
00000000
,
00000001
00000010
00000100
00001000
00000100
00010000
00001000
00100000
00010000
01000000
00010000
00100000
00001000
00010000
00001000
00000010
,
00000100
00001000
00000001
00000100
00001000
00010000
00100000
01000000
00010000
00000000
10000000
00000000
01000000
00000000
00100000
00000000
,
00010000
00100000
01000000
10000000
00100000
01000000
00010000
00100000
00001000
00010000
00001000
00000010
00000100
00001000
00000001
00000010
,
00001000
00010000
00001000
00000000
00000100
00000000
00000001
00001000
00000100
00000000
00000010
00000000
00000011
00000000
00000000
00000000
,
00001000
00000010
00010000
00001000
00010000
01000000
00100000
00010000
10000000
01000000
00100000
00010000
00100000
00001000
00010000
00000010
,
00000100
00000010
00001000
00000100
00010000
00001000
00100000
00001000
00010000
00000010
00001000
00000001
00000100
00000000
00000010
00000000
,
00001000
00000100
00000010
00001000
00010000
01000000
00100000
00001000
00010000
00100000
01000000
00010000
10000000
00100000
01000000
00000000
,
00010000
01000000
00001000
00100000
00010000
00000000
00100000
00001000
00010000
00000010
00010000
00001000
01000000
00000000
00000000
00000000
,
00010000
10000000
01000000
00010000
00001000
00000010
00000100
00001000
00000001
00000100
00000010
00000100
00001000
00000000
00010000
00000000
,
00100000
01000000
00010000
10000000
01000000
00010000
00001000
00010000
00100000
01000000
00001000
00010000
01000000
00000000
10000000
00000000
,
01000000
00000000
00000000
10000000
00000000
00000000
00100000
00000000
00000000
01000000
00000000
00000000
00010000
00000000
00000000
10000000
00000000
00000000
01000000
00000000
00000000
00000000
00000000
00000000
01000000
00000000
00000000
00000000
10000000
00000000
00000000
00000000
00010000
00000000
00000000
00000000
00100000
00000000
00000000
00000000
00001000
00000000
00000000
00000000
00010000
00000000
00000000
00000000
,
00002000
00000000
00000000
00003000
00000000
00000000
00000000
00000000
00000000
00000000
00000000
00000000
00000000
00000000
00000000
00000000
00000000
00000000
00000000
00000000
00000000
00000000
00000000
00000000
00020000
00000000
00000000
00030000
00000000
00000000
00000000
00000000
00000000
00000000
00000000
00000000
00002000
00000000
00000000
00003000
00000000
00000000
00000000
00000000
00000000
00000000
00000000
00000000
00000020
00000000
00000000
00000030
00000000
00000000
00000000
00000000
00000000
00000000
00000000
00000000
00000002
00000000
00000000
00000003
00000000
00000000
00000000
00000000
00000000
00000000
00000000
00000000
00001000
00000000
00000000
00000000
00000001
00000000
00000000
00000000
00001000
00000000
00000000
00000000
00000001
00000000
00000000
00000000
00000000
00000000
00000000
00000000
00000000
00000000
00000000
00000000
00001000
00000000
00000000
00000000
00000000
00000000
00000000
00000000
00000000
00000000
00000000
00000000
00000100
00000000
00000000
00000000
00000000
00000000
00000000
00000000
00000000
00000000
00000000
00000000
00000010
00000000
00000000
00000000
00000000
00000000
00000000
00000000
00000000
00000000
00000000
00000000
00000001
00000000
00000000
00000000
00000000
00000000
00000000
00000000
00000000
00000000
00000000
00000000
00001000
00000000
00000000
00000000
00000000
00000000
00000000
00000000
00000000
00000000
00000000
00000000
00000000
00000000
00000000
00000000
00000000
00000000
00000000
00000000
00000000
00000000
00000000
00000000
00000010
00000000
00000000
00000000
00000000
00000000
00000000
00000000
00000000
00000000
00000000
00000000
00010000
00000000
00000000
00000000
00000000
00000000
00000000
00000000
00000000
00000000
00000000
00000000
,
00001000
01000000
00010000
00100000
00001000
00000000
00000000
00000000
00010000
00000010
00001000
00000100
00010000
00000000
00001000
01000000
,
00010000
00100000
00001000
00100000
00010000
00000000
01000000
00000000
00010000
00100000
01000000
00100000
00010000
00000000
00001000
00000010
,
00000100
00000010
00001000
00000100
00010000
00000000
00010000
00000000
00001000
00100000
00010000
01000000
00010000
00000000
00100000
00001000
,
00010000
00000010
00001000
00000010
00000100
00000000
00000010
00000000
00001000
00000100
00010000
00000000
00001000
01000000
00010000
00000000
,
00100000
00001000
00010000
00000000
00001000
00000000
00021000
00000000
00000000
00000000
00031000
00010000
01000000
00000000
00010000
00001000
,
00000100
00000000
00001000
00000000
00010000
00000000
00001000
00000000
00010000
00000010
00001000
00000100
00010000
00000000
00001000
00100000
,
00010000
01000000
00100000
00000000
20000000
00000000
31000000
00000000
00010000
00000000
00002000
00000000
00003010
00000000
00000002
00000000
,
00000103
00000000
00002000
00003000
00011000
00000000
00000000
00000000
00010000
00001000
00000010
00000001
00001000
00000000
00000001
00000100
,
00000010
00000001
00001000
00000100
00000001
00000000
00000010
00000000
00000001
00000010
00000100
00001000
00000010
00000000
00010000
00001000
,
00010000
00100000
01000000
00010000
10000000
00000000
00010000
00000000
00010000
00100000
10000000
00100000
00010000
00000000
01000000
00010000
,
00001000
00010000
01000000
00000000
00001000
00000000
00010000
00000000
00001000
00000010
00000100
00000000
00000010
00000000
00000001
00000100
,
00001000
00000100
00000001
00000000
00000010
00000000
00000010
00000000
00000001
00000010
00000100
00000000
00010000
00001000
00000100
00000000
,
00000001
00000010
00000100
00000010
00000001
00000000
00000201
00000000
00000000
00000000
00000310
00001000
00000100
00000000
00010000
00001000
,
02000000
00000000
00000000
00000000
00000000
00000000
03020000
00000000
00000000
00000000
00000000
00000000
01030000
00000000
00010000
00000000
01000000
00000000
00010000
00000000
01000000
00000000
00010000
00000000
01000000
00000000
00000000
00000000
00000000
00000000
00010000
00000000
00000000
00100000
00000000
00000000
01000000
00000000
00000000
00100000
00000000
00000000
00010000
00000000
00000000
00000000
00000000
00000000
,
10000000
00000000
00000000
00000000
00000000
00000000
00000000
00000000
00000000
00000000
00000000
00000000
00000000
00000000
00000000
00000000
01000000
00000000
00000000
00000000
00000000
00000000
00000000
00000000
00000000
00000000
00000000
00000000
00000000
00000000
00000000
00000000
00010000
00000000
00000000
00000000
00000000
00000000
00000000
00000000
00000000
00000000
00000000
00000000
00000000
00000000
00000000
00000000
00001000
00000000
00000000
00000000
00000000
00000000
00000000
00000000
00000000
00000000
00000000
00000000
00000000
00000000
00000000
00000000
00000010
00000000
00000000
00000000
00000000
00000000
00000000
00000000
00000000
00000000
00000000
00000000
00000000
00000000
00000000
00000000
00000001
00000000
00000000
00000000
00000000
00000000
00000000
00000000
00000000
00000000
00000000
00000000
00000000
00000000
00000000
00000000
00000200
00000000
00000000
00000300
00000000
00000000
00000000
00000000
00000000
00000000
00000000
00000000
00002000
00000000
00000000
00003000
00000000
00000000
00000000
00000000
00000000
00000000
00000000
00000000
00020000
00000000
00000000
00030000
00000000
00000000
00000000
00000000
00000000
00000000
00000000
00000000
00200000
00000000
00000000
00300000
00000000
00000000
00000000
00000000
00000000
00000000
00000000
00000000
20000000
00000000
00000000
30000000
00000000
00000000
00000000
00000000
00000000
00000000
00000000
00000000
00020000
00000000
00000000
00030000
00000000
00000000
00000000
00000000
00000000
00000000
00000000
00000000
10000000
00000000
00000000
00000000
00010000
00000000
00000000
00000000
10000000
00000000
00000000
00000000
00010000
00000000
00000000
00000000
00000000
00000000
00000000
00000000
00000000
00000000
00000000
00000000
,
20020000
00000000
00000000
00000000
,
00000000
00000000
00000000
00000000
,
00000000
00000000
00000000
00000000
,
00000000
00000000
00000000
00000000
,
00000000
00000000
00000000
00000000
,
00000000
00000000
00000000
00000000
,
00000000
00000000
00000000
00000000
,
00000000
00000000
00000000
00000000
,
30030000
00000000
00000000
00000000
;
