#VERSION:0.83;
#TITLE:蒼い葝動;
#ARTIST:NAOKI feat. YUKI;
#TITLETRANSLIT:Aoi shoudou;
#GENRE:J-TRANCE;
#BANNER:Aoi shoudou.png;
#BACKGROUND:Aoi shoudou-bg.png;
#CDTITLE:./CDTitles/bm IIDX 8th style.png;
#MUSIC:Aoi shoudou.ogg;
#SAMPLESTART:44.284;
#SAMPLELENGTH:15;
#DISPLAYBPM:145;
#BPMS:0=145.3,4=145;
#BGSTAGE:3;

//--------------- dance-single - Fred-104 ----------------
#NOTEDATA:;
#STEPSTYPE:dance-single;
#DESCRIPTION:Fred-104;
#DIFFICULTY:Beginner;
#METER:2;
#CREDIT:Fred-104;
#NOTES:
0000
0000
0000
0000
,
0000
0000
0000
0000
,
0000
0000
0000
0000
,
0000
0000
0000
0000
,
0000
0000
0000
0000
,
1000
0000
0000
0000
,
0001
0000
0000
0000
,
1000
0000
0000
0000
,
0000
0000
0000
0000
,
0001
0000
0000
0000
,
0000
0000
0000
0000
,
1000
0000
0000
0000
,
0000
0000
0000
0000
,
0001
0000
0000
0000
,
1000
0000
0000
0000
,
0010
0000
0000
0000
,
0000
0000
0000
0000
,
1000
0000
0000
0000
,
0001
0000
0000
0000
,
1000
0000
0000
0000
,
0001
0000
0000
0000
,
1000
0000
0000
0000
,
0100
0000
0000
0000
,
1000
0000
0000
0000
,
0010
0000
0000
0000
,
0100
0000
0000
0000
,
0001
0000
0000
0000
,
1000
0000
0000
0000
,
0000
0000
0000
0000
,
0001
0000
0000
0000
,
1000
0000
0000
0000
,
0001
0000
0000
0000
,
1000
0000
0000
0000
,
0010
0000
0000
0000
,
1000
0000
0000
0000
,
0002
0000
0000
0000
,
0003
0000
0000
0000
,
2000
0000
0000
0000
,
3000
0000
0000
0000
,
1001
0000
0000
0000
,
0001
0000
0000
0000
,
1000
0000
0000
0000
,
1001
0000
0000
0000
,
1001
0000
0000
0000
,
0000
0000
0000
0000
,
1001
0000
0000
0000
,
0000
0000
0000
0000
,
0001
0000
0000
0000
,
1000
0000
0000
0000
,
0010
0000
0000
0000
,
0100
0000
0000
0000
,
0001
0000
0000
0000
,
1000
0000
0000
0000
,
0001
0000
0000
0000
,
1000
0000
0000
0000
,
0001
0000
0000
0000
,
0010
0000
0000
0000
,
0100
0000
0000
0000
,
1000
0000
0000
0000
,
0001
0000
0000
0000
,
1000
0000
0000
0000
,
0001
0000
0000
0000
,
1000
0000
0000
0000
,
1001
0000
0000
0000
,
2002
0000
0000
3003
;

//--------------- dance-single - Fred-104 ----------------
#NOTEDATA:;
#STEPSTYPE:dance-single;
#DESCRIPTION:Fred-104;
#DIFFICULTY:Easy;
#METER:5;
#CREDIT:Fred-104;
#NOTES:
0000
0000
0000
0000
,
0000
0000
0000
0000
,
0000
0000
0000
0000
,
0000
0000
0000
0000
,
0000
0000
0000
0000
,
1000
0000
1000
1001
,
0001
0000
0001
1001
,
0100
0000
0100
0110
,
0010
0000
0010
0110
,
0002
0000
2003
0000
,
3002
0000
2003
0000
,
3010
0001
0010
0000
,
0010
1000
0010
0000
,
0100
0001
0100
0000
,
0100
1000
0100
0000
,
0010
0001
1000
0000
,
0010
1000
0001
0000
,
0100
0100
0010
0010
,
1000
0000
0001
0000
,
0100
0000
0100
0000
,
0100
0100
0010
0000
,
1000
1000
0001
0000
,
0001
0001
1000
0000
,
0010
0000
0010
0000
,
0010
0010
0100
0000
,
0001
0000
1000
0000
,
2002
0000
3003
0000
,
2000
0000
0000
3000
,
0002
0000
0000
0003
,
1000
0000
0001
0000
,
1000
0001
1001
0000
,
0100
0000
0100
0000
,
0100
0000
0010
0110
,
0010
0000
0010
0000
,
0010
0100
0110
0000
,
2002
0000
0000
3003
,
2000
3000
0200
0300
,
0020
0030
0002
0003
,
2000
3000
0002
0003
,
1000
1000
0010
0000
,
1000
1000
0100
0000
,
0010
0001
0010
0000
,
0001
1000
0001
1000
,
0002
0000
1003
0000
,
2000
0000
3001
0000
,
0002
0000
1003
0000
,
2002
0000
3003
0000
,
0001
0000
0010
0000
,
0001
1000
0010
0000
,
1000
0000
0100
0000
,
1000
0100
1000
0001
,
1000
0100
0000
0100
,
1000
0001
0000
0001
,
0010
0001
0010
0001
,
0100
0010
0110
0000
,
1000
0100
1000
0010
,
1000
0001
1000
0000
,
0001
0010
0100
1000
,
0001
1000
0010
0000
,
1000
0100
0010
0100
,
1000
0001
0010
0000
,
0001
1000
0010
1000
,
0001
1000
0001
0100
,
0110
0100
0010
0010
,
2002
0000
0000
3003
;

//--------------- dance-single - Fred-104 ----------------
#NOTEDATA:;
#STEPSTYPE:dance-single;
#DESCRIPTION:Fred-104;
#DIFFICULTY:Medium;
#METER:9;
#CREDIT:Fred-104;
#NOTES:
0000
0000
0000
0000
,
0000
0000
0000
0000
,
0000
0000
0000
0000
,
0000
0000
0000
0000
,
0000
0000
0000
0000
,
1000
0000
0100
0000
0010
0001
0010
0000
,
0001
0010
0100
1100
,
0001
0000
0100
0000
0010
1000
0010
0000
,
1000
0000
0010
0000
0100
0001
0100
0001
,
0020
0000
0230
0000
,
2300
0000
3002
0000
,
0103
1000
0100
1010
,
0100
0001
0100
0011
,
1000
0100
1000
0011
,
0001
0100
0001
1010
,
1000
0010
1000
0000
0001
0100
0001
0000
,
0001
0010
0001
0000
1000
0100
1000
0000
,
0100
0000
0100
0000
0010
0100
0010
0000
,
0001
0000
0000
1000
0000
0000
0001
0000
1000
0000
0000
0001
0000
0000
1000
0000
,
0100
0000
1001
0000
0010
1000
0010
0000
,
0100
0010
0100
0000
0001
0100
0001
0000
,
1000
0000
0100
0000
0010
0001
0010
0000
,
0001
0100
0010
1000
,
0100
0000
1001
0000
0010
0001
0010
0000
,
0100
0000
0100
0000
1000
0100
1000
0000
,
0100
0000
0000
0100
0000
0000
0100
0000
0010
0000
0000
0010
0000
0000
0010
0000
,
2002
0000
3003
0000
,
1000
0100
1000
0001
0000
0001
0000
0100
,
0000
0100
0010
0000
0100
0000
0001
0100
,
0001
0000
1000
0100
1000
0000
0010
0000
,
0100
0100
0010
1001
,
0010
1000
0010
0000
1000
0010
1000
0000
,
0001
0100
0010
1001
,
1000
0100
0001
0010
,
0001
0100
1000
0110
,
0001
0000
0000
0001
0000
0000
0001
0000
0010
0000
0000
0010
0000
0000
0010
0000
,
0100
0000
0000
0100
0000
0000
0100
0000
1000
0000
0000
1000
0000
0000
1000
0000
,
0001
0000
0000
0001
0000
0000
0001
0000
0100
0000
0000
0100
0000
0000
0100
0000
,
0010
0000
0000
0010
0000
0000
0010
0000
1000
0000
0000
0000
1001
0000
0000
0000
,
1000
0100
0001
0000
1000
0010
0001
0000
,
1000
0010
0001
0000
1000
0100
0001
0000
,
1000
0010
0100
0000
0010
1000
0100
0000
,
0010
0000
0000
0011
0000
0000
0001
0000
1000
0000
0001
0000
0100
0000
0000
0000
,
0002
0000
0100
0103
,
2000
0000
0100
3100
,
0002
0103
2000
3100
,
0001
1000
2002
3003
,
1000
0010
1000
0000
0001
0000
0100
0000
,
0010
0010
0100
0100
,
0001
0010
0001
0000
1000
0100
1000
0000
,
0010
0010
0100
1001
,
0100
1000
0100
0000
1000
0100
1000
0000
,
0001
0010
0001
0000
0010
0000
1001
0000
,
0100
1000
0010
0000
1000
0010
0100
0000
,
0001
0000
1000
0000
0001
1000
0001
0000
,
1000
0010
1000
0000
0001
0000
0100
0000
,
0001
0010
0100
0000
1000
0001
0100
0000
,
0001
0010
0001
0000
1000
0000
0100
0000
,
0010
0010
0100
1001
,
0100
1000
0100
0000
1000
0010
0100
0000
,
0001
0010
0001
0000
0010
0000
1001
0000
,
0100
0100
1000
1000
,
0001
0100
0001
0100
0010
0100
0010
0100
,
0001
0001
0000
0100
0000
0010
0000
1000
,
2002
0000
0000
3003
;

//--------------- dance-single - Fred-104 ----------------
#NOTEDATA:;
#STEPSTYPE:dance-single;
#DESCRIPTION:Fred-104;
#DIFFICULTY:Hard;
#METER:12;
#CREDIT:Fred-104;
#NOTES:
0000
0000
0000
0000
,
0000
0000
0000
0000
,
0000
0000
0000
0000
,
0000
0000
0000
0000
,
0000
0000
0000
0000
,
0001
0100
0010
0200
0000
0301
0000
2000
,
0000
3200
1300
0000
1100
0000
0011
0000
,
1000
0100
0010
0001
0000
0100
0020
0000
,
0001
0000
0000
0000
1030
0000
0000
1000
0001
0000
1000
0000
0001
0000
1000
0000
,
1002
0000
0203
0000
,
0320
0000
0000
0000
2030
0000
3100
1000
,
0001
0100
0010
0000
1000
0100
0010
0000
,
0001
0000
1000
0000
0100
0000
1000
0001
1000
0000
0010
0000
1000
0000
0001
0000
,
0100
0000
0000
0000
0001
0000
0010
0001
0010
0000
0001
0000
0100
0000
0010
0000
,
1000
0000
0000
0000
0001
0000
1000
0100
1000
0000
0010
0000
0100
0000
0010
0000
,
1000
0200
0010
0000
1000
0000
0310
0000
,
0001
0000
1000
0000
0010
0000
0100
0001
0100
0000
0010
0000
0100
0000
0001
0000
,
2000
0000
3200
0000
0320
0000
0032
2003
,
3001
0000
0000
0011
0000
0000
0100
0000
1000
0000
0000
1010
0000
0000
0100
0000
,
0001
0000
0000
0010
0000
0000
0100
1000
0100
0000
1000
0000
0001
0100
0001
0000
,
1000
0000
0000
0001
0000
0000
0010
0001
0010
0000
0001
0000
1000
0010
1000
0000
,
0001
0000
0000
0010
0000
0000
0100
0010
0100
0000
0000
0010
0000
0000
0001
1000
,
0001
0000
1000
0000
1100
0000
0000
0000
1000
0010
1000
0000
0001
0000
1000
0000
,
0002
0000
0000
0010
0000
0000
0013
0000
0200
0000
0000
1000
0000
0000
1300
0000
,
0002
0000
0000
1000
0000
0000
1003
0000
0010
0000
0100
0000
0001
0000
1000
0000
,
0001
0000
1000
0010
1000
0000
0010
0000
0100
0001
0100
0000
0001
1000
0001
1000
,
0002
0000
0000
0000
0000
0000
0000
0000
0003
0000
0000
0000
1000
0001
1000
0001
,
1000
0100
0010
0001
0000
0100
0000
1000
,
0000
0000
0010
0000
0001
0000
0000
0000
1001
0000
0000
0000
1000
0000
0100
0010
,
0100
0000
0000
0000
1000
0000
0010
0100
0010
0000
1000
0000
0001
0000
0010
0000
,
0100
1000
0200
0000
1300
0000
1001
0000
,
0001
0000
0010
0000
0100
0000
0010
0001
0010
0000
0001
0000
1000
0000
0010
1000
,
0010
0000
0100
0000
0001
0000
0010
0000
0100
1000
0000
1000
0001
0000
0100
0000
,
0010
0000
1000
0100
1000
0000
0100
0000
0010
0000
0001
1000
0001
0000
0100
0000
,
0001
0010
1000
0010
0001
0100
0110
0000
,
0002
0000
0000
0100
0000
0000
0103
0000
0020
0000
0000
1000
0000
0000
1030
0000
,
0200
0000
0000
0010
0000
0000
0310
0000
0002
0000
0000
1000
0000
0000
1003
0000
,
0020
0000
0000
1000
0000
0000
1030
0000
0100
0000
0000
0010
0000
0000
0001
0000
,
1000
0000
0000
0001
0000
0000
1000
0000
0010
0100
0010
0000
0110
0000
0000
0000
,
0100
0001
0010
0001
1000
0001
0010
0100
,
0010
0001
1000
0001
0100
0010
1000
0100
,
1000
0000
0100
0000
0010
0000
0001
0100
0001
0000
0100
0000
0010
0000
1000
0100
,
1000
0000
0000
1001
0000
0000
0101
0000
0001
0010
0001
0000
1000
0000
0100
0010
,
0100
0000
0000
0000
,
2002
0000
0000
3003
,
0110
0000
1001
0000
,
1010
0101
0110
0000
,
1000
0100
1000
0010
1000
0100
0010
0200
,
0000
1300
0001
0000
1001
0000
0001
1000
,
0010
0100
0001
0010
0100
0010
0001
2000
,
0000
3010
1000
0000
1100
0000
1001
0001
,
0100
0000
0001
0000
0010
0000
0100
1000
0100
0000
1000
0000
0001
0000
0100
0010
,
0100
0000
0001
0000
1000
0000
0001
0000
0100
0001
0100
0001
0100
0000
0001
0000
,
1000
0200
0000
0301
0100
1000
0001
0100
,
0010
1000
0100
1000
0001
1000
1001
0000
,
0001
0010
0100
2000
0000
3010
0100
0001
,
1000
0000
0100
0000
0010
0000
0001
0000
0100
0010
0100
0000
0001
0000
0010
0000
,
0002
0000
1003
0001
0100
0010
0100
0001
,
1000
0100
0010
0000
0011
0000
1001
0000
,
1000
0000
0100
0000
1000
0000
0001
1000
0001
0000
0010
0000
0100
0010
0100
0000
,
0010
0000
0001
0000
1000
0000
0002
0000
0000
0000
0013
0000
0100
0000
0010
0001
,
0010
0001
0100
0001
0010
0100
1000
0001
,
1000
0010
1000
0000
0001
0100
0001
0000
0200
0000
0000
0000
0320
0000
0000
0000
,
0130
0001
0000
0001
0000
1000
0000
1000
,
2002
0000
0000
3003
;

//--------------- dance-single - Fred-104 ----------------
#NOTEDATA:;
#STEPSTYPE:dance-single;
#DESCRIPTION:Fred-104;
#DIFFICULTY:Challenge;
#METER:15;
#CREDIT:Fred-104;
#NOTES:
0000
0000
0000
0000
,
0000
0000
0000
0000
,
0000
0000
0000
0000
,
0000
0000
0000
0000
,
0000
0000
0000
0000
,
0001
0000
0010
0100
1000
0000
0001
0000
0100
0000
0010
1000
0010
0000
0100
0000
,
0001
0000
1000
0100
0010
0000
0001
0000
1001
0000
1000
0000
1010
0000
0000
0000
,
0001
0000
1000
0010
0100
0000
0001
0000
1000
0000
0100
0010
0200
0000
0000
0000
,
0001
0000
0000
0000
1300
0000
0001
0100
0001
1000
0100
0010
0001
1000
0010
0100
,
0002
0000
0000
0000
,
2003
0000
0000
0001
0000
3001
0010
0100
,
1000
0000
0001
0000
0100
0010
0100
0010
1000
0000
0001
0000
0010
0100
0010
0100
,
1000
0000
0001
0000
0100
0010
1000
0010
1000
0000
0001
0000
0010
0100
0010
0100
,
1000
0000
0001
0000
0100
0010
0100
0001
1000
0000
0001
0000
0010
0100
0010
0001
,
1000
0000
0001
0000
0100
0001
0100
0001
1000
0100
0010
0000
0001
0000
1000
0010
,
1000
0000
0001
0000
0010
0100
0010
0100
1000
0000
0001
0100
0000
0010
1000
0000
,
0001
0000
1000
0000
0100
0010
0001
1000
0001
0000
0100
0000
0010
0000
1000
0000
,
0002
0100
2003
0010
3001
1000
0100
0010
,
0011
0000
0001
0100
0000
0100
1000
0000
1010
0000
1000
0100
0000
0100
0001
0000
,
1001
0000
1000
0100
0000
0100
0010
0000
0001
0000
1000
0010
0000
0010
0100
0000
,
0001
0000
1000
0100
0000
0100
0010
0001
1000
0000
0010
0000
0100
0000
0001
0000
,
1000
0000
0001
0010
0000
0010
0100
0000
1000
0000
0001
0100
0000
0100
0010
0000
,
1000
0000
1000
0000
1001
0000
0000
0000
0001
0010
0100
0000
1000
0000
0001
1000
,
0010
0000
1000
0001
0000
0010
0100
0000
1000
0000
0001
0100
0000
0010
0100
0000
,
0001
0000
0010
0100
0000
1000
0001
0000
2000
0000
0010
0000
3002
0000
0100
0000
,
1003
0000
0001
0010
0100
1000
0001
0100
0010
1000
0010
0100
0010
1000
0100
0010
,
0002
0000
0000
0000
0000
0000
0000
0000
1003
0100
0010
0001
1000
0001
0100
0010
,
1000
0010
0001
0010
0000
0100
1000
0100
,
0000
0000
0010
0000
2000
0000
0000
0000
0000
0000
0000
0000
0000
0000
3001
1000
,
0001
0000
0000
0000
0000
0000
0000
0000
0020
0030
0000
0000
0000
0000
0000
0000
0020
0030
0000
0000
0000
0000
0000
0000
1000
0000
0000
0000
0001
0000
0000
0000
1000
0000
0000
0000
0000
0000
0000
0000
0200
0300
0000
0000
0000
0000
0000
0000
0200
0300
0000
0000
0000
0000
0000
0000
0001
0000
0000
0000
1000
0000
0000
0000
,
0001
0010
0100
1000
0001
0100
0010
1000
0010
0100
0001
1000
0100
0000
0010
0000
,
0001
0000
0010
0000
0100
0000
1000
0001
0100
0000
0010
1000
0001
0000
0010
0000
,
0100
0010
0001
0000
1000
0000
0010
0100
0010
1000
0100
0010
0100
0000
1000
0000
,
0001
0000
0010
0100
1000
0000
0001
0100
0010
1000
0010
0000
0100
0001
1000
0100
,
1000
0001
0100
0001
1000
0010
1000
0001
0010
0100
1000
0001
0100
0010
1000
0001
,
0020
0000
0000
0000
,
0230
0000
0000
2300
0000
0000
3002
0000
0203
0000
0000
2300
0000
0000
3200
0000
,
0302
0000
0000
0000
2003
0000
0000
0000
0100
0000
0000
0100
0000
0000
3100
0000
,
0020
0000
0030
0000
,
0001
0000
0010
0100
1000
0000
0001
1000
0010
0000
0100
0001
1000
0001
0010
0000
,
0100
0000
1000
0001
0100
0000
0001
1000
0100
0000
0010
0001
1000
0010
0100
0000
,
0010
1000
0001
0010
0100
0010
0001
0000
1000
0001
0100
0001
1000
0100
0010
0000
,
0011
0000
0000
1010
0000
0000
0101
0000
0001
0010
0100
1000
0001
0100
0010
1000
,
0001
0000
0000
0000
,
2000
0000
0000
3000
,
1001
0000
0110
0000
,
1100
0101
1001
0000
,
0001
0000
1000
0100
0001
0100
0010
1000
,
0001
0100
2000
0000
3002
0000
0103
0010
,
0001
1000
0100
0010
1000
0001
0010
0100
,
1000
0001
0100
0000
0110
0000
1001
0001
,
0010
0000
0100
1000
0001
0000
0100
0001
1000
0001
0010
0000
0100
0010
0001
0000
,
1000
0000
0010
0001
0010
0000
1000
0000
0001
0010
0100
1000
0001
0000
1000
0000
,
0020
0000
1000
0031
0020
0000
0001
1030
0020
0000
1000
0031
0010
0100
1000
0000
,
0001
0000
0000
0000
0000
0000
1000
0000
0000
0000
0000
0000
0010
0000
0000
0000
0000
0000
0100
0000
0001
0000
0100
0000
0001
0000
0000
1000
0000
0000
0100
0000
0000
0010
0000
0000
0001
0000
0000
1000
0000
0000
0010
0000
0000
0100
0000
0000
,
0001
0000
1000
0000
0100
0000
0010
0001
1000
0000
0010
0100
0001
0000
1000
0000
,
0001
0000
0100
1000
0100
0000
0001
0000
1000
0100
0001
0000
0100
0000
1000
0000
,
0001
0000
0100
0001
1000
0000
0100
0010
0001
0000
1000
0010
0001
0000
0010
0000
,
0100
0000
0010
0000
1000
0000
0001
0000
0010
0100
0010
0100
1000
0001
0100
0001
,
1000
0000
0001
0010
0100
0000
1000
0001
0100
0010
1000
0000
0100
0010
0001
0000
,
1000
0000
0010
0001
0010
0000
0100
0000
0001
0010
1000
0000
0010
0000
0100
1000
,
0001
0000
0100
0001
1000
0000
0100
0010
0001
1000
0010
0000
0100
0001
1000
0001
,
0010
0001
1000
0010
0100
0001
1000
0100
0010
0100
1000
0001
0100
0010
1000
0200
,
0010
0010
0000
0010
0000
0010
0000
0310
,
0220
0000
0000
0330
;

//--------------- dance-double - Fred-104 ----------------
#NOTEDATA:;
#STEPSTYPE:dance-double;
#DESCRIPTION:Fred-104;
#DIFFICULTY:Easy;
#METER:6;
#CREDIT:Fred-104;
#NOTES:
00000000
00000000
00000000
00000000
,
00000000
00000000
00000000
00000000
,
00000000
00000000
00000000
00000000
,
00000000
00000000
00000000
00000000
,
00000000
00000000
00000000
00000000
,
00010000
00000000
10000000
00000000
,
00100000
00100000
00010000
00001000
,
00000010
00000000
00000001
00000000
,
00000010
00000010
00001000
00010000
,
00002000
00000000
00023000
00000000
,
00032000
00000000
00023000
00000000
00031000
00010000
00001000
00000000
,
00010000
00000000
00100000
00000000
,
01000000
00000000
00100000
00000000
,
10000000
00000000
01000000
00010000
,
00010000
00000000
00001000
00000100
,
00000100
00000000
00000010
00000000
,
00000100
00000000
00000001
00000000
,
00000010
00000000
00001000
00001000
,
00010000
00010000
00011000
00000000
,
00010000
01000000
00010000
00000000
,
00001000
00010000
00001000
00000000
,
00001000
00000100
00001000
00000000
,
00010000
00001000
00010000
00000000
,
00001000
00000000
00000010
00000000
,
00000001
00000000
00000010
00000000
,
00001000
00000000
00010000
00000000
,
00022000
00000000
00033000
00000000
,
00010000
00100000
00010000
00100000
,
10000000
01000000
00010000
00000000
,
00010000
00001000
00000010
00000001
,
00000100
00001000
00010000
00000000
,
00001000
00010000
01000000
00000000
,
10000000
00000000
01000000
00010000
,
00001000
00000000
00000100
00000000
,
00001000
00000000
00010000
00000000
00001000
00010000
00001000
00000000
,
00022000
00000000
00000000
00033000
,
00002000
00003000
00200000
00300000
,
02000000
03000000
20000000
30000000
,
00020000
00030000
20000000
30000000
,
00010000
00100000
10000000
00000000
,
00100000
00001000
00010000
00000000
,
00000100
00000001
00000100
00010000
,
00001000
01000000
00001000
00001000
,
00020000
00000000
00001000
00030000
,
00020000
00000000
00000100
00030000
,
00020000
00000000
00000010
00030000
,
00020000
00000000
00001000
00031000
,
00010000
00100000
00000000
00100000
,
10000000
01000000
00000000
00100000
,
00010000
00001000
00000000
00000100
,
00000001
00001000
00000002
00000003
,
00001000
00000010
00001000
00000000
,
00000001
00000100
00000001
00000000
,
00000100
00001000
00010000
01000000
,
10000000
00010000
10010000
00000000
,
10000000
00100000
10000000
01000000
,
10000000
01000000
00010000
00000000
,
00001000
00010000
01000000
00010000
,
00001000
00000100
00000001
00000000
,
00001000
00000001
00000010
00001000
,
00010000
00100000
00010000
00000000
,
00001000
00010000
00100000
10000000
,
00010000
10000000
10010000
00000000
,
10000000
01000000
00100000
00001000
,
00022000
00000000
00000000
00033000
;

//--------------- dance-double - Fred-104 ----------------
#NOTEDATA:;
#STEPSTYPE:dance-double;
#DESCRIPTION:Fred-104;
#DIFFICULTY:Medium;
#METER:9;
#CREDIT:Fred-104;
#NOTES:
00000000
00000000
00000000
00000000
,
00000000
00000000
00000000
00000000
,
00000000
00000000
00000000
00000000
,
00000000
00000000
00000000
00000000
,
00000000
00000000
00000000
00000000
,
00001000
00000000
00000001
00000000
00000010
00001000
00010000
00000000
,
00001000
00000000
00000100
00000000
00000001
00000100
00001000
00000000
,
00010000
00000000
01000000
00000000
00010000
00001000
00010000
00000000
,
01000000
00000000
00100000
00000000
10010000
00000000
00010000
01000000
,
00200000
00000000
02300000
03002000
,
00023000
00000000
00032000
00000000
00013000
00001000
00010000
00000000
,
00001000
00000000
00000100
00000000
00000001
00000100
00000001
00000000
,
00000100
00001000
00010000
00001000
,
00010000
00000000
01000000
00000000
10000000
01000000
10000000
00000000
,
01000000
00000000
00010000
00000000
00001000
00010000
00001000
00000000
,
00000010
00000001
00000100
00001000
,
00010000
00000000
00100000
00000000
01000000
00010000
10000000
00000000
,
01000000
00010000
00000100
00010000
,
00001000
00000000
00000000
00001000
00000000
00000000
00001000
00000000
00010000
00000000
00000000
00010000
00000000
00000000
00010000
00000000
,
00001000
00000000
00010000
00000000
01000000
00010000
01000000
00000000
,
10000000
00000000
01000000
00000000
00010000
00001000
00010000
00000000
,
00001000
00000000
00000010
00000000
00000001
00000010
00000001
00000000
,
00000010
00000000
00001000
00000000
00010000
00001000
00010000
00000000
,
00001000
00000000
00010000
00000000
01000000
00010000
01000000
00000000
,
10000000
00000000
01000000
00000000
00010000
00001000
00010000
00000000
,
00001000
00000000
00000000
00010000
00000000
00000000
00000100
00000000
00010000
00000000
00000000
00001000
00000000
00000000
00010000
00000000
,
00022000
00000000
00033000
00000000
,
00010000
00000100
00001000
00000100
00000000
00001000
00000000
00000001
,
00000000
00000100
00000010
00000000
00001000
00000000
00000001
00000010
,
00000001
00000000
00000010
00001000
00000010
00000000
00001000
00000000
,
00010000
00100000
00010000
00000000
00022000
00000000
00033000
00000000
,
00001000
00000010
00001000
00010000
,
01000000
00000000
00010000
00000000
00001000
00010000
00001000
00000000
,
00000010
00000011
00000001
00000100
,
00001000
00010000
00001000
00000000
00010000
00001000
00010000
00000000
,
00002000
00013000
00002000
01003000
,
00002000
00013000
00002000
00103000
,
00020000
10030000
00200000
00310000
,
00002000
00000000
00003100
00000000
00000001
00001000
00000001
00001000
,
00000001
00000100
00000001
00000000
00000010
00000100
00000010
00000000
,
00000100
00010000
00000100
00000000
00010000
00001000
00010000
00000000
,
00001000
01000000
00001000
00000000
01000000
00010000
01000000
00000000
,
00100000
00000000
00000000
00100000
00000000
00000000
00100000
00000000
10000000
00000000
00010000
00000000
01000000
00000000
00001000
00000000
,
00020000
00000000
01000000
01030000
,
02000000
00000000
10000000
13000000
,
20000000
30100000
00200000
00310000
,
00020000
00031000
00022000
00033000
,
00010000
00000100
00010000
00000000
00000100
00000000
00001000
00000000
,
00000001
00000010
00000001
00000000
00000100
00000000
00000010
00000000
,
00000100
00001000
00010000
00000000
00100000
00000000
01000000
00000000
,
00100000
10000000
01000000
00000000
01010000
00000000
00011000
00000000
,
00001000
00010000
00001000
00000000
00000100
00000000
00000001
00000000
,
00000010
00000001
00000100
00001000
,
00010000
01000000
00010000
00000000
01000000
10000000
01000000
00000000
,
10000000
00100000
10000000
00000000
01000000
00000000
00010000
00000000
,
00001000
00000100
00001000
00000000
00000100
00000001
00000100
00000000
,
00000001
00000010
00000001
00000010
00001000
00000010
00001000
00000000
,
00010000
00100000
00010000
00000000
00100000
10000000
00100000
00000000
,
00010000
00001000
00010000
00001000
00000010
00001000
00010000
00000000
,
00001000
00000100
00001000
00000000
00000100
00000001
00000100
00000000
,
00001000
00010000
00001000
00010000
01000000
00010000
01000000
00000000
,
10000000
00100000
00010000
00000000
00001000
00000010
00000001
00000000
,
00001000
00000010
00001000
00000010
00000100
00000001
00000100
00000001
,
00000010
00000100
00000000
00010000
00000000
00001000
00000000
01000000
,
02200000
00000000
00000000
03300000
;

//--------------- dance-double - Fred-104 ----------------
#NOTEDATA:;
#STEPSTYPE:dance-double;
#DESCRIPTION:Fred-104;
#DIFFICULTY:Hard;
#METER:12;
#CREDIT:Fred-104;
#NOTES:
00000000
00000000
00000000
00000000
,
00000000
00000000
00000000
00000000
,
00000000
00000000
00000000
00000000
,
00000000
00000000
00000000
00000000
,
00000000
00000000
00000000
00000000
,
00001000
00010000
00001000
00200000
00000000
00301000
00000000
00020000
,
00000000
00032000
00013000
00000000
00011000
00000000
00010010
00000000
,
00010000
00000010
00001000
00000100
00000000
00010000
00002000
00000000
,
00010000
00000000
00000000
00000000
00013000
00000000
00000000
00000100
00001000
00000000
00000001
00000000
00000100
00000000
00000010
00000000
,
00001020
00000000
00020030
00000000
,
00032000
00000000
00000000
00000000
00203000
00000000
00310000
10000000
,
00010000
00100000
10000000
00000000
00010000
01000000
10000000
00000000
,
00010000
00000000
10000000
00000000
01000000
00000000
00100000
00010000
00100000
00000000
00001000
00000000
00010000
00000000
00001000
00000000
,
01000000
00000000
00000000
00000000
00001000
00000000
00010000
00000100
00010000
00000000
00001000
00000000
00010000
00000000
00001000
00000000
,
00000100
00000000
00000000
00000000
00000001
00000000
00000010
00000001
00000010
00000000
00000001
00000000
00001000
00000000
00000010
00000000
,
00000200
00000001
00001000
00000301
,
00001000
00000000
00000001
00000000
00000010
00000000
00000100
00000010
00000100
00000000
00010000
00000000
00001000
00000000
00010000
00000000
,
00200000
00000000
02300000
00000000
03020000
00000000
20030000
32000000
,
03100000
00000000
00000000
01100000
00000000
00000000
00001000
00000000
00010000
00000000
00000000
00011000
00000000
00000000
00000010
00000000
,
00000100
00000000
00000000
00000001
00000000
00000000
00000010
00000001
00000010
00000000
00000100
00000000
00001000
00000000
00000001
00000000
,
00000100
00000000
00000000
00000001
00000000
00000000
00001000
00000100
00001000
00000000
00000010
00000000
00010000
00000000
00001000
00000000
,
00100000
00000000
00000000
00010000
00000000
00000000
10000000
01000000
10000000
00000000
00000000
00010000
00000000
00000000
01000000
00100000
,
01000000
00000000
00010000
00000000
10010000
00000000
00000000
00000000
10000000
01000000
10000000
00000000
00010000
00000000
10000000
00000000
,
00010000
00000000
00000000
01000000
00000000
00000000
10000000
00000000
01000000
00000000
00000000
00010000
00000000
00000000
00100000
00000000
,
00001000
00000000
00000000
00010000
00000000
00000000
00000010
00000000
00010000
00000000
00001000
00000000
00010000
00000000
00001000
00000000
,
00010000
00000000
00000100
00001000
00000100
00000000
00001000
00000001
00001000
00000000
00000010
00000100
00000010
00000100
00000010
00000000
,
00002002
00000000
00000000
00000000
00000000
00000000
00000000
00000000
00003003
00000000
00000000
00000000
00000001
00000100
00000001
00000100
,
00000001
00000010
00000100
00010000
00000000
01000000
00000000
00100000
,
00000000
00000000
00010000
00000000
10000000
00000000
00000000
00000000
10010000
00000000
00000000
00000000
00010000
00000000
01000000
00100000
,
01000000
00000000
00000000
00000000
00010000
00000000
00100000
01000000
00100000
00000000
00010000
00000000
10000000
00000000
01000000
00000000
,
00010000
00001000
00020000
00000000
00031000
00000000
00011000
00000000
,
00010000
00000000
00000100
00000000
00001000
00000000
00000001
00000100
00000001
00000000
00000010
00000000
00000100
00000000
00001000
00000000
,
00000010
00000000
00001000
00000000
00000001
00000000
00000010
00000000
00000100
00000010
00000000
00000100
00000010
00000000
00000001
00000000
,
00000100
00000000
00001000
00000000
00010000
00000000
00001000
00010000
00001000
00000000
00100000
00000000
00010000
00000000
10000000
00000000
,
00010000
01000000
00100000
00010000
00001000
00010000
00011000
00000000
,
00010000
00000000
00000000
00001000
00000000
00000000
00000010
00000000
00000001
00000000
00000000
00000010
00000000
00000000
00001000
00000000
,
00010000
00000000
00000000
00001000
00000000
00000000
00000010
00000000
00001000
00000000
00000000
00010000
00000000
00000000
00100000
00000000
,
00010000
00000000
00000000
00001000
00000000
00000000
00000100
00000000
00001000
00000000
00000000
00010000
00000000
00000000
01000000
00000000
,
10000000
00000000
00000000
01000000
00000000
00000000
00010000
00000000
00001000
00010000
00001000
00000000
00011000
00000000
00000000
00000000
,
00010000
00001000
00000010
00000001
00000010
00001000
00010000
00001000
,
00000100
00001000
00010000
01000000
00010000
00001000
00010000
01000000
,
10000000
00000000
00010000
00000000
01000000
00000000
00100000
10000000
00100000
00000000
10000000
00000000
01000000
00000000
00100000
01000000
,
00100000
00000000
00000000
00110000
00000000
00000000
00101000
00000000
00001000
00000000
00010000
00000000
00000010
00000000
00010000
00001000
,
00010000
00000000
00000000
00000000
,
00022000
00000000
00000000
00033000
,
00000110
00000000
00001001
00000000
,
00001010
00000101
00001100
00000000
,
00000001
00000010
00001000
00010000
00001000
00000010
00001000
00020000
,
00000000
00130000
10000000
00000000
10010000
00000000
00010000
01000000
,
10000000
01000000
00010000
00001000
00010000
01000000
00010000
00002000
,
00000000
00000000
00003100
00000000
00001000
00000000
00000000
00000000
00011000
00000000
00000000
00000000
00010000
00001000
00010000
00000000
,
00000100
00000000
00001000
00000000
00000010
00000000
00000100
00000001
00000100
00000000
00000010
00000000
00001000
00000000
00000001
00000010
,
00000001
00000000
00000010
00000000
00000100
00000000
00010000
00000000
00001000
00010000
00001000
00010000
00001000
00000000
00100000
00000000
,
00010000
20000000
00000000
31000000
00100000
01000000
10000000
00100000
,
00010000
00001000
00010000
00100000
10000000
00010000
10010000
00000000
,
10000000
01000000
00010000
00002000
00000000
00013000
01000000
00010000
,
00001000
00000000
00000100
00000000
00001000
00000000
00010000
00000000
00000100
00010000
00000100
00000000
00010000
00000000
00001000
00000000
,
00020000
00000000
00031000
00000010
00000001
00000010
00001000
00010000
,
00001000
00100000
00001000
00000000
00011000
00000000
01100000
00000000
,
00010000
00000000
01000000
00000000
00100000
00000000
10000000
00100000
10000000
00000000
01000000
00000000
00100000
00000000
00010000
00000000
,
01000000
00000000
00001000
00000000
00010000
00000000
00002000
00000000
00000000
00000000
00013000
00000000
00000100
00000000
00001000
00000100
,
00001000
00000010
00000100
00000001
00001000
00000100
00000010
00000001
,
00000100
00000010
00000100
00000000
00000001
00001000
00000001
00000000
00000200
00000000
00000000
00000000
00002300
00000000
00000000
00000000
,
00013000
00001000
00000000
00000100
00000000
00000010
00000000
00000100
,
00002002
00000000
00000000
00003003
;

//--------------- dance-double - Fred-104 ----------------
#NOTEDATA:;
#STEPSTYPE:dance-double;
#DESCRIPTION:Fred-104;
#DIFFICULTY:Challenge;
#METER:15;
#CREDIT:Fred-104;
#NOTES:
00000000
00000000
00000000
00000000
,
00000000
00000000
00000000
00000000
,
00000000
00000000
00000000
00000000
,
00000000
00000000
00000000
00000000
,
00000000
00000000
00000000
00000000
,
00010000
00000000
00000010
00001000
00000010
00000000
00010000
00000000
00001000
00000000
00100000
00010000
00100000
00000000
00001000
00000000
,
00010000
00000000
00001000
00010000
00100000
00000000
01000000
00000000
01010000
00000000
00000000
00000000
10010000
00000000
00000000
00000000
,
10000000
00000000
01000000
00100000
00001000
00000000
00010000
00000000
00001000
00000000
00000100
00000001
00000200
00000000
00000000
00000000
,
00000010
00000000
00000000
00000000
00000301
00000000
00001000
00000100
00001000
00000100
00010000
00001000
01000000
00010000
01000000
00010000
,
20000000
00000000
00000000
00000000
,
32000000
00000000
00000000
03100000
00000000
00100000
00001000
00010000
,
00001000
00000000
00000100
00000000
00000001
00001000
00000001
00001000
00000100
00000000
00000010
00000000
00000001
00001000
00000010
00001000
,
00000001
00000000
00000010
00000000
00000100
00010000
00001000
00010000
00100000
00000000
01000000
00000000
00010000
10000000
00010000
10000000
,
01000000
00000000
00100000
00000000
00001000
00010000
00000010
00010000
00001000
00000000
00010000
00000000
00000100
00001000
00000100
00000010
,
00000001
00000000
00000100
00000000
00001000
00010000
00001000
00010000
00100000
01000000
00010000
00000000
01000000
00000000
00100000
10000000
,
00010000
00000000
00100000
00000000
01000000
00100000
00010000
00100000
00001000
00000000
00010000
00000000
00000010
00010000
00001000
00010000
,
00100000
00000000
01000000
00000000
00010000
00100000
01000000
00100000
00010000
00000000
00001000
00000000
00000100
00000000
00001000
00000000
,
00000002
00000100
00002003
00000010
00003001
00000100
00000010
00001000
,
00000001
00000000
00000001
00000100
00000000
00000100
00001000
00000000
00010000
00000000
00010000
00100000
00000000
00100000
10000000
00000000
,
10010000
00000000
10000000
01000000
00000000
01000000
00100000
00000000
00001000
00000000
00010000
00000100
00000000
00000100
00001000
00000000
,
00000100
00000000
00000010
00000001
00000000
00000001
00001000
00000001
00000100
00000000
00001000
00000000
00010000
00000000
00001000
00000000
,
01000000
00000000
00010000
00100000
00000000
00100000
01000000
00000000
10000000
00000000
00100000
00010000
00000000
00010000
00001000
00000000
,
00010000
00000000
00000100
00000000
00001100
00000000
00000000
00000000
00001000
00000010
00000100
00000000
00000010
00000000
00001000
00000001
,
00000010
00000000
00000100
00010000
00000000
00001000
00010000
00000000
00100000
00000000
01000000
10000000
00000000
01000000
00010000
00000000
,
00100000
00000000
01000000
00010000
00000000
00001000
00010000
00000000
00002000
00000000
00010000
00000000
00203000
00000000
00010000
00000000
,
00301000
00000000
00010000
00001000
00100000
00010000
00100000
01000000
10000000
00100000
01000000
00010000
01000000
00100000
10000000
01000000
,
00200000
00000000
00000000
00000000
00000000
00000000
00000000
00000000
00301000
00010000
00001000
00010000
00000100
00001000
00000100
00001000
,
00000001
00000100
00010000
01000000
00000000
00001000
00100000
10000000
,
00000000
00000000
00100000
00000000
00020000
00000000
00000000
00000000
00000000
00000000
00000000
00000000
00000000
00000000
00130000
00001000
,
00010000
00000000
00001000
00000000
00000100
00000000
00000001
00001000
00000001
00000000
00000010
00000000
00001000
00000000
00010000
00001000
,
00100000
00010000
10000000
00010000
01000000
00100000
10000000
00010000
00100000
00000000
00000000
00000000
00011000
00000000
00000000
00000000
,
00010000
00000000
00001000
00000000
00000100
00000000
00000001
00001000
00000100
00000000
00000010
00000000
00000001
00000000
00001000
00000010
,
00000100
00000000
00001000
00000000
00010000
00000000
00100000
00000000
01000000
00010000
00000000
10000000
00010000
00000000
00100000
00000000
,
01000000
00000000
10000000
00100000
00010000
00000000
00100000
10000000
00010000
00000000
10000000
01000000
00100000
00000000
00001000
00000000
,
00010000
00001000
00010000
00001000
00000010
00000100
00000010
00000100
00000010
00000001
00001000
00000010
00000100
00001000
00010000
00001000
,
02000000
00000000
00000000
00000000
,
03020000
00000000
00000000
20030000
00000000
00000000
32000000
00000000
03020000
00000000
00000000
00032000
00000000
00000000
00003200
00000000
,
00000302
00000000
00000000
00000000
00000023
00000000
00000000
00000000
00000100
00000000
00000000
00000100
00000000
00000000
00000130
00000000
,
00020000
00000000
00030000
00000000
,
00001000
00000000
00100000
00010000
10000000
00000000
00100000
01000000
00010000
00000000
10000000
01000000
00100000
00000000
00001000
00010000
,
00000100
00000000
00001000
00000100
00000010
00000000
00000001
00001000
00000010
00000000
00000100
00001000
00010000
00100000
01000000
00000000
,
00010000
00100000
01000000
10000000
00010000
01000000
00100000
00000000
10000000
01000000
00100000
00010000
00100000
00001000
00010000
00000000
,
00011000
00000000
00000000
00001010
00000000
00000000
00000011
00000000
00000001
00000010
00000100
00001000
00000100
00010000
00001000
01000000
,
00001000
00000000
00000000
00000000
,
00020000
00000000
00000000
00030000
,
00010010
00000000
01001000
00000000
,
01100000
00011000
00000110
00000000
,
00000001
00000000
00001000
00000100
00010000
01000000
00001000
00000100
,
00010000
00001000
00010000
00000000
00011000
00000000
00001000
00010000
,
00100000
01000000
10000000
01000000
00100000
01000000
00010000
00100000
,
01000000
00010000
00001000
00000000
00000110
00000000
00001001
00001000
,
00000010
00000000
00000100
00000001
00001000
00000000
00000100
00000010
00000001
00001000
00000010
00000000
00010000
00001000
00100000
00000000
,
00001000
00000000
00010000
00100000
01000000
00000000
10000000
00000000
01000000
00010000
10000000
01000000
00100000
00000000
00001000
00000000
,
00020000
00000000
00001000
01030000
00020000
00000000
01000000
00031000
00020000
00000000
00001000
01030000
00010000
01000000
00001000
00000000
,
00010000
00000000
00000100
00000000
00000010
00000000
00000001
00001000
00000010
00000100
00000010
00001000
00000100
00010000
00001000
01000000
,
00010000
00000000
00100000
00000000
01000000
00000000
10000000
00100000
00010000
00000000
00001000
00010000
00001000
00000000
00000010
00000000
,
00001000
00000000
00010000
00100000
00010000
00000000
00001000
00000000
00010000
01000000
00010000
00000000
00001000
00000000
00010000
00000000
,
00000100
00000000
00001000
00000100
00000010
00000000
00000001
00001000
00000010
00000000
00000001
00000010
00000100
00000000
00000010
00000000
,
00001000
00000000
00000100
00000000
00000010
00000000
00001000
00000000
00010000
00001000
00010000
00001000
01000000
00010000
01000000
00010000
,
00100000
00000000
01000000
10000000
00010000
00000000
01000000
00010000
10000000
01000000
00100000
00000000
00001000
00010000
00001000
00000000
,
00010000
00000000
00001000
00000100
00000001
00000000
00001000
00000000
00000100
00000010
00000001
00000000
00001000
00000000
00000010
00000000
,
00000100
00000000
00000001
00001000
00000100
00000000
00000010
00000100
00010000
00000000
00001000
00100000
00010000
00000000
10000000
00010000
,
00100000
01000000
10000000
01000000
00100000
00010000
00100000
00001000
00010000
00000100
00001000
00000010
00000100
00000010
00001000
00000002
,
00000010
00000010
00000000
00000010
00000000
00000010
00000000
00000013
,
00000220
00000000
00000000
00000330
;
