#VERSION:0.83;
#TITLE:Anisakis -somatic mutation type"Forza"-;
#ARTIST:朱雀;
#ARTISTTRANSLIT:Suzaku;
#GENRE:HARD RENAISSANCE;
#BANNER:Anisakis -somatic mutation type Forza-.png;
#BACKGROUND:Anisakis -somatic mutation type Forza--bg.png;
#CDTITLE:./CDTitles/bm IIDX 15 DJ TROOPERS.png;
#MUSIC:Anisakis -somatic mutation type Forza-.ogg;
#SAMPLESTART:88.216;
#SAMPLELENGTH:15;
#BPMS:0=185;
#BGSTAGE:23;

//--------------- dance-single - Fred-104 ----------------
#NOTEDATA:;
#STEPSTYPE:dance-single;
#DESCRIPTION:Fred-104;
#DIFFICULTY:Beginner;
#METER:4;
#CREDIT:Fred-104;
#NOTES:
0000
0000
0000
0000
,
0000
0000
0000
0000
,
0000
0000
0000
0000
,
0000
0000
0000
0000
,
0000
0000
0000
0000
,
0000
0000
0000
0000
,
0000
0000
0000
0000
,
0000
0000
0000
0000
,
0000
0000
0000
0000
,
2002
0000
0000
0000
,
0000
0000
0000
3003
,
0001
0000
0000
0000
,
1000
0000
0000
0000
,
0001
0000
0000
0000
,
1000
0000
0000
0000
,
0100
0000
0000
0000
,
0010
0000
0000
0000
,
0001
0000
0000
0000
,
1000
0000
0000
0000
,
0001
0000
0010
0000
,
0200
0000
0300
0000
,
1000
0000
0001
0000
,
0200
0000
0300
0000
,
0001
0000
1000
0000
,
0020
0000
0030
0000
,
0100
0000
0010
0000
,
0100
0000
0001
0000
,
1000
0000
0000
1000
,
0000
0000
1000
0000
,
0001
0000
0001
0000
,
2000
0000
3000
0000
,
0100
0000
0000
0100
,
0000
0000
0100
0000
,
0010
0000
0010
0000
,
1001
0000
0000
0000
,
0001
0000
0000
1000
,
0000
0000
0001
0000
,
0100
0000
0010
0000
,
0200
0000
0300
0000
,
0010
0000
0000
1000
,
0000
0000
0001
0000
,
1000
0000
0001
0000
,
1000
1000
1000
0000
,
2002
0000
0000
0000
,
0000
0000
0000
0000
,
3003
0000
0000
0000
,
0000
0000
0000
0000
,
1000
1000
1000
1000
,
1000
0000
0000
0000
,
0001
0001
0001
0001
,
0002
0000
0003
0000
,
0100
0100
0100
0100
,
0100
0000
0000
0000
,
0010
0010
0010
0010
,
0010
0010
0010
0000
,
1001
0000
0000
0000
,
0110
0000
0000
0000
,
1001
0000
0000
0000
,
0110
0000
0000
0000
,
0002
0003
2000
3000
,
0002
0003
2000
3000
,
0002
0003
2000
3000
,
0001
0001
0001
0001
,
2002
0000
0000
0000
,
0000
0000
0000
3003
,
1000
1000
0001
0001
,
2000
3000
0002
0003
,
2002
0000
0000
0000
,
3003
0000
0000
0000
,
1000
0000
0001
0000
,
0010
0010
0010
0000
,
0100
0000
1000
0000
,
0001
0001
0001
0000
,
1000
0000
0100
0000
,
0001
0000
0010
0000
,
1000
0000
0001
0000
,
1001
0000
0000
0000
,
0001
0000
1000
0000
,
0100
0100
0100
0000
,
1000
0000
0001
0000
,
0010
0010
0010
0000
,
0001
0000
0010
0000
,
1000
0000
0100
0000
,
0001
0000
1000
0000
,
0001
0001
0001
0001
,
1001
0000
0000
0000
,
0000
0000
0000
0000
,
0110
0000
0000
0000
,
1001
0000
0000
0000
,
0110
0000
0000
0000
,
1001
0000
0000
0000
,
0110
0000
0000
0000
,
1001
0000
0000
0000
,
1000
0000
0100
0010
,
0100
0000
0010
0001
,
0010
0000
0001
0000
,
1000
1000
0001
0001
,
1001
0000
0000
0000
,
0110
0000
0000
0000
,
0001
0001
1000
1000
,
0002
0000
2003
0000
,
3000
2002
0000
0000
,
0000
0000
0000
0000
,
0000
0000
0000
0000
,
3003
0000
0000
0000
;

//--------------- dance-single - Fred-104 ----------------
#NOTEDATA:;
#STEPSTYPE:dance-single;
#DESCRIPTION:Fred-104;
#DIFFICULTY:Easy;
#METER:7;
#CREDIT:Fred-104;
#NOTES:
0000
0000
0000
0000
,
0000
0000
0000
0000
,
0000
0000
0000
0000
,
0000
0000
0000
0000
,
0000
0000
0000
0000
,
0000
0000
0000
0000
,
0000
0000
0000
0000
,
0000
0000
0000
0000
,
0000
0000
0000
0000
,
2002
0000
0000
0000
,
0000
0000
0000
3003
,
0001
0000
0100
0000
,
0010
1000
0001
0000
,
1000
0000
0100
0000
,
0010
0001
1000
0001
,
0100
0000
0010
0000
,
0100
0100
0001
1000
,
0100
0100
0010
0001
,
1000
1000
0000
0000
0000
0000
1001
0000
,
0001
0100
1000
0100
,
0001
0000
1000
0000
,
0001
0010
1000
0010
,
0001
0000
1000
0000
,
0010
0100
0001
0100
,
0010
1000
0001
0000
,
1000
0100
0010
0001
,
1001
0000
0110
0000
,
0001
0000
0000
1000
0000
0000
0010
0000
,
0000
0100
0000
0000
0001
0000
1000
0000
,
0100
0000
0000
0010
0000
0000
0001
0000
,
1000
0001
0100
0010
,
0100
0000
0000
0001
0000
0000
0010
0000
,
0000
0100
0000
0000
1000
0000
0010
0000
,
0100
0000
0000
0010
0000
0000
1000
0000
,
0001
0001
0000
0000
1000
0000
0100
0000
,
1000
0000
0000
0010
0000
0000
0100
0000
,
0000
0001
0000
0000
0010
0000
0100
0000
,
0010
0000
0000
0001
0000
0000
1000
0000
,
0010
0100
0001
1000
,
0100
0000
0000
0010
0000
0000
0100
0000
,
0000
1000
0000
0000
0010
0000
0100
0000
,
0010
0000
0000
1000
0000
0000
0100
0000
,
0010
0000
0001
0000
1000
0001
1000
0000
,
2002
0000
0000
0000
,
0000
0000
0000
0000
,
3003
0000
0000
0000
,
0000
0000
0000
0000
,
0001
0100
1000
0010
,
0001
0000
0000
0000
,
1000
0100
0001
0010
,
1000
0001
1000
0000
,
0100
0010
0001
1000
,
0010
0000
0000
0000
,
1000
0010
0001
0100
,
1000
0001
1001
0000
,
0011
0001
0011
0000
,
1010
1000
1010
0000
,
0101
0001
0101
0000
,
1100
1000
1100
0000
,
0001
0001
0010
0010
,
1000
1000
0100
0100
,
0001
0010
0100
1000
,
0001
0100
0010
0100
,
2002
0000
0000
0000
,
0000
0000
0000
3003
,
1000
1000
0001
0001
,
1000
0100
0010
0001
,
2002
0000
0000
3003
,
1000
0001
1001
0000
,
0001
0100
0010
0100
,
0001
0010
0100
1000
,
0010
1000
0001
0000
,
1000
0000
0100
0000
,
0001
0000
0010
0000
,
1000
1000
0100
0100
,
0110
0000
0001
1000
,
0100
1000
0001
0100
,
0010
0100
0001
0000
,
0010
0100
0010
0001
,
1000
0001
0100
0000
,
0001
0000
0010
0000
,
1000
0000
0100
0000
,
0001
0001
1000
1000
,
0100
0100
0010
0010
,
0001
0010
0001
0000
1000
0010
1000
0000
,
1001
0000
0000
0000
,
0000
0000
0000
0001
,
0101
0000
0000
0000
,
1100
0000
0001
1000
,
1010
0000
0000
0001
,
0011
0000
0000
1000
,
1001
0000
0110
0000
,
1001
0000
0000
0000
,
1000
0000
0100
0010
,
0100
0000
0010
0001
,
1000
0010
0100
0010
,
1000
0001
0100
0000
,
1001
0000
0100
0000
,
0110
0000
0010
0000
,
0001
0001
1000
1000
,
0200
0320
0032
2003
,
3000
2002
0000
0000
,
0000
0000
0000
0000
,
0000
0000
0000
0000
,
3003
0000
0000
0000
;

//--------------- dance-single - Fred-104 ----------------
#NOTEDATA:;
#STEPSTYPE:dance-single;
#DESCRIPTION:Fred-104;
#DIFFICULTY:Medium;
#METER:12;
#CREDIT:Fred-104;
#NOTES:
0000
0000
0000
0000
,
0000
0000
0000
0000
,
0000
0000
0000
0000
,
0000
0000
0000
0000
,
0000
0000
0000
0000
,
0000
0000
0000
0000
,
0000
0000
0000
0000
,
0000
0000
0000
0000
,
0000
0000
0000
0000
,
2002
0000
0000
0000
,
0000
0000
0000
3003
,
0001
0000
1000
0010
0100
0000
0010
1000
,
0001
0000
0010
0100
1000
0100
0010
0000
,
0001
0000
1000
0001
0100
0000
0001
1000
,
0100
0000
0010
0100
1000
0001
0100
0000
,
0010
1000
0100
0010
,
0001
0100
0010
0000
1000
0001
0010
0000
,
0100
1000
0001
0100
0001
1000
0001
0000
,
1000
1001
0000
0000
0001
0000
0100
0000
,
0001
1000
0100
1000
0001
0000
0100
0010
,
1000
0100
0020
0030
,
0001
1000
0010
1000
0001
0000
0010
0100
,
1000
0000
0001
0000
0100
0010
0100
0000
,
0001
1000
0100
1000
0001
0000
0100
0010
,
1000
0010
0100
0000
0001
1000
0100
0000
,
0010
0100
1000
0001
0100
0000
0010
1000
,
0001
1001
0000
0000
0000
0000
0110
0000
,
1000
0100
0000
1000
0001
0000
1000
0010
,
0000
1000
0001
0000
0010
0000
0100
0000
,
1000
0001
0000
0100
0010
0000
1000
0001
,
0010
0100
0010
0001
,
0100
0001
0000
1000
0001
0000
0010
0001
,
0000
1000
0001
0000
0100
0000
0010
0000
,
1000
0100
0000
0010
0100
0000
1000
0001
,
0100
0100
0010
0000
0100
0000
1001
0000
,
1000
0100
0000
0100
0010
0000
0010
0001
,
0000
0001
1000
0000
0001
1000
0010
0000
,
0100
0001
0000
0001
1000
0000
0010
0100
,
0001
1000
0100
0000
0010
0100
1000
0000
,
0001
0100
0000
0010
1000
0000
0001
0010
,
0000
0100
1000
0000
0010
0100
0001
0000
,
1000
0100
0000
0001
0100
0000
1000
0001
,
0100
0010
1000
0001
0010
0100
1000
0000
,
2002
0000
0000
0000
,
0000
0000
0000
0000
,
3003
0000
0000
0000
,
0000
0000
0000
0000
,
1000
0100
1000
0001
0100
0000
0010
0000
,
1000
0000
0000
0000
,
0001
0100
0010
1000
0001
0000
0010
0000
,
0100
1000
1001
0000
,
1000
0100
0010
0100
1000
0000
0010
0000
,
0100
0000
0000
0000
,
0001
0100
1000
0010
,
0001
1000
0001
0100
0020
0000
0030
0000
,
1100
0101
0220
0330
,
0101
1100
0220
0330
,
1010
0011
2002
3003
,
0011
1010
2002
3003
,
1100
0000
0000
0101
0000
0000
1000
0000
1000
0001
0000
0000
,
1010
0000
0000
0011
0000
0000
1000
0000
1000
0001
0000
0000
,
1000
0000
1000
0100
0000
0100
0010
0000
0010
0001
0000
0001
,
0100
0000
0100
0010
0000
0010
1000
0000
1000
0001
0000
0001
,
0020
0000
0000
0000
,
0000
0000
0000
0030
,
1100
0101
1010
0011
,
1000
0100
1000
0100
0000
0010
0001
0000
0001
0100
0000
0100
,
0020
0000
0000
0030
,
1000
0100
0001
1000
0010
0001
1000
0000
,
0001
0100
0010
1000
0001
0010
0100
0010
,
0100
0010
0001
0000
1000
0010
0100
0000
,
0010
1000
0100
1000
0001
0100
0010
1000
,
0001
0010
0100
0000
1000
0001
0100
0000
,
0002
0010
2003
0100
,
3002
1000
0023
0100
,
0032
0203
0320
2030
,
3001
1001
0000
0000
0000
0000
1100
0000
,
1000
0010
0100
0010
1000
0001
0010
0100
,
1000
0100
0010
0001
1000
0001
0100
0000
,
0001
1000
0100
1000
0010
0100
0010
1000
,
0001
0010
0100
1000
0010
0100
0001
0000
,
2000
0100
3002
0010
,
2003
0001
3020
0100
,
2030
3200
0302
0023
,
1030
0001
1000
0100
0010
0001
1000
0000
,
1001
0000
0000
0000
,
0000
0000
0000
0110
,
1001
0000
0000
0000
,
1010
0000
0001
0100
,
0110
0000
0000
0101
,
1100
0000
0000
1010
,
0011
0000
0110
0000
,
0001
1001
0000
0000
0000
0000
1000
0000
,
0001
0100
0010
0100
0001
0010
0100
0010
,
0100
1000
0010
0100
0010
1000
0001
0000
,
1000
0100
0010
0100
1000
0001
0100
0010
,
0100
0100
0001
1000
0100
0010
0001
0000
,
1000
1000
0000
0000
0001
1000
0010
0100
,
0001
0001
0000
0000
1000
0100
0001
0100
,
2000
3002
0203
0320
,
1030
0000
1000
0100
0000
0100
0010
0000
0010
0001
0000
0001
,
1000
2002
0000
0000
,
0000
0000
0000
0000
,
0000
0000
0000
0000
,
3003
0000
0000
0000
;

//--------------- dance-single - Fred-104 ----------------
#NOTEDATA:;
#STEPSTYPE:dance-single;
#DESCRIPTION:Fred-104;
#DIFFICULTY:Hard;
#METER:16;
#CREDIT:Fred-104;
#NOTES:
0000
0000
0000
0000
,
0000
0000
0000
0000
,
0000
0000
0000
0000
,
0000
0000
0000
0000
,
0000
0000
0000
0000
,
0000
0000
0000
0000
,
0000
0000
0000
0000
,
0000
0000
0000
0000
,
0000
0000
0000
0000
,
2002
0000
0000
0000
,
0000
0000
0000
3003
,
0001
0100
1000
0100
0001
0000
1000
0100
,
0001
0000
0100
0010
0001
0100
0010
1000
,
0001
0100
0010
0001
0010
0000
0100
0001
,
1000
0000
0100
0001
0100
0010
0100
1000
,
0001
0010
1000
0010
0100
1000
0001
0100
,
0010
0001
0010
0100
0010
1000
0001
0010
,
0100
1000
0010
0100
1000
0100
0001
1000
,
0100
0110
0000
0010
0001
1000
1001
0000
,
0001
0100
1000
0100
0001
0000
1000
0100
,
0001
0000
0000
0000
0100
0000
0000
0000
0010
0001
0010
0000
0100
0000
1000
0000
,
0001
0100
1000
0100
0010
0000
0100
0001
,
1000
0000
0100
0000
0010
0000
0000
0000
0001
1000
0001
0000
0100
0000
0010
0000
,
1000
0001
0100
0010
0001
0000
0010
0100
,
0001
0000
1000
0000
0100
0000
0010
0000
0100
1000
0100
0000
0010
0000
0001
0000
,
1000
0010
0001
0010
1000
0001
0010
0100
,
1000
0000
0001
0100
0001
0000
1000
0100
1000
0100
0010
0001
0010
0001
1000
0000
,
0001
0000
0000
0000
0000
0000
0000
0000
0200
0300
0000
0000
0000
0000
0000
0000
0200
0300
0000
0000
0000
0000
0000
0000
1000
0000
0000
0000
0000
0000
0000
0000
0200
0300
0000
0000
0000
0000
0000
0000
0200
0300
0000
0000
0000
0000
0000
0000
0001
0000
0000
0000
0000
0000
0000
0000
0020
0030
0000
0000
0000
0000
0000
0000
,
0020
0030
0000
0000
0000
0000
0000
0000
1000
0000
0000
0000
0000
0000
0000
0000
0020
0030
0000
0000
0000
0000
0000
0000
0020
0030
0000
0000
0000
0000
0000
0000
0001
0000
0000
0000
0000
0000
0000
0000
0010
0000
0000
0000
0000
0000
0000
0000
0100
0000
0000
0000
0000
0000
0000
0000
1000
0000
0000
0000
0000
0000
0000
0000
,
0001
0000
0000
0000
0000
0000
0000
0000
0020
0030
0000
0000
0000
0000
0000
0000
0020
0030
0000
0000
0000
0000
0000
0000
1000
0000
0000
0000
0000
0000
0000
0000
0020
0030
0000
0000
0000
0000
0000
0000
0020
0030
0000
0000
0000
0000
0000
0000
0001
0000
0000
0000
0000
0000
0000
0000
1000
0000
0000
0000
0000
0000
0000
0000
,
0001
0100
1000
0100
0010
0100
0001
1000
,
0001
0010
1000
0001
0100
1000
0001
0100
,
1000
0001
0010
0100
0001
0010
0100
1000
,
0001
0100
0010
0001
1000
0100
0001
1000
,
0100
0000
0110
0000
0010
0000
0001
0000
1000
0010
1000
0010
0100
0000
0001
0000
,
1000
0100
1000
0000
0001
0000
1000
0010
1000
0000
0001
0000
1000
0100
1000
0000
,
0001
0000
1000
0010
1000
0000
0001
0000
0010
0000
0100
0000
1000
0000
0001
0000
,
0100
0010
0100
0000
0001
0000
0010
0100
0010
0000
0001
0000
0100
0010
0100
0000
,
0001
0010
0001
1000
0010
0000
0100
0000
0001
1000
0100
0010
0001
0000
1000
0000
,
0001
0010
0100
0000
1000
0000
0001
0100
0010
0000
1000
0000
0001
0010
0100
0000
,
1000
0000
0001
0100
0010
0000
1000
0000
0001
1000
0010
0000
1000
0001
0100
0000
,
0001
1000
0001
1000
0100
0000
1000
0001
1000
0001
0100
0000
0001
1000
0001
1000
,
0100
0000
1000
0001
0100
0000
0010
1000
0001
0010
0001
0010
0100
1000
0001
0000
,
2002
0000
0000
0000
,
0000
0000
0000
0000
,
3003
0000
0000
0000
,
0000
0000
0000
0000
,
0001
0100
1000
0100
0001
0000
1000
0000
,
0100
0000
0000
0000
,
1000
0010
0001
0010
1000
0000
0001
0000
,
0010
0100
1100
0000
,
1000
0010
0100
1000
0100
0000
0001
0000
,
0010
0000
0000
0000
,
0100
1000
0001
0100
,
0001
0000
0000
0000
0000
0000
0010
0000
0000
0000
0000
0000
0100
0000
0000
0000
0000
0000
1000
0000
0000
0000
0000
0000
0001
0000
0000
0000
0000
0000
0000
0000
0000
0000
0000
0000
2200
0000
0000
0000
0000
0000
0000
0000
0300
3000
0000
0000
,
1100
0000
0000
0101
0000
0000
0011
0000
0010
2000
0000
3000
,
1010
0000
0000
0011
0000
0000
0101
0000
0100
2000
0000
3000
,
1001
0000
0000
0110
0000
0000
1100
0000
0010
0002
0000
0003
,
1001
0000
0000
0110
0000
0000
0011
0000
0100
2000
0000
3000
,
1001
0000
0001
0100
0000
0100
0010
0000
0010
1000
0000
1000
,
0001
0000
0001
0010
0000
0010
0100
0000
0100
1000
0000
1000
,
0001
0010
0100
0001
0100
1000
0001
0100
1000
0100
0010
1000
,
0100
0010
1000
0010
0001
1000
0010
0001
0010
0100
0010
1000
,
0002
0000
0000
0000
,
0000
0000
0000
0003
,
1100
0101
0011
1010
,
1000
0100
0010
0001
0010
0100
1000
0010
0100
0001
0100
0010
,
2000
0000
0000
3000
,
0001
0010
0001
0010
0100
1000
0100
1000
0001
0000
0100
0000
0110
0000
0000
0000
,
1000
0000
0010
0100
0001
0000
1000
0000
0100
0010
0001
0000
1000
0001
0100
0000
,
0001
0000
1000
0100
0010
0000
0001
1000
0010
1000
0001
0000
0100
0010
1000
0000
,
0010
0000
0100
0001
1000
0000
0100
0000
0010
0100
1000
0000
0001
1000
0010
0000
,
0100
0001
1000
0000
0100
0010
0001
0000
1000
0010
1000
0010
0100
0001
0100
0001
,
1000
1000
0001
0100
0010
0010
1000
0001
,
0100
0100
0010
1000
0001
0001
0010
0100
,
1000
0000
0010
0100
0001
0000
0010
0100
1000
0000
0001
0000
0100
0000
0010
0000
,
0100
0000
0001
0010
0100
0000
1000
0001
0100
0001
1000
0000
0100
0010
0001
0000
,
1000
0000
0010
0100
0001
0000
1000
0001
0010
0001
1000
0000
0001
0010
0100
0000
,
1000
0000
0001
1000
0010
0000
0100
0001
1000
0100
0010
0000
0001
1000
0010
0000
,
0100
0000
0010
1000
0001
0000
0010
0000
0100
0010
0001
0000
1000
0001
0010
0000
,
0100
0000
1000
0001
0100
0000
0010
1000
0001
0010
0100
0010
0001
1000
0010
0000
,
0100
0100
0001
1000
0010
0010
0100
0001
,
1000
1000
0100
0010
0001
0001
1000
0001
,
0010
0000
0100
1000
0001
0000
0100
0001
1000
0000
0100
0010
0001
0000
1000
0000
,
0001
0010
0001
0010
0100
1000
0100
1000
0001
0100
0001
0100
0010
1000
0010
1000
,
0001
0000
0000
0000
,
0000
0000
0000
1100
,
0101
0000
0000
0000
,
1010
0000
0011
0110
,
1001
0000
0000
1100
,
0101
0000
0000
0011
,
1010
0000
1001
0000
,
0110
0110
0000
0000
0001
0001
1000
1000
,
0001
1000
0001
1000
0100
0000
0000
0000
0010
0001
1000
0000
0010
1000
0001
0000
,
0010
0100
0010
0100
1000
0000
0000
0000
0001
0100
0010
0000
1000
0001
0010
0100
,
1000
0000
0001
0000
0100
0000
0010
0000
0100
0001
1000
0000
0001
0010
0100
1000
,
0001
0000
0100
0010
0100
0000
0001
1000
0100
1000
0001
0100
0010
1000
0010
0100
,
0001
0000
1001
0000
0000
0000
0000
0000
1000
0000
0001
0010
0100
0000
1000
0001
,
0100
0000
0110
0000
0000
0000
0000
0000
0001
0000
1000
0001
0100
0000
0001
1000
,
0100
0000
1000
0001
0100
0000
1000
0100
0001
0000
1000
0100
0010
0000
0001
0000
,
1000
0001
0100
1000
0100
0010
1000
0100
0010
1000
0010
0001
,
1000
2002
0000
0000
,
0000
0000
0000
0000
,
0000
0000
0000
0000
,
3003
0000
0000
0000
;

//--------------- dance-single - Fred-104† ----------------
#NOTEDATA:;
#STEPSTYPE:dance-single;
#DESCRIPTION:Fred-104†;
#DIFFICULTY:Challenge;
#METER:18;
#CREDIT:Fred-104†;
#NOTES:
0000
0000
0000
0000
,
0000
0000
0000
0000
,
0000
0000
0000
0000
,
0000
0000
0000
0000
,
0000
0000
0000
0000
,
0001
0000
0000
0000
,
1000
0000
0000
0000
,
0001
0000
0000
0000
,
1000
0100
0001
0010
,
2002
0000
0000
0000
,
0000
0000
0000
3003
,
1000
0010
0100
1000
0100
0000
0001
1000
,
0100
0000
0010
0001
0100
0010
0001
0010
,
1000
0001
0010
0100
0001
0000
0100
0010
,
0001
0000
0100
0010
1000
0001
0011
0000
,
1000
0000
0100
0000
0001
0000
0100
0000
0010
1000
0010
0000
0001
0000
1000
0000
,
0001
0000
0100
0000
1000
0000
0100
0000
0010
0001
0010
0000
1000
0000
0001
0000
,
0010
0000
0100
0000
0001
0000
1000
0000
0010
0100
1000
0000
0001
0000
0010
0000
,
0100
0000
0000
1100
0000
0000
0000
0000
0000
0000
0000
0000
1000
0000
0000
0100
0010
0001
1000
0000
0000
0001
0100
0001
,
1000
0100
0001
0100
0010
0100
1000
0001
,
0100
0000
1000
0000
0100
0000
0010
0000
1000
0001
0010
0000
0100
0000
0000
0000
,
0010
0001
0100
0010
0001
0010
0100
0010
,
1000
0000
0001
0000
0010
0000
1000
0000
0010
0001
0010
0000
0100
0000
1000
0000
,
0001
0100
1000
0100
0010
0001
0010
1000
,
0001
0000
0010
0000
1000
0000
0010
0000
0100
0001
0100
0000
1000
0000
0001
0000
,
1001
1000
0100
0010
0011
0001
1000
0001
,
0100
0110
0000
0000
0000
0000
1001
0000
,
0001
0100
0001
0100
0010
0000
1000
0100
1000
0100
0010
0000
0001
0010
0001
0010
,
0100
0000
1000
0010
1000
0010
0100
0000
0001
1000
0100
0010
0001
0100
0010
1000
,
0001
0010
0001
0010
0100
0000
1000
0010
1000
0010
0100
0000
0001
1000
0100
1000
,
0001
0100
0010
1000
0010
0100
0001
1000
0100
1000
0001
0100
0001
1000
0100
0010
,
0100
1000
0100
1000
0001
0000
0100
0001
0100
0001
1000
0000
0010
1000
0010
1000
,
0001
0000
0010
0001
0010
0001
1000
0000
0001
0010
0100
1000
0001
0100
0001
1000
,
0100
0010
0100
0010
0001
0000
0100
0010
0100
0010
1000
0000
0010
0100
0010
0100
,
0001
0000
1000
0100
1000
0001
0100
0010
0001
0010
0100
0001
1000
0001
0010
0100
,
1000
0100
0010
0001
1000
0000
0001
0100
0010
1000
0001
0000
0010
0100
1000
0001
,
0100
0000
0010
1000
0001
0010
0100
0000
1000
0001
0100
0010
1000
0001
0010
0001
,
1000
0100
0010
0001
1000
0000
0010
0100
0001
1000
0010
0000
0100
0001
1000
0001
,
0010
0100
1000
0001
0100
0010
1000
0010
0100
0001
1000
0100
0010
0001
1000
0001
,
1000
0010
1000
0010
0100
0000
1000
0100
1000
0100
0001
0000
1000
0100
1000
0100
,
0010
0000
1000
0010
1000
0010
0001
0000
1000
0001
0100
0010
1000
0001
0010
0100
,
1000
0100
0001
0100
1000
0000
0001
0100
1000
0100
0001
0000
1000
0010
0001
0010
,
1000
0001
0100
0010
1000
0001
0010
0100
1000
0100
0010
0001
0100
0010
1000
0001
,
0020
0000
0000
0000
,
0000
0000
0000
0000
,
0030
0000
0000
0000
,
0000
0000
0000
0000
,
1000
0100
0001
0100
0010
0000
0001
0000
,
1000
0000
0000
0000
,
0001
0100
0010
0001
0010
0000
0100
0000
,
0001
1000
1001
0000
,
1000
0100
0001
0010
1000
0000
0100
0000
,
0010
0000
0000
0000
,
0001
0100
1000
0010
,
0001
0000
0000
0100
0000
0000
1000
0000
0000
0010
0000
0000
0001
0000
0000
0000
0000
0000
2002
0000
0000
0000
0000
3003
,
1100
0000
0000
0101
0000
0000
1100
0000
0001
1001
0000
0000
,
0011
0000
0000
1010
0000
0000
0011
0000
1000
1001
0000
0000
,
1100
0000
0000
0101
0000
0000
0011
0000
0010
1010
0000
0000
,
0011
0000
0000
1010
0000
0000
1100
0000
0100
0101
0000
0000
,
1001
0000
0001
0010
0000
1000
0010
0000
0001
0100
0000
1000
,
0100
0000
0001
1000
0000
0100
0001
0000
1000
0010
0000
0001
,
1000
0100
0100
0001
0100
0100
1000
0010
0010
0001
0010
0010
,
1000
0100
0001
1000
0010
0001
1000
0010
0001
1000
0100
0001
,
2000
0000
0000
0000
,
0000
0000
0000
3000
,
1100
0101
0011
1010
,
1000
0010
0100
1000
0001
0010
1000
0001
0100
1000
0001
0010
,
0200
0000
0000
0300
,
0001
0010
0100
1000
0100
0010
0001
1000
0001
0000
1000
0000
1001
0000
0000
0000
,
1000
0000
0100
0010
0001
0000
1000
0000
0010
1000
0001
0100
0010
0000
0100
0001
,
1000
0000
0001
0010
0100
1000
0001
0100
0010
0100
0001
1000
0100
0010
0100
0000
,
0010
0000
0001
0010
0100
0000
1000
0000
0010
0100
0001
1000
0100
0000
0010
0000
,
0001
1000
0010
1000
0001
0100
0001
1000
0100
0010
0001
0010
0100
1000
0001
0100
,
0020
1000
0130
0001
2000
0100
3001
0010
,
0200
1000
0310
0001
2000
0001
3010
0100
,
0002
0010
2003
0100
3002
0010
2003
0100
,
3001
1001
0000
0000
0000
0000
0110
0000
,
1000
0100
1000
0001
0100
0000
0010
0100
0001
0100
0010
1000
0001
0000
0010
0100
,
1000
0001
0100
0010
1000
0100
0010
0001
0010
0100
0010
0001
1000
0010
0100
0000
,
0001
0010
0100
0010
0001
0000
0100
0010
1000
0010
0100
0001
0010
0100
1000
0001
,
0100
0000
0010
1000
0001
0000
0010
0100
1000
0001
0100
0001
0100
0010
1000
0001
,
1000
0000
0100
0010
0001
0000
0100
0010
1000
0000
0001
0010
0100
0000
1000
0000
,
0001
0000
0100
0010
1000
0000
0001
0010
1000
0000
0010
0001
1000
0000
0010
0000
,
0100
0000
0001
0100
1000
0000
0100
0010
1000
0000
0001
0010
1000
0000
0010
0100
,
1000
0001
0100
0001
1000
0010
0100
0001
0100
0010
1000
0100
0010
0001
1000
0001
,
0100
0000
0000
0000
,
0000
0000
0000
1100
,
0101
0000
0000
0000
,
0011
0000
1010
0110
,
1001
0000
0000
0110
,
1001
0000
0000
0110
,
1001
0000
0110
0000
,
0001
0100
0010
1000
0001
0010
0100
0010
0001
1000
0010
0100
0010
1000
0001
0010
,
0100
1000
0001
1000
0010
0000
0100
0001
1000
0001
0010
0000
0100
0010
0001
0000
,
0100
0001
1000
0001
0010
0000
0100
1000
0010
1000
0001
0100
0010
1000
0001
0010
,
0200
1000
0010
0310
0002
0100
1000
1003
,
0110
0000
1001
0000
0000
0000
0000
0000
0001
0100
0010
1000
0001
0010
0100
1000
,
0001
0100
0010
1000
0001
0000
0010
0000
0100
0000
1000
0010
0001
0000
0001
0010
,
1000
0001
0010
0100
1000
0000
0001
0000
1000
0000
0001
0100
1000
0000
1000
0100
,
0001
0000
0001
0010
1000
0000
1000
0010
0001
0000
0100
0010
1000
0000
0001
0000
,
1000
0000
0010
0000
0001
0000
1000
0000
0100
0000
0001
0000
1000
0000
0100
0000
0010
0001
1000
0000
0010
0000
0100
0001
,
1000
2002
0000
0000
,
0000
0000
0000
0000
,
0000
0000
0000
0000
,
3003
0000
0000
0000
;

//--------------- dance-double - Fred-104 ----------------
#NOTEDATA:;
#STEPSTYPE:dance-double;
#DESCRIPTION:Fred-104;
#DIFFICULTY:Easy;
#METER:7;
#CREDIT:Fred-104;
#NOTES:
00000000
00000000
00000000
00000000
,
00000000
00000000
00000000
00000000
,
00000000
00000000
00000000
00000000
,
00000000
00000000
00000000
00000000
,
00000000
00000000
00000000
00000000
,
00000000
00000000
00000000
00000000
,
00000000
00000000
00000000
00000000
,
00000000
00000000
00000000
00000000
,
00000000
00000000
00000000
00000000
,
20020000
00000000
00000000
00000000
,
00000000
00000000
00000000
30030000
,
10000000
00000000
01000000
00000000
,
00010000
00001000
00010000
00000000
,
00001000
00000000
00010000
00000000
,
00001000
00000100
00000001
00001000
,
00000001
00000000
00000010
00000000
,
00000100
00000010
00000001
00001000
,
00000010
00010000
00001000
00010000
,
00001000
00001000
00000000
00000000
00000000
00000000
00011000
00000000
,
00001000
00010000
01000000
00100000
,
01000000
00000000
10000000
00000000
,
00010000
01000000
00100000
00010000
,
00001000
00000000
00100000
00000000
,
00001000
00010000
00001000
00000010
,
00001000
00010000
00001000
00000000
,
00010000
00000010
00010000
00001000
,
00011000
00000000
00000110
00000000
,
00000001
00000000
00000000
00000100
00000000
00000000
00001000
00000000
,
00000000
00010000
00000000
00000000
01000000
00000000
10000000
00000000
,
00010000
00000000
00000000
10000000
00000000
00000000
00010000
00000000
,
01000000
00100000
00010000
00001000
,
00000100
00000000
00000000
00000001
00000000
00000000
00001000
00000000
,
00000000
00000100
00000000
00000000
00000010
00000000
00000001
00000000
,
00001000
00000000
00000000
00000100
00000000
00000000
00010000
00000000
,
00001000
00001000
00000000
00000000
01000000
00000000
00010000
00000000
,
10000000
00000000
00000000
00100000
00000000
00000000
00010000
00000000
,
00000000
00001000
00000000
00000000
00000010
00000000
00000001
00000000
,
00001000
00000000
00000000
00000010
00000000
00000000
00000100
00000000
,
00001000
00010000
00100000
01000000
,
00010000
00000000
00000000
10000000
00000000
00000000
01000000
00000000
,
00000000
00100000
00000000
00000000
00001000
00000000
00010000
00000000
,
00001000
00000000
00000000
00100000
00000000
00000000
00001000
00000000
,
00010000
00000000
00000010
00000000
00001000
00000010
00001000
00000000
,
00002002
00000000
00000000
00000000
,
00000000
00000000
00000000
00000000
,
00003003
00000000
00000000
00000000
,
00000000
00000000
00000000
00000000
,
00000001
00000100
00001000
00010000
,
00001000
00000000
00000000
00000000
,
00010000
00001000
00010000
00100000
,
10000000
01000000
00100000
00000000
,
00001000
00010000
00100000
01000000
,
00010000
00000000
00000000
00000000
,
10000000
00100000
00010000
00001000
,
00000100
00000001
00001001
00000000
,
00000101
00000100
00000110
00000000
,
00011000
00001000
00101000
00000000
,
01100000
00100000
10100000
00000000
,
11000000
01000000
01100000
00000000
,
10000000
10000000
01000000
01000000
,
00010000
00010000
00001000
00001000
,
00010000
00001000
00000100
00000001
,
00001000
00000100
00000010
00000001
,
00002002
00000000
00000000
00000000
,
00000000
00000000
00000000
00003003
,
00000001
00000001
00001000
00001000
,
00000100
00000010
00010000
00001000
,
00022000
00000000
00000000
00033000
,
00001000
00010000
00011000
00000000
,
00001000
00010000
00100000
01000000
,
00010000
10000000
01000000
00100000
,
01000000
10000000
00010000
00000000
,
10000000
00000000
00100000
00000000
,
00010000
00000000
00001000
00000000
,
00010000
00010000
00001000
00001000
,
00011000
00000000
00001000
00010000
,
00001000
00010000
00000010
00001000
,
00000001
00000010
00000100
00000000
,
00010000
00001000
00000100
00000001
,
00000010
00001000
00010000
00000000
,
00001000
00000000
00010000
00000000
,
00100000
00000000
01000000
00000000
,
00010000
00010000
10000000
10000000
,
00100000
00100000
01000000
01000000
,
00010000
10000000
00010000
00000000
00100000
00001000
00100000
00000000
,
00011000
00000000
00000000
00000000
,
00000000
00000000
00000000
00000010
,
00010010
00000000
00000000
00000000
,
00101000
00000000
00001000
01000000
,
01100000
00000000
00000000
10000000
,
11000000
00000000
00000000
00100000
,
00110000
00000000
01001000
00000000
,
00011000
00000000
00000000
00000000
,
00001000
00000000
00010000
00100000
,
01000000
00000000
00010000
10000000
,
00010000
10000000
01000000
00100000
,
00001000
00010000
00001000
00000000
,
00011000
00000000
00000010
00000000
,
00000110
00000000
00000100
00000000
,
00000001
00000010
00001000
00010000
,
00002000
00003200
00000302
00002003
,
00003000
00002002
00000000
00000000
,
00000000
00000000
00000000
00000000
,
00000000
00000000
00000000
00000000
,
00003003
00000000
00000000
00000000
;

//--------------- dance-double - Fred-104 ----------------
#NOTEDATA:;
#STEPSTYPE:dance-double;
#DESCRIPTION:Fred-104;
#DIFFICULTY:Medium;
#METER:12;
#CREDIT:Fred-104;
#NOTES:
00000000
00000000
00000000
00000000
,
00000000
00000000
00000000
00000000
,
00000000
00000000
00000000
00000000
,
00000000
00000000
00000000
00000000
,
00000000
00000000
00000000
00000000
,
00000000
00000000
00000000
00000000
,
00000000
00000000
00000000
00000000
,
00000000
00000000
00000000
00000000
,
00000000
00000000
00000000
00000000
,
00002002
00000000
00000000
00000000
,
00000000
00000000
00000000
00003003
,
00000001
00000000
00001000
00000001
00000100
00000000
00001000
00010000
,
00100000
00000000
01000000
00010000
10000000
01000000
00100000
00000000
,
00001000
00000000
00010000
00001000
01000000
00000000
00001000
00010000
,
00001000
00000000
01000000
00100000
00010000
00001000
00000100
00000000
,
00000010
00001000
00000001
00000010
,
00000100
00010000
00001000
00100000
,
00010000
01000000
00100000
10000000
01000000
00100000
00001000
00010000
,
00001000
00011000
00000000
00000000
00001000
00000000
00100000
00000000
,
00001000
00010000
00100000
01000000
00100000
00000000
10000000
00010000
,
00100000
01000000
00200000
00300000
,
00001000
00010000
00000010
00001000
00000001
00000000
00000010
00000100
,
00001000
00000000
00000100
00000000
00010000
00001000
00010000
00000000
,
00001000
01000000
00010000
10000000
01000000
00000000
00100000
00001000
,
00010000
00001000
00000010
00000000
00000001
00000010
00000100
00000000
,
00001000
00000001
00000100
00001000
00010000
00000000
00100000
01000000
,
00010000
10010000
00000000
00000000
00000000
00000000
01100000
00000000
,
10000000
01000000
00000000
00100000
00001000
00000000
00010000
00000010
,
00000000
00001000
00000001
00000000
00000100
00000000
00000010
00000000
,
00001000
00000001
00000000
00000010
00000100
00000000
00010000
00001000
,
00010000
00100000
01000000
00010000
,
10000000
01000000
00000000
00100000
00001000
00000000
00010000
00100000
,
00000000
01000000
00010000
00000000
10000000
00000000
00010000
00000000
,
00100000
01000000
00000000
00100000
00001000
00000000
00010000
00001000
,
00010000
00010000
00001000
00000000
00010000
00000000
00011000
00000000
,
00010000
00001000
00000000
00000010
00001000
00000000
00010000
00001000
,
00000000
00000100
00001000
00000000
00010000
00001000
00100000
00000000
,
00001000
00010000
00000000
00100000
00010000
00000000
00001000
00010000
,
00100000
10000000
00100000
00000000
01000000
00010000
10000000
00000000
,
01000000
00100000
00000000
00001000
00010000
00000000
00000100
00000010
,
00000000
00000001
00001000
00000000
00000001
00000100
00001000
00000000
,
00010000
01000000
00000000
10000000
00010000
00000000
01000000
00001000
,
00010000
00001000
00100000
00010000
10000000
00010000
01000000
00000000
,
20020000
00000000
00000000
00000000
,
00000000
00000000
00000000
00000000
,
30030000
00000000
00000000
00000000
,
00000000
00000000
00000000
00000000
,
10000000
01000000
10000000
01000000
00100000
00000000
00001000
00000000
,
00010000
00000000
00000000
00000000
,
00010000
00001000
00010000
00001000
00000010
00000000
00000001
00000000
,
00001000
00000100
00000110
00000000
,
00000001
00000100
00001000
00010000
00001000
00000000
00010000
00000000
,
01000000
00000000
00000000
00000000
,
10000000
00010000
01000000
00100000
,
10000000
01000000
00100000
00001000
00020000
00000000
00030000
00000000
,
00011000
00010010
00022000
00033000
,
00011000
00101000
00022000
00033000
,
00011000
00010100
00022000
00033000
,
00011000
01001000
00022000
00033000
,
00010000
00001000
00000010
00000011
,
00000001
00000100
00001000
00011000
,
00001000
00000000
00001000
00010000
00000000
00010000
00100000
00000000
00100000
10000000
00000000
10000000
,
00010000
00000000
00010000
00100000
00000000
00100000
00001000
00000000
00001000
00010000
00000000
00010000
,
00002000
00000000
00000000
00000000
,
00000000
00000000
00000000
00003000
,
00010100
01001000
00010010
00101000
,
00001000
00000000
00001000
00010000
00000000
00010000
00100000
00000000
00100000
10000000
00010000
10000000
,
02000000
00000000
00000000
03000000
,
10000000
01000000
00010000
00001000
00010000
01000000
10000000
00000000
,
00010000
00100000
01000000
00100000
00001000
00010000
00001000
00000000
,
01000000
00001000
00010000
00001000
00000100
00000001
00001000
00000000
,
00000010
00000100
00001000
00010000
00100000
01000000
00010000
00000000
,
10000000
01000000
00100000
00001000
00010000
00001000
00010000
00000000
,
00001000
00000000
00010000
00000010
00001000
00000000
00000001
00000010
,
00000100
00000000
00010000
00001000
00000100
00000000
00000001
00000010
,
00002000
00023000
00230000
20300000
,
31000000
01100000
00000000
00000000
00000000
00000000
00011000
00000000
,
00010000
00001000
01000000
00001000
00010000
00001000
00100000
00001000
,
00010000
00000100
00001000
00000100
00000010
00000100
00001000
00000000
,
00000010
00010000
00001000
00010000
00100000
01000000
00100000
00010000
,
00001000
00010000
00001000
01000000
00010000
01000000
00100000
00000000
,
10000000
00000000
01000000
00100000
00001000
00000000
00010000
00000100
,
00001000
00000000
00000100
00000010
00000001
00001000
00000010
00000000
,
00002000
00003200
00000302
00000023
,
00001030
00000001
00000100
00001000
00010000
01000000
10000000
00000000
,
10010000
00000000
00000000
00000000
,
00000000
00000000
00000000
10100000
,
01010000
00000000
00000000
00000000
,
00011000
00000000
00010000
00000100
,
00000110
00000000
00000000
00001100
,
00000011
00000000
00000000
00010010
,
00101000
00000000
00011000
00000000
,
01000000
01100000
00000000
00000000
00000000
00000000
00010000
00000000
,
10000000
00100000
10000000
00100000
00010000
00001000
00010000
00001000
,
00000010
00000001
00001000
00000010
00000100
00000001
00001000
00000000
,
00000001
00000010
00000001
00000010
00001000
00010000
00100000
10000000
,
00010000
00010000
10000000
01000000
00100000
00001000
00010000
00000000
,
00001000
00001000
00000000
00000000
00010000
00001000
00000100
00000001
,
00000010
00000010
00000000
00000000
00000001
00000100
00001000
00010000
,
00002000
00023000
00230000
02300000
,
03010000
00000000
10000000
01000000
00000000
00100000
00001000
00000000
00010000
00001000
00000000
01000000
,
00100000
20020000
00000000
00000000
,
00000000
00000000
00000000
00000000
,
00000000
00000000
00000000
00000000
,
30030000
00000000
00000000
00000000
;

//--------------- dance-double - Fred-104 ----------------
#NOTEDATA:;
#STEPSTYPE:dance-double;
#DESCRIPTION:Fred-104;
#DIFFICULTY:Hard;
#METER:17;
#CREDIT:Fred-104;
#NOTES:
00000000
00000000
00000000
00000000
,
00000000
00000000
00000000
00000000
,
00000000
00000000
00000000
00000000
,
00000000
00000000
00000000
00000000
,
00000000
00000000
00000000
00000000
,
00000000
00000000
00000000
00000000
,
00000000
00000000
00000000
00000000
,
00000000
00000000
00000000
00000000
,
00000000
00000000
00000000
00000000
,
00022000
00000000
00000000
00000000
,
00000000
00000000
00000000
00033000
,
00010000
00001000
00000010
00000100
00001000
00000000
00000010
00000100
,
00000001
00000000
00001000
00000010
00000100
00001000
00010000
00100000
,
01000000
00010000
10000000
01000000
00001000
00000000
00000100
00000010
,
00000001
00000000
00001000
00000010
00000100
00001000
00010000
00100000
,
01000000
00010000
10000000
00010000
00100000
00000000
01000000
00100000
,
00001000
00000000
00000100
00000001
00001000
00000100
00000010
00000001
,
00000100
00001000
00010000
00100000
01000000
00010000
10000000
01000000
,
00100000
00110000
00000000
00001000
00010000
00001000
00011000
00000000
,
00010000
00001000
00000100
00000001
00001000
00000000
00000001
00000010
,
00000100
00000000
00000000
00000000
00010000
00000000
00000000
00000000
00001000
01000000
00001000
00000000
00010000
00000000
00000000
00000000
,
00001000
00010000
01000000
10000000
00010000
00000000
01000000
00100000
,
00010000
00000000
00001000
00000000
00000100
00000000
00000010
00000000
00010000
00001000
00010000
00000000
00001000
00000000
00000010
00000000
,
00000001
00001000
00000100
00000010
00000001
00000000
00000100
00001000
,
00010000
00000000
00001000
00000000
00010000
00000000
00100000
00000000
01000000
00010000
01000000
00000000
00010000
00000000
10000000
00000000
,
01000000
00100000
00001000
00010000
00001000
00000100
00000001
00001000
,
00000100
00000010
00001000
00010000
00100000
10000000
00010000
00000000
,
10000000
01000000
00010000
00001000
00000010
00000001
00000001
00000100
,
00001000
00010000
00100000
10000000
00010000
10000000
01000000
00000000
,
10000000
00100000
00010000
00001000
00000100
00000001
00001000
00000100
,
00000010
00000001
00000100
00001000
00010000
00100000
01000000
00010000
,
10000000
00100000
00010000
00001000
00000100
00000001
00000001
00000010
,
00001000
00010000
01000000
10000000
00010000
10000000
00100000
00000000
,
10000000
01000000
00010000
00001000
00000010
00000001
00001000
00000010
,
00000100
00000000
00000101
00000000
00000001
00000000
00001000
00000000
00000001
00000010
00000100
00000010
00000001
00000000
00001000
00000000
,
00000001
00000100
00000010
00000000
00001000
00000000
00000001
00000010
00000100
00000000
00010000
00000000
00001000
01000000
00010000
00000000
,
10000000
00000000
01000000
00100000
00010000
00000000
10000000
00000000
01000000
00100000
00001000
00000000
00010000
00000010
00001000
00000000
,
00000001
00001000
00000100
00000000
00010000
00000000
00001000
01000000
00010000
00000000
10000000
00000000
01000000
00100000
00001000
00000000
,
00010000
00000100
00001000
00000000
00000001
00001000
00000100
00000000
00000010
00000001
00001000
00000000
00000010
00000100
00000001
00000000
,
00001000
00000001
00000010
00000000
00000100
00000000
00010000
00001000
00100000
00000000
01000000
00000000
10000000
00010000
01000000
00000000
,
00001000
00000000
00010000
00000100
00001000
00000000
00000001
00000000
00001000
00000010
00010000
00000000
00001000
01000000
00100000
00000000
,
10000000
00010000
00100000
01000000
10000000
00000000
00010000
01000000
00001000
00010000
00000100
00000000
00010000
00001000
00010000
00000010
,
00001000
00000000
00000001
00000010
00000100
00000000
00010000
00001000
00100000
00010000
10000000
00010000
01000000
00001000
00010000
00000000
,
00022000
00000000
00000000
00000000
,
00000000
00000000
00000000
00000000
,
00033000
00000000
00000000
00000000
,
00000000
00000000
00000000
00000000
,
00001000
00010000
01000000
10000000
00100000
00000000
00010000
00000000
,
00001000
00000000
00000000
00000000
,
00010000
00001000
00000100
00000001
00000010
00000000
00001000
00000000
,
00010000
00001000
00011000
00000000
,
00010000
00001000
00000010
00000001
00000100
00000000
00001000
00000000
,
00010000
00000000
00000000
00000000
,
00001000
00010000
00100000
10000000
,
01000000
00000000
00010000
00000000
00001000
00000000
00010000
00000000
00001000
00000000
00000000
00000000
00022000
00000000
00000000
00033000
,
00010010
00000000
00000000
00011000
00000000
00000000
01001000
00000000
00001000
00020000
00000000
00030000
,
00101000
00000000
00000000
00011000
00000000
00000000
00010100
00000000
00010000
00002000
00000000
00003000
,
01001000
00000000
00000000
00011000
00000000
00000000
00010010
00000000
00010000
00002000
00000000
00003000
,
00010100
00000000
00000000
00011000
00000000
00000000
00101000
00000000
00001000
00020000
00000000
00030000
,
00011000
00000000
00001000
00100000
00000000
00100000
01000000
00000000
01000000
10000000
00000000
10000000
,
00100000
00000000
00100000
00010000
00000000
00010000
00001000
00000000
00001000
00000100
00000000
00000100
,
00000001
00001000
00000100
00000010
00000001
00000100
00000010
00000100
00001000
00010000
00100000
01000000
,
00100000
10000000
00010000
00100000
01000000
00100000
00010000
10000000
01000000
00010000
00001000
00000010
,
00000002
00000000
00000000
00000000
,
00000000
00000000
00000000
00000003
,
00000001
00010000
00001000
10000000
,
00010000
10000000
01000000
00010000
00001000
00000010
00000001
00001000
00000010
00000100
00001000
00010000
,
00002000
00000000
00000000
00003000
,
00010000
00001000
00010000
00000010
00001000
00000010
00010000
00001000
00010000
00000000
00001000
00000000
00011000
00000000
00000000
00000000
,
00001000
00010000
00100000
01000000
00010000
00100000
01000000
00010000
,
00001000
00000000
00000010
00000000
00000100
00000000
00001000
00000000
00000100
00001000
00000010
00010000
00001000
00010000
00001000
00000000
,
01000000
00001000
00010000
00100000
00010000
00001000
00000100
00000010
,
00001000
00000000
00000100
00000000
00000010
00000000
00000100
00000000
00010000
00001000
01000000
00010000
01000000
00001000
00010000
00001000
,
00100000
01000000
00010000
00001000
00010000
00001000
00000010
00000100
,
00001000
00000010
00000100
00001000
00010000
00100000
01000000
00010000
,
10000000
00000000
00010000
00100000
01000000
00000000
10000000
01000000
00100000
00000000
00001000
00000000
00010000
00000000
00001000
00000000
,
00000100
00000000
00000001
00000000
00000100
00000000
00000010
00000000
00001000
00000001
00000010
00000100
00001000
00000100
00010000
00000000
,
00001000
00010000
01000000
00100000
00010000
01000000
00100000
00001000
,
00000010
00000000
00000100
00000000
00000001
00000000
00001000
00000000
00000100
00010000
00001000
01000000
00010000
10000000
00010000
00000000
,
00100000
01000000
10000000
01000000
00010000
00000100
00000010
00000100
,
00010000
00000000
00001000
00000000
00000100
00000000
00000001
00000000
00001000
00000001
00000010
00000100
00010000
00001000
01000000
00001000
,
00010000
00100000
01000000
00010000
00100000
01000000
00010000
00001000
,
00000100
00000010
00001000
00000100
00000010
00001000
00010000
00001000
,
01000000
00000000
00001000
00100000
00010000
00000000
10000000
01000000
00010000
00000000
00001000
00010000
01000000
00000000
00100000
00000000
,
00010000
10000000
00100000
01000000
00001000
00010000
00000010
00001000
00000001
00000010
00000100
00001000
00000001
00000100
00000010
00001000
,
00000001
00000000
00000000
00000000
,
00000000
00000000
00000000
00010010
,
01001000
00000000
00000000
00000000
,
00011000
00000000
00010100
00101000
,
01100000
00000000
00000000
11000000
,
01010000
00000000
00000000
10100000
,
00110000
00000000
00011000
00000000
,
00001001
00001001
00000000
00000000
00000001
00000001
00001000
00001000
,
00000001
00001000
00000100
00001000
00000001
00000000
00000000
00000000
00000010
00000100
00001000
00000000
00000100
00010000
00001000
00000000
,
01000000
00001000
00010000
00001000
00100000
00000000
00000000
00000000
00010000
10000000
00100000
00000000
10000000
00010000
01000000
00000000
,
00100000
00000000
10000000
00000000
01000000
00000000
00100000
00000000
00001000
00010000
00001000
00000000
00010000
00000010
00001000
00000000
,
00000001
00000000
00000010
00000100
00001000
00000000
00000001
00001000
00000100
00010000
00001000
01000000
00010000
10000000
01000000
00000000
,
00100000
00000000
00110000
00000000
00100000
00000000
00001000
00010000
00000010
00000000
00001000
00000001
00000100
00000000
00000001
00000010
,
00000100
00000000
00001100
00000000
00000100
00000000
00000010
00000001
00000100
00000000
00000010
00001000
00000001
00000000
00001000
00000001
,
00000100
00000000
00000010
00010000
00001000
00000000
00010000
00100000
01000000
00000000
00010000
10000000
01000000
00000000
00100000
00000000
,
00010000
10000000
01000000
00010000
00001000
00000010
00000001
00001000
00000001
00000100
00001000
00010000
,
00001000
00022000
00000000
00000000
,
00000000
00000000
00000000
00000000
,
00000000
00000000
00000000
00000000
,
00033000
00000000
00000000
00000000
;

//--------------- dance-double - Fred-104† ----------------
#NOTEDATA:;
#STEPSTYPE:dance-double;
#DESCRIPTION:Fred-104†;
#DIFFICULTY:Challenge;
#METER:18;
#CREDIT:Fred-104†;
#NOTES:
00000000
00000000
00000000
00000000
,
00000000
00000000
00000000
00000000
,
00000000
00000000
00000000
00000000
,
00000000
00000000
00000000
00000000
,
00000000
00000000
00000000
00000000
,
00010000
00000000
00000000
00000000
,
00001000
00000000
00000000
00000000
,
00010000
00000000
00000000
00000000
,
00001000
00010000
00100000
10000000
,
20020000
00000000
00000000
00000000
,
00000000
00000000
00000000
30030000
,
10000000
00100000
00001000
00000010
00000100
00000000
00000001
00001000
,
00000100
00000000
00000010
00000001
00001000
00000001
00000100
00010000
,
01000000
00100000
01000000
00010000
10000000
00000000
01000000
00100000
,
00001000
00000000
00010000
00001000
00000010
00000001
00000010
00000100
,
00001000
00000010
00000100
00010000
01000000
00010000
10000000
01000000
,
00100000
01000000
00010000
00001000
00000010
00000001
00001000
00000100
,
00000010
00001000
00010000
01000000
10000000
00010000
01000000
00001000
,
00010000
00000000
00011000
00000000
00000000
00000000
00000000
00000000
00001000
00000000
00010000
00000100
00001000
00000000
00000001
00001000
,
00000100
00000010
00000001
00000100
00001000
00010000
00100000
01000000
,
00010000
00000000
00000000
00000000
00100000
00000000
01000000
00000000
10000000
01000000
00100000
00000000
00001000
00000000
00000000
00000000
,
00010000
00001000
00010000
01000000
00100000
00001000
00010000
00001000
,
00000100
00000000
00000001
00000000
00000100
00000000
00001000
00000000
00010000
00100000
01000000
00000000
00010000
00000000
10000000
00000000
,
01000000
00100000
00001000
00000010
00000100
00001000
00010000
01000000
,
00100000
00000000
01000000
00000000
00001000
00000000
00010000
00000000
00001000
00000100
00000010
00000000
00001000
00000000
00000001
00000000
,
00000010
00001000
00100000
01000000
10000000
00010000
01000000
00001000
,
00010000
00010100
00000000
00000000
00000000
00000000
00011000
00000000
,
00010000
00000010
00001000
00000010
00010000
00000000
00001000
00100000
00010000
00100000
00001000
00000000
00010000
00000100
00001000
00000100
,
00010000
00000000
00001000
01000000
00010000
01000000
00001000
00000000
00010000
00000100
00001000
00000001
00000100
00000010
00001000
00000000
,
00000001
00000010
00000100
00000010
00000001
00000000
00001000
00000010
00000100
00000010
00001000
00000000
00000001
00000010
00000100
00001000
,
00000001
00000100
00000010
00000100
00001000
00010000
00100000
01000000
00100000
10000000
00010000
00100000
01000000
10000000
00010000
00000000
,
10000000
01000000
10000000
00010000
01000000
00000000
00001000
00010000
00000100
00001000
00000001
00000000
00000010
00000001
00001000
00000010
,
00010000
00000000
00001000
00100000
00010000
10000000
00100000
00000000
01000000
00010000
10000000
01000000
00100000
00001000
00010000
00000000
,
00001000
00010000
00000010
00001000
00000001
00000000
00000010
00000100
00001000
00000100
00010000
00000000
00001000
00100000
00010000
10000000
,
00100000
00000000
01000000
00010000
10000000
01000000
00100000
00001000
00010000
00000010
00001000
00000001
00000010
00000100
00001000
00000000
,
00000001
00000010
00000100
00010000
00001000
00000000
00100000
00010000
10000000
00100000
01000000
00000000
00001000
00010000
00100000
10000000
,
00010000
00000000
01000000
00100000
10000000
00010000
00100000
00000000
01000000
00100000
00001000
00010000
00000010
00001000
00000010
00010000
,
00000010
00000100
00000010
00001000
00000001
00000000
00000010
00000100
00001000
00000001
00000100
00000000
00001000
00010000
00100000
01000000
,
00010000
10000000
01000000
00100000
00010000
01000000
00001000
00010000
00000010
00001000
00000010
00010000
00001000
00010000
00000010
00001000
,
00000001
00000100
00000010
00000100
00001000
00000000
00010000
00100000
01000000
00100000
10000000
00000000
10000000
01000000
00100000
01000000
,
00010000
00000000
00001000
00000010
00000100
00000010
00000001
00000000
00000001
00000100
00000010
00001000
00000001
00000010
00000100
00010000
,
00001000
00010000
00100000
00010000
00001000
00000000
00010000
00001000
00000010
00001000
00010000
00000000
00001000
00100000
00010000
10000000
,
00010000
10000000
01000000
10000000
00010000
01000000
00001000
00010000
00000100
00001000
00000001
00001000
00000010
00000100
00001000
00010000
,
00002000
00000000
00000000
00000000
,
00000000
00000000
00000000
00000000
,
00003000
00000000
00000000
00000000
,
00000000
00000000
00000000
00000000
,
00010000
00001000
00000010
00000001
00000100
00000000
00001000
00000000
,
00010000
00000000
00000000
00000000
,
00001000
00010000
00100000
10000000
01000000
00000000
00010000
00000000
,
00001000
00010000
00011000
00000000
,
00010000
00001000
00000100
00000001
00000010
00000000
00001000
00000000
,
00010000
00000000
00000000
00000000
,
00001000
00010000
01000000
10000000
,
00010000
00000000
00000000
00100000
00000000
00000000
01000000
00000000
00000000
10000000
00000000
00000000
00010000
00000000
00000000
00000000
00000000
00000000
20020000
00000000
00000000
00000000
00000000
30030000
,
10010000
00000000
00000000
00011000
00000000
00000000
00001001
00000000
00000001
00001000
00000000
00000000
,
00001001
00000000
00000000
00011000
00000000
00000000
10010000
00000000
10000000
00010000
00000000
00000000
,
10010000
00000000
00000000
00011000
00000000
00000000
00001001
00000000
00000001
00001000
00000000
00000000
,
00001001
00000000
00000000
00011000
00000000
00000000
10010000
00000000
10000000
00010000
00000000
00000000
,
10010000
00000000
10000000
01000000
00000000
00010000
00001000
00000000
00000010
00000001
00000000
00001000
,
00000001
00000000
00000100
00001000
00000000
00010000
00100000
00000000
10000000
00010000
00000000
10000000
,
01000000
00100000
10000000
00100000
01000000
00010000
00001000
00000010
00000100
00000001
00000100
00001000
,
00000001
00000100
00001000
00010000
00100000
10000000
01000000
00100000
01000000
00010000
00001000
00010000
,
00002000
00000000
00000000
00000000
,
00000000
00000000
00000000
00003000
,
00010100
01001000
00010010
00101000
,
00010000
00001000
00000010
00000001
00000100
00001000
00010000
00100000
10000000
01000000
00010000
00001000
,
00020000
00000000
00000000
00030000
,
00001000
00100000
00010000
10000000
00010000
01000000
00001000
00010000
00000100
00000000
00001000
00000000
00001001
00000000
00000000
00000000
,
00000001
00000000
00001000
00000001
00000010
00000000
00000100
00000000
00010000
00001000
00100000
00010000
10000000
00000000
00010000
00100000
,
01000000
00000000
00100000
00010000
10000000
00000000
00100000
10000000
01000000
00100000
00001000
00000000
00010000
00001000
00000100
00000000
,
00000001
00000000
00001000
00000001
00000010
00000000
00000100
00000000
00010000
00001000
00010000
00100000
10000000
00000000
00010000
00000000
,
01000000
00100000
10000000
00010000
00100000
01000000
10000000
00010000
01000000
00100000
00010000
00001000
00000100
00000010
00001000
00000001
,
00000020
00000001
00000130
00010000
00002000
00010000
01003000
00010000
,
00200000
01000000
00310000
10000000
00200000
01000000
10300000
00010000
,
01000000
00000000
00100000
10000000
01000000
00000000
00100000
00001000
00010000
00000000
00001000
00000010
00000001
00000000
00001000
00000000
,
00001010
00010010
00000000
00000000
00000000
00000000
00011000
00000000
,
00001000
00000000
01000000
00010000
10000000
00000000
01000000
00000000
00100000
00010000
00100000
00001000
00010000
00000010
00001000
00000000
,
00000001
00000010
00000100
00001000
00000100
00000010
00000001
00001000
00000010
00010000
00001000
00010000
00000100
00001000
00000001
00000000
,
00000100
00000000
00000001
00001000
00000010
00000000
00010000
00000000
00001000
00000000
00010000
00000000
01000000
00100000
01000000
10000000
,
00010000
00000000
01000000
00100000
01000000
00010000
10000000
00010000
00100000
01000000
00100000
00001000
00010000
00000010
00001000
00000001
,
00000100
00000000
00000010
00001000
00000001
00000000
00000010
00000000
00000100
00000000
00001000
00000010
00000100
00000000
00001000
00000000
,
00010000
00000000
00100000
01000000
00010000
00000000
10000000
00000000
00010000
00000000
10000000
01000000
00010000
00000000
00001000
00000000
,
00100000
00000000
00001000
00010000
00000010
00000000
00001000
00000001
00000010
00000000
00000100
00001000
00000010
00000000
00001000
00000000
,
00000001
00000010
00000100
00000010
00001000
00010000
01000000
00100000
01000000
10000000
00010000
01000000
00100000
10000000
00010000
00100000
,
00001000
00000000
00000000
00000000
,
00000000
00000000
00000000
01001000
,
00010010
00000000
00000000
00000000
,
00101000
00000000
00010100
00011000
,
01100000
00000000
00000000
11000000
,
00110000
00000000
00000000
00001010
,
00000101
00000000
00000110
00000000
,
00000001
00001000
00000010
00010000
00001000
00100000
00001000
00010000
00000100
00001000
00000100
00000010
00000001
00001000
00000010
00000100
,
00000001
00001000
00000100
00000010
00000001
00000000
00001000
00000010
00000100
00000001
00001000
00000000
00000100
00010000
00001000
00000000
,
00010000
00100000
01000000
00100000
10000000
00000000
00010000
00100000
01000000
00100000
00010000
00000000
00100000
00001000
00010000
00001000
,
01000000
00010000
10000000
01000000
00010000
00001000
00000010
00000001
,
00000101
00000000
00001001
00000000
00000000
00000000
00000000
00000000
00000001
00001000
00000010
00010000
00001000
00100000
00001000
00010000
,
00001000
00000000
00011000
00000000
00001000
00000000
00010000
00000000
00100000
00000000
01000000
00010000
10000000
00000000
01000000
00100000
,
00010000
00000000
00110000
00000000
00010000
00000000
10000000
00000000
00100000
00000000
10000000
01000000
00010000
00000000
00001000
00000010
,
00000001
00000000
00000001
00000100
00001000
00000000
00010000
00100000
10000000
00000000
10000000
01000000
00100000
00000000
00001000
00000000
,
00010000
00001000
00000100
00000001
00001000
00000100
00000010
00001000
00010000
01000000
10000000
00100000
,
01000000
20020000
00000000
00000000
,
00000000
00000000
00000000
00000000
,
00000000
00000000
00000000
00000000
,
30030000
00000000
00000000
00000000
;
