#VERSION:0.83;
#TITLE:Ancient Scapes;
#ARTIST:Durandal;
#GENRE:DYNASTIC FREEFORM;
#BANNER:Ancient Scapes.png;
#BACKGROUND:Ancient Scapes-bg.png;
#CDTITLE:./CDTitles/bm IIDX 21 SPADA.png;
#MUSIC:Ancient Scapes.ogg;
#SAMPLESTART:35.06;
#SAMPLELENGTH:15;
#BPMS:0=178;
#BGSTAGE:31;

//--------------- dance-single - Fred-104 ----------------
#NOTEDATA:;
#STEPSTYPE:dance-single;
#DESCRIPTION:Fred-104;
#DIFFICULTY:Beginner;
#METER:4;
#CREDIT:Fred-104;
#NOTES:
0000
0000
0000
0000
,
0000
0000
0000
0000
,
0000
0000
0000
0000
,
0000
0000
0000
0000
,
0000
0000
0000
0000
,
0000
0000
0000
0000
,
0000
0000
0000
0000
,
0000
0000
0000
0000
,
0000
0000
0000
0000
,
0000
0000
0000
0000
,
1000
0000
1000
0000
,
0001
0000
0001
0001
,
0001
0000
1000
0000
,
1000
0000
0001
0001
,
0001
0000
1000
0000
,
0001
0000
1000
1000
,
1000
0000
0001
0000
,
1001
0000
0000
0000
,
1000
0000
0010
0000
,
1000
0000
0001
0001
,
0001
0000
1000
0000
,
0001
0000
0100
0100
,
0100
0000
0001
0000
,
1000
0000
0001
0000
,
1000
0000
0001
0000
,
1001
0000
0000
0000
,
1000
0000
0010
0000
,
1000
0000
0001
0000
,
1000
0000
1000
0000
,
0001
0000
0100
0000
,
0100
0000
0001
0000
,
0001
0000
1000
0000
,
0001
0000
1000
0000
,
0001
0000
1000
0000
,
0001
0000
0001
0000
,
0010
0000
0010
0000
,
0001
0000
0001
0000
,
1000
0000
1000
0000
,
0001
0000
0001
0000
,
1000
0000
1000
0000
,
0001
0000
1000
0000
,
1001
0000
0000
0000
,
0002
0000
0000
0003
,
2000
0000
0000
3000
,
0002
0000
0000
0003
,
2000
0000
0000
3000
,
0020
0000
0000
0030
,
0200
0000
0000
0300
,
0020
0000
0000
0030
,
0200
0000
0000
0300
,
0001
0000
1000
0000
,
0010
0000
1000
0000
,
0100
0000
0010
0000
,
0001
0000
1000
0000
,
0001
0000
0001
0000
,
1000
0000
0010
0000
,
1000
0000
0001
0000
,
1000
0000
0000
0000
,
2000
0000
0000
0000
,
0000
0000
3000
0000
,
0002
0000
0000
0000
,
0000
0000
0003
0000
,
2000
0000
0000
0000
,
0000
0000
3000
0000
,
0002
0000
0000
0000
,
0000
0000
0003
0000
,
1000
0000
0010
0000
,
1000
0000
0001
0001
,
0001
0000
1000
0000
,
0001
0000
0100
0100
,
0100
0000
0001
0000
,
1000
0000
0001
0000
,
1000
0000
0010
0000
,
1001
0000
0000
0000
,
1000
0000
0010
0000
,
1000
0000
0100
0000
,
0010
0000
0010
0000
,
0001
0000
1000
0000
,
0001
0000
0001
0000
,
1000
0000
0010
0000
,
1000
0000
0100
0000
,
1000
0000
0001
0000
,
1000
0000
0001
0000
,
1000
0000
0100
0100
,
0100
0000
1000
0000
,
0001
0000
1000
1000
,
1000
0000
0001
0000
,
1000
0000
0010
0000
,
1000
0000
0001
0000
,
1001
0000
0000
0000
,
2002
0000
0000
0000
,
3003
0000
0000
0000
;

//--------------- dance-single - Fred-104 ----------------
#NOTEDATA:;
#STEPSTYPE:dance-single;
#DESCRIPTION:Fred-104;
#DIFFICULTY:Easy;
#METER:9;
#CREDIT:Fred-104;
#NOTES:
0000
0000
0000
0000
,
0000
0000
0000
0000
,
0000
0000
0000
0000
,
0000
0000
0000
0000
,
0000
0000
0000
0000
,
0000
0000
0000
0000
,
0000
0000
0000
0000
,
0000
0000
0000
0000
,
0000
0000
0000
0000
,
0000
0000
0000
0000
,
1000
1000
1000
1000
,
0010
0010
0010
0010
,
0100
0100
0100
0100
,
0001
0001
0001
0001
,
1000
1000
0010
0010
,
1000
1000
0001
0001
,
0100
0100
0010
0010
,
0110
0000
0000
0000
,
1000
0010
1000
0100
,
0010
0001
1000
0001
,
0100
0001
0010
0100
,
1000
0001
1000
0001
,
1000
0010
1000
0000
0001
0100
0001
0000
,
1000
0100
1000
0000
0001
0010
0001
0000
,
2000
3200
0320
0031
,
0000
0000
1000
0000
0000
1000
0000
0000
0001
0000
0000
0001
0000
0000
1000
0000
,
0010
1000
0100
0010
,
0001
1000
0001
0001
,
0100
0010
0100
0100
,
0001
0000
0010
0000
0100
0010
0100
0000
,
1000
1000
0010
0100
,
0010
1000
0100
0010
,
0001
0100
0001
0010
,
0001
0000
1000
0000
0001
1000
0001
0000
,
1000
0100
0010
0001
,
1000
0010
1000
0100
,
1000
0001
0100
0010
,
1000
0000
0001
0000
1000
0010
1000
0000
,
0001
0010
0100
1000
,
0001
0100
0010
1000
,
0010
1000
0010
0000
0100
0001
0100
0000
,
2002
0000
0000
3003
,
0011
0010
0001
1000
,
0010
0100
0001
1000
,
1100
0100
1000
0010
,
0100
0001
0100
0010
,
1010
1000
0001
0100
,
0010
1000
0001
0100
,
0101
0001
0010
0100
,
1000
0010
1000
0000
0001
0100
0001
0000
,
1000
0000
0100
0000
0010
0000
0001
0100
,
0001
0000
0010
0000
0001
0000
0100
0010
,
0100
0000
0001
0000
0010
0000
0100
1000
,
0100
0000
0010
0000
0001
0100
0010
0000
,
1000
1000
0010
0010
,
0100
0100
0001
0001
,
1000
0010
1000
0000
0001
0100
0001
0000
,
2002
0000
0000
3003
,
0002
0000
0000
0023
0000
0000
0230
0000
,
0000
0000
0000
0300
,
2000
0000
0000
3020
0000
0000
0230
0000
,
0000
0000
0000
0300
,
0002
0000
0000
0203
0000
0000
0320
0000
,
0000
0000
0000
0030
,
2000
0000
0000
3200
0000
0000
0310
0000
,
0110
0000
0000
0000
,
0001
0010
0100
1000
,
0010
1000
0001
0100
,
0010
0100
0001
1000
,
0100
0010
0001
1000
,
0001
0100
0001
0000
1000
0010
1000
0000
,
0001
1000
0001
0000
0100
0010
0100
0000
,
0001
0010
0001
0000
1000
0100
1000
0000
,
2002
0000
0000
3003
,
1000
1000
0010
0100
,
0010
1000
0100
0010
,
0001
0100
0001
0010
,
0001
0000
1000
0000
0010
0100
0010
0000
,
1000
0100
0010
0001
,
1000
0001
0100
0010
,
0100
0001
0100
0010
,
1001
0110
1001
0000
,
0001
0001
0100
0010
,
0100
0100
0010
1000
,
0001
1000
0100
0010
,
0001
0000
0001
0000
1000
0010
1000
0000
,
0001
0001
0100
0100
,
0010
0010
1000
1000
,
0001
0100
0001
0000
1000
0010
1000
0000
,
1001
0000
0000
0000
0000
0000
0000
0000
0001
0000
0000
0001
0000
0000
1000
0000
,
2002
0000
0000
0000
,
3003
0000
0000
0000
;

//--------------- dance-single - Fred-104 ----------------
#NOTEDATA:;
#STEPSTYPE:dance-single;
#DESCRIPTION:Fred-104;
#DIFFICULTY:Medium;
#METER:14;
#CREDIT:Fred-104;
#NOTES:
0000
0000
0000
0000
,
0000
0000
0000
0000
,
0000
0000
0000
0000
,
0000
0000
0000
0000
,
0000
0000
0000
0000
,
0000
0000
0000
0000
,
0000
0000
0000
0000
,
0000
0000
0000
0000
,
0000
0000
0000
0000
,
0000
0000
0000
0000
,
2000
3200
2300
3200
,
0320
0230
0320
0230
,
0320
0032
0023
0032
,
2003
0000
0000
0000
3002
0000
0000
0000
1003
0000
0000
0010
0000
0000
0100
0000
,
0101
0001
0101
0001
,
1100
1000
1100
1000
,
0011
0001
1010
1000
,
1001
0000
0000
0000
0001
0000
1000
0000
0001
0000
0000
0100
0000
0000
0010
0000
,
1000
1000
0100
0100
,
0001
0001
0010
0010
,
1000
1000
0100
0100
,
0001
0001
0010
0010
,
1000
0100
1000
0100
0010
0001
0100
0010
,
1000
0001
0010
0100
1000
0010
0100
0001
,
0010
0001
1000
0010
0100
0001
1000
0001
,
0000
0000
1100
0000
0000
0100
0000
0000
0110
0000
0000
0010
0000
0000
0001
0000
,
1000
0010
1000
0100
1000
0100
0010
0001
,
0100
0010
0100
0001
0010
0100
1000
0000
,
0001
0100
1000
0100
0001
0010
0100
1000
,
0010
1000
0100
0010
0001
1000
0010
0000
,
1000
0100
1000
0001
0010
0100
0010
0001
,
0100
0001
0010
0100
1000
0001
0100
0000
,
1000
0100
0010
1000
0100
0010
0001
1000
,
1010
0000
0000
0000
0101
0000
0000
0000
1001
0000
0000
0000
0100
0000
0001
0010
,
0001
0000
0010
0000
0000
0001
0000
0000
1000
0000
0000
0010
0000
0000
0100
0000
,
0010
0000
1000
0000
0000
0100
0000
0000
0010
0000
0000
0001
0000
0000
1000
0000
,
0001
0000
0010
0000
0000
0100
0000
0000
1000
0000
0000
0001
0000
0000
0100
0000
,
0010
0000
1000
0000
0000
0100
0000
0000
0010
0000
0000
0001
0000
0000
1000
0000
,
0001
0010
0001
0100
0010
1000
0100
0010
,
0001
0100
0010
0100
1000
0100
0010
0100
,
0001
0000
0010
0000
0100
0000
1000
0000
0001
0000
0100
0010
0100
0000
0010
1000
,
0020
0000
0200
0330
,
0001
1000
0100
1000
0010
1000
0100
0010
,
0100
1000
0001
1000
0010
1000
0001
0010
,
0001
1000
0010
0100
0010
0100
0001
1000
,
0100
1000
0010
0100
0001
0100
0010
0100
,
0010
1000
0100
1000
0001
1000
0010
0100
,
0001
0010
0100
1000
0010
0100
1000
0100
,
0001
1000
0100
1000
0010
0100
0001
0010
,
0100
0000
1000
0000
0010
0000
0100
0000
0001
0000
0100
0010
0100
0010
0100
0000
,
0101
0110
0101
0110
,
1010
1100
1010
1100
,
1001
0011
1001
0011
,
1001
0110
1001
0010
,
1000
0100
1000
0010
0100
0001
1000
0010
,
0100
0010
1000
0100
0010
0001
0010
0100
,
1000
0000
0010
0000
0100
0000
0010
0000
1000
0000
0001
0100
0001
0000
0100
0010
,
0200
0000
0000
0300
,
0002
0000
0000
0203
0000
0000
2300
0000
,
0000
0000
0000
3000
,
0002
0000
0000
0023
0000
0000
2030
0000
,
0000
0000
0000
3000
,
2000
0000
0000
3200
0000
0000
0302
0000
,
0000
0000
0000
0003
,
2000
0000
0000
3020
0000
0000
0031
0000
,
1001
0000
0000
0000
0010
0000
0100
0000
0001
0000
0000
1000
0000
0000
0100
0000
,
0010
0000
0010
0000
0001
0000
1000
0010
,
1000
0000
0100
0000
0100
0000
1000
0001
,
0100
0000
0100
0000
0010
0000
0100
0001
,
0010
0000
0010
0000
0100
1000
0001
0100
,
0010
0100
0001
0010
0100
1000
0001
0010
,
0100
0010
0001
0100
0010
1000
0100
0010
,
0001
0001
0100
0100
0010
0010
1000
1000
,
0002
0000
2000
3003
,
1000
0000
0100
0000
0000
0010
0000
0000
0001
0000
0000
1000
0000
0000
0010
0000
,
0100
0000
0010
0000
0000
1000
0000
0000
0100
0000
0000
0010
0000
0000
0001
0000
,
0100
0000
0001
0000
0000
0010
0000
0000
0100
0000
0000
0010
0000
0000
0001
0000
,
1000
0000
0100
0000
0000
0010
0000
0000
0001
0000
0000
1000
0000
0000
0010
0000
,
0100
0000
0001
0000
0000
0010
0000
0000
1000
0000
0000
0010
0000
0000
0001
0000
,
1000
0000
0010
0000
0000
0100
0000
0000
0001
0000
0000
0100
0000
0000
1000
0000
,
0100
0000
0001
0000
0000
0010
0000
0000
0100
0000
0000
1000
0000
0000
0001
0000
,
0101
0000
0000
0000
1001
0000
0000
0000
0020
0000
0000
2030
0000
0000
3002
0000
,
1003
0100
1000
0010
0100
0010
1000
0100
,
0010
0001
1000
0010
0100
0001
0010
0100
,
1000
0010
1000
0001
0010
0001
1000
0100
,
1000
0000
0001
0000
0100
0000
0010
0000
1000
0000
0000
0100
0000
0000
0010
0000
,
0001
0010
0001
0100
0010
1000
0001
0001
,
0001
0010
0100
1000
0010
0100
0100
0001
,
1000
0000
0100
0000
0010
0000
0001
0000
1000
0000
0010
1000
0010
0000
0100
0001
,
0100
0000
0000
0000
0001
0000
1000
0000
0010
0000
0000
0010
0000
0000
0100
0000
,
2002
0000
0000
0000
,
3003
0000
0000
0000
;

//--------------- dance-single - Fred-104 ----------------
#NOTEDATA:;
#STEPSTYPE:dance-single;
#DESCRIPTION:Fred-104;
#DIFFICULTY:Hard;
#METER:17;
#CREDIT:Fred-104;
#NOTES:
0000
0000
0000
0000
,
0000
0000
0000
0000
,
0000
0000
0000
0000
,
0000
0000
0000
0000
,
0000
0000
0000
0000
,
0000
0000
0000
0000
,
0000
0000
0000
0000
,
0000
0000
0000
0000
,
0000
0000
0000
0000
,
0000
0000
0000
0000
,
1100
1100
1100
1001
,
0101
0101
0101
0011
,
0110
0110
0110
1010
,
0001
0000
1000
0100
1000
0001
0010
0001
1000
0000
0000
0010
0000
0000
0100
0000
,
0101
0011
0101
0011
,
1100
1010
1100
1010
,
0101
1001
1100
0110
,
1001
0000
0000
0000
0001
1000
0001
1000
0010
0000
0000
0010
0000
0000
0100
0000
,
0001
0001
0001
0001
,
0100
0100
0100
0100
,
1000
1000
1000
1000
,
0010
0000
0000
0000
0010
0000
0000
0000
0001
0100
0000
0100
0010
0000
1000
0000
,
0001
0000
0010
0000
0001
0000
0100
0000
0010
0000
1000
0000
0100
0000
0010
0100
,
0010
0000
0100
0000
1000
0000
0001
0000
0100
0010
0000
0010
1000
0000
0001
0010
,
0001
0100
0001
0100
0010
0100
0010
0100
0010
1000
0010
1000
0001
1000
0001
1000
,
0001
0000
0011
0000
0000
1001
0000
0000
1010
0000
0000
1001
0000
0000
0101
0000
,
0001
0000
0010
0000
0100
1000
0000
1000
0010
0000
0010
0100
0000
0100
0001
0010
,
0001
0000
1000
0000
0010
1000
0000
1000
0100
0000
0100
0010
0000
0010
0001
0100
,
0001
0000
1000
0000
0010
1000
0000
1000
0100
0000
0100
0010
0000
0010
0100
1000
,
0001
0000
0010
0000
0100
0010
0000
0010
0001
0000
0001
1000
0000
1000
0010
0100
,
0001
0000
1000
0000
0010
1000
0000
0100
1000
0000
0010
1000
0000
0100
1000
0001
,
0100
0000
0001
0000
0010
0001
0000
0100
0001
0000
0010
0001
0000
1000
0001
0010
,
0100
0000
1000
0000
0001
0010
0000
0100
0010
0000
0001
0010
0000
0100
1000
0001
,
0100
0000
0010
0000
1000
0100
0000
0010
0001
0000
0000
0100
0000
0000
0010
1000
,
0010
0000
1000
0000
0100
0010
0000
0001
0010
0000
0100
1000
0000
0010
1000
0100
,
0010
0000
0001
0000
0100
0001
0000
0010
0001
0000
1000
0001
0000
0100
0001
1000
,
0100
0000
0010
0000
0001
0010
0000
0001
0100
0000
0010
1000
0000
0100
1000
0100
,
0010
0000
0001
0000
0100
0001
0000
0100
0010
0000
0000
1010
0000
0000
1000
0001
,
1000
0000
0100
0000
1000
0000
0010
0000
0100
0000
0001
0000
1000
0000
0001
0100
,
0001
0000
0010
0000
0100
0000
1000
0000
0010
0100
0000
0100
0001
0000
0010
0001
,
0100
0001
0100
0001
0100
0010
0100
0010
1000
0010
1000
0010
1000
0001
0100
0010
,
1000
0000
0020
0000
0000
2030
0000
0000
3200
0000
0000
0320
0000
0000
0031
0000
,
0011
0000
0101
0000
0011
0000
0001
1000
,
1100
0000
1010
0000
1100
0000
0010
1000
,
1001
0000
1010
0000
1001
0000
0001
0100
,
0110
0000
0000
0000
1100
0000
0000
0000
0110
0000
0000
0000
0100
0001
0010
0100
,
1000
0000
1010
0000
1001
0000
0001
0100
,
0110
0000
1010
0000
0110
0000
0001
1000
,
1100
0000
0000
0000
0101
0000
0000
0000
1100
0000
0000
0000
0001
0000
0100
0010
,
0100
0010
1000
0010
1000
0100
0010
0100
0010
0001
0010
0001
0100
0010
1000
0001
,
2000
3100
0020
1030
0020
0130
2000
3001
,
0200
0000
0310
0000
0002
0000
0013
0000
2000
0000
3001
0000
0200
0000
0310
1000
,
0002
0103
0020
0031
0020
0130
0002
1003
,
0200
0000
0301
0000
0200
0000
0310
0000
0002
0000
0103
0000
0010
1000
0010
1000
,
0001
0000
0100
0000
0010
0000
0100
0001
0100
0000
0010
0000
1000
0100
1000
0100
,
0010
0000
0001
0000
1000
0000
0001
0010
0001
0100
0000
0100
0010
0000
1000
0001
,
1000
0100
1000
0100
0010
0100
0010
0001
0010
0001
0100
0001
0100
0010
1000
0001
,
2000
0000
0000
3000
,
0002
0000
0000
0203
0000
0000
2300
0000
,
0000
0000
0000
0000
0000
0000
0000
0000
0000
0000
3001
0000
0000
1000
0000
0000
,
0002
0000
0000
0023
0000
0000
2030
0000
,
0000
0000
0000
0000
0000
0000
3001
1000
0001
0000
0000
0100
0000
0000
0010
0000
,
2000
0000
0000
3200
0000
0000
0302
0000
,
0000
0000
0000
0000
0000
0000
0000
0000
0000
0000
1003
0000
0000
0001
0000
0000
,
2000
0000
0000
3020
0000
0000
0032
0000
,
1003
0000
0000
0000
0001
0100
0010
1000
0001
0000
0000
0010
0000
0000
0100
0000
,
1000
0000
0010
0000
1000
0010
1000
0100
1000
0010
1000
0100
0010
0000
0001
0000
,
0100
0000
0010
0000
0100
0001
0010
0001
0100
0010
0000
0100
0010
0000
1000
0001
,
1000
0000
0100
0000
0010
0001
1000
0001
0010
0100
0010
0001
1000
0000
0001
0000
,
0100
0000
0010
0000
0100
0001
1000
0001
1000
0100
0000
0010
0001
0000
0000
0000
,
1000
0000
0100
0000
0010
0100
0010
0000
0001
0000
0100
0000
0010
0100
0010
0000
,
1000
0000
0010
0000
0100
0010
0100
0000
0001
0000
0010
0000
0100
0010
0100
0000
,
1000
0000
0001
1000
0100
0000
1000
0001
0100
0000
0001
1000
0010
0000
1000
0001
,
0020
0032
2000
3003
,
1000
0000
0010
0000
1000
0100
0000
0100
0010
0000
0010
0001
0000
0001
0100
0001
,
0010
0000
0100
0000
1000
0010
0000
0010
0100
0000
0100
0010
0000
0010
1000
0001
,
1000
0000
0100
0000
0010
0001
0000
0001
1000
0000
1000
0100
0000
0100
1000
0001
,
0100
0000
0010
0000
0100
0001
0000
0001
0010
0000
0010
0001
0000
0001
1000
0001
,
0100
0000
0001
0000
0010
0001
0000
0001
0100
0000
0100
0010
0000
0010
1000
0001
,
1000
0000
0010
0000
1000
0001
0000
0001
0010
0000
0010
0001
0000
0001
1000
0100
,
1000
0000
0100
0000
1000
0001
0000
0001
0100
0000
0100
0001
0000
0001
1000
0010
,
0100
0000
0001
0000
1000
0001
1000
0000
1010
0000
0000
0101
0000
0000
0100
0010
,
0100
0000
0001
0000
0010
0001
0000
1000
0100
0000
0010
0001
0000
1000
0100
0010
,
0001
0000
1000
0000
0001
0100
0000
0010
1000
0000
0001
0100
0000
0010
1000
0001
,
0010
0000
0100
0000
1000
0001
0000
0100
0010
0000
1000
0100
0000
0010
0100
1000
,
0001
0000
0010
0000
0001
0100
0010
1000
0001
0000
0000
0100
0000
0000
0010
1000
,
0010
0000
1000
0000
0100
0000
0010
0000
0001
0000
0100
0000
0010
0000
0010
0100
,
0010
0000
0100
0000
0001
0000
1000
0100
1000
0100
0000
0010
0100
0000
1000
0100
,
0010
0001
0010
0001
1000
0010
1000
0010
0100
0001
1000
0001
0100
0010
1000
0001
,
0010
0000
0000
0000
0100
1000
0001
0010
0001
0000
0000
0100
0000
0000
0001
0000
,
2002
0000
0000
0000
,
3003
0000
0000
0000
;

//--------------- dance-single - Fred-104† ----------------
#NOTEDATA:;
#STEPSTYPE:dance-single;
#DESCRIPTION:Fred-104†;
#DIFFICULTY:Challenge;
#METER:18;
#CREDIT:Fred-104†;
#NOTES:
0000
0000
0000
0000
,
0000
0000
0000
0000
,
0000
0000
0000
0000
,
0000
0000
0000
0000
,
0000
0000
0000
0000
,
0000
0000
0000
0000
,
0000
0000
0000
0000
,
0000
0000
0000
0000
,
0000
0000
0000
0000
,
0000
0000
0000
0000
,
2000
3010
0200
1300
0200
0310
2000
3010
,
0200
0000
1300
0000
0200
0000
0310
0000
2000
0000
3100
0000
0020
0000
0031
1000
,
0002
0013
0200
0301
0200
0310
0002
0013
,
0200
0000
0301
0000
0200
0310
0001
1000
0100
0000
0000
1000
0000
0001
1000
0001
,
2000
3100
0002
1003
0002
0103
2000
3010
,
0002
1003
0002
0013
2000
3100
0020
0031
,
2000
3010
0002
1003
0200
0301
2000
3001
,
1001
0000
0000
0000
1000
0001
0100
0010
0001
0000
0000
1000
0000
0000
0100
0000
,
0001
0000
0000
0000
1000
0000
0000
0000
0100
0000
0000
0000
0010
0000
0001
0100
,
0010
0000
0000
0000
0100
0000
0000
0000
0001
0010
0100
0001
0100
0010
0001
1000
,
0001
0000
0000
0000
1000
0000
0000
0000
0100
0000
0000
0000
0010
0000
0001
0010
,
1000
0000
0000
0000
0010
0000
0000
0000
0100
0001
0000
0100
1000
0000
0001
0000
,
1001
0000
1000
0000
0100
0000
0010
0000
0011
0000
0001
0000
0100
0000
0010
1000
,
1001
0000
1000
0000
0010
0000
0100
0000
0001
0100
0000
0010
1000
0000
0100
0010
,
0001
0000
0000
0100
0000
0000
0010
0000
1000
0000
0100
0000
1000
0000
0000
0010
0000
0000
0100
0000
0001
0000
0010
0000
0001
0000
0000
0010
0000
0000
0100
0000
1000
0000
0010
0000
0100
0000
0000
0001
0000
0000
0010
0000
0100
0000
1000
0000
,
0100
0000
1100
0000
0000
0011
0000
0000
1010
0000
0000
0101
0000
0000
0001
1000
,
0001
0000
0010
0000
0001
0100
0000
0010
1000
0000
0100
0010
0000
0001
0010
0100
,
0010
0000
0001
0000
1000
0100
0000
0010
0001
0000
1000
0010
0000
1000
0001
0010
,
0001
0000
0100
0000
0001
0010
0000
0100
0010
0000
0001
0100
0000
0001
0010
0100
,
1000
0000
0010
0000
0100
0001
0000
0010
0001
0000
0100
0001
0000
0100
0010
1000
,
0100
0000
0010
0000
0001
0100
0000
0001
0010
0000
0100
1000
0000
0010
1000
0001
,
1000
0000
0100
0000
0010
0100
0000
1000
0010
0000
1000
0010
0000
0100
0010
1000
,
0100
0000
0010
0000
0001
0010
0000
0100
0010
0000
0001
0100
0000
0010
1000
0001
,
0100
0000
0000
0000
0000
0000
0020
0000
0000
0000
0000
0000
0000
0000
0000
2030
0000
0000
0000
0000
0000
3000
0000
0000
1100
0000
0000
0000
0000
0000
0000
0000
0000
1010
0000
0000
0000
0000
0000
0000
0000
0000
0001
0000
0100
0000
0010
0000
,
1000
0000
0100
0000
0010
0100
0000
0100
1000
0000
0001
0100
0000
1000
0100
0001
,
1000
0000
0010
0000
1000
0100
0000
0100
0010
0000
0001
0010
0000
1000
0010
0001
,
0100
0000
0010
0000
1000
0010
0000
0100
0001
0000
0100
1000
0000
0100
0001
0010
,
0001
0000
0010
0000
0100
1000
0000
0010
1000
0000
0100
0010
0000
0010
0001
1000
,
0001
0000
0100
0000
0001
0000
0010
0000
0100
0000
1000
0000
0010
0000
1000
0100
,
0010
0000
0000
0000
0000
0000
0001
0000
0000
0000
0000
0000
1000
0000
0000
0000
0000
0000
0001
0000
0000
0000
0000
0000
0010
0000
0000
0001
0000
0000
0000
0000
0000
1000
0000
0000
0010
0000
0000
0000
0000
0000
1000
0000
0100
0000
1000
0000
,
0010
0000
0000
1000
0000
0000
0100
0000
0000
0010
0000
0000
0001
0000
0000
0100
0000
0000
0010
0000
0000
1000
0000
0000
0001
0000
0000
0000
0000
0000
0001
0000
0100
0000
0010
0000
1000
0000
0000
0000
0000
0000
0100
0000
0010
0000
0001
0000
,
2000
0000
0000
3000
,
1000
0010
0100
0000
1000
0000
0100
0010
1000
0000
0001
0000
0100
0010
0001
0000
,
0010
0000
0100
0001
1000
0000
0001
0000
1000
0000
0100
0000
0010
0000
0001
0000
,
1000
0100
0010
0000
1000
0000
0010
0100
1000
0000
0001
0000
0010
0100
0001
0000
,
0100
0000
0010
0001
1000
0000
0010
0000
1000
0100
0010
0001
0100
0010
0100
0001
,
1000
0100
0001
0000
0001
0000
0001
0100
1000
0000
1000
0000
1000
0010
0001
0000
,
0001
0000
0001
0010
1000
0000
1000
0000
0001
0100
0010
0000
1000
0100
0010
0000
,
0001
0100
1000
0000
0100
0000
0001
0010
1000
0000
0010
0000
0001
1000
0100
0100
,
0001
0000
0000
0010
0000
0000
0100
0000
0000
1000
0000
0000
0010
0000
0000
0100
0000
0000
0010
0000
0000
1000
0000
0000
0100
0000
0000
0000
0000
0000
0010
0000
0001
0000
1000
0000
0001
0000
0000
0000
0000
0000
0100
0000
0010
0000
1000
0000
,
0001
0000
0010
0000
0100
0000
1000
0000
0010
0000
0100
1000
0000
0100
0001
1000
,
0100
0000
0010
0000
0100
0000
1000
0000
0001
0000
0100
0010
0000
1000
0010
0100
,
0001
0000
0100
0000
0010
0000
1000
0000
0100
0000
0001
0100
0000
1000
0010
0100
,
0001
0000
0001
0000
1000
0100
0010
0001
1000
0001
0100
0100
1000
0010
0100
0001
,
1000
0000
0010
0000
1000
0000
0100
0010
0001
0000
1000
0000
0001
0100
0001
0010
,
0100
0000
1000
0000
0001
0000
1000
0100
0010
0001
0000
0001
0100
0000
0010
1000
,
0100
0000
0000
1000
0000
0000
0010
0000
0000
0100
0000
0000
0001
0000
0000
1000
0000
0000
0100
0000
0000
0010
0000
0000
0001
0000
0000
0010
0000
0000
0001
0000
0100
0000
0010
0000
1000
0000
0000
0001
0000
0000
1000
0000
0100
0000
0010
0000
,
0002
0000
0000
0000
0000
0000
0000
0000
0000
0000
0000
0000
1003
0100
0001
0010
,
2000
0000
0000
0020
0000
3030
2002
0000
,
0000
0000
0000
0000
0000
0000
0000
0000
3003
0000
0002
0000
0000
2003
0000
0000
,
3002
0000
0000
0020
0000
0033
2002
0000
,
0000
0000
0000
0000
3003
0000
0001
0010
1000
0000
0000
0100
0000
0000
0001
0000
,
0022
0000
0033
2002
0000
3003
2200
0000
,
0000
0000
0000
0000
0000
0000
0000
0000
3300
0000
2200
3300
0000
0202
0303
0000
,
2020
0000
3030
0022
0000
0033
2002
3003
,
1000
0000
0000
0000
0001
0100
0010
1000
0001
0000
0000
1000
0000
0000
0001
0000
,
0010
0000
0001
0000
1000
0100
0010
0100
0001
0100
0010
0100
1000
0000
0001
0100
,
0001
0000
0000
0000
0000
0000
0001
0000
0000
0000
0000
0000
0010
0000
0000
0001
0000
0000
1000
0000
0000
0010
0000
0000
0100
0000
0000
0001
0000
0000
0000
0000
0000
0100
0000
0000
0010
0000
0000
0000
0000
0000
1000
0000
0010
0000
1000
0000
,
0100
0000
0010
0000
0001
0100
0010
0100
1000
0100
0010
0100
0001
0000
1000
0100
,
0001
0000
0100
0000
1000
0010
0100
0001
1000
0100
0010
0001
1000
0000
0000
0000
,
1000
0000
0010
0000
0100
0001
0100
1000
0100
0000
0010
0000
1000
0100
0010
0001
,
0100
0000
0001
0000
0010
0100
1000
0001
0100
0000
0010
0000
1000
0100
0010
0001
,
1000
0000
0000
0001
0010
0100
0010
0000
0000
0100
0010
0100
1000
0000
0000
0100
0010
0001
0010
0000
0000
0100
1000
0010
,
0200
0302
2000
3003
,
1000
0010
0100
0000
0010
1000
0000
0001
0010
0000
0100
1000
0000
0001
0100
0010
,
0100
0001
0010
0000
0100
1000
0000
0001
0010
0000
0100
1000
0000
0001
0010
0100
,
1000
0010
0100
0000
0001
0100
0000
0010
1000
0000
0001
0100
0000
0010
1000
0100
,
0010
0001
1000
0000
0010
1000
0000
0100
1000
0000
0010
0100
0000
0001
0100
0001
,
0010
0100
1000
0000
0100
0010
0000
0001
0010
0000
0100
1000
0000
0001
0100
0010
,
1000
0100
0010
0000
0001
0010
0000
0001
0100
0000
0010
0100
0000
0001
0010
0001
,
1000
0001
0100
0000
0001
1000
0000
0010
1000
0000
0001
0100
0000
0001
1000
0100
,
0010
0000
0001
0000
1000
0010
0100
0000
0101
0000
0000
1100
0000
0000
0100
0001
,
0010
0100
1000
0000
0001
0010
0100
0010
0001
0000
1000
0001
0100
0010
1000
0010
,
0100
0001
0010
0000
0100
1000
0001
1000
0100
0000
0010
0001
1000
0001
0010
0001
,
1000
0100
0010
0000
0001
0100
0010
0100
1000
0000
0100
0010
0100
0001
1000
0001
,
0010
0100
1000
0000
0001
0100
1000
0100
0001
0000
0000
1010
0000
0000
0101
0000
,
0001
0000
0010
0000
1000
0000
0010
0000
0100
0000
0001
0000
0100
0000
1000
0001
,
1000
0000
0000
0000
0000
0000
0100
0000
0000
0000
0000
0000
0001
0000
0000
0000
0000
0000
0100
0000
0000
1000
0000
0000
0001
0000
0000
0100
0000
0000
0000
0000
0000
0010
0000
0000
1000
0000
0000
0000
0000
0000
0001
0000
0010
0000
0100
0000
,
1000
0000
0000
0001
0000
0000
1000
0000
0000
0100
0000
0000
0010
0000
0000
0001
0000
0000
1000
0000
0000
0010
0000
0000
1000
0000
0000
0000
0000
0000
0001
0000
0010
0000
0100
0000
1000
0000
0000
0000
0000
0000
0010
0000
1000
0000
0001
0000
,
0100
0000
0000
0000
0001
0010
1000
0100
0001
0000
0000
1000
0000
0000
0001
0000
,
2002
0000
0000
0000
,
3003
0000
0000
0000
;

//--------------- dance-double - Fred-104 ----------------
#NOTEDATA:;
#STEPSTYPE:dance-double;
#DESCRIPTION:Fred-104;
#DIFFICULTY:Easy;
#METER:10;
#CREDIT:Fred-104;
#NOTES:
00000000
00000000
00000000
00000000
,
00000000
00000000
00000000
00000000
,
00000000
00000000
00000000
00000000
,
00000000
00000000
00000000
00000000
,
00000000
00000000
00000000
00000000
,
00000000
00000000
00000000
00000000
,
00000000
00000000
00000000
00000000
,
00000000
00000000
00000000
00000000
,
00000000
00000000
00000000
00000000
,
00000000
00000000
00000000
00000000
,
10000000
10000000
01000000
01000000
,
00100000
00100000
00001000
00001000
,
01000000
01000000
00001000
00001000
,
00010000
00000000
00000000
00000000
00001000
00000000
00000000
00000000
00010000
00000000
00000000
00010000
00000000
00000000
00010000
00000000
,
00001000
00001000
00000100
00000100
,
00000001
00000001
00001000
00000001
,
00000100
00001000
00010000
00001000
,
00011000
00000000
00000000
00000000
,
00001000
00010000
00100000
10000000
,
01000000
00010000
00001000
00010000
,
00001000
00000010
00000001
00000100
,
00001000
00000000
00010000
00000000
00001000
00010000
00001000
00000000
,
00010000
00000000
00100000
00000000
01000000
00010000
10000000
00000000
,
01000000
00000000
00000000
00000000
00100000
00000000
00000000
00000000
00001000
00000000
00000000
00001000
00000000
00000000
00001000
00000000
,
00010000
00000000
00000100
00000000
00010000
00001000
00010000
00001000
,
00000000
00000000
00010000
00000000
00000000
00001000
00000000
00000000
00000010
00000000
00000000
00000001
00000000
00000000
00001000
00000000
,
00000001
00001000
00000100
00000001
,
00000100
00001000
00000001
00000000
,
00000100
00001000
00010000
01000000
,
10000000
00010000
10000000
00000000
,
00100000
00010000
00001000
00000010
,
00000001
00001000
00000001
00000000
,
00000100
00001000
00010000
00001000
,
00000100
00000000
00000001
00000000
00001000
00000100
00001000
00000000
,
00000001
00000100
00000010
00001000
,
00000001
00000010
00000100
00000010
,
00001000
00010000
01000000
00100000
,
00010000
00000000
10000000
00000000
00010000
10000000
00010000
00000000
,
01000000
00100000
10000000
01000000
,
00100000
00001000
00010000
00000010
,
00001000
00000001
00000010
00000000
00000100
00001000
00000001
00000000
,
00002002
00000000
00000000
00003003
,
00000001
00000100
00001000
00010000
,
00100000
00000000
10000000
00000000
00010000
10000000
00010000
00000000
,
10000000
01000000
00010000
00001000
,
00000010
00000000
00000001
00000000
00001000
00000001
00001000
00000000
,
00000001
00000010
00001000
00010000
,
01000000
00000000
10000000
00000000
00010000
10000000
00010000
00000000
,
10000000
01000000
00100000
01000000
,
10000000
00100000
01000000
00000000
00100000
00010000
00001000
00000000
,
00010000
00000000
00000010
00000000
00010000
00000000
00000010
00001000
,
00000010
00000000
00000100
00000000
00000001
00000000
00001000
00000100
,
00001000
00000000
00000100
00000000
00000010
00000000
00000001
00000100
,
00001000
00000000
00010000
00000000
00001000
01000000
00001000
00000000
,
00010000
00000000
00000100
00000000
00010000
00001000
00010000
00000000
,
00100000
00000000
01000000
00000000
00010000
10000000
00010000
00000000
,
10000000
01000000
00010000
00000000
00001000
00000100
00000001
00000000
,
00002002
00000000
00000000
00003003
,
00002000
00000000
00000000
00003020
00000000
00000000
00000230
00000000
,
00000000
00000000
00000000
00000000
00000000
00000300
00000000
00000000
,
00000002
00000000
00000000
00002003
00000000
00000000
00003020
00000000
,
00000000
00000000
00000030
00000000
,
00020000
00000000
00000000
00032000
00000000
00000000
02003000
00000000
,
00000000
00000000
00000000
00000000
00000000
03000000
00000000
00000000
,
00200000
00000000
00000000
20300000
00000000
00000000
30010000
00000000
,
10010000
00000000
00000000
00000000
,
10000000
01000000
00100000
00010000
,
00100000
00001000
00010000
00001000
,
00000010
00000100
00000010
00000001
,
00001000
00000000
00000001
00000000
00001000
00000010
00001000
00000000
,
00000100
00000000
00000010
00000000
00000001
00000001
00000001
00000000
,
00000100
00000000
00001000
00000000
00010000
00010000
00010000
00000000
,
00100000
01000000
00010000
00000000
10000000
01000000
00100000
00000000
,
20020000
00000000
00000000
30030000
,
10000000
00000000
00010000
00000000
10000000
00100000
10000000
00000000
,
01000000
00000000
00100000
00000000
00010000
01000000
00010000
00000000
,
00100000
00000000
00001000
00000000
00010000
00001000
00010000
00000000
,
00000100
00000000
00001000
00000000
00000100
00000010
00000001
00000000
,
00001000
00000000
00000001
00000000
00000100
00000001
00000100
00000000
,
00000001
00000000
00000010
00000000
00001000
00010000
00001000
00000000
,
00010000
00000000
00100000
00000000
10000000
00010000
10000000
00000000
,
10010000
10010000
10010000
00000000
,
10000000
01000000
00100000
00001000
,
00010000
00000000
00100000
00000000
10000000
00010000
10000000
00000000
,
01000000
00010000
00001000
00000010
,
00000001
00000000
00001000
00000000
00000100
00000010
00000100
00000000
,
00000010
00000000
00000001
00000000
00000100
00000000
00001000
00010000
,
00001000
00100000
00001000
00000010
,
00000100
00010000
00001000
00010000
,
00011000
00000000
00000000
00000000
00000000
00000000
00000000
00000000
01000000
00000000
00000000
01000000
00000000
00000000
00100000
00000000
,
20020000
00000000
00000000
00000000
,
30030000
00000000
00000000
00000000
;

//--------------- dance-double - Fred-104 ----------------
#NOTEDATA:;
#STEPSTYPE:dance-double;
#DESCRIPTION:Fred-104;
#DIFFICULTY:Medium;
#METER:13;
#CREDIT:Fred-104;
#NOTES:
00000000
00000000
00000000
00000000
,
00000000
00000000
00000000
00000000
,
00000000
00000000
00000000
00000000
,
00000000
00000000
00000000
00000000
,
00000000
00000000
00000000
00000000
,
00000000
00000000
00000000
00000000
,
00000000
00000000
00000000
00000000
,
00000000
00000000
00000000
00000000
,
00000000
00000000
00000000
00000000
,
00000000
00000000
00000000
00000000
,
00020000
00032000
00023000
00230000
,
02300000
03020000
20030000
30200000
,
00320000
00032000
00023000
00032000
,
00003020
00000000
00000000
00000000
00000230
00000000
00000000
00000000
00001300
00000000
00000000
00000001
00000000
00000000
00000010
00000000
,
00000200
00000320
00002030
00023000
,
02030000
03200000
00320000
20030000
,
30200000
00320000
00032000
00013000
,
00011000
00000000
00000000
00000000
00010000
00000000
00001000
00000000
00000010
00000000
00000000
00000100
00000000
00000000
00001000
00000000
,
00000001
00000001
00000010
00000010
,
00000100
00000100
00010000
00010000
,
00001000
00001000
00100000
00100000
,
01000000
01000000
10000000
10000000
,
00010000
01000000
00100000
10000000
00010000
00100000
01000000
00010000
,
00001000
00000010
00000100
00001000
00000001
00000100
00001000
00010000
,
00001000
01000000
00001000
00010000
00001000
00000010
00000001
00001000
,
00000000
00000000
00010010
00000000
00000000
00001000
00000000
00000000
00101000
00000000
00000000
00010000
00000000
00000000
00000010
00000000
,
00001000
00000000
00000001
00000000
00000010
00000000
00000001
00000000
00000100
00000000
00000000
00000010
00000000
00000000
00001000
00000000
,
00000001
00000000
00000010
00000000
00000100
00000000
00010000
00000000
00001000
00000000
00000000
00010000
00000000
00000000
01000000
00000000
,
10000000
00000000
00010000
00000000
01000000
00000000
00100000
00000000
00010000
00000000
00000000
00001000
00000000
00000000
00010000
00000000
,
00000100
00000000
00010000
00000000
00001000
00000000
00010000
00000000
00100000
00000000
00000000
10000000
00000000
00000000
00010000
00000000
,
10000000
00000000
01000000
00000000
00100000
00000000
00001000
00000000
00010000
00000000
00000000
00000100
00000000
00000000
00000010
00000000
,
00000100
00000000
00001000
00000000
00000010
00000000
00010000
00000000
00001000
00000000
00000000
00000100
00000000
00000000
00000001
00000000
,
00001000
00000000
00000001
00000000
00000100
00000000
00000010
00000000
00000100
00000000
00000000
00001000
00000000
00000000
00010000
00000000
,
00011000
00000000
00000000
00000000
01001000
00000000
00000000
00000000
00010000
00000000
00000000
00000010
00000000
00000000
00010000
00001000
,
00010000
00000000
00001000
00000000
00000000
00010000
00000000
00000000
01000000
00000000
00000000
00100000
00000000
00000000
00010000
00000000
,
10000000
00000000
00100000
00000000
00000000
00010000
00000000
00000000
00001000
00000000
00000000
01000000
00000000
00000000
00001000
00000000
,
00010000
00000000
01000000
00000000
00000000
10000000
00000000
00000000
00100000
00000000
00000000
10000000
00000000
00000000
01000000
00000000
,
00010000
00000000
00001000
00000000
00000000
00000010
00000000
00000000
00000001
00000000
00000000
00001000
00000000
00000000
00000001
00000000
,
00001000
00000001
00001000
00000001
00000100
00001000
00000100
00001000
,
00010000
00100000
00010000
00100000
10000000
00010000
10000000
00010000
,
10000000
00100000
00010000
00001000
00010000
02000000
03100000
02000000
,
23000000
00000000
00020000
30030000
,
10000000
01000000
00010000
00001000
00010000
01000000
10000000
00100000
,
00010000
00001000
00010000
00100000
10000000
00010000
00100000
00000000
,
01000000
00010000
00001000
00010000
00000010
00010000
00001000
00000010
,
00000100
00000010
00000001
00000100
00001000
00010000
00001000
00000000
,
00010000
01000000
00100000
01000000
10000000
01000000
00100000
01000000
,
00010000
00001000
00000100
00001000
00010000
00001000
00100000
00000000
,
00001000
00010000
00000100
00000010
00000001
00001000
00000100
00010000
,
00000100
00000000
00001000
00000000
00000001
00000000
00000100
00000000
00000010
00000000
00001000
00000001
00001000
00000000
00000001
00000000
,
00001001
00000100
00011000
01000000
,
10010000
00100000
00011000
00000010
,
00001001
00000100
00011000
00100000
,
10010000
01000000
00011000
00000010
,
00010000
00001000
00000100
00000010
00000001
00000010
00000100
00000010
,
00001000
00000100
00000010
00001000
00010000
00100000
01000000
00010000
,
00100000
00000000
01000000
00000000
10000000
00000000
00100000
00000000
01000000
00000000
00010000
10000000
00010000
00000000
10000000
01000000
,
20000000
00000000
00000000
30000000
,
00002000
00000000
00000000
00023000
00000000
00000000
00030200
00000000
,
00000000
00000000
00000000
00000000
00000000
00000300
00000000
00000000
,
00000020
00000000
00000000
00000032
00000000
00000000
00002003
00000000
,
00000000
00000000
00003000
00000000
,
00000020
00000000
00000000
00020030
00000000
00000000
00032000
00000000
,
00000000
00000000
00000000
00000000
00000000
00003000
00000000
00000000
,
02000000
00000000
00000000
03020000
00000000
00000000
10030000
00000000
,
10010000
00000000
00000000
00000000
10000000
00000000
00010000
00000000
10000000
00000000
00000000
10000000
00000000
00000000
10000000
00000000
,
01000000
00000000
00100000
00000000
00001000
00000000
00010000
00001000
,
00010000
00000000
00000100
00000000
00000010
00000000
00000001
00000010
,
00000100
00000000
00010000
00000000
00001000
00000000
00000100
00000001
,
00000010
00000000
00000001
00000000
00000100
00001000
00010000
00000000
,
00001000
00010000
01000000
10000000
00010000
01000000
00100000
00000000
,
00010000
00001000
00000010
00000100
00000010
00000001
00001000
00000000
,
00000001
00000100
00001000
00010000
01000000
00100000
00001000
00000010
,
00002000
00023000
00002000
00033000
,
00001000
00000000
00010000
00000000
00000000
00100000
00000000
00000000
10000000
00000000
00000000
00010000
00000000
00000000
01000000
00000000
,
00010000
00000000
10000000
00000000
00000000
01000000
00000000
00000000
00100000
00000000
00000000
10000000
00000000
00000000
00100000
00000000
,
00010000
00000000
10000000
00000000
00000000
01000000
00000000
00000000
00010000
00000000
00000000
00001000
00000000
00000000
00010000
00000000
,
00000100
00000000
00001000
00000000
00000000
00000001
00000000
00000000
00000100
00000000
00000000
00001000
00000000
00000000
00010000
00000000
,
00000100
00000000
00000010
00000000
00000000
00001000
00000000
00000000
00010000
00000000
00000000
01000000
00000000
00000000
10000000
00000000
,
00010000
00000000
01000000
00000000
00000000
00100000
00000000
00000000
00010000
00000000
00000000
00001000
00000000
00000000
00000100
00000000
,
00000001
00000000
00001000
00000000
00000000
00000010
00000000
00000000
00010000
00000000
00000000
00100000
00000000
00000000
10000000
00000000
,
10010000
00000000
00000000
00000000
01100000
00000000
00000000
00000000
00020000
00000000
00000000
20030000
00000000
00000000
30020000
00000000
,
10030000
00000000
01000000
00000000
00010000
00000000
01000000
00000000
10000000
00000000
00000000
01000000
00000000
00000000
00010000
00000000
,
00001000
00000000
00010000
00000000
00001000
00000000
00000100
00000000
00000001
00000000
00000000
00000100
00000000
00000000
00001000
00000000
,
00010000
00000000
00001000
00000000
00000010
00000000
00001000
00000000
00010000
00000000
00000000
00100000
00000000
00000000
00010000
00000000
,
00001000
00000000
00010000
00000000
00100000
00000000
10000000
00000000
00010000
00000000
00000000
00100000
00000000
00000000
01000000
00000000
,
10000000
00010000
01000000
00001000
00010000
00000100
00001000
00000001
,
00000100
00000010
00010000
00001000
00010000
00100000
01000000
00010000
,
00100000
00000000
01000000
00000000
00010000
00000000
00001000
00000000
00010000
00000000
00000010
00001000
00000010
00000000
00010000
00001000
,
00010000
00000000
00000000
00000000
00000010
00000000
00001000
00000000
00010000
00000000
00000000
00100000
00000000
00000000
00001000
00000000
,
00022000
00000000
00000000
00000000
,
00033000
00000000
00000000
00000000
;

//--------------- dance-double - Fred-104 ----------------
#NOTEDATA:;
#STEPSTYPE:dance-double;
#DESCRIPTION:Fred-104;
#DIFFICULTY:Hard;
#METER:17;
#CREDIT:Fred-104;
#NOTES:
00000000
00000000
00000000
00000000
,
00000000
00000000
00000000
00000000
,
00000000
00000000
00000000
00000000
,
00000000
00000000
00000000
00000000
,
00000000
00000000
00000000
00000000
,
00000000
00000000
00000000
00000000
,
00000000
00000000
00000000
00000000
,
00000000
00000000
00000000
00000000
,
00000000
00000000
00000000
00000000
,
00000000
00000000
00000000
00000000
,
00001001
00000001
00000010
00001000
,
00011000
00010000
01000000
10000000
,
10010000
10000000
00100000
00010000
,
00011000
00000000
00001000
00010000
00100000
00000000
01000000
00010000
10000000
00000000
00000000
01000000
00000000
00000000
00010000
00000000
,
00011000
00001000
00000010
00000001
,
00001001
00000001
00000100
00001000
,
00011000
00010000
00100000
10000000
,
10010000
00000000
00000000
00000000
10000000
01000000
00010000
00001000
00010000
00000000
00000000
00000010
00000000
00000000
00010000
00000000
,
00001000
00000000
00000000
00000000
00000100
00000000
00000000
00000000
00000001
00000000
00000000
00000000
00000010
00000000
00000100
00010000
,
00001000
00000000
00000000
00000000
00010000
00000000
00000000
00000000
00001000
00000000
00000000
00000000
00000100
00000000
00000001
00000010
,
00000001
00000000
00000000
00000000
00000100
00000000
00000000
00000000
00001000
00000000
00000000
00000000
00010000
00000000
00001000
00010000
,
00100000
00000000
00000000
00000000
01000000
00000000
00000000
00000000
00010000
10000000
00000000
10000000
00010000
00000000
01000000
00000000
,
00010000
00000000
00100000
00000000
01000000
00000000
00010000
00000000
00001000
00000000
01000000
00000000
00001000
00000000
00010000
00000100
,
00010000
00000000
00001000
00000000
00000100
00000000
00000001
00000000
00001000
00000100
00000000
00000100
00000010
00000000
00000001
00001000
,
00000001
00000010
00000100
00001000
00000100
00010000
00001000
01000000
00010000
10000000
00010000
00100000
01000000
00100000
00010000
00100000
,
00001000
00000000
00101000
00000000
00000000
00010010
00000000
00000000
01001000
00000000
00000000
00010100
00000000
00000000
00001000
00010000
,
00001000
00000000
00010000
00000000
00100000
00000000
01000000
00000000
00010000
00000000
00100000
01000000
00000000
00100000
00001000
00010000
,
00000010
00000000
00010000
00000000
00001000
00000000
00010000
00000000
00100000
00000000
01000000
00001000
00000000
00010000
00001000
00000100
,
00000010
00000000
00010000
00000000
00001000
00000000
00000010
00000000
00000100
00000000
00010000
00001000
00000000
00000100
00000010
00001000
,
00000100
00000000
00000010
00000000
00001000
00000000
00000010
00000000
00000100
00000000
00001000
00000100
00000000
00010000
00001000
00010000
,
00100000
00000000
01000000
00000000
00100000
00000000
00010000
00000000
00001000
00000000
00000100
00000010
00000000
00010000
00001000
00010000
,
00000100
00000000
00010000
00000000
00001000
00000000
00010000
00000000
00000100
00000000
00010000
00001000
00000000
00000100
00000010
00001000
,
00000100
00000000
00010000
00000000
01000000
00000000
00100000
00000000
00001000
00000000
00010000
00100000
00000000
01000000
00100000
00010000
,
00001000
00000000
00000010
00000000
00001000
00010000
00000000
00010000
00001000
00000000
00000000
00001000
00000000
00000000
00010000
00001000
,
00010000
00000000
00100000
00000000
01000000
00010000
10000000
00000000
00010000
00100000
00000000
10000000
00100000
00000000
00010000
01000000
,
00100000
00000000
00010000
00000000
00001000
00000100
00000001
00000000
00001000
00000100
00000000
00000001
00000100
00000000
00001000
00000010
,
00000100
00000000
00001000
00000000
00010000
00001000
01000000
00000000
00001000
00010000
00000000
01000000
00100000
00000000
01000000
00010000
,
00001000
00000000
00010000
00000000
00100000
01000000
00010000
00000000
00100000
01000000
00000000
10000000
00010000
00000000
01000000
00010000
,
00100000
00000000
01000000
00000000
00010000
00000000
00001000
00000000
00000010
00000000
00001000
00000000
00010000
00000000
00001000
00010000
,
00001000
00000000
00000100
00000000
00000010
00000000
00000100
00000000
00001000
00010000
00000000
00001000
00000010
00000000
00000100
00001000
,
00000001
00000010
00000100
00001000
00000100
00010000
00001000
01000000
00010000
00000000
01000000
10000000
01000000
00000000
00010000
00100000
,
02000000
00000000
03020000
00000000
00000000
00032000
00000000
00000000
00003020
00000000
00000000
00000032
00000000
00000000
00001003
00000000
,
00000010
00000100
00001000
00010000
01000000
00100000
00010000
01000000
,
00100000
00010000
00001000
00000010
00000100
00010000
00001000
00000000
,
00010000
00000010
00001000
00010000
00100000
00001000
00010000
00000100
,
00001000
00010000
01000000
00010000
00000100
00001000
00010000
00000000
,
00001000
00100000
00010000
00001000
00000010
00001000
00000100
00001000
,
00010000
01000000
00001000
00010000
01000000
00010000
00001000
00000000
,
00010000
00000000
00001000
00000000
00000010
00000000
00000100
00000000
00001000
00000000
00000010
00000000
00010000
00000000
00001000
00010000
,
00100000
01000000
00010000
00000000
00100000
00010000
01000000
00000000
00010000
00100000
00001000
00010000
00000010
00001000
00000010
00001000
,
00000100
00000010
00001000
00010000
00100000
10000000
01000000
00010000
,
00001000
00000000
00000010
00000000
00000100
00000000
00001000
00000000
00000001
00000000
00000100
00000000
00000010
00000000
00001000
00000001
,
00001000
00000100
00000010
00001000
00010000
01000000
10000000
00100000
,
00010000
00000000
00001000
00000000
00000100
00000000
00000010
00000000
00001000
00000000
00000010
00000000
00000100
00001000
00010000
00001000
,
00010000
00000000
00001000
00000000
00010000
00000000
01000000
00100000
01000000
00000000
10000000
00000000
00010000
01000000
00100000
01000000
,
00010000
00000000
00100000
00000000
01000000
00000000
00010000
00001000
00000100
00000010
00000000
00001000
00000010
00000000
00000100
00000000
,
00000010
00000000
00000001
00000010
00001000
00000000
00000001
00000010
00001000
00000000
00000010
00000001
00000100
00000000
00001000
00010000
,
00002000
00000000
00000000
00003000
,
00002000
00000000
00000000
00023000
00000000
00000000
02030000
00000000
,
00000000
00000000
00000000
00000000
00000000
00000000
00000000
00000000
00000000
00000000
13000000
00000000
00000000
01000000
00000000
00000000
,
00020000
00000000
00000000
00032000
00000000
00000000
00203000
00000000
,
00000000
00000000
00000000
00000000
00000000
00000000
00301000
00010000
00001000
00000000
00000000
00000100
00000000
00000000
00000001
00000000
,
00000020
00000000
00000000
00000230
00000000
00000000
00020300
00000000
,
00000000
00000000
00000000
00000000
00000000
00000000
00000000
00000000
00000000
00000000
00031000
00000000
00000000
00010000
00000000
00000000
,
00002000
00000000
00000000
00003200
00000000
00000000
00000301
00000000
,
00001001
00000000
00000000
00000000
00000001
00001000
00000001
00001000
00000001
00000000
00000000
00000100
00000000
00000000
00000010
00000000
,
00001000
00000000
00001000
00000000
00000001
00000010
00000100
00001000
00000100
00010000
00001000
01000000
00001000
00000000
00010000
00000000
,
00001000
00000000
00010000
00000000
00100000
01000000
00100000
10000000
00010000
00100000
00000000
01000000
10000000
00000000
00010000
01000000
,
00100000
00000000
00010000
00000000
00001000
00010000
00000100
00010000
00001000
00010000
00000100
00001000
00000100
00000000
00000010
00000000
,
00000001
00000000
00000100
00000000
00000001
00000010
00000100
00001000
00000100
00010000
00000000
00010000
00001000
00000000
00000000
00000000
,
00010000
00000000
00001000
00000000
00010000
00000000
00100000
01000000
00010000
00000000
00100000
00000000
01000000
00000000
00100000
00001000
,
00010000
00000000
00001000
00000000
00000100
00000000
00000010
00000100
00001000
00000000
00010000
00000000
00001000
00000000
00100000
00001000
,
00010000
00000000
00100000
01000000
10000000
00000000
01000000
00010000
00100000
00000000
01000000
00010000
00001000
00000000
00000010
00000100
,
00002000
00003002
00002000
00003003
,
00000001
00000000
00001000
00000000
00000001
00000100
00000000
00000010
00000100
00000000
00001000
00000100
00000000
00000010
00000100
00000000
,
00000001
00000000
00000010
00000000
00001000
00010000
00000000
00001000
01000000
00000000
00001000
00010000
00000000
00100000
01000000
00000000
,
00010000
00000000
10000000
00000000
00010000
00100000
00000000
01000000
00100000
00000000
10000000
00100000
00000000
01000000
00100000
00000000
,
00001000
00000000
00010000
00000000
00001000
00100000
00000000
00010000
00001000
00000000
00000100
00000010
00000000
00000001
00001000
00000000
,
00000010
00000000
00000100
00000000
00001000
00010000
00000000
00100000
01000000
00000000
00010000
00100000
00000000
01000000
10000000
00000000
,
00010000
00000000
01000000
00000000
00100000
00010000
00000000
00001000
00010000
00000000
00000010
00010000
00000000
00001000
00100000
00000000
,
01000000
00000000
10000000
00000000
00100000
00010000
00000000
00001000
01000000
00000000
00001000
00000100
00000000
00000010
00001000
00000000
,
00000001
00000000
00000010
00000000
00000100
00001000
00000100
00010000
00001000
00000000
00000000
01000000
00000000
00000000
00010000
10000000
,
00010000
00000000
10000000
00000000
01000000
00100000
00000000
00001000
00010000
00000000
00001000
00000100
00000000
00000010
00000100
00001000
,
00010000
00000000
00001000
00000000
00100000
00001000
00000000
00010000
00001000
00000000
00000010
00000100
00000000
00001000
00000010
00000100
,
00000001
00000000
00001000
00000000
00000100
00000010
00000000
00001000
00010000
00000000
00100000
01000000
00000000
00010000
00100000
01000000
,
10000000
00000000
00010000
00000000
01000000
00100000
00010000
00100000
01000000
00000000
00000000
00100000
00000000
00000000
10000000
00000000
,
00010000
00000000
00100000
00000000
01000000
00000000
00010000
00000000
00001000
00000000
00010000
00000000
00000010
00000000
00010000
00001000
,
00010000
00000000
00001000
00000000
00000010
00000000
00000100
00000010
00000001
00001000
00000000
00000010
00000100
00000000
00000001
00001000
,
00000001
00000010
00000100
00001000
00000100
00010000
00001000
01000000
00010000
00000000
00100000
01000000
10000000
00000000
00100000
00010000
,
00001000
00000000
00000000
00000000
00010000
00001000
00000010
00000001
00000100
00000000
00000000
00001000
00000000
00000000
00010000
00000000
,
00022000
00000000
00000000
00000000
,
00033000
00000000
00000000
00000000
;

//--------------- dance-double - Fred-104† ----------------
#NOTEDATA:;
#STEPSTYPE:dance-double;
#DESCRIPTION:Fred-104†;
#DIFFICULTY:Challenge;
#METER:18;
#CREDIT:Fred-104†;
#NOTES:
00000000
00000000
00000000
00000000
,
00000000
00000000
00000000
00000000
,
00000000
00000000
00000000
00000000
,
00000000
00000000
00000000
00000000
,
00000000
00000000
00000000
00000000
,
00000000
00000000
00000000
00000000
,
00000000
00000000
00000000
00000000
,
00000000
00000000
00000000
00000000
,
00000000
00000000
00000000
00000000
,
00000000
00000000
00000000
00000000
,
00000002
00000103
00002000
00013000
00002000
01003000
00002000
00003000
,
00002000
00013000
02000000
03100000
00020000
01030000
00020000
00030000
,
00020000
00130000
20000000
30100000
00002000
01003000
00002000
00003000
,
00020000
00000000
00031000
00000000
00000100
00000001
00001000
00000100
00000010
00000000
00000000
00000001
00000000
00000000
00001000
00000001
,
00002000
00003001
00000200
00001300
00020000
00130000
02000000
03010000
,
00200000
01300000
00020000
00031000
00000020
00000130
00002000
00003010
,
00000200
00001300
00200000
00310000
02000000
03100000
00020000
00031000
,
00011000
00000000
00000000
00000000
00001000
00010000
00100000
10000000
01000000
00000000
00000000
00010000
00000000
00000000
00001000
00000000
,
00011000
00000000
00000000
00000000
00001000
00000000
00000000
00000000
00010000
00000000
00000000
00000000
00001000
00000000
00000100
00000001
,
00001000
00000000
00000000
00000000
00000100
00000000
00000000
00000000
00000010
00001000
00010000
00001000
00100000
00010000
00100000
00001000
,
00010000
00000000
00000000
00000000
00001000
00000000
00000000
00000000
00000100
00000000
00000000
00000000
00000001
00000000
00001000
00000100
,
00000010
00000000
00000000
00000000
00000001
00000000
00000000
00000000
00000100
00001000
00000000
00010000
00001000
00000000
00010000
00000000
,
00011000
00000000
00001000
00000000
00010000
00000000
01000000
00000000
01100000
00000000
00100000
00000000
00010000
00000000
10000000
00010000
,
00110000
00000000
00100000
00000000
01000000
00000000
10000000
00000000
00010000
10000000
00000000
00100000
10000000
00000000
00010000
01000000
,
00001000
00000000
00000000
00010000
00000000
00000000
00001000
00000000
00000000
00000100
00000000
00000000
00000010
00000000
00000000
00000100
00000000
00000000
00000001
00000000
00000000
00001000
00000000
00000000
00000100
00000000
00000000
00000010
00000000
00000000
00000001
00000000
00000010
00000000
00000001
00000000
00000010
00000000
00000000
00000100
00000000
00000000
00001000
00000000
00000001
00000000
00001000
00000000
,
00000010
00000000
00001010
00000000
00000000
00000101
00000000
00000000
00001100
00000000
00000000
00011000
00000000
00000000
00001000
00010000
,
00001000
00000000
00010000
00000000
00100000
01000000
00000000
00010000
10000000
00000000
01000000
00100000
00000000
00010000
00100000
00001000
,
00010000
00000000
00001000
00000000
00010000
00100000
00000000
01000000
00010000
00000000
10000000
01000000
00000000
00100000
00001000
00010000
,
00001000
00000000
00000100
00000000
00000010
00001000
00000000
00000100
00000010
00000000
00000100
00001000
00000000
00000010
00010000
00001000
,
00010000
00000000
00001000
00000000
00010000
00001000
00000000
00000100
00000010
00000000
00000001
00000010
00000000
00000100
00000001
00001000
,
00000100
00000000
00010000
00000000
00001000
00010000
00000000
01000000
00100000
00000000
01000000
10000000
00000000
00010000
01000000
00001000
,
00010000
00000000
00000100
00000000
00001000
00000100
00000000
00000010
00000001
00000000
00001000
00000010
00000000
00000100
00001000
00010000
,
00001000
00000000
00100000
00000000
00001000
00010000
00000000
00100000
01000000
00000000
00100000
10000000
00000000
01000000
00100000
00001000
,
00010000
00000000
00000000
00000000
00000000
00000000
00002000
00000000
00000000
00000000
00000000
00000000
00000000
00000000
00000000
00023000
00000000
00000000
00000000
00000000
00000000
00030000
00000000
00000000
00011000
00000000
00000000
00000000
00000000
00000000
00000000
00000000
00000000
01001000
00000000
00000000
00000000
00000000
00000000
00000000
00000000
00000000
00010000
00000000
00000100
00000000
00001000
00000000
,
00000100
00000000
00000010
00000000
00000001
00000100
00000000
00001000
00010000
00000000
01000000
10000000
00000000
00010000
00100000
01000000
,
10000000
00000000
00010000
00000000
10000000
00100000
00000000
00010000
00001000
00000000
00000010
00000001
00000000
00001000
00000001
00000010
,
00000100
00000000
00010000
00000000
00001000
00010000
00000000
00100000
01000000
00000000
10000000
01000000
00000000
00100000
10000000
01000000
,
00100000
00000000
00001000
00000000
00010000
00001000
00000000
00000100
00001000
00000000
00010000
00000100
00000000
00001000
00000001
00000010
,
00000100
00000000
00010000
00000000
00001000
00000000
00000100
00000000
00000010
00000000
00001000
00000000
00000001
00000000
00000100
00000010
,
00000100
00000000
00001000
00000000
00010000
00100000
10000000
00000000
00010000
00100000
00000000
10000000
00100000
00000000
00010000
10000000
,
00100000
00000000
00000000
01000000
00000000
00000000
00100000
00000000
00000000
00010000
00000000
00000000
00001000
00000000
00000000
00010000
00000000
00000000
00000010
00000000
00000000
00010000
00000000
00000000
00001000
00000000
00000000
00000000
00000000
00000000
00000010
00000000
00000100
00000000
00000010
00000000
00000001
00000000
00000000
00000000
00000000
00000000
00001000
00000000
00000001
00000000
00001000
00000000
,
00000002
00000000
00000000
00000003
,
00000001
00000100
00000010
00000000
00000001
00000000
00000010
00001000
00000001
00000000
00000010
00000000
00000100
00000001
00000100
00000000
,
00001000
00000000
00000100
00000010
00001000
00000000
00010000
00000000
00100000
00000000
01000000
00000000
00010000
00000000
10000000
00000000
,
00010000
00100000
01000000
00000000
00010000
00000000
01000000
10000000
00010000
00000000
01000000
00000000
00100000
00010000
00100000
00000000
,
10000000
00000000
00010000
00100000
01000000
00000000
00010000
00000000
01000000
00000000
10000000
00000000
00010000
00100000
01000000
00010000
,
00001000
00010000
00001000
00000000
00000100
00000000
00000010
00001000
00000100
00000000
00000010
00000000
00000001
00000100
00001000
00000000
,
00010000
00000000
01000000
00100000
00010000
00000000
01000000
00000000
00100000
10000000
00010000
00000000
00100000
01000000
10000000
00010000
,
10000000
00000000
01000000
00100000
00001000
00000000
00010000
00000000
00001000
00000100
00001000
00000000
00010000
00001000
00010000
00001000
,
00000100
00000000
00000000
00000001
00000000
00000000
00001000
00000000
00000000
00000100
00000000
00000000
00000010
00000000
00000000
00000001
00000000
00000000
00001000
00000000
00000000
00000010
00000000
00000000
00000200
00000000
00000000
00000000
00000000
00000000
00000301
00000000
00000010
00000000
00000100
00000000
00001000
00000000
00000000
00000001
00000000
00000000
00000100
00000000
00000000
00000010
00000000
00000000
,
00001000
00000000
00000010
00000000
00000100
00000000
00000010
00000000
00000001
00000000
00000010
00001000
00000000
00000001
00000010
00000100
,
00010000
00000000
00001000
00000000
00010000
00000000
00100000
00000000
00010000
00000000
00001000
00010000
00000000
00001000
01000000
00000000
,
00001000
00000000
00010000
00000000
01000000
00000000
00100000
00000000
00001000
00000000
01000000
00100000
00000000
00010000
00001000
00010000
,
00001000
00000000
00010000
00000000
00001000
00010000
00000010
00010000
00001000
00010000
00100000
01000000
00100000
10000000
00100000
01000000
,
00010000
00000000
00100000
00000000
01000000
00000000
00010000
00001000
00010000
00000000
00001000
00000000
00000100
00000010
00001000
00000100
,
00000010
00000000
00000001
00000000
00001000
00000000
00000001
00000100
00000010
00000100
00000000
00000100
00000001
00000000
00001000
00000001
,
00000010
00000000
00000000
00000100
00000000
00000000
00001000
00000000
00000000
00000100
00000000
00000000
00010000
00000000
00000000
00001000
00000000
00000000
01000000
00000000
00000000
00010000
00000000
00000000
10000000
00000000
00000000
00000000
00000000
00000000
01000000
00000000
00100000
00000000
00010000
00000000
00100000
00000000
00000000
00000000
00000000
00000000
00010000
00000000
10000000
00000000
00010000
00000000
,
20000000
00000000
00000000
00000000
00000000
00000000
00000000
00000000
30000000
00000000
00000000
00000000
10000000
00100000
00010000
00001000
,
00020000
00000000
00000000
00032000
00000000
00003000
00022000
00000000
,
00000000
00000000
00000000
00000000
00000000
00000000
00000000
00000000
00033000
00000000
00020000
00000000
00000000
00032000
00000000
00000000
,
00003200
00000000
00000000
00000002
00000000
00000303
00002002
00000000
,
00000000
00000000
00000000
00000000
00003003
00000000
00000001
00000010
00001000
00000000
00000000
00010000
00000000
00000000
01000000
00000000
,
22000000
00000000
33000000
20020000
00000000
30030000
02020000
00000000
,
00000000
00000000
00000000
00000000
00000000
00000000
00000000
00000000
03030000
00000000
02020000
03030000
00000000
00022000
00033000
00000000
,
00002020
00000000
00003030
00000022
00000000
00000033
00002002
00003003
,
00001000
00000000
00000000
00000000
00000001
00000100
00000010
00000100
00001000
00000000
00000000
00010000
00000000
00000000
00001000
00000000
,
00010000
00000000
00000010
00000000
00010000
00001000
00010000
00000100
00001000
00000100
00010000
00001000
00010000
00000000
00001000
00000000
,
00010000
00000000
00000000
00000000
00000000
00000000
00001000
00000000
00000000
00000000
00000000
00000000
00010000
00000000
00000000
00100000
00000000
00000000
01000000
00000000
00000000
00100000
00000000
00000000
10000000
00000000
00000000
00100000
00000000
00000000
00000000
00000000
00000000
00010000
00000000
00000000
00001000
00000000
00000000
00000000
00000000
00000000
00010000
00000000
00001000
00000000
00010000
00000000
,
00001000
00000000
00010000
00000000
00001000
00000010
00000100
00000010
00000001
00001000
00000010
00001000
00000001
00000000
00000010
00000100
,
00001000
00000000
00000100
00000000
00010000
00001000
00010000
00001000
01000000
00010000
01000000
00001000
00010000
00000000
00000000
00000000
,
00001000
00000000
00010000
00000000
00000010
00001000
00000010
00000100
00000001
00000000
00001000
00000000
00000001
00000010
00000100
00001000
,
00000100
00000000
00010000
00000000
00001000
00010000
01000000
00100000
00010000
00000000
10000000
00000000
00100000
01000000
00010000
10000000
,
01000000
00000000
00000000
00100000
00010000
00100000
00001000
00000000
00000000
00010000
00001000
00010000
00000010
00000000
00000000
00001000
00000010
00000100
00000001
00000000
00000000
00001000
00000100
00000010
,
00000002
00002003
00000002
00003003
,
00001000
00000001
00001000
00000000
00000001
00000100
00000000
00001000
00010000
00000000
00001000
01000000
00000000
00001000
00010000
00001000
,
00100000
00001000
00010000
00000000
00100000
01000000
00000000
00100000
10000000
00000000
01000000
00100000
00000000
00010000
00100000
00001000
,
00010000
00001000
00010000
00000000
01000000
00100000
00000000
00010000
10000000
00000000
01000000
00010000
00000000
00001000
00010000
00000100
,
00010000
00001000
00000100
00000000
00000001
00001000
00000000
00000100
00000010
00000000
00000001
00001000
00000000
00000010
00010000
00001000
,
00010000
00100000
01000000
00000000
00100000
10000000
00000000
01000000
00100000
00000000
00001000
00010000
00000000
00000100
00010000
00000100
,
00001000
00000100
00000010
00000000
00000001
00000010
00000000
00001000
00000010
00000000
00000100
00000001
00000000
00000100
00001000
00000001
,
00000010
00000100
00010000
00000000
00001000
00100000
00000000
00001000
00010000
00000000
00001000
01000000
00000000
00001000
00010000
00001000
,
00100000
00000000
00001000
00000000
00010000
00100000
01000000
00000000
01010000
00000000
00000000
10010000
00000000
00000000
10000000
00010000
,
01000000
00100000
10000000
00000000
00010000
10000000
01000000
00100000
00010000
00000000
01000000
00001000
00000000
00010000
00000100
00010000
,
00001000
00000100
00000010
00000000
00001000
00000001
00000010
00000100
00001000
00000000
00000010
00010000
00000000
00001000
00100000
00001000
,
00010000
01000000
00100000
00000000
01000000
10000000
00010000
01000000
00100000
00000000
10000000
00100000
00000000
00010000
00001000
00010000
,
00000010
00010000
00001000
00000000
00010000
00001000
00000010
00001000
00010000
00000000
00000000
00010100
00000000
00000000
00011000
00000000
,
00001000
00000000
00010000
00000000
00100000
00000000
01000000
00000000
00100000
00000000
10000000
00000000
01000000
00000000
00010000
01000000
,
00100000
00000000
00000000
00000000
00000000
00000000
00010000
00000000
00000000
00000000
00000000
00000000
00001000
00000000
00000000
00000000
00000000
00000000
00000100
00000000
00000000
00000010
00000000
00000000
00000001
00000000
00000000
00001000
00000000
00000000
00000000
00000000
00000000
00000010
00000000
00000000
00000100
00000000
00000000
00000000
00000000
00000000
00001000
00000000
00010000
00000000
00001000
00000000
,
00010000
00000000
00000000
00001000
00000000
00000000
01000000
00000000
00000000
00010000
00000000
00000000
01000000
00000000
00000000
00001000
00000000
00000000
00010000
00000000
00000000
00001000
00000000
00000000
00100000
00000000
00000000
00000000
00000000
00000000
00010000
00000000
00100000
00000000
01000000
00000000
10000000
00000000
00000000
00000000
00000000
00000000
00010000
00000000
10000000
00000000
00100000
00000000
,
01000000
00000000
00000000
00000000
00010000
10000000
01000000
00010000
00001000
00000000
00000000
00000010
00000000
00000000
00000001
00000000
,
00002002
00000000
00000000
00000000
,
00003003
00000000
00000000
00000000
;
