#VERSION:0.83;
#TITLE:Ambitious;
#ARTIST:S-C-U;
#BANNER:Ambitious.png;
#BACKGROUND:Ambitious-bg.png;
#CDTITLE:./CDTitles/RB colette -All Seasons-.png;
#MUSIC:Ambitious.ogg;
#SAMPLESTART:80.43;
#SAMPLELENGTH:15;
#BPMS:0=182;
#BGSTAGE:30;

//--------------- dance-single - Fred-104 ----------------
#NOTEDATA:;
#STEPSTYPE:dance-single;
#DESCRIPTION:Fred-104;
#DIFFICULTY:Beginner;
#METER:3;
#CREDIT:Fred-104;
#NOTES:
0000
0000
0000
0000
,
0000
0000
0000
0000
,
0000
0000
0000
0000
,
0000
0000
0000
0000
,
0000
0000
0000
0000
,
1000
0000
0000
1000
,
0000
0000
0000
0000
,
0001
0000
0000
0001
,
0000
0000
0000
0000
,
1000
0000
0001
0000
,
1000
0000
0010
0000
,
1000
0000
0001
0000
,
1000
0000
1000
0000
,
2000
0000
0000
0000
,
0000
0000
0000
3000
,
1000
0000
0100
0000
,
0010
0000
0001
0000
,
0002
0000
0000
0000
,
0000
0000
0000
0003
,
2000
0000
0000
0000
,
0000
0000
0000
3000
,
1001
0000
0000
0000
,
1000
0000
0010
0000
,
1000
0000
0001
0000
,
1000
0000
0001
0000
,
2000
0000
3000
0000
,
0002
0000
0003
0000
,
2000
0000
3000
0000
,
0002
0000
0003
0000
,
1001
0000
0001
0000
,
1000
0000
1000
0000
,
0100
0000
1000
0000
,
1000
0000
0001
0000
,
0001
0000
0010
0000
,
0001
0000
1000
0000
,
0001
0000
1000
0000
,
0010
0000
0010
0010
,
0010
0000
0100
0000
,
0001
0000
1000
0000
,
0001
0000
1000
0000
,
0001
0000
1000
0000
,
0001
0000
0100
0000
,
0001
0000
1000
0000
,
0001
0000
1000
0000
,
2002
0000
3003
0000
,
0002
0000
0000
0000
,
0003
0000
0000
0000
,
2000
0000
0000
0000
,
3000
0000
0000
0000
,
0001
0000
1000
0000
,
0010
0000
0100
0000
,
0002
0000
0003
0000
,
2000
0000
3000
0000
,
0200
0000
0000
0000
,
0300
0000
0000
0000
,
0020
0000
0000
0000
,
0030
0000
0000
0000
,
0001
0000
1000
0000
,
0001
0000
1000
0000
,
0002
0000
0003
0000
,
2002
0000
3003
0000
,
1000
0000
0010
0000
,
1000
1000
1000
0000
,
0001
0000
0010
0000
,
0100
0100
0100
0000
,
1000
0000
0001
0000
,
0100
0100
0100
0000
,
0001
0000
1000
0000
,
2002
0000
3003
0000
,
1000
0000
0001
0000
,
0100
0000
0100
0000
,
0001
0000
1000
0000
,
0100
0000
0100
0000
,
0010
0000
0001
0000
,
1000
0000
0010
0000
,
1000
0000
0001
0000
,
1000
0000
0001
0000
,
2002
0000
0000
0000
0000
0000
0000
0000
0000
0000
0000
0000
0000
0000
0000
3003
;

//--------------- dance-single - Fred-104 ----------------
#NOTEDATA:;
#STEPSTYPE:dance-single;
#DESCRIPTION:Fred-104;
#DIFFICULTY:Easy;
#METER:7;
#CREDIT:Fred-104;
#NOTES:
0000
0000
0000
0000
,
0000
0000
0000
0000
,
0000
0000
0000
0000
,
0000
0000
0000
0000
,
0000
0000
0000
0000
,
1000
0000
0000
1000
0000
0000
0000
0000
0000
0000
0000
0000
0010
0000
0000
0010
,
0000
0000
0000
0000
0000
0000
0001
0000
0000
0000
0000
0001
0000
0000
0000
0000
,
0100
0000
0000
0100
0000
0000
0000
0000
0000
0000
0000
0000
1000
0000
0000
1000
,
0000
0000
0000
0000
0000
0000
0001
0000
0000
0000
0000
0001
0000
0000
0000
0000
,
1000
0010
1000
0010
,
1000
0001
0001
0010
,
0001
0000
0000
1000
0000
0000
0001
0000
0000
1000
0000
0000
0001
0000
0000
0000
,
0002
0000
0000
0003
,
1000
0000
0000
0001
0000
0000
0200
0000
,
0000
0000
0000
0300
,
0100
0001
1000
0001
,
1000
1000
0100
0010
,
0001
0000
0000
0001
0000
0000
0002
0000
0000
0000
0000
0000
0000
0000
0000
0000
,
0000
0000
0000
0003
,
1000
0000
0000
1000
0000
0000
2000
0000
0000
0000
0000
0000
0000
0000
0000
0000
,
0000
0000
0000
3000
,
0001
0000
0000
1000
0000
0000
0010
0000
,
0000
1000
0000
1000
,
0001
0010
0100
1000
,
0001
0100
0001
0001
,
1000
0000
0000
1000
0000
0000
2000
0000
0000
0000
0000
0000
3001
0000
0000
0001
,
0000
0002
0000
0000
1003
0000
0010
0000
,
0100
0000
0000
0100
0000
0000
0200
0000
0000
0000
0000
0000
0301
0000
0000
0001
,
0000
0002
0000
0000
0000
0000
0003
0000
,
1001
0000
0001
0000
,
0001
0010
0001
1000
,
0001
0000
0100
0000
,
0010
1000
0001
1000
,
1000
0000
0100
0000
,
1000
0001
0100
0001
,
1000
0000
0100
0000
,
0010
0001
2000
3002
,
1003
0001
0100
0000
,
0001
1000
0010
0100
,
0001
1000
0100
0000
,
0010
0001
0010
0100
,
0010
0001
1000
0000
,
0010
0100
0001
1000
,
1001
0000
0110
0000
,
1000
0001
1000
0001
,
1000
0010
0100
0200
,
0000
0000
0000
0300
,
0001
0010
0100
0200
,
0000
0000
0000
0300
,
1000
0010
0100
0001
,
1000
0001
0010
0100
,
1000
0000
0000
1000
0000
0000
1000
0000
0000
0000
0000
0000
1000
0000
0000
0000
,
0001
0000
0000
0001
0000
0000
0001
0000
0000
0000
0000
0000
0001
0000
0000
0000
,
0100
0001
1000
0100
,
0010
0000
0001
0000
,
0010
0001
1000
0001
,
0100
0000
0010
0000
,
0100
0100
0010
0010
,
1000
1000
0001
0001
,
1000
0000
0000
1000
0000
0000
1000
0000
0000
0000
0000
0000
1000
0000
0000
0000
,
0001
0000
0000
0001
0000
0000
0001
0000
0000
0000
0000
0000
1001
0000
0000
0000
,
1000
0001
1000
0100
,
1000
1000
0010
0100
,
0001
1000
1000
0001
,
0010
0100
0010
0010
,
0001
0100
0100
1000
,
0100
0100
0001
1000
,
0001
0100
0010
1000
,
0001
1000
1001
0000
,
0001
0010
0100
1000
,
0001
0001
0100
1000
,
1000
0010
0001
1000
,
0001
0100
0010
1000
,
0010
0100
0001
1000
,
0100
0010
0001
1000
,
0001
0000
0000
0001
0000
0000
1001
0000
0000
0000
0000
0000
1000
0000
0000
0000
,
0010
0000
0000
0010
0000
0000
0110
0000
0000
0000
0000
0000
0100
0000
0000
0000
,
0001
0000
0000
1001
0000
0000
0000
0000
0000
0000
0000
0000
1000
0000
0000
1001
;

//--------------- dance-single - Fred-104 ----------------
#NOTEDATA:;
#STEPSTYPE:dance-single;
#DESCRIPTION:Fred-104;
#DIFFICULTY:Medium;
#METER:11;
#CREDIT:Fred-104;
#NOTES:
0000
0000
0000
0000
,
0000
0000
0000
0000
,
0000
0000
0000
0000
,
0000
0000
0000
0000
,
0000
0000
0000
0000
,
1000
0000
0000
1010
0000
0000
0000
0000
0000
0000
0000
0000
0001
0000
0000
0011
,
0000
0000
0000
1000
0010
0100
0001
1000
,
0001
0000
0000
0101
0000
0000
0000
0000
0000
0000
0000
0000
1000
0000
0000
1100
,
0000
0000
0000
0001
1000
0001
0010
0100
,
0010
0001
1000
0000
0010
0000
1000
0000
,
0100
0010
0001
0000
1000
0000
0001
0000
,
1000
0000
0000
0010
0000
0000
0001
0000
0000
0010
0000
0000
1000
0000
0001
0000
,
0010
0100
1000
0100
0010
0001
1000
0000
,
0001
0000
0000
1000
0000
0000
2200
0000
,
0000
0000
0000
3300
,
0001
0010
0001
0010
0100
0010
0100
0010
,
0001
1000
0001
1000
0010
0100
0001
0000
,
1000
0000
0000
0100
0000
0000
0220
0000
0000
0000
0000
0000
0000
0000
0000
0000
,
0000
0000
0000
0330
,
0001
0000
0000
1000
0000
0000
2002
0000
0000
0000
0000
0000
0000
0000
0000
0000
,
0000
0000
0000
3003
,
0001
0000
1000
0001
0000
1000
0100
0000
,
0010
0000
0001
0000
1000
0000
0010
0100
,
0001
1000
0001
0010
0001
1000
0010
1000
,
0001
0010
0100
1000
0100
0010
0001
0000
,
1000
0000
0000
0010
0000
0000
1010
0000
0000
0000
0000
0000
0001
0000
0000
0010
,
0000
0011
0000
0000
0001
0000
1000
0000
,
0001
0000
0000
0100
0000
0000
0101
0000
0000
0000
0000
0000
1000
0000
0000
0100
,
0000
2200
0000
0000
0000
0000
3300
0000
,
1000
0100
1000
0000
0001
0100
0001
0000
,
1000
0010
1000
0000
0001
0010
0001
0000
,
1000
0100
0010
0000
0001
0100
0010
0000
,
0100
0001
1000
0000
0100
0010
0001
0000
,
1000
0100
0001
0000
0100
1000
0001
0000
,
1000
0010
0001
0000
0010
1000
0001
0000
,
1000
0010
0100
0000
0001
0010
0100
0000
,
1000
0001
0100
0000
0001
0001
1000
1000
,
0001
1000
0010
0000
0100
0001
1000
0000
,
0100
0010
0001
1000
0010
0100
0001
0000
,
1000
0001
0010
0000
0100
0010
0001
0000
,
1000
0001
0100
0001
1000
0001
0010
0000
,
0100
1000
0001
0000
0100
0010
1000
0000
,
0001
0010
0100
1000
0001
0100
0001
0000
,
1000
1100
0000
0000
0001
0101
0000
0000
,
1000
1000
0001
0001
1000
0001
1000
0001
,
1000
0000
0100
0000
0010
0000
0000
0100
0000
0000
1000
0000
0001
0000
0200
0000
,
0000
0000
0000
0300
,
0001
0000
0100
0000
0010
0000
0000
0100
0000
0000
0001
0000
1000
0000
0200
0000
,
0000
0000
0000
0300
,
0010
0100
0001
0000
0100
0000
1000
0000
,
0001
0100
1000
0000
0100
0000
0001
0000
,
1000
0000
0000
1010
0000
0000
1010
0000
0000
0000
0000
0000
1001
0000
0000
0000
,
0001
0000
0000
0011
0000
0000
0011
0000
0000
0000
0000
0000
1001
0000
0000
0000
,
0001
0000
0010
0000
0100
0000
0000
1000
0000
0000
0010
0000
1000
0000
0002
0000
,
0000
0000
0000
0000
,
1003
0000
0001
0000
0010
0000
0000
0001
0000
0000
0100
0000
0010
0000
2000
0000
,
0000
0000
0000
0000
,
3001
1000
0100
0000
0110
0000
0011
0000
,
0010
0001
0100
0000
0110
0000
1010
0000
,
1000
0000
0000
1100
0000
0000
1100
0000
0000
0000
0000
0000
1001
0000
0000
0000
,
0001
0000
0000
0101
0000
0000
0101
0000
0000
0000
0000
0000
1001
0000
0000
0000
,
0001
0100
0001
1000
0100
1000
0010
0100
,
0000
0001
0000
0100
0000
0010
0000
1000
,
0001
0010
0001
0100
0010
1000
0100
0010
,
0000
0001
0000
1000
0000
0001
0100
0001
,
1000
0000
0001
0000
0010
0000
0000
0010
0000
0000
0010
0000
0100
0000
0000
0000
,
1000
0000
0001
0000
0100
0000
0000
0100
0000
0000
0010
0000
0100
0000
0000
0000
,
0010
0000
0000
1000
0000
0000
1001
0000
0000
0000
0000
0000
0110
0000
0000
0000
,
0010
0000
0000
0001
0000
0000
1001
0000
0000
0000
0000
0000
0110
0000
0000
0000
,
1000
0000
0010
0000
0100
0000
0000
0001
0000
0000
0010
0000
0100
0000
0010
0000
,
0002
0000
0100
0000
1000
1000
1003
0000
,
0001
0000
0010
0000
0100
0000
0000
1000
0000
0000
0001
0000
0100
0000
0010
0000
,
2000
0000
0100
0000
0001
0001
3001
0000
,
1001
0000
1000
0000
0100
0001
0100
0000
,
1001
0000
1000
0000
0010
0001
0010
0000
,
1000
0000
0000
0100
0000
0000
0110
0000
0000
0000
0000
0000
0001
0000
0010
0000
,
0001
0000
0000
0100
0000
0000
0110
0000
0000
0000
0000
0000
1000
0000
0001
0000
,
1000
0000
0000
1001
0000
0000
0000
0000
0000
0000
0000
0000
0001
0000
0000
1001
;

//--------------- dance-single - Fred-104 ----------------
#NOTEDATA:;
#STEPSTYPE:dance-single;
#DESCRIPTION:Fred-104;
#DIFFICULTY:Hard;
#METER:14;
#CREDIT:Fred-104;
#NOTES:
0000
0000
0000
0000
,
0000
0000
0000
0000
,
0000
0000
0000
0000
,
0000
0000
0000
0000
,
0000
0000
0000
0000
,
1100
0000
0000
1100
0000
0000
0000
0000
0000
0000
0000
0000
0101
0000
0000
0101
,
0000
0000
0000
1000
0001
1000
0001
0010
,
0011
0000
0000
0011
0000
0000
0000
0000
0000
0000
0000
0000
1010
0000
0000
1010
,
0000
0000
0000
0001
0010
0100
1000
0001
,
1000
0000
0010
0000
0200
0000
0000
0001
0000
0000
0301
0000
0010
0000
0100
0000
,
1000
0000
0001
0000
2000
0000
0000
0010
0000
0000
3010
0000
0100
0000
0001
0000
,
1000
0100
0000
1000
0100
0000
0010
0001
0000
0010
0001
0000
1000
0000
0001
0000
,
0010
0000
0100
0000
1000
0000
0001
0000
0100
0010
0100
0000
0001
1000
0001
0000
,
1000
0000
0000
0001
0000
0000
0202
0000
,
0000
0000
0000
0000
0000
0000
0000
0000
0000
0000
0000
0000
0303
0000
0001
1000
,
0001
0010
0100
1000
0001
0100
0010
1000
,
0010
0100
0001
1000
0100
1000
0010
0100
,
0001
0000
0000
1000
0000
0000
2002
0000
0000
0000
0000
0000
0000
0000
0000
0000
,
0000
0000
0000
0000
0000
0000
0000
0000
0000
0000
0000
0000
3003
0000
0001
1000
,
0010
0000
0000
0100
0000
0000
0220
0000
0000
0000
0000
0000
0000
0000
0000
0000
,
0000
0000
0000
0000
0000
0000
0000
0330
,
1001
0000
1000
0100
0000
0001
0100
0000
,
0010
0000
0000
0000
0001
0000
0000
0000
1000
0000
0000
0000
0001
0000
1000
0001
,
1000
0100
0001
0100
0010
0100
1000
0001
,
0100
0000
1000
0000
0100
0000
0010
1000
0010
0000
0100
0000
0001
0000
1000
0000
,
1100
0000
0000
1100
0000
0000
1001
0000
0000
0000
0000
0000
0101
0000
0000
0101
,
0000
1001
0000
0000
0011
0000
0110
0000
,
0011
0000
0000
0011
0000
0000
1001
0000
0000
0000
0000
0000
1010
0000
0000
1010
,
0000
2002
0000
0000
0000
0000
3003
0000
,
0001
1000
0010
0100
0001
0100
0010
1000
,
0001
0000
1000
0000
0100
0000
0010
0000
0001
0000
1000
0001
1000
0000
0010
0000
,
0100
0010
1000
0001
0010
0100
0010
0001
,
1000
0000
0010
0000
1000
0000
0001
0100
0001
0000
1000
0000
0001
0000
1000
0100
,
1000
0001
0100
0010
1000
0100
0001
0100
,
1000
0000
0001
0000
0100
0000
0010
0000
0100
0000
0001
1000
0001
0000
0100
0000
,
0001
0000
1000
0000
0100
0000
0010
0000
0001
1000
0001
0000
1000
0000
0010
0000
,
0100
0000
0010
0000
1000
0000
0001
0000
1000
0000
1000
0000
0001
1000
0001
1000
,
0001
0000
1000
0000
0001
0000
0010
0000
0100
0000
0010
0000
0001
1000
0001
0000
,
0100
0000
0010
0000
0100
0000
0001
0000
1000
0000
0100
0010
0100
0000
0010
0000
,
0001
0000
1000
0000
0010
0000
1000
0000
0100
0000
0010
0000
0001
1000
0001
0000
,
0100
0000
0001
0000
1000
0000
0001
0010
0001
0000
1000
0000
0001
0100
0001
0000
,
1000
0000
0010
0000
0100
0000
0001
0000
0100
0000
0010
0000
1000
0100
1000
0000
,
0001
0000
0010
0000
0100
0000
1000
0000
0001
0000
0100
0010
0100
0000
0001
0000
,
1000
0000
1100
0000
0000
0000
0001
1000
0001
0000
0101
0000
0000
0000
0100
0010
,
0100
0000
0001
0000
1000
0000
0001
0000
1000
0000
0001
1000
0001
0000
1000
0000
,
0001
0000
0010
0100
0010
0000
0001
1000
0000
0001
1000
0000
0010
0000
0200
0000
,
0000
0000
0000
0000
,
0301
0000
1000
0100
1000
0000
0001
0100
0000
0010
0100
0000
0010
0000
0200
0000
,
0000
0000
0000
0000
,
0301
0000
1000
0000
0020
0000
0000
2030
0000
0000
3200
0000
0310
0000
0100
0000
,
1000
0000
0001
0000
2000
0000
0000
3020
0000
0000
0230
0000
0301
0000
0100
0000
,
0101
0000
0000
0011
0000
0000
1001
0000
0000
0000
0001
0000
1000
0000
0100
0000
,
1100
0000
0000
1010
0000
0000
1001
0000
0000
0000
1000
0000
0001
0000
0000
0000
,
1000
0000
0100
0010
0001
0000
1000
0010
0000
0100
0010
0000
1000
0000
0001
0000
,
0000
0011
0000
1000
0000
1010
0000
0001
,
1000
0000
0010
1000
0001
0000
0010
0100
0000
0010
0100
0000
1000
0000
0001
0000
,
0000
0101
0000
1000
0000
1100
0000
0001
,
1001
0000
1000
0000
0010
0000
0000
0001
0000
0000
0010
0000
1000
0000
0100
0000
,
0110
0000
0100
0000
0010
0000
0000
0001
0000
0000
1000
0000
0001
0000
0100
0000
,
0101
0000
0000
1001
0000
0000
0011
0000
0000
0000
0001
0000
0010
0000
0100
0000
,
1100
0000
0000
0101
0000
0000
0220
0000
0000
0000
0330
0000
1001
0000
0000
0000
,
1000
0000
0001
1000
0010
0000
0100
0001
0000
1000
0001
0000
0010
0000
0001
0000
,
1000
0010
0001
0010
0000
0100
0000
0010
,
1000
0000
0001
0010
0100
0000
0010
0001
0000
1000
0010
0000
1000
0000
0001
0000
,
0010
0100
0001
0100
0000
1000
0000
0001
,
1000
0000
0010
0000
0100
0000
0000
0100
0000
0000
0100
0000
0001
1000
0001
0000
,
0010
0000
0100
0000
1000
0000
0000
1000
0000
0000
1000
0000
0001
0100
0001
0000
,
0011
0000
0000
0011
0000
0000
1001
0000
0000
0000
0001
0000
0100
0000
0010
0000
,
1010
0000
0000
1010
0000
0000
1001
0000
0000
0000
0001
0000
1001
0000
0000
0000
,
0001
0000
0010
0100
1000
0000
0001
0100
0000
0010
0100
0000
0001
0000
1000
0000
,
0100
0000
0010
0000
0001
0000
1000
0000
0001
0000
0000
1000
0001
0000
0100
0000
,
0001
0000
1000
0001
0010
0000
0100
1000
0000
0001
0100
0000
0010
0000
0100
0000
,
0001
1000
0010
1000
0100
0010
0001
0000
,
1000
0000
0100
0000
0010
0000
0000
0001
0000
0000
1000
0000
0010
0000
0100
0000
,
0010
0000
1000
0000
0001
0000
0000
0010
0000
0000
0100
0000
1000
0000
0001
0000
,
1000
0000
0010
1000
0000
0001
0100
0000
0000
0000
0100
0000
0001
0000
1000
0000
,
0010
0000
1000
0001
0000
1000
0100
0000
0000
0000
0100
0000
0010
0001
0010
0001
,
0010
0000
0000
0011
0000
0000
0000
0000
0000
0000
0000
0000
1100
0000
0000
1001
;

//--------------- dance-single - Fred-104 ----------------
#NOTEDATA:;
#STEPSTYPE:dance-single;
#DESCRIPTION:Fred-104;
#DIFFICULTY:Challenge;
#METER:17;
#CREDIT:Fred-104;
#NOTES:
0000
0000
0000
0000
,
0000
0000
0000
0000
,
0000
0000
0000
0000
,
0000
0000
0000
0000
,
0000
0000
0000
0000
,
1010
0000
0000
0101
0000
0000
0000
0000
0000
0000
0000
0000
0011
0000
0000
1100
,
0000
0000
0000
0000
0000
0000
0001
0100
0010
1000
0100
0010
0001
0100
0010
1000
,
0100
0000
0000
0110
0000
0000
0000
0000
0000
0000
0000
0000
1001
0000
0000
0110
,
0000
0000
0000
0000
0000
0000
1000
0100
0010
0001
0100
0010
1000
0100
0010
0001
,
1000
0000
0001
0000
0010
0000
0100
0001
0000
0100
0010
0000
0001
1000
0001
0000
,
1000
0000
0001
0000
0100
0000
1000
0100
0000
0010
0100
0000
0001
1000
0001
0000
,
1000
0100
0000
0001
0100
0000
0010
1000
0000
0010
0001
0000
1000
0000
0001
0000
,
0200
0000
0010
0000
0010
0000
0310
0000
1000
0001
0010
0001
0100
0010
1000
0100
,
1000
0000
0000
0001
0000
0000
0020
0000
,
0000
0000
0000
0000
0000
0000
0000
0000
0000
0000
0000
0000
0000
0000
0031
1000
,
0001
0100
0010
0001
1000
0100
0001
1000
,
0100
0010
1000
0001
0100
0010
0001
1000
,
1100
0000
0000
1010
0000
0000
0220
0000
0000
0000
0000
0000
0000
0000
0000
0000
,
0000
0000
0000
0000
0000
0000
0000
0000
0000
0000
0000
0000
0330
0000
0001
1000
,
0010
0000
0000
0110
0000
0000
2002
0000
0000
0000
0000
0000
0000
0000
0000
0000
,
0000
0000
0000
0000
0000
0000
0000
3003
,
1010
0010
0100
0001
0000
1000
0001
0100
,
0000
0000
1000
0000
0100
0000
0010
0000
0000
0000
0100
0000
0001
0000
0010
0100
,
1000
0010
0100
1000
0001
0010
0100
0001
,
1000
0000
0100
0000
0001
0000
1000
0010
0100
0000
0010
0000
0001
0000
1000
0000
,
1010
0000
0000
1100
0000
0000
1001
0000
0000
0000
0000
0000
1100
0000
0000
1010
,
0000
1100
0000
0000
0101
0000
1010
0000
,
0101
0000
0000
0011
0000
0000
0101
0000
0000
0000
0000
0000
0011
0000
0000
0101
,
0000
2002
0000
0000
0000
0000
3003
0000
,
1000
0000
0010
0000
0100
0000
0001
0000
1000
0000
0100
0000
0010
0001
1000
0001
,
0100
0000
0010
0000
1000
0000
0001
0000
0010
0000
1000
0010
0100
0000
1000
0000
,
0001
0000
0100
0000
0010
0000
1000
0000
0001
0010
0100
1000
0001
0000
1000
0000
,
0010
0000
1000
0000
0001
0000
0010
1000
0010
0000
0001
0000
1000
0000
0010
0001
,
0010
0000
1000
0000
0001
0000
0010
0000
0100
0000
1000
0000
0001
1000
0010
0100
,
0001
0000
1000
0000
0100
0000
0010
0000
0100
0000
0001
0100
1000
0000
0001
0000
,
0100
0000
0001
0000
1000
0000
0100
0000
0010
1000
0010
0100
0010
0000
0001
0000
,
1000
0000
0010
0000
0100
0001
1000
0000
1001
0000
1001
0000
0001
1000
0100
1000
,
0001
0000
0100
0000
1000
0000
0001
0000
1000
0000
0100
0000
0001
1000
0010
1000
,
0001
0000
0010
0000
0100
0000
0010
0000
1000
0000
0001
0100
1000
0000
0001
0000
,
0100
0000
1000
0001
0010
0000
0100
0000
0010
0000
1000
0000
0001
1000
0001
0010
,
0100
0000
1000
0000
0001
0100
1000
0001
0010
0000
0100
0000
0010
1000
0100
0010
,
0001
0000
1000
0000
0010
0000
0001
0000
1000
0000
0100
0000
0010
1000
0001
1000
,
0100
0000
0010
0000
1000
0000
0001
0000
0100
0000
1000
0001
0100
0000
0010
0000
,
1010
0000
1001
0000
0000
0000
1000
0100
0010
0000
0011
0000
0000
0000
0010
0001
,
1000
0000
1100
0000
0001
0000
0101
0000
1000
0100
0010
0001
0100
0010
1000
0001
,
1000
0000
0001
0100
0010
0000
1000
0010
0000
0001
0010
0000
0100
0000
0002
0000
,
0000
0000
1000
0000
0000
0010
0000
0000
0100
0000
0000
0010
0000
0000
1003
0000
,
0001
0000
0100
1000
0100
0000
0010
1000
0000
0100
0010
0000
0001
0000
2000
0000
,
0000
0000
0100
0000
0000
0010
0000
0000
0001
0000
0000
0010
0000
0000
3100
0000
,
0000
0000
1000
0000
0100
0000
0010
0001
0000
0100
0010
0000
0001
0010
1000
0000
,
0001
0000
0010
0000
1000
0000
0010
0100
0000
1000
0001
0000
0100
0001
1000
0001
,
0010
0000
0000
0110
0000
0000
1001
0000
0000
0000
1100
0000
0100
0010
0001
1000
,
0001
0000
0000
0101
0000
0000
1001
0000
0000
0000
0001
0000
0010
0001
1000
0001
,
0100
0000
0001
1000
0100
0000
0001
0100
0000
0010
0001
0000
1000
0000
0020
0000
,
0000
1000
0000
0230
0000
1000
0000
0301
,
1001
0000
0001
1000
0010
0000
0001
0010
0000
0100
0001
0000
1000
0000
0200
0000
,
0000
0001
0000
0320
0000
0100
0000
0031
,
1001
0000
0001
0000
0200
0000
0000
2300
0000
0000
3002
0000
0013
1000
0001
0000
,
0011
0000
1000
0000
0002
0000
0000
0203
0000
0000
0320
0000
1030
0100
0010
0001
,
0100
0000
0000
0110
0000
0000
1001
0000
0000
0000
1001
0000
0001
0010
0100
1000
,
0010
0000
0000
0110
0000
0000
0101
0000
0000
0000
1001
0000
1000
0001
1000
0001
,
1000
0000
0001
0100
1000
0000
0001
0010
0000
1000
0100
0000
0010
0000
0001
0000
,
1000
0000
0100
0010
1000
0000
0020
0000
0000
0000
0031
1000
0100
0000
0010
0000
,
0001
0000
1000
0010
0001
0000
1000
0100
0000
0010
1000
0000
0001
0000
0100
0000
,
0010
0000
0001
0010
0100
0000
0002
0000
0000
0000
1003
0100
0010
0000
0001
0000
,
1000
0000
0010
0000
0002
0000
0000
2003
0000
0000
3200
0000
0310
1000
0001
0000
,
0010
0000
0100
0000
0002
0000
0000
2003
0000
0000
3020
0000
0031
0010
0100
1000
,
0001
0000
0000
0110
0000
0000
1100
0000
0000
0000
1001
0000
1000
0001
0010
0001
,
0100
0000
0000
0110
0000
0000
1010
0000
0000
0000
1001
0000
0001
1000
0100
1000
,
0010
0100
0010
1000
0001
0000
1000
0010
0000
0100
1000
0000
0100
0001
1000
0000
,
0100
0000
0010
0000
1000
0000
0001
0000
0100
0000
1000
0001
0100
0000
0001
0000
,
1000
0001
0010
0100
1000
0000
0001
0100
0000
1000
0001
0000
0010
0100
0001
0000
,
0010
0000
0100
0000
0001
0000
0100
0000
0010
0000
1000
0010
0100
0000
1000
0000
,
1001
0000
0001
0000
0010
0000
0100
1000
0000
1000
0001
0000
0100
0001
1000
0001
,
0010
0000
0010
0000
0100
0000
1000
0001
0000
0001
0100
0000
0010
1000
0010
0100
,
0001
0000
1000
0100
0000
0001
0100
0000
1000
0000
0001
0100
0010
1000
0001
0010
,
0100
1000
0001
0100
0010
1000
0010
0100
0001
1000
0100
0010
0001
1000
0010
0100
,
0001
0000
0000
0011
0000
0000
0000
0000
0000
0000
0000
0000
1010
0000
0000
1001
;

//--------------- dance-double - Fred-104 ----------------
#NOTEDATA:;
#STEPSTYPE:dance-double;
#DESCRIPTION:Fred-104;
#DIFFICULTY:Easy;
#METER:7;
#CREDIT:Fred-104;
#NOTES:
00000000
00000000
00000000
00000000
,
00000000
00000000
00000000
00000000
,
00000000
00000000
00000000
00000000
,
00000000
00000000
00000000
00000000
,
00000000
00000000
00000000
00000000
,
00000001
00000000
00000000
00000001
00000000
00000000
00000000
00000000
00000000
00000000
00000000
00000000
00000100
00000000
00000000
00000100
,
00000000
00000000
00000000
00000000
00000000
00000000
00001000
00000000
00000000
00000000
00000000
00010000
00000000
00000000
00000000
00000000
,
00001000
00000000
00000000
00001000
00000000
00000000
00000000
00000000
00000000
00000000
00000000
00000000
01000000
00000000
00000000
01000000
,
00000000
00000000
00000000
00000000
00000000
00000000
00010000
00000000
00000000
00000000
00000000
10000000
00000000
00000000
00000000
00000000
,
01000000
00100000
01000000
00100000
,
00001000
00010000
00001000
00100000
,
00001000
00000000
00000000
00010000
00000000
00000000
00000010
00000000
,
00020000
00000000
00000000
00030000
,
00001000
00000000
00000000
00000100
00000000
00000000
00000002
00000000
,
00000000
00000000
00000000
00000003
,
00000010
00000100
00000010
00001000
,
00010000
00001000
01000000
00001000
,
00010000
00000000
00000000
00020000
00000000
00000000
00000000
00000000
,
00000000
00000000
00000000
00030000
,
00001000
00000000
00000000
00002000
00000000
00000000
00000000
00000000
,
00000000
00000000
00000000
00003000
,
00010000
00000000
00000000
00001000
00000000
00000000
00000010
00000000
,
00000000
00000100
00000000
00000010
,
00000001
00001000
00000010
00000100
,
00001000
00010000
00001000
01000000
,
00001000
00000000
00000000
00020000
00000000
00000000
00031000
00000000
,
00000000
00020000
00000000
00000000
00031000
00000000
00010000
00000000
,
00100000
00000000
00000000
02000000
00000000
00000000
03100000
00000000
,
00000000
02000000
00000000
00000000
00000000
00000000
03000000
00000000
,
10010000
00000000
10000000
00000000
,
00010000
10000000
01000000
00010000
,
00001000
00000000
00010000
00000000
,
00001000
00000100
00000010
00001000
,
00000001
00000000
00000010
00000000
,
00000100
00000010
00001000
00010000
,
00001000
00000000
01000000
00000000
,
00010000
00000000
10000000
00000000
00010000
10000000
00010000
00000000
,
00100000
01000000
00010000
00000000
,
00001000
00010000
00000100
00001000
,
00000010
00000100
00000001
00000000
,
00001000
00000100
00000010
00001000
,
00010000
00001000
00100000
00000000
,
00001000
00010000
00100000
10000000
,
10010000
00000000
01100000
00000000
,
00010000
00010000
10000000
10000000
,
00010000
10000000
01000000
00200000
,
00000000
00000000
00000000
00300000
,
00001000
00010000
00000010
00002000
,
00000000
00000000
00000000
00003000
,
00000100
00000010
00000001
00001000
,
00000100
00000010
00001000
00010000
,
00001000
00000000
00000000
00010000
00000000
00000000
01000000
00000000
,
00010000
00000000
00000000
00001000
00000000
00000000
00000100
00000000
,
00001000
00010000
00001000
01000000
,
00001000
00000000
00010000
00000000
,
00001000
00010000
00000010
00001000
,
00000100
00000000
00010000
00000000
,
00001000
00010000
00100000
01000000
,
00010000
01000000
00100000
10000000
,
00010000
00000000
00000000
00100000
00000000
00000000
01000000
00000000
,
10000000
00000000
00000000
01000000
00000000
00000000
00010000
00000000
,
00011000
00001000
00000010
00000100
,
00001000
00000000
00000001
00000000
,
00001000
00000100
00000010
00000100
,
00010000
00000000
00001000
00000000
,
01000000
00001000
00010000
00000000
,
00001000
00100000
00010000
00000000
,
10000000
01000000
00010000
00000000
,
00001000
00010000
00011000
00000000
,
00001000
00010000
00001000
00000100
,
00000001
00001000
00000100
00000010
,
00000001
00001000
00000010
00001000
,
00000010
00010000
00001000
00010000
,
00001000
00010000
01000000
00100000
,
00010000
10000000
00100000
01000000
,
00010000
00000000
00000000
10010000
00000000
00000000
10000000
00000000
,
01000000
00000000
00000000
01100000
00000000
00000000
00001000
00000000
,
00011000
00000000
00000000
00010010
00000000
00000000
00000000
00000000
00000000
00000000
00000000
00000000
00001010
00000000
00000000
00001001
;

//--------------- dance-double - Fred-104 ----------------
#NOTEDATA:;
#STEPSTYPE:dance-double;
#DESCRIPTION:Fred-104;
#DIFFICULTY:Medium;
#METER:12;
#CREDIT:Fred-104;
#NOTES:
00000000
00000000
00000000
00000000
,
00000000
00000000
00000000
00000000
,
00000000
00000000
00000000
00000000
,
00000000
00000000
00000000
00000000
,
00000000
00000000
00000000
00000000
,
10000000
00000000
00000000
11000000
00000000
00000000
00000000
00000000
00000000
00000000
00000000
00000000
00010000
00000000
00000000
01010000
,
00000000
00000000
00000000
10000000
00100000
00010000
00001000
00000010
,
00000001
00000000
00000000
00000011
00000000
00000000
00000000
00000000
00000000
00000000
00000000
00000000
00001000
00000000
00000000
00001010
,
00000000
00000000
00000000
00000001
00000100
00001000
00010000
01000000
,
10000000
00000000
00000000
00000000
00100000
00000000
00000000
00010000
00000000
00000000
00001000
00000000
01000000
00000000
00000000
00000000
,
00001000
00000000
00000000
00000000
00000100
00000000
00000000
00000010
00000000
00000000
00010000
00000000
00001000
00000000
00000000
00000000
,
00010000
00000000
00000000
00100000
00000000
00000000
01000000
00000000
00000000
00010000
00000000
00000000
00100000
00000000
01000000
00000000
,
00010000
00000100
00001000
00000001
00000100
00000010
00001000
00000000
,
00000100
00000000
00000000
00000010
00000000
00000000
00000002
00000000
,
00000000
00000000
00000000
00000000
,
00001003
00000001
00000100
00000000
00001000
00010000
00100000
00000000
,
01000000
00010000
00100000
00000000
01000000
10000000
00010000
00000000
,
10000000
00000000
00000000
01000000
00000000
00000000
02200000
00000000
00000000
00000000
00000000
00000000
00000000
00000000
00000000
00000000
,
00000000
00000000
00000000
03300000
,
00001000
00000000
00000000
00010000
00000000
00000000
00022000
00000000
00000000
00000000
00000000
00000000
00000000
00000000
00000000
00000000
,
00000000
00000000
00000000
00033000
,
00011000
00000000
00010000
00001000
00000000
00000100
00000001
00000000
,
00000010
00000001
00001000
00000000
00000100
00000000
00000010
00000001
,
00000100
00001000
00000100
00001000
00010000
00100000
00010000
00100000
,
10000000
01000000
10000000
01000000
00010000
00001000
00010000
00000010
,
00010000
00000000
00000000
00001000
00000000
00000000
00101000
00000000
00000000
00000000
00000000
00000000
00001000
00000000
00000000
00010000
,
00000000
00010010
00000000
00000000
00010000
00000000
00001000
00000000
,
00000100
00000000
00000000
00000001
00000000
00000000
00000011
00000000
00000000
00000000
00000000
00000000
00000100
00000000
00000000
00010000
,
00000000
00022000
00000000
00000000
00000000
00000000
00033000
00000000
,
00001000
00010000
00100000
01000000
10000000
01000000
00100000
00000000
,
10000000
00010000
00100000
01000000
00010000
00001000
00010000
00000000
,
00001000
00010000
00001000
00000100
00000010
00001000
00000001
00000000
,
00001000
00000100
00000010
00001000
00100000
00010000
01000000
00000000
,
00010000
10000000
00100000
00010000
00001000
00010000
00000010
00000000
,
00010000
00001000
00000100
00000010
00000100
00000001
00001000
00000000
,
00000100
00000010
00000001
00001000
00000010
00010000
00001000
00000000
,
00010000
00100000
01000000
00010000
10000000
10000000
10010000
00000000
,
00010000
01000000
10000000
01000000
00010000
10000000
01000000
00000000
,
00100000
00010000
01000000
00001000
00010000
00001000
00000100
00000000
,
00000010
00001000
00000100
00000010
00000001
00001000
00000100
00000000
,
00000010
00000100
00010000
00001000
00010000
01000000
00100000
00000000
,
00010000
10000000
00100000
10000000
00010000
00100000
01000000
00000000
,
10000000
00100000
00010000
00001000
00000010
00000001
00001000
00000000
,
00000001
00000011
00000000
00000000
00001000
00001010
00000000
00000000
,
00000001
00000001
00000100
00000100
00001000
00010000
00001000
00000000
,
00010000
00000000
00001000
00000000
00100000
00000000
00000000
01000000
00000000
00000000
10000000
00000000
00010000
00000000
02000000
00000000
,
00000000
00000000
00000000
03000000
,
00010000
00000000
00100000
00000000
01000000
00000000
00000000
00010000
00000000
00000000
00001000
00000000
00100000
00000000
00002000
00000000
,
00000000
00000000
00000000
00003000
,
00010000
00001000
00000100
00000000
00000001
00000000
00001001
00000000
,
00000001
00000100
00001000
00000000
00010000
00000000
00011000
00000000
,
00001000
00000000
00000000
01000000
00000000
00000000
01010000
00000000
00000000
00000000
10000000
00000000
01000000
00000000
00000000
00000000
,
00100000
00000000
00000000
00001000
00000000
00000000
00011000
00000000
00000000
00000000
00001000
00000000
00010000
00000000
00000000
00000000
,
00001000
00000000
00000010
00000000
00000001
00000000
00000000
00000100
00000000
00000000
00000010
00000000
00001000
00000000
00000200
00000000
,
00000000
00000000
00000000
00000000
,
00010300
00000000
00001000
00000000
00010000
00000000
00000000
00100000
00000000
00000000
01000000
00000000
00010000
00000000
20000000
00000000
,
00000000
00000000
00000000
00000000
,
31000000
00010000
00001000
00000000
00000100
00000000
00000101
00000000
,
00000001
00000010
00001000
00000000
00010000
00000000
00110000
00000000
,
00100000
00000000
00000000
10000000
00000000
00000000
10010000
00000000
00000000
00000000
10000000
00000000
01000000
00000000
00000000
00000000
,
01100000
00000000
00000000
01001000
00000000
00000000
00022000
00000000
00000000
00000000
00033000
00000000
00011000
00000000
00000000
00000000
,
00010000
00001000
00000100
00000001
00001000
00000100
00000010
00000001
,
00000000
00001000
00000010
00000100
00000000
00001000
00010000
00001000
,
01000000
00010000
01000000
00001000
00010000
00100000
01000000
00100000
,
00000000
10000000
01000000
00100000
00000000
00001000
00010000
00001000
,
01000000
00000000
00010000
00000000
00100000
00000000
00000000
00001000
00000000
00000000
00010000
00000000
00001000
00000000
00000000
00000000
,
00000100
00000000
00000001
00000000
00001000
00000000
00000000
00000100
00000000
00000000
00000010
00000000
00000001
00000000
00000000
00000000
,
00000100
00000000
00000000
00000010
00000000
00000000
00000110
00000000
00000000
00000000
00001000
00000000
00000001
00000000
00000000
00000000
,
00000100
00000000
00000000
00001000
00000000
00000000
00011000
00000000
00000000
00000000
00001000
00000000
01000000
00000000
00000000
00000000
,
00001000
00000000
00100000
00000000
00010000
00000000
00000000
00100000
00000000
00000000
01000000
00000000
10000000
00000000
00100000
00000000
,
00010000
00001000
00010000
00000000
00100000
10000000
00010000
00000000
,
10000000
00000000
01000000
00000000
00010000
00000000
00000000
00000100
00000000
00000000
00001000
00000000
00000010
00000000
00001000
00000000
,
00000001
00000010
00000100
00000000
00001000
00000010
00010000
00000000
,
00001000
00010000
00001000
00010000
00100000
10000000
00010000
00000000
,
01000000
00100000
10000000
00100000
01000000
00010000
10000000
00000000
,
01000000
00000000
00000000
00100000
00000000
00000000
00101000
00000000
00000000
00000000
00001000
00000000
00010000
00000000
00001000
00000000
,
00000100
00000000
00000000
00000001
00000000
00000000
00000011
00000000
00000000
00000000
00000001
00000000
00000100
00000000
00001000
00000000
,
00010000
00000000
00000000
00011000
00000000
00000000
00000000
00000000
00000000
00000000
00000000
00000000
01000000
00000000
00000000
10010000
;

//--------------- dance-double - Fred-104 ----------------
#NOTEDATA:;
#STEPSTYPE:dance-double;
#DESCRIPTION:Fred-104;
#DIFFICULTY:Hard;
#METER:15;
#CREDIT:Fred-104;
#NOTES:
00000000
00000000
00000000
00000000
,
00000000
00000000
00000000
00000000
,
00000000
00000000
00000000
00000000
,
00000000
00000000
00000000
00000000
,
00000000
00000000
00000000
00000000
,
00000011
00000000
00000000
00001010
00000000
00000000
00000000
00000000
00000000
00000000
00000000
00000000
00011000
00000000
00000000
00110000
,
00000000
00000000
00000000
00100000
10000000
00010000
00100000
01000000
,
11000000
00000000
00000000
01010000
00000000
00000000
00000000
00000000
00000000
00000000
00000000
00000000
00011000
00000000
00000000
00001100
,
00000000
00000000
00000000
00000100
00000001
00001000
00000100
00000010
,
00000001
00000000
00001000
00000000
00000020
00000000
00000000
00000230
00000000
00000000
00002300
00000000
00013000
00000000
00001000
00000000
,
01000000
00000000
00010000
00000000
00200000
00000000
00000000
02300000
00000000
00000000
03200000
00000000
00301000
00000000
00000010
00000000
,
00001000
00010000
00000000
00001000
00100000
00000000
00010000
10000000
00000000
00100000
01000000
00000000
00100000
00000000
00010000
00000000
,
00001000
00010000
00000100
00010000
00001000
00001000
00010000
00010000
,
00001000
00000000
00000000
00010000
00000000
00000000
00022000
00000000
,
00000000
00000000
00000000
00000000
00000000
00000000
00000000
00000000
00000000
00000000
00000000
00000000
00033000
00000000
00010000
00001000
,
00010000
01000000
00100000
00010000
00001000
00000001
00000100
00001000
,
00010000
00100000
01000000
10000000
00010000
00001000
00000010
00000001
,
00001000
00000000
00000000
00000001
00000000
00000000
00000202
00000000
00000000
00000000
00000000
00000000
00000000
00000000
00000000
00000000
,
00000000
00000000
00000000
00000000
00000000
00000000
00000000
00000000
00000000
00000000
00000000
00000000
00000303
00000000
00000001
00001000
,
00000010
00000000
00000000
00010000
00000000
00000000
00022000
00000000
00000000
00000000
00000000
00000000
00000000
00000000
00000000
00000000
,
00000000
00000000
00000000
00000000
00000000
00000000
00000000
00033000
,
00001000
01000000
00010000
00001000
00000000
00000100
00010000
00000000
,
00001000
00000000
00010000
00000000
01000000
00000000
00100000
00000000
00010000
00000000
01000000
00000000
00001000
00000000
00010000
00000010
,
00010000
00001000
00000010
00000100
00001000
00010000
01000000
00001000
,
00010000
00000000
01000000
00000000
00010000
00000000
00001000
01000000
00001000
00000000
00000100
00000000
00000010
00000000
00001000
00000000
,
00001100
00000000
00000000
00000101
00000000
00000000
00001001
00000000
00000000
00000000
00000000
00000000
00010010
00000000
00000000
00011000
,
00000000
00101000
00000000
00000000
01000000
00000000
00010000
00000000
,
10100000
00000000
00000000
00110000
00000000
00000000
00011000
00000000
00000000
00000000
00000000
00000000
00010010
00000000
00000000
00101000
,
00000000
00022000
00000000
00000000
00000000
00000000
00033000
00000000
,
00010000
00000000
00001000
00000000
00000010
00000000
00000001
00000000
00001000
00000000
00000010
00000000
00010000
00001000
01000000
00000000
,
00100000
00000000
00010000
00000000
00001000
00000000
00000100
00000000
00000010
00000000
00010000
00001000
00010000
00000000
01000000
00000000
,
00100000
00000000
01000000
00000000
10000000
00000000
00010000
00000000
01000000
00100000
10000000
00000000
00010000
10000000
01000000
00000000
,
00010000
00000000
00000100
00001000
00000001
00000000
00001000
00000100
00000010
00000000
00000001
00000000
00001000
00000001
00001000
00000001
,
00001000
00000000
00000010
00000000
00000100
00000000
00001000
00000000
00010000
00000000
00001000
00000000
00010000
00001000
00010000
00000000
,
00100000
00000000
01000000
00000000
00100000
00000000
00010000
00001000
00010000
00000000
00000010
00001000
00000010
00000000
00010000
00000000
,
00001000
00000000
00100000
00000000
00010000
00000000
10000000
00000000
01000000
00100000
00010000
00000000
00100000
00000000
00001000
00000000
,
00010000
00000000
00001000
00000000
00000010
00000000
00001000
00000000
00010000
00000000
00010000
00000000
00001000
00010000
00001000
00010000
,
00001000
00000000
00010000
00000000
00000100
00000000
00001000
00000000
00010000
00000000
00100000
00000000
01000000
00100000
00010000
00100000
,
00010000
00000000
10000000
00000000
00100000
00000000
00010000
00000000
00001000
00000000
00100000
00001000
00100000
00000000
00001000
00000000
,
00010000
00000000
00000010
00001000
00000010
00000000
00000100
00000000
00001000
00000000
00010000
00000000
00100000
01000000
00100000
01000000
,
00010000
00000000
10000000
00000000
01000000
00100000
01000000
00100000
00001000
00000000
00010000
00000000
00000010
00001000
00000010
00001000
,
00000100
00000000
00000010
00000000
00000001
00000000
00001000
00000000
00000010
00000000
00010000
00000000
00001000
00100000
00010000
00100000
,
00001000
00000000
00010000
00000000
00001000
00000000
00000010
00000000
00000100
00000000
00000010
00000001
00001000
00000000
00000010
00000000
,
00010010
00000000
00010010
00000000
00000000
00000000
00001000
00010000
00001000
00000000
00101000
00000000
00000000
00000000
00001000
00010000
,
00001000
00000000
00001000
00000000
01000000
00000000
01000000
00000000
00001000
00010000
00001000
00010000
00001000
00010000
00001000
00010000
,
00001000
00000000
00100000
00010000
10000000
00000000
00100000
01000000
00000000
00100000
00010000
00000000
00001000
00000000
00000200
00000000
,
00000000
00000000
00000000
00000000
,
00000301
00000000
00000010
00000100
00001000
00000000
00000001
00000100
00000000
00000010
00000100
00000000
00001000
00000000
00020000
00000000
,
00000000
00000000
00000000
00000000
,
00031000
00000000
00010000
00000000
00200000
00000000
00000000
01000000
00000000
00000000
01300000
00000000
00010000
00000000
00100000
00000000
,
01000000
00000000
00010000
00000000
00002000
00000000
00000000
00010000
00000000
00000000
00013000
00000000
00000100
00000000
00001000
00000000
,
00001001
00000000
00000000
00000101
00000000
00000000
00000110
00000000
00000000
00000000
00000010
00000000
00010000
00000000
00001000
00000000
,
00101000
00000000
00000000
00110000
00000000
00000000
01100000
00000000
00000000
00000000
10000000
00000000
10010000
00000000
00000000
00000000
,
10000000
00000000
00010000
00100000
01000000
00000000
10000000
00100000
00000000
01000000
00100000
00000000
00010000
00000000
00002000
00000000
,
00000000
00010000
00000000
00000010
00000000
00013000
00001000
00000100
,
00000001
00000000
00000010
00000100
00000010
00000000
00000100
00001000
00000000
00000001
00000100
00000000
00001000
00000000
00020000
00000000
,
00000000
00001000
00000000
01000000
00000000
00031000
00010000
01000000
,
00100000
00000000
00010000
00000000
10000000
00000000
00000000
00100000
00000000
00000000
00010000
00000000
00001000
00000000
00000010
00000000
,
00000001
00000000
00001000
00000000
00000001
00000000
00000000
00000100
00000000
00000000
00001000
00000000
00010000
00000000
00001000
00000000
,
00011000
00000000
00000000
01010000
00000000
00000000
11000000
00000000
00000000
00000000
10000000
00000000
00100000
00000000
00010000
00000000
,
00011000
00000000
00000000
00010010
00000000
00000000
00001010
00000000
00000000
00000000
00000100
00000000
00001001
00000000
00000000
00000000
,
00001000
00000100
00001000
00000100
00000010
00000000
00000000
00000001
00000000
00000000
00000100
00000000
00001000
00000000
00010000
00000000
,
00000000
00001000
01000000
00010000
00000000
00100000
00000000
01000000
,
00010000
00001000
00010000
00001000
00010000
00000000
00000000
00100000
00000000
00000000
10000000
00000000
01000000
00000000
10000000
00000000
,
00000000
00100000
00010000
00001000
00000000
00000010
00000001
00000010
,
00000100
00000000
00001000
00000000
00000001
00000000
00000010
00000100
00000000
00000100
00001000
00000000
00000100
00000000
00010000
00000000
,
00001000
00000000
00010000
00000000
01000000
00000000
00100000
00010000
00000000
00010000
10000000
00000000
00100000
00000000
01000000
00000000
,
01010000
00000000
00000000
10100000
00000000
00000000
00110000
00000000
00000000
00000000
10000000
00000000
01000000
00000000
00010000
00000000
,
00011000
00000000
00000000
00001100
00000000
00000000
00000101
00000000
00000000
00000000
00000001
00000000
00001001
00000000
00000000
00000000
,
00000001
00000000
00001000
00000001
00001000
00000000
00000100
00000010
00000000
00000001
00001000
00000000
00000010
00000000
00001000
00000000
,
00000000
00000100
00000010
00001000
00000000
00010000
00001000
01000000
,
00010000
00000000
10000000
00010000
00100000
00000000
01000000
00010000
00000000
00001000
00010000
00000000
00001000
00000000
00000100
00000000
,
00000000
00000010
00000100
00001000
00000100
00000001
00000100
00000001
,
00001000
00000000
00000100
00000000
00000020
00000000
00000000
00000230
00000000
00000000
00020300
00000000
00031000
00000000
00010000
00000000
,
00100000
00000000
10000000
00000000
00020000
00000000
00000000
20030000
00000000
00000000
32000000
00000000
03100000
00000000
00001000
00000000
,
00010000
00000000
00001000
00010000
00000000
00010000
00001000
00000000
00000000
00000000
01000000
00000000
00001000
00000000
00010000
00000000
,
00001000
00000000
00000100
00000001
00000000
00000001
00001000
00000000
00000000
00000000
00000100
00000000
00000010
00000100
00000010
00000100
,
00000010
00000000
00000000
00001001
00000000
00000000
00000000
00000000
00000000
00000000
00000000
00000000
00001000
00000000
00000000
00011000
;

//--------------- dance-double - Fred-104 ----------------
#NOTEDATA:;
#STEPSTYPE:dance-double;
#DESCRIPTION:Fred-104;
#DIFFICULTY:Challenge;
#METER:17;
#CREDIT:Fred-104;
#NOTES:
00000000
00000000
00000000
00000000
,
00000000
00000000
00000000
00000000
,
00000000
00000000
00000000
00000000
,
00000000
00000000
00000000
00000000
,
00000000
00000000
00000000
00000000
,
00011000
00000000
00000000
00101000
00000000
00000000
00000000
00000000
00000000
00000000
00000000
00000000
00011000
00000000
00000000
00010010
,
00000000
00000000
00000000
00000000
00000000
00000000
00010000
00001000
01000000
00010000
10000000
00010000
00100000
01000000
00100000
00010000
,
00100000
00000000
00000000
00101000
00000000
00000000
00000000
00000000
00000000
00000000
00000000
00000000
00010010
00000000
00000000
00001001
,
00000000
00000000
00000000
00000000
00000000
00000000
00000001
00000010
00000100
00010000
00001000
00100000
00010000
00100000
01000000
10000000
,
00010000
00000000
10000000
00000000
00100000
00000000
01000000
00100000
00000000
00010000
00001000
00000000
00010000
00000100
00000010
00000000
,
00000001
00000000
00001000
00000000
00000010
00000000
00000100
00000001
00000000
00001000
00000001
00000000
00000010
00000100
00001000
00000000
,
00000010
00000100
00000000
00001000
00010000
00000000
00100000
01000000
00000000
00010000
00100000
00000000
01000000
00000000
10000000
00000000
,
00010000
00000000
01000000
00000000
00100000
00000000
00010000
00000000
00001000
00010000
00000010
00001000
00000100
00000010
00000001
00001000
,
00000010
00000000
00000000
00000100
00000000
00000000
00002002
00000000
,
00000000
00000000
00000000
00000000
00000000
00000000
00000000
00000000
00000000
00000000
00000000
00000000
00003003
00000000
00000001
00000010
,
00000001
00000100
00001000
01000000
00010000
00001000
00000100
00001000
,
00010000
01000000
00001000
00010000
00100000
10000000
00010000
00100000
,
01100000
00000000
00000000
11000000
00000000
00000000
02020000
00000000
00000000
00000000
00000000
00000000
00000000
00000000
00000000
00000000
,
00000000
00000000
00000000
00000000
00000000
00000000
00000000
00000000
00000000
00000000
00000000
00000000
03030000
00000000
00010000
00001000
,
00000100
00000000
00000000
00000101
00000000
00000000
00002002
00000000
00000000
00000000
00000000
00000000
00000000
00000000
00000000
00000000
,
00000000
00000000
00000000
00000000
00000000
00000000
00000000
00003003
,
00001010
00000010
00000100
00001000
00000000
00010000
00001000
00000000
,
00010000
00000000
01000000
00000000
00100000
00000000
00010000
00000000
01000000
00000000
00100000
00000000
00010000
00000000
00001000
00010000
,
00001000
00000010
00000100
00001000
00000010
00000100
00001000
01000000
,
00010000
00000000
00100000
00000000
01000000
00000000
00010000
00001000
00010000
00000000
00000010
00000000
00001000
00000000
00000100
00000000
,
00000110
00000000
00000000
00000011
00000000
00000000
00001010
00000000
00000000
00000000
00000000
00000000
00000101
00000000
00000000
00001100
,
00000000
00001001
00000000
00000000
00000110
00000000
00011000
00000000
,
01100000
00000000
00000000
10010000
00000000
00000000
11000000
00000000
00000000
00000000
00000000
00000000
01001000
00000000
00000000
00010100
,
00000000
00022000
00000000
00000000
00000000
00000000
00033000
00000000
,
00001000
00000000
00010000
00000000
01000000
00000000
00100000
00000000
00010000
00000000
01000000
00000000
00001000
00010000
00001000
00010000
,
00001000
00000000
00000100
00000000
00000010
00000000
00010000
00000000
00000100
00000000
00000010
00001000
00010000
00000000
00001000
00000000
,
00010000
00000000
00100000
00000000
01000000
00000000
00001000
00000000
00100000
00010000
00100000
00010000
01000000
00000000
00010000
00000000
,
00100000
00000000
01000000
00000000
00010000
00000000
00001000
00010000
00001000
00000000
01000000
00000000
00001000
00000000
00010000
00000010
,
00010000
00000000
00001000
00000000
00000010
00000000
00000100
00000000
00001000
00000000
00000010
00000000
00010000
00001000
01000000
00001000
,
00010000
00000000
00100000
00000000
01000000
00000000
00010000
00000000
00100000
00000000
01000000
00010000
00001000
00000000
00010000
00000000
,
00001000
00000000
00000100
00000000
00000010
00000000
00010000
00000000
00001000
00010000
00000100
00010000
00001000
00000000
00010000
00000000
,
01000000
00000000
00100000
00000000
00001000
00000000
00010000
00000000
00001000
00000000
00001000
00000000
00010000
00001000
00010000
00001000
,
00010000
00000000
00000100
00000000
00000010
00000000
00000001
00000000
00001000
00000000
00000010
00000000
00000100
00000001
00001000
00000100
,
00000010
00000000
00000001
00000000
00001000
00000000
00000010
00000000
00000100
00000000
00001000
00010000
00001000
00000000
01000000
00000000
,
00001000
00000000
00010000
01000000
00100000
00000000
00010000
00000000
10000000
00000000
00010000
00000000
01000000
00100000
10000000
00010000
,
00100000
00000000
01000000
00000000
00010000
00001000
00010000
00000010
00010000
00000000
00001000
00000000
00000100
00000001
00001000
00000100
,
00000010
00000000
00000001
00000000
00001000
00000000
00000010
00000000
00000100
00000000
00001000
00000000
00010000
00001000
01000000
00001000
,
00010000
00000000
00100000
00000000
01000000
00000000
00100000
00000000
00010000
00000000
00001000
00010000
00000010
00000000
00001000
00000000
,
00001100
00000000
00001001
00000000
00000000
00000000
00000001
00001000
00000010
00000000
00010010
00000000
00000000
00000000
00001000
00010000
,
00001000
00000000
01001000
00000000
00010000
00000000
00010100
00000000
00001000
00010000
00001000
01000000
00010000
01000000
00001000
00010000
,
00001000
00000000
00000100
00000001
00001000
00000000
00000100
00000010
00000000
00000001
00001000
00000000
00000010
00000000
00000100
00000000
,
00000000
00000000
00001000
00000000
00010000
00100000
00000000
01000000
00010000
00000000
10000000
01000000
00000000
00010000
01000000
00000000
,
10000000
00000000
00010000
01000000
10000000
00000000
01000000
00010000
00000000
00100000
01000000
00000000
00010000
00000000
00001000
00000000
,
00000000
00000000
00010000
00000000
00001000
00000100
00000000
00000010
00001000
00000000
00000100
00000001
00000000
00000100
00001000
00000000
,
00000001
00000000
00001000
00000000
00000010
00000000
00010000
00001000
00000000
01000000
00001000
00000000
00010000
00000100
00001000
00000000
,
00000100
00000000
00010000
00000000
00001000
00000000
00010000
00100000
00000000
01000000
00010000
00000000
10000000
01000000
00100000
00010000
,
00001000
00000000
00000000
00001001
00000000
00000000
00000110
00000000
00000000
00000000
00001000
00000000
00000001
00000100
00000010
00001000
,
00010000
00000000
00000000
10010000
00000000
00000000
11000000
00000000
00000000
00000000
10000000
00000000
01000000
00100000
00010000
00100000
,
00001000
00000000
00010000
00000100
00001000
00000000
00000010
00000100
00000000
00000010
00000001
00000000
00000010
00000000
00002000
00000000
,
00000000
00003001
00000100
00001000
00010000
00001000
01000000
01000000
,
00001000
00000000
00010000
01000000
00100000
00000000
00010000
10000000
00000000
00100000
00010000
00000000
00100000
00000000
02000000
00000000
,
00000000
03010000
10000000
00100000
00010000
00000010
00001000
00001000
,
00001001
00000000
00000001
00000000
00000200
00000000
00000000
00002300
00000000
00000000
00023000
00000000
00031000
01000000
00010000
00000000
,
00110000
00000000
00100000
00000000
02000000
00000000
00000000
23000000
00000000
00000000
30020000
00000000
10030000
00100000
01000000
00010000
,
00001000
00000000
00000000
00001001
00000000
00000000
00000110
00000000
00000000
00000000
00001000
00000000
00000001
00000010
00000100
00001000
,
00010000
00000000
00000000
10010000
00000000
00000000
01100000
00000000
00000000
00000000
01100000
00000000
10010000
00000000
00000000
00000000
,
00010000
00000000
01000000
00100000
10000000
00000000
00100000
00010000
00000000
00001000
00010000
00000000
00000100
00000000
00000010
00000000
,
00000001
00000000
00001000
00000010
00000100
00000000
00001000
00000000
00010000
00000000
00001000
00000000
01000000
00000000
00001000
00010000
,
00001000
00000000
00010000
01000000
00100000
00000000
10000000
00100000
00000000
00010000
00100000
00000000
00001000
00000000
00000010
00000000
,
00001000
00000000
00010000
00001000
00000100
00000000
00000010
00000000
00001000
00000000
00000100
00000000
00000010
00000000
00001000
00010000
,
00001000
00000000
00010000
00100000
01000000
00000000
00100000
10000000
00000000
01000000
00100000
00000000
00001000
00010000
00001000
00000000
,
00010000
00000000
00001000
00000010
00000100
00000000
00000010
00000001
00000000
00001000
00000001
00000000
00001000
00000001
00000010
00000100
,
00001000
00000000
00000000
00001010
00000000
00000000
00010010
00000000
00000000
00000000
00011000
00000000
00001000
00010000
00100000
10000000
,
00010000
00000000
00000000
11000000
00000000
00000000
01010000
00000000
00000000
00000000
10010000
00000000
10000000
01000000
00100000
00010000
,
00100000
00001000
00010000
00001000
00100000
00000000
00001000
00010000
00000000
00000100
00000010
00000000
00000001
00000000
00001000
00000010
,
00000100
00000000
00000001
00000000
00000100
00000000
00001000
00000000
00010000
00000000
00001000
00100000
00001000
00000000
00010000
00000000
,
00001000
00010000
01000000
00100000
00010000
00000000
10000000
00100000
00000000
00010000
00001000
00000000
00010000
00000000
00001000
00100000
,
00001000
00000000
00010000
00000000
00001000
00000000
00000100
00000000
00000001
00000000
00000010
00000100
00000010
00000000
00000001
00000000
,
00001000
00000000
00000010
00000000
00000100
00000000
00001000
00010000
00000000
00010000
00100000
00000000
01000000
00010000
10000000
00000000
,
00010000
00000000
00100000
00000000
01000000
00000000
00010000
00001000
00000000
00001000
00000100
00000000
00000010
00001000
00000010
00001000
,
00000100
00000000
00000010
00000001
00000000
00000001
00001000
00000000
00000010
00000000
00010000
00001000
01000000
00001000
00010000
00001000
,
00100000
00010000
10000000
00010000
01000000
00001000
00010000
00000100
00001000
00000100
00000010
00000001
00001000
00000010
00000100
00000001
,
00000100
00000000
00000000
00000110
00000000
00000000
00000000
00000000
00000000
00000000
00000000
00000000
00011000
00000000
00000000
01100000
;
