#TITLE:愛は不死鳥の様に;
#ARTIST:真紅の薔薇の騎士Prim;
#TITLETRANSLIT:Ai wa fushichou no you ni;
#ARTISTTRANSLIT:Shinku no bara no kishi Prim;
#BANNER:Ai wa fushichou no you ni.png;
#BACKGROUND:Ai wa fushichou no you ni-bg.png;
#CDTITLE:./CDTitles/RB colette -Winter-.png;
#MUSIC:Ai wa fushichou no you ni.ogg;
#SAMPLESTART:52.03;
#SAMPLELENGTH:15;
#BPMS:0=192;
#STOPS:262=1.25;
#BGSTAGE:29;

//--------------- dance-single - Fred-104 ----------------
#NOTES:
     dance-single:
     Fred-104:
     Beginner:
     4:
     :
0000
0000
0000
0000
,
0000
0000
0000
0000
,
0000
0000
0000
0000
,
0000
0000
0000
0000
,
0000
0000
0000
0000
,
0000
0000
0000
0000
,
0001
0000
0000
0000
,
1000
0000
0000
0000
,
0002
0000
0000
0000
,
0000
0000
0003
0000
,
1000
0000
0000
0000
,
0001
0000
0000
0000
,
1000
0000
0000
0000
,
0010
0000
0000
0000
,
1000
0000
0000
0000
,
0001
0000
0000
0000
,
1000
0000
0000
0000
,
1001
0000
0000
0000
,
0001
0000
0100
0000
,
0001
0000
0000
0000
,
0100
0000
0010
0000
,
1000
0000
0000
0000
,
1001
0000
0000
0000
,
1001
0000
0000
0000
,
1001
0000
0000
0000
,
1001
0000
0000
0000
,
0001
0000
0000
0000
,
1000
0000
0000
0000
,
0100
0000
0000
0000
,
1000
0000
0100
0000
,
1000
0000
0000
0000
,
0001
0000
1000
0000
,
0001
0000
0000
0000
,
1001
0000
0000
0000
,
1000
0000
1000
0000
,
0100
0000
0100
0000
,
0001
0000
0001
0000
,
0001
0000
0001
0000
,
0010
0000
0010
0000
,
0010
0000
0010
0000
,
1000
0000
0001
0000
,
1001
0000
0000
0000
,
1000
0000
0100
0000
,
1000
0000
0000
0000
,
0001
0000
1000
1000
,
1000
0000
0001
0000
,
1000
0000
0001
0000
,
0100
0000
0001
0000
,
1001
0000
0000
0000
,
1001
0000
0000
0000
,
1000
0000
0000
0000
,
0010
0000
0000
0000
,
0001
0000
0000
0000
,
0100
0000
0000
0000
,
1000
0000
0000
0000
,
0001
0000
0000
0000
,
1001
0000
0000
0000
,
2000
3000
0002
0003
,
1000
0000
0000
0000
,
0001
0000
0100
0000
,
0010
0000
0000
0000
,
1001
0000
0000
0000
,
1000
0000
0001
0000
,
1000
0000
0001
0000
,
0100
0000
0010
0000
,
0100
0000
0000
0100
0000
0000
0000
0000
,
0001
0000
1000
0000
,
0001
0000
0000
0000
,
0100
0000
0010
0010
,
0010
0000
0100
0000
,
0001
0000
1000
0000
,
0001
0000
1000
0000
,
1001
0000
0000
0000
,
1001
0000
0000
0000
,
0001
0000
1000
0000
,
0001
0000
0010
0000
,
0010
0000
1000
0000
,
1000
0000
1000
0000
,
0100
0000
0100
0000
,
0001
0000
0001
0000
,
2000
0000
0000
3000
,
0002
0000
0000
0003
,
2002
0000
0000
3003
,
1000
0000
0000
1000
0000
0000
0000
0000
;

//--------------- dance-single - Fred-104 ----------------
#NOTES:
     dance-single:
     Fred-104:
     Easy:
     7:
     :
0000
0000
0000
0000
,
0000
0000
0000
0000
,
0000
0000
0000
0000
,
0000
0000
0000
0000
,
0000
0000
0000
0000
,
0000
0000
0000
0000
,
1000
0000
0000
0010
0000
0000
1000
0000
,
0001
0100
0001
0001
,
1000
0000
0000
1001
0000
0000
0000
0110
,
0000
0000
0000
1001
0000
0000
0001
0000
,
0010
0010
0100
1000
,
0002
0000
0000
2003
0000
0000
3002
0000
,
0013
0100
1000
0001
,
0200
0000
0000
0302
0000
0000
2003
0000
,
3001
0000
0000
1000
0000
0000
0010
0000
,
1000
0000
0000
0100
0000
0000
1000
0000
,
0001
0000
0000
0010
0000
0000
0100
0000
,
0010
0000
0000
0011
0000
0000
0000
0000
,
1000
0001
1000
0010
,
0200
0000
0000
0302
0000
0000
2003
0000
,
3001
0010
0100
1000
,
0002
0000
0000
2003
0000
0000
3002
0000
,
1003
0000
0000
1100
0000
0000
0010
0000
,
0001
0000
0000
0101
0000
0000
0010
0000
,
1000
0000
0001
0010
,
0100
0000
0010
0001
,
2000
0000
0000
3002
,
0203
0000
0000
0320
0000
0000
0230
0000
,
0301
1000
0100
1000
,
0001
0000
0000
2002
0000
0000
3003
0000
,
1000
0100
0000
0000
0100
0010
0000
0010
,
0000
0001
0000
0000
0001
0000
1000
0000
,
0001
0000
0100
0000
0001
0000
0000
0200
,
0000
0000
0000
0301
,
1001
1000
0100
1000
,
0001
0000
0100
0100
,
0101
0001
1000
0010
,
1000
0000
0000
0000
0010
0010
0100
0000
,
0001
0010
0001
1000
,
0010
0100
0100
0001
,
1000
0000
0100
0000
0010
0001
0010
0000
,
0001
0000
0000
1001
0000
0000
0000
0000
,
1001
0000
1000
0010
,
1000
0010
0001
0100
,
0001
0000
0100
1000
,
1001
0000
0001
0000
,
0010
1000
0010
1000
,
0100
0100
0001
0000
,
1001
0000
0000
0001
0000
0001
0000
1000
,
0000
1000
0000
0010
0000
1000
0001
0000
,
1000
0000
0000
0100
0000
0000
0010
0000
,
0001
0000
0000
0100
0000
0000
0010
0000
,
1000
0000
0000
0001
0000
0000
1000
0000
,
0001
0000
0000
0010
0000
0000
0100
0000
,
1000
0000
0000
0001
0000
0000
0100
0000
,
0001
0000
0000
1000
0000
0000
0010
0000
,
1000
0000
0000
0001
0000
0000
1000
0000
,
0001
0001
0010
0100
,
2000
0000
0000
3002
,
2003
0000
0000
3020
0000
0000
0230
0000
,
0302
0000
0000
2003
0000
0000
3001
0000
,
1000
0000
0000
0001
0000
1000
0000
1001
,
0000
0001
0000
0010
,
0100
0000
1000
0001
,
1000
0010
1000
0001
,
1000
0000
0000
1001
0000
0000
0000
0000
,
1001
0000
0001
0100
,
0001
0100
0100
0010
,
1000
0000
0000
0000
0001
0000
0000
0000
1000
0000
0000
1000
0000
0000
1000
0000
,
0002
0000
1003
0100
,
1000
0000
0100
0000
,
0010
0000
0100
0000
0010
0001
0010
0000
,
1001
0000
0000
0001
0000
0001
0000
1000
,
0000
0010
0000
0100
0000
0001
1000
0000
,
1001
0000
0000
1000
0000
0000
0001
0000
,
1000
0010
1000
0100
,
1000
0000
0000
0100
0000
0000
0010
0000
,
0001
1000
0010
0010
,
0100
0100
0001
0010
,
0010
0001
1000
0001
,
1001
0000
0000
1000
0000
1000
0000
0001
,
0000
0001
0000
0100
0000
0100
0010
0000
,
2002
0000
0000
3003
,
0001
0000
0000
1001
0000
0000
0000
0000
;

//--------------- dance-single - Fred-104 ----------------
#NOTES:
     dance-single:
     Fred-104:
     Medium:
     11:
     :
0000
0000
0000
0000
,
0000
0000
0000
0000
,
0000
0000
0000
0000
,
0000
0000
0000
0000
,
0000
0000
0000
0000
,
0000
0000
0000
0000
,
1000
0000
0001
0100
0000
0001
0010
0000
,
0001
0100
0001
0000
1000
0100
1000
0000
,
0001
0001
1000
0100
0000
1100
0000
0101
,
0000
1010
0000
0011
0000
1000
0001
1000
,
0001
0010
0100
1000
,
0001
1000
0010
2000
0000
3001
0010
0100
,
0010
0100
1000
0001
,
1000
0010
0100
0020
0000
1030
0001
0010
,
0100
0000
1000
0100
0000
0010
0100
0010
,
0001
0000
0100
0010
0000
0100
1000
0100
,
0010
0000
1000
0100
0000
0010
0100
1000
,
0001
0001
1000
1000
0000
0000
0000
0000
,
0001
0100
0001
0000
0100
0010
0100
0000
,
0010
1000
0001
1000
0000
0100
1000
0000
,
0001
1000
0001
0000
1000
0100
1000
0000
,
0010
0100
0010
0100
0000
0001
1000
0000
,
0001
0000
0000
1001
0000
0000
0100
0000
,
1000
0000
0000
1001
0000
0000
0100
0000
,
0001
0010
0100
1000
,
0010
0000
0100
0000
0010
0010
1000
0000
,
0002
0000
0000
0023
,
0230
0000
0000
2300
0000
0000
3002
0000
,
0103
0000
0010
0000
0100
0010
1000
0001
,
0000
0000
0000
2002
0000
0000
3003
0000
,
0001
0010
0000
0010
0100
0010
0000
0001
,
0000
1000
0000
0001
1000
0000
1001
0000
,
0001
0100
0001
0000
1000
0100
1000
0020
,
0000
0000
1030
1000
,
0001
0000
0100
0000
0010
0100
0010
1000
,
0000
0100
0010
0000
0001
0000
1000
0100
,
1000
0000
0001
0000
0100
0010
0100
0001
,
0000
1000
0100
0000
0010
0100
0010
0100
,
1000
0001
0100
0010
,
0110
0000
0001
1000
0010
0000
1000
0000
,
0001
0100
0001
0000
1000
0100
1000
0100
,
0010
0010
0001
0010
0000
0001
1000
0001
,
0000
0000
1000
0010
0000
0110
0000
0101
,
0000
0001
1000
0001
0000
0010
0001
0010
,
0100
0000
0000
0000
1000
0000
0000
0000
0001
0000
0000
0100
0000
0000
0001
0000
,
1000
0002
0000
0000
0000
1003
0100
0001
,
0000
1000
0000
0010
0000
0001
1000
0001
,
0000
0010
0100
0010
0000
0000
1001
0000
,
0001
0100
0001
0100
0000
0010
1000
0010
,
0000
1000
0100
1000
0000
0001
0010
0000
,
0001
0000
0000
0100
0000
0000
0010
0000
,
1000
0000
0000
0100
0000
0000
0100
0000
0010
0000
0000
0001
0000
0000
1000
0000
,
0001
0000
0000
0100
0000
0000
0010
0000
,
1000
0000
0000
0010
0000
0000
1000
0000
0001
0000
0000
0010
0000
0000
0100
0000
,
0010
0000
0000
0001
0000
0000
1000
0000
,
1000
0000
0000
0100
0000
0000
0010
0000
0001
0000
0000
1000
0000
0000
0001
0000
,
1000
0010
1000
0001
0000
0011
0000
1010
,
0000
0101
0000
1100
0000
1000
0001
0000
,
2000
0000
0000
3002
,
0203
0000
0000
0320
0000
0000
2030
0000
,
3200
0320
0230
0302
0000
0000
1003
0100
,
0001
0000
0001
0100
0000
1100
0000
1001
,
0000
0001
0100
0010
0100
0000
0001
1000
,
0000
0100
0010
0000
0001
0000
1000
0010
,
0100
0010
1000
0100
0000
0010
0100
0010
,
0001
0001
1000
1000
0000
0000
0000
0000
,
1000
0000
0001
0100
0001
0000
1000
0100
,
0000
0010
0100
1000
0000
0001
0100
0010
,
0100
0000
0000
0000
0001
0000
0000
0000
1001
0000
0000
1000
0000
0000
0001
0000
,
0100
0020
0000
0000
0000
1030
0100
0001
,
0000
0001
0100
1000
0000
0001
0010
1000
,
0010
0001
1000
0002
0000
0000
0003
0000
,
0001
1000
0010
0100
0000
0110
0000
0101
,
0000
1001
0000
1100
0000
0001
0010
0100
,
2000
0010
3020
0100
,
0130
0000
0000
0001
0000
0000
0001
0000
1000
0000
0000
0100
0000
0000
0010
0000
,
0002
1000
2003
0010
,
3010
0000
0000
1000
0000
0000
0010
0000
0000
0100
0000
0000
0010
0000
1000
0000
,
0100
0000
0010
0001
0000
1000
0010
0000
,
0100
0000
0000
0010
0000
0000
1000
0000
0001
0000
0000
0010
0000
0000
0100
0000
,
0010
0001
1000
0001
0000
0011
0000
1001
,
0000
1010
0000
1001
0000
0010
0100
0220
,
0000
0000
0000
0330
,
1000
1000
0001
0001
0000
0000
0000
0000
;

//--------------- dance-single - Fred-104 ----------------
#NOTES:
     dance-single:
     Fred-104:
     Hard:
     16:
     :
0000
0000
0000
0000
,
0000
0000
0000
0000
,
0000
0000
0000
0000
,
0000
0000
0000
0000
,
0000
0000
0000
0000
,
0000
0000
0000
0000
,
1000
0100
0010
1000
0001
0100
1000
0001
,
0100
1000
0001
0010
0100
0010
1000
0001
,
1000
1000
0010
1000
0000
0001
0001
0010
,
0000
0001
0001
0100
0000
0001
0001
1000
,
0100
0100
0010
0001
1000
0010
1000
0001
,
1000
0100
0001
0200
0000
0310
1000
0010
,
0001
1000
0010
0001
1000
0100
0010
0100
,
0001
1000
0100
0002
0000
0103
0010
0100
,
1000
0001
0100
0110
0000
0001
1000
0100
,
0010
0001
1000
1001
0000
0001
0100
0010
,
1000
0010
0100
0101
0000
0001
1000
0100
,
0010
0010
0001
1001
0000
0000
0000
0000
,
1000
0000
0001
0000
0010
0100
0010
0000
0001
0000
1000
0000
0010
1000
0010
0000
,
0100
0001
1000
1002
0000
1003
0100
1000
,
0001
0000
0100
0000
0010
0100
0010
0000
1000
0000
0100
0000
0010
0100
0010
0000
,
0001
1000
0100
2100
0000
3010
1000
0001
,
1001
1000
0100
0110
0000
0010
0001
0100
,
0101
0001
1000
1100
0000
0011
0001
1000
,
0002
0000
0000
0000
0000
0000
0000
0000
0000
0000
0000
0000
0000
0000
0000
0000
0203
0300
0000
0000
0000
0000
0000
0000
0200
0300
0000
0000
0000
0000
0000
0000
1000
0000
0000
0000
0000
0000
0000
0000
0020
0030
0000
0000
0000
0000
0000
0000
0020
0030
0000
0000
0000
0000
0000
0000
0001
0000
0000
0000
0000
0000
0000
0000
,
0011
1010
0101
1100
,
1002
0000
0000
0203
,
0320
0000
2030
3200
0000
0320
0230
2300
,
3002
0203
0320
0230
0302
2003
3200
0320
,
0000
0000
0000
0002
0000
0000
0033
0000
,
0001
0010
0000
1000
0010
0001
0000
0101
,
0000
1100
0000
0100
0001
0000
1001
0000
,
1000
0100
0010
1000
0001
0100
0010
0002
,
0000
0000
0000
0000
0000
0000
0000
0000
1003
0001
1000
0000
0010
0100
0001
0100
,
0001
0000
0000
0000
0000
0000
0000
0000
0000
0000
0000
0000
0000
0000
0000
0000
0001
0000
0000
0000
0000
0000
0000
0000
0020
0030
0000
0000
0000
0000
0000
0000
0020
0030
0000
0000
0000
0000
0000
0000
1000
0000
0000
0000
0000
0000
0000
0000
0001
0000
0000
0000
0000
0000
0000
0000
0020
0000
0000
0000
0000
0000
0000
0000
,
0100
0000
1000
0000
0130
0010
0001
1000
,
0001
0000
0000
0000
0000
0000
0000
0000
0000
0000
0000
0000
0000
0000
0000
0000
0200
0300
0000
0000
0000
0000
0000
0000
0200
0300
0000
0000
0000
0000
0000
0000
1000
0000
0000
0000
0000
0000
0000
0000
0001
0000
0000
0000
0000
0000
0000
0000
0010
0000
0000
0000
0000
0000
0000
0000
0200
0000
0000
0000
0000
0000
0000
0000
,
1000
0000
0001
0000
0310
0100
0010
0001
,
1000
0000
0010
0100
0010
0000
1000
0000
0001
0000
0010
0001
0010
0000
0100
0000
,
1000
0000
0001
0100
0001
0000
1000
0100
1000
0000
0000
0000
1001
0000
0001
0000
,
0100
0010
0100
0000
0001
0100
0001
0000
1000
0100
1000
0000
0001
1000
0001
1000
,
0001
0001
0100
0101
0000
0110
0010
1000
,
0000
0001
0010
0110
0000
1100
1000
0010
,
0000
0110
0100
0001
0000
1000
0010
1000
,
0100
0000
0010
0000
0100
0000
1000
0000
0001
0000
0000
0001
0000
0000
0100
0000
,
0001
1000
0200
0000
0010
0000
0000
0000
0301
0000
0100
0000
1000
0000
0001
0000
,
0100
0001
1000
0100
0010
0100
0010
0001
,
1000
0000
0010
0000
0100
0000
0001
0000
1000
0100
0010
0100
1000
0100
0010
0000
,
0001
0001
0100
0101
0000
1000
0100
0110
,
0000
0001
0100
0110
0000
0010
1000
0100
,
0010
0000
0001
0000
0001
0000
0100
0000
0001
0000
0001
0000
0100
0010
0100
0000
,
0001
0000
1000
0100
0000
0100
0010
0000
0001
0000
0100
0010
0000
0010
1000
0000
,
0001
0100
0100
1000
0100
0100
0001
1000
,
0001
0000
1000
0100
0000
0010
0001
0000
1000
0001
1000
0000
0001
0000
0100
0000
,
0010
0100
0100
1000
0100
0100
0001
1000
,
0001
0000
0100
0001
0000
1000
0001
0000
0010
0000
0100
1000
0000
0001
1000
0000
,
0001
0100
0010
0110
0000
1000
0100
0110
,
0000
0001
0100
0110
0000
0010
1000
0001
,
0020
0000
0000
0032
,
0203
0000
0320
0032
0000
2003
3200
0302
,
2003
3200
0320
0032
0000
0000
1003
0001
,
1001
0000
1000
1010
0000
0101
0000
1001
,
0000
0001
0010
0100
0010
0001
1000
0001
,
0100
0020
1000
0000
0001
0000
0130
0010
,
1000
0100
1000
0000
0001
0100
0001
0000
1000
0010
1000
0000
0001
0010
0100
1000
,
0010
0010
0100
0110
0000
1000
0010
0001
,
0010
0000
0000
0000
1000
0000
0001
0000
0010
0000
0100
1000
0100
0000
1100
0000
,
0000
0001
0100
0110
0000
1000
0100
0010
,
0001
0010
0001
0000
1000
0010
1000
0000
0001
0000
0000
0001
0000
0000
0001
0000
,
0100
0001
2000
0000
0100
0000
0000
0000
3010
0000
0100
0000
0001
0000
1000
0000
,
0001
0100
0010
0001
1000
0001
0010
0100
,
0010
0000
1000
0000
0001
0000
1000
0000
0100
0010
0100
0010
0100
0010
0100
0010
,
0100
1000
0001
0101
0000
1000
0100
0110
,
0000
0001
0100
0110
0000
0010
1000
0001
,
1000
0000
0100
0000
0100
0000
0010
0000
0100
0000
0100
0000
1000
0001
1000
0001
,
1000
0000
0001
0100
0000
0001
1000
0000
0100
0000
1000
0001
0000
0010
0100
0000
,
0010
0000
0001
0000
1000
0000
0010
0000
0100
0000
0001
0000
1000
0100
1000
0000
,
0001
0000
0100
0010
0000
0100
0010
0000
1000
0001
0000
1000
0001
0000
0100
0000
,
0001
0000
0010
0000
1000
0000
0001
0000
0100
0000
1000
0000
0001
1000
0001
0000
,
1000
0000
0100
0010
0000
0010
0001
0000
1000
0010
1000
0010
0100
0000
0001
0000
,
1000
0100
0010
0011
0000
0101
0000
0110
,
0000
1100
0000
0110
0000
0100
0001
1000
,
2002
0000
0000
3003
,
0001
0001
1000
1001
0000
0000
0000
0000
;

//--------------- dance-single - Fred-104 ----------------
#NOTES:
     dance-single:
     Fred-104:
     Challenge:
     17:
     :
0000
0000
0000
0000
,
0000
0000
0000
0000
,
0000
0000
0000
0000
,
0000
0000
0000
0000
,
0000
0000
0000
0000
,
0000
0000
0000
0000
,
0001
0100
1000
0001
0010
1000
0001
0100
,
0010
0001
1000
0100
0010
1000
0001
0010
,
0001
0001
0001
0101
0000
1000
1000
1100
,
0000
0001
1000
1001
0000
1000
0010
1000
,
0001
0000
0100
0000
0010
0000
0001
0000
0010
0000
0100
0001
0100
0000
0010
0000
,
1000
0100
0001
2000
0000
3010
0100
0010
,
0001
0000
1000
0000
0001
0000
0010
0000
1000
0000
0010
0100
0010
0000
0001
0000
,
1000
0100
0010
0002
0000
1003
0010
1000
,
0001
0010
0100
1100
0000
1001
0001
1000
,
0010
0100
0010
1010
0000
1100
0100
0010
,
0100
0001
0100
1000
0001
0100
0010
1000
,
0001
0001
0001
1001
0000
0000
0000
0000
,
1000
0010
0100
0000
0010
1000
0001
0000
0010
0100
1000
0000
0001
1000
0010
0000
,
0100
0001
0010
0100
1000
0000
1001
0000
0000
0000
0001
0000
0100
0000
0010
0000
,
0100
0001
1000
0000
0100
0010
0001
0000
0100
0010
1000
0000
0001
1000
0100
0000
,
0010
0001
1000
0001
0100
0000
0110
0000
0000
0000
1000
0000
0010
0000
0100
0000
,
0110
0100
0001
1001
0000
1100
0100
0010
,
0011
0001
1000
1001
0000
1100
0100
0010
,
0012
0000
0103
0010
1010
1000
0100
0010
,
0011
1010
1100
0101
,
1002
0100
0010
2003
,
3020
0000
0230
0320
0000
0032
0023
2030
,
3002
0023
0230
0320
2030
3020
0230
2300
,
0000
0001
0000
0002
0000
0000
3003
0000
,
1100
0010
0000
0001
0100
0010
0000
1010
,
0000
0011
0000
1000
0020
0000
0230
0000
,
0301
0100
1000
0100
0010
0100
0001
2000
,
0000
0000
3010
0000
1000
0000
0001
0000
0010
0100
1000
0000
0001
0100
0001
0100
,
0010
0000
1000
0010
1000
0000
0001
0000
1000
0100
1000
0100
0010
0000
0001
0000
,
1000
0000
0001
0100
0001
0000
1000
0100
1000
0000
0100
0000
0010
0001
0010
0001
,
0010
0000
0001
1000
0010
0000
0100
0000
0001
0100
0001
0100
0010
0000
1000
0000
,
0001
0010
0001
0000
1000
0010
1000
0000
0001
0100
0001
1000
0100
0010
0001
1000
,
0001
0000
0100
0001
0100
0000
0010
0000
1000
0000
0100
1000
0100
0000
0010
0000
,
0001
0000
0010
0001
0010
0000
0100
0000
1000
0000
0010
1000
0010
0000
1000
0000
,
0001
0010
0001
0010
0001
1000
0001
1000
0010
0100
0010
0100
0001
1000
0100
0010
,
0001
0011
0011
1001
0000
1000
0010
0100
,
0101
0000
0001
0011
0000
1000
1010
1000
,
0001
0000
0010
0000
0100
0000
1000
0000
0100
0010
0100
0000
0010
0000
0001
0000
,
1001
0000
0000
0000
0110
0000
0100
0000
0001
0000
0000
0101
0000
0000
1001
0000
,
1000
0000
0000
0000
0010
0000
0000
0000
0200
0000
0000
0000
0000
0000
0000
0000
0001
0000
0000
0000
0000
0000
0000
0000
0000
0000
0000
0000
0000
0000
0000
0000
0301
0000
0000
0000
0000
0000
0000
0000
0200
0300
0000
0000
0000
0000
0000
0000
0200
0300
0000
0000
0000
0000
0000
0000
1000
0000
0000
0000
0000
0000
0000
0000
,
1001
0000
0000
0000
0000
0000
0000
0000
1000
0000
0000
0000
0000
0000
0000
0000
0001
0000
0000
0000
0000
0000
0000
0000
1000
0000
0000
0000
0000
0000
0000
0000
0100
0000
0000
0000
0000
0000
0000
0000
0020
0030
0000
0000
0000
0000
0000
0000
0020
0030
0000
0000
0000
0000
0000
0000
1000
0000
0000
0000
0000
0000
0000
0000
,
0001
0000
0010
0000
0100
0000
0010
0000
0001
1000
0010
1000
0001
0010
0100
0010
,
0001
1000
1001
1001
0000
1100
0100
0101
,
0000
0011
0010
1010
0000
1001
1000
1001
,
0001
0000
0100
0010
0000
1000
0001
0000
0010
0100
1000
0000
0001
0100
0001
0000
,
1000
0000
0100
0010
0000
0001
1000
0000
0010
0000
0100
1000
0000
0100
0001
0000
,
1000
0000
0100
0010
0000
0001
1000
0000
0001
0000
0100
0001
0010
0000
0001
0000
,
1000
0000
0001
0010
0000
0100
0010
0000
0001
1000
0010
0000
0001
0000
0010
1000
,
0001
0000
0010
0100
1000
0000
0001
0000
0100
0010
1000
0000
0001
1000
0100
1000
,
0001
0000
0100
0010
0000
0100
0001
0000
1000
0000
0100
0010
0000
0001
1000
0000
,
1001
2000
3020
0032
0013
2000
3200
0320
,
0031
0010
0001
1000
0001
0010
0001
1000
0001
0100
0010
1000
0002
0000
0203
0000
,
0320
0000
0000
2030
,
3200
0000
0302
0203
0000
0320
0230
0302
,
0203
2300
3020
0230
0000
0000
0301
1000
,
1001
0000
1010
1010
0000
0110
0000
0101
,
0001
0000
0100
0000
0010
0000
1000
0000
0010
0100
0001
0000
0100
0010
1000
0100
,
1000
0200
0001
0000
1000
0000
0310
0001
,
1000
0100
0010
0001
1000
0010
1000
0001
0010
0100
1000
0001
1000
0000
0010
0000
,
0100
0110
0110
0110
0000
1000
0100
0010
,
0001
0000
0000
0000
1010
0000
0010
0000
0100
0000
0001
1000
0100
0000
0010
0000
,
0001
0000
1000
0010
1000
0000
1002
0000
0000
0000
1003
0000
0010
0000
0001
0000
,
0010
0100
0010
0100
0001
1000
0001
0100
0010
0000
0000
1010
0000
0000
1001
0000
,
0001
1000
0100
0000
0010
0000
0100
0000
0010
0000
0001
1000
0010
0000
0100
0000
,
0001
0001
0010
0001
1000
0010
0100
0001
,
1000
0100
1000
0001
0100
0001
1000
0100
0010
0100
1000
0001
0100
0010
0100
0001
,
1000
1100
1100
0110
0000
0101
0101
0110
,
0100
0001
0100
0010
1000
0001
1000
0001
0010
0100
1000
0100
0010
0001
1000
0001
,
1000
0000
0010
1000
0000
0100
0010
0000
0001
1000
0010
0000
0100
0001
1000
0001
,
0100
0000
0001
0010
0000
0100
1000
0001
0100
0000
0010
1000
0000
0010
0100
0001
,
0100
0000
0010
0000
1000
0000
0001
0000
0010
0000
0001
0000
1000
0001
1000
0010
,
1000
0000
0001
0010
0000
0100
1000
0000
0001
0100
0000
0010
0100
0000
0001
0000
,
1000
0000
0100
0010
0000
0001
0010
0000
0100
1000
0001
0000
0100
0001
1000
0100
,
1000
0000
0001
0100
0000
0010
1000
0000
0001
0010
0100
1000
0100
0010
0001
1000
,
0010
0110
0110
1010
0000
0011
0000
0110
,
0000
1100
0000
0110
0000
0101
0001
1000
,
0001
0100
0010
0100
0001
0100
0010
1000
0010
1000
0100
0010
0001
0100
0010
1000
,
0001
0000
0000
0000
0000
0000
0000
0000
0100
0000
0000
0000
0000
0000
0000
0000
0010
0000
0000
0000
0000
0000
0000
0000
2020
3030
0000
0000
0000
0000
0000
0000
0000
0000
0000
0000
0000
0000
0000
0000
0000
0000
0000
0000
0000
0000
0000
0000
0000
0000
0000
0000
0000
0000
0000
0000
0000
0000
0000
0000
0000
0000
0000
0000
;

//--------------- dance-double - Fred-104 ----------------
#NOTES:
     dance-double:
     Fred-104:
     Easy:
     7:
     :
00000000
00000000
00000000
00000000
,
00000000
00000000
00000000
00000000
,
00000000
00000000
00000000
00000000
,
00000000
00000000
00000000
00000000
,
00000000
00000000
00000000
00000000
,
00000000
00000000
00000000
00000000
,
00001000
00000000
00000000
00010000
00000000
00000000
00001000
00000000
,
00010000
00000000
00100000
10000000
,
10010000
00000000
00000000
01100000
00000000
00000000
00000000
10010000
,
00000000
00000000
00000000
01100000
00000000
00000000
10000000
00000000
,
01000000
00000000
00010000
00001000
,
00020000
00000000
00000000
00032000
00000000
00000000
00023000
00000000
,
00030100
00000000
00000010
00000001
,
00002000
00000000
00000000
00003020
00000000
00000000
00020030
00000000
,
00031000
00000000
00000000
00010010
00000000
00000000
00010000
00000000
,
00001000
00000000
00000000
01001000
00000000
00000000
00010000
00000000
,
00001000
00000000
00000000
00101000
00000000
00000000
00001000
00000000
,
00010000
00000000
00000000
00011000
00000000
00000000
00000000
00000000
,
00001000
00010000
00100000
01000000
,
00020000
00000000
00000000
20030000
00000000
00000000
30020000
00000000
,
00130000
01000000
00010000
00001000
,
00020000
00000000
00000000
00030200
00000000
00000000
00000320
00000000
,
00000031
00000000
00000000
00001100
00000000
00000000
00000001
00000000
,
00001000
00000000
00000000
00000101
00000000
00000000
00001000
00000000
,
00000001
00000000
00000010
00000100
,
00001000
00000000
00000000
00000100
,
00020000
00000000
00000000
00032000
,
00023000
00000000
00000000
00032000
00000000
00000000
00023000
00000000
,
00130000
01000000
00100000
10000000
,
01000000
00000000
00000000
20020000
00000000
00000000
30030000
00000000
,
10000000
01000000
00000000
00000000
01000000
00100000
00000000
00001000
,
00000000
00001000
00000000
00010000
00000000
00000000
00001000
00000000
,
00000100
00000000
00000010
00000000
00000100
00000000
00000000
00000002
,
00000000
00000000
00000003
00000010
,
00000100
00010000
00010000
00001000
,
00010000
00000000
00000000
00000000
00001000
00000000
01000000
00010000
,
01000000
00100000
00100000
10000000
,
01000000
00000000
00000000
00000000
00010000
00001000
00010000
00000000
,
00001000
00000100
00000010
00000100
,
00000001
00000000
00001000
00000001
00001000
00000000
00000001
00000000
,
00000010
00000100
00001000
00000100
,
00010000
00000000
00000000
00011000
00000000
00000000
00000000
00000000
,
01100000
00000000
00100000
00000000
,
10000000
00010000
00100000
00001000
,
00010000
00000000
00000000
00000000
00000000
00000000
00000000
00000000
00000100
00000000
00000000
00000100
00000000
00000000
00000100
00000000
,
00000020
00000000
00000031
00001000
,
00000001
00000100
00000100
00001000
,
00010000
00001000
00020000
00030000
,
00011000
00000000
00000000
00001000
00000000
00100000
00000000
00010000
,
00000000
10000000
00000000
00010000
00000000
10000000
01000000
00000000
,
00100000
00000000
00000000
00001000
00000000
00000000
00010000
00000000
,
00001000
00000000
00010000
00001000
,
00000100
00000000
00000000
00000001
00000000
00000000
00001000
00000000
,
00000001
00000000
00000010
00000001
,
00000010
00000000
00000000
00001000
00000000
00000000
00010000
00000000
,
00001000
00000000
00010000
00001000
,
01000000
00000000
00000000
00010000
00000000
00000000
10000000
00000000
,
01000000
00100000
01000000
00100000
,
00002000
00000000
00000000
00023000
,
00032000
00000000
00000000
00023000
00000000
00000000
00030200
00000000
,
00002300
00000000
00000000
00003002
00000000
00000000
00000103
00000000
,
00000110
00000000
00000000
00010000
00000000
00010000
00000000
00011000
,
00000000
00001000
00000000
00010000
,
00100000
00000000
10000000
00000000
,
00010000
10000000
01000000
00010000
,
00001000
00000000
00000000
00011000
00000000
00000000
00000000
00000000
,
00011000
00000000
00001000
00010000
,
01000000
00000000
00000000
00100000
00000000
00000000
00010000
00000000
,
10000000
00000000
00000000
00000000
00010000
00000000
00000000
00000000
10000000
00000000
00000000
10000000
00000000
00000000
10000000
00000000
,
02000000
00000000
03100000
00010000
,
00100000
00001000
00100000
00000000
,
00001000
00000000
00010000
00000000
00001000
00010000
00001000
00000000
,
00011000
00000000
00000000
00000010
00000000
00001000
00000000
00000010
,
00000000
00001000
00000000
00000001
00000000
00000010
00000100
00000000
,
00001001
00000000
00000000
00001000
00000000
00000000
00000001
00000000
,
00000100
00000010
00000100
00001000
,
00010000
00000000
00000000
00001000
00000000
00000000
00100000
00000000
,
00001000
00100000
00010000
00100000
,
01000000
00000000
00000000
10000000
00000000
00000000
00010000
00000000
,
01000000
00100000
00010000
00001000
,
00011000
00000000
00000000
00001000
00000000
00001000
00000000
00010000
,
00000000
00010000
00000000
00001000
00000000
00010000
00001000
00000000
,
00022000
00000000
00000000
00033000
,
00010000
00000000
00000000
00011000
00000000
00000000
00000000
00000000
;

//--------------- dance-double - Fred-104 ----------------
#NOTES:
     dance-double:
     Fred-104:
     Medium:
     12:
     :
00000000
00000000
00000000
00000000
,
00000000
00000000
00000000
00000000
,
00000000
00000000
00000000
00000000
,
00000000
00000000
00000000
00000000
,
00000000
00000000
00000000
00000000
,
00000000
00000000
00000000
00000000
,
00010000
00000000
00001000
00010000
00000000
00100000
01000000
00000000
,
00010000
10000000
01000000
00000000
00010000
00001000
00010000
00000000
,
00001000
00000100
00001000
00000100
00000000
00000101
00000000
00000110
,
00000000
00001001
00000000
00001001
00000000
00000001
00001000
00000010
,
00001000
00000001
00000010
00000100
,
00000010
00001000
00010000
00002000
00000000
00000000
00103000
00000000
,
01000000
10000000
00010000
10000000
,
01000000
00100000
00001000
00020000
00000000
00000000
00031000
00000000
,
00010000
00001000
00010000
00000010
00000000
00000000
00001010
00000000
,
00001000
00000001
00000010
00000100
00000000
00000000
00001100
00000000
,
00001000
00000001
00000010
00001000
00000000
00000000
00011000
00000000
,
00001000
01000000
00010000
10010000
00000000
00000000
00000000
00000000
,
10000000
01000000
00010000
00000000
00001000
00010000
00100000
00000000
,
01000000
00000000
00010000
10000000
00000000
01000000
00100000
00000000
,
00001000
00010000
00001000
00000000
00100000
00001000
00010000
00000000
,
00001000
00000000
00000100
00000010
00000000
00001000
00000001
00000000
,
00000010
00000000
00000000
00011000
00000000
00000000
01000000
00000000
,
10000000
00000000
00000000
10010000
00000000
00000000
10000000
00000000
,
01000000
10000000
00100000
00010000
,
00001000
00000010
00000001
00000100
,
00000210
00000000
00000000
00000302
,
00002003
00000000
00000000
00003002
00000000
00000000
00000023
00000000
,
00000130
00000010
00001000
00000000
00010000
00100000
01000000
00200000
,
00000000
00300000
00000000
20020000
00000000
00000000
30030000
00000000
,
10000000
01000000
00000000
01000000
00010000
01000000
00000000
10000000
,
00000000
00100000
00000000
00000000
00010000
00000000
00001000
00000000
,
00000010
00000100
00001000
00000000
00000001
00001000
00000001
00000200
,
00000000
00000000
00000000
00000310
,
00001001
00000000
00000001
00000000
00001000
00000010
00010000
00001000
,
00000000
00000000
01000000
00000000
00010000
00000000
10000000
01000000
,
00010000
00000000
00000100
00000000
00001000
00000010
00000100
00000001
,
00000000
00000000
00001000
00000000
00000010
00000100
00001000
00000000
,
00010000
00101000
00001000
00010010
,
00010000
00000000
00001000
00100000
00010000
00000000
00100000
00000000
,
00001000
00010000
00000100
00000010
00000001
00001000
00000010
00000100
,
00001000
00010000
00100000
01000000
00000000
00000000
00000000
00000000
,
10010000
00000000
00010000
10000000
00000000
11000000
00000000
01010000
,
00000000
00010000
00001000
00010000
00000000
00001000
00000100
00000001
,
00000010
00000000
00000000
00000000
00000100
00000000
00000000
00000000
00001000
00000000
00000000
00001000
00000000
00000000
00001000
00000000
,
00000001
00000002
00000000
00000000
00000000
00000013
00000100
00000010
,
00000000
00001000
00010000
00000000
00100000
01000000
10000000
01000000
,
00000000
00010000
10000000
01000000
00000000
00000000
10010000
00000000
,
10000000
00100000
10000000
00100000
00000000
00010000
00001000
00010000
,
00000000
00001000
00000010
00000001
00000000
00000010
00000100
00001000
,
00000001
00000000
00000000
00000100
00000000
00000000
00001000
00000000
,
00010000
00000000
00000000
00001000
00000000
00000000
00100000
00000000
00010000
00000000
00000000
01000000
00000000
00000000
00100000
00000000
,
01000000
00000000
00000000
10000000
00000000
00000000
01000000
00000000
,
00010000
00000000
00000000
10000000
00000000
00000000
01000000
00000000
00010000
00000000
00000000
00001000
00000000
00000000
00000100
00000000
,
00000001
00000000
00000000
00000010
00000000
00000000
00000100
00000000
,
00001000
00000000
00000000
00000001
00000000
00000000
00000100
00000000
00001000
00000000
00000000
00000100
00000000
00000000
00000001
00000000
,
00000010
00000100
00001000
00000010
00000000
00010010
00000000
00101000
,
00000000
00010100
00000000
01001000
00000000
00001000
00010000
00000000
,
00002000
00000000
00000000
00023000
,
02030000
00000000
00000000
03200000
00000000
00000000
00302000
00000000
,
00013000
00001000
00000100
00000010
00000000
00000000
00010000
00001000
,
00000010
00000000
00000100
00001100
00000000
00000011
00000000
00001001
,
00000000
00000000
00000001
00000100
00001000
00000000
00010000
00001000
,
00000000
00001000
00010000
00000000
00100000
00000000
01000000
00010000
,
10000000
00000000
01000000
00100000
00000000
00010000
00100000
00001000
,
00010000
00010000
00001000
00001000
00000000
00000000
00000000
00000000
,
00010000
00000000
00000010
00001000
00000001
00000000
00000010
00000100
,
00000000
00001000
00000001
00000100
00000000
00000010
00000100
00001000
,
00010000
00000000
00000000
00000000
00001000
00000000
00000000
00000000
00000010
00000000
00000000
00000001
00000000
00000000
00001000
00000000
,
00000001
00000200
00000000
00000000
00000000
00001300
00010000
00001000
,
00000000
00010000
01000000
00000000
10000000
00100000
01000000
00100000
,
00010000
00001000
00010000
00000020
00000000
00000000
00000030
00000000
,
00010000
00010000
00001000
00010000
00000000
00010100
00000000
00001100
,
00000000
00000101
00000000
00001001
00000000
00001000
00000001
00001000
,
00000001
00000000
00000000
00000100
00000000
00000000
00001000
00000000
,
00010000
00000000
00000000
00100000
00000000
00000000
10000000
00000000
00010000
00000000
00000000
00100000
00000000
00000000
01000000
00000000
,
10000000
00000000
00000000
01000000
00000000
00000000
00100000
00000000
,
00001000
00000000
00000000
00010000
00000000
00000000
00001000
00000000
00000000
00000100
00000000
00000000
00000010
00000000
00010000
00000000
,
00001000
00000100
00000010
00001000
,
00000001
00000100
00001000
00010000
00001000
00000100
00000001
00000000
,
00000010
00000100
00000010
00000001
00000000
00000011
00000000
00001010
,
00000000
00011000
00000000
00101000
00000000
00010000
00001000
00022000
,
00000000
00000000
00000000
00033000
,
00010000
00010000
00001000
00001000
00000000
00000000
00000000
00000000
;

//--------------- dance-double - Fred-104 ----------------
#NOTES:
     dance-double:
     Fred-104:
     Hard:
     16:
     :
00000000
00000000
00000000
00000000
,
00000000
00000000
00000000
00000000
,
00000000
00000000
00000000
00000000
,
00000000
00000000
00000000
00000000
,
00000000
00000000
00000000
00000000
,
00000000
00000000
00000000
00000000
,
00000001
00001000
00000010
00000100
00001000
00010000
00100000
01000000
,
10000000
01000000
00100000
10000000
01000000
00010000
00001000
00010000
,
00100000
10000000
00010000
00100000
00000000
01000000
00010000
00000010
,
00000000
00001000
00000100
00000010
00000000
00000001
00000100
00000010
,
00010000
00001000
00000010
00000100
00001000
00000010
00000100
00001000
,
00010000
01000000
00100000
00020000
00000000
00130000
01000000
10000000
,
00100000
10000000
01000000
00010000
00001000
00010000
00100000
00010000
,
00001000
00000010
00001000
00020000
00000000
00031000
00000100
00000010
,
00001000
00000100
00000010
00000011
00000000
00000001
00000100
00001000
,
01000000
00010000
00100000
01100000
00000000
10000000
00100000
00010000
,
00000100
00001000
00000001
00000101
00000000
00001000
00000001
00000010
,
00001000
00001000
00010000
00011000
00000000
00000000
00000000
00000000
,
00010000
00001000
00000100
00000010
00010000
00001000
00000100
00000010
,
00001000
00000100
00000010
00000012
00000000
00000103
00000010
00001000
,
00000100
00000010
00001000
00010000
00100000
01000000
00010000
00100000
,
01000000
10000000
00010000
02010000
00000000
03010000
10000000
00100000
,
01100000
01000000
00001000
00011000
00000000
00010000
00001000
00000100
,
00000101
00000001
00000010
00000110
00000000
00010000
00001000
01000000
,
00002000
00000000
00000000
00000000
00000000
00000000
00000000
00000000
00000000
00000000
00000000
00000000
00000000
00000000
00000000
00000000
00203000
00300000
00000000
00000000
00000000
00000000
00000000
00000000
00200000
00300000
00000000
00000000
00000000
00000000
00000000
00000000
10000000
00000000
00000000
00000000
00000000
00000000
00000000
00000000
01000000
00000000
00000000
00000000
00000000
00000000
00000000
00000000
00010000
00000000
00000000
00000000
00000000
00000000
00000000
00000000
00000010
00000000
00000000
00000000
00000000
00000000
00000000
00000000
,
00001000
00000100
00000010
00000001
,
00002001
00000000
00000000
00003002
,
00000203
00000000
00002300
00023000
00000000
00032000
02003000
00000000
,
03020000
20030000
32000000
03200000
00320000
00032000
00003200
00000320
,
00000000
00000030
00000000
00002002
00000000
00000000
00003003
00000000
,
00000001
00000100
00000000
00001000
01000000
00010000
00000000
11000000
,
00000000
00011000
00000000
00100000
00001000
00000000
00010000
00000000
,
00001000
00000010
00000100
00000010
00000001
00000100
00001000
00020000
,
00000000
00000000
00000000
00000000
00000000
00000000
00000000
00000000
00031000
00010000
00001000
00000000
01000000
00010000
01000000
00010000
,
01000000
00000000
00010000
00100000
01000000
00010000
00000100
00020000
,
00001000
00000000
01000000
00000000
00031000
00000000
00010000
00001000
,
00000010
00000000
00000001
00000100
00001000
00010000
00001000
02000000
,
00010000
00000000
10000000
00000000
03100000
10000000
01000000
00100000
,
00001000
00000000
00100000
00010000
00100000
00000000
01000000
00000000
10000000
00000000
00100000
01000000
00100000
00000000
00010000
00000000
,
00001000
00000000
00000100
00000010
00000100
00000000
00000001
00000000
00001001
00000000
00000000
00000000
00000001
00000000
00000001
00000000
,
00001000
00000100
00001000
00000000
00000001
00000100
00000001
00000000
00001000
00000100
00001000
00000000
00000001
00000100
00000010
00010000
,
00001000
00001000
00010000
00011000
00000000
00000010
00010000
00011000
,
00000000
00001000
00010000
00110000
00000000
01100000
00000000
01010000
,
00000000
10000000
01000000
00010000
00000000
00000010
00001000
00000100
,
00000010
00000000
00000000
00000000
00000001
00000000
00000100
00000000
00001000
00000000
00000000
00010000
00000000
00000000
00001000
00000000
,
00010000
00000010
00002000
00000000
00000001
00000000
00000000
00000000
00003100
00000000
00000010
00000000
00000001
00000000
00000100
00000000
,
00000010
00001000
00000100
00000001
00000100
00010000
00001000
00010000
,
01000000
00000000
10000000
00000000
00100000
00000000
00010000
00000000
00001000
00010000
00001000
00010000
00001000
00000000
00010000
00000000
,
00011000
00001000
01000000
01100000
00000000
10100000
00000000
01010000
,
00000000
10000000
01000000
01100000
00000000
00010000
00001000
00000100
,
00000010
00001000
00000100
00000010
00000001
00000100
00000010
00001000
,
00000001
00000000
00000010
00000100
00000000
00010000
00001000
00000000
01000000
00000000
00010000
00100000
00000000
01000000
00100000
00000000
,
00010000
10000000
00100000
00001000
00000010
00010000
00001000
00000100
,
00000001
00000000
00001000
00000100
00000000
00000010
00001000
00000000
00010000
01000000
00000000
00100000
00010000
00000000
10000000
00000000
,
00100000
00010000
00001000
00010000
01000000
00100000
01000000
10000000
,
00010000
00000000
10000000
00100000
00000000
01000000
00100000
00000000
00010000
00000000
00000000
00001000
00000000
00000000
00010000
00000000
,
00011000
00010000
00000010
00010010
00000000
00001000
00100000
00101000
,
00000000
00010000
00001000
00000100
00000001
00000010
00001000
00010000
,
00002000
00000000
00000000
00023000
,
02030000
00000000
03200000
00320000
00000000
20030000
32000000
03020000
,
20030000
30200000
00320000
20030000
00000000
00000000
30100000
00010000
,
00011000
00000000
00001000
00001100
00000000
00000101
00000000
00001001
,
00000000
00000000
00000001
00000100
00000010
00001000
00000001
00000010
,
00000000
00001000
00010000
00000000
01000000
00000000
00100000
00010000
,
10000000
00000000
00100000
00000000
00001000
00000000
00100000
00000000
01000000
00000000
00100000
00000000
10000000
01000000
00100000
00001000
,
00010000
00010000
00001000
00011000
00000000
10000000
00010000
00001000
,
00000001
00000000
00000000
00000000
00001000
00000000
00000010
00000000
00000100
00000000
00000001
00000010
00000001
00000000
00000100
00000000
,
00001000
00000000
00010000
00001000
00010000
00000000
00012000
00000000
00000000
00000000
00013000
00000000
01000000
00000000
00100000
00000000
,
00010000
01000000
00010000
01000000
00010000
01000000
00100000
00000000
10000000
00000000
00000000
01000000
00000000
00000000
00010000
00000000
,
00001000
00010000
00002000
00000000
00100000
00000000
00000000
00000000
00013000
00000000
00001000
00000000
00000100
00000000
00000001
00000000
,
00001000
00000010
00000100
00001000
00000100
00000001
00000010
00000100
,
00000001
00000000
00000100
00000000
00000010
00000000
00000001
00000000
00001000
00000010
00001000
00000010
00010000
00001000
00010000
00001000
,
00010000
00001000
00100000
00110000
00000000
00000010
00010000
00011000
,
00000000
01000000
00001000
00011000
00000000
00000100
00010000
00001000
,
00010000
00000000
00100000
00000000
01000000
00000000
10000000
00000000
01000000
00000000
00100000
00000000
10000000
01000000
00100000
00000000
,
00010000
00000000
10000000
00100000
00000000
00010000
00001000
00000000
00010000
00000000
00000000
00001000
00000000
00000000
00000010
00000000
,
00000100
00000000
00001000
00000000
00000001
00000000
00000100
00000000
00000010
00000000
00000100
00000000
00000001
00000010
00000100
00000000
,
00001000
00000000
00000010
00010000
00000000
00001000
01000000
00000000
00010000
00100000
00000000
01000000
00100000
00000000
00001000
00000000
,
00010000
00000000
00001000
00000000
00000100
00000000
00000010
00000000
00000001
00000000
00001000
00000000
00010000
00001000
00100000
00000000
,
00010000
00000000
01000000
00100000
00000000
01000000
10000000
00000000
01000000
00010000
01000000
00010000
10000000
00000000
01000000
00000000
,
00100000
00001000
00010000
00011000
00000000
01001000
00000000
00010100
,
00000000
00101000
00000000
00010010
00000000
00001000
00010000
00022000
,
00000000
00000000
00000000
00033000
,
00010000
00010000
00001000
00011000
00000000
00000000
00000000
00000000
;

//--------------- dance-double - Fred-104 ----------------
#NOTES:
     dance-double:
     Fred-104:
     Challenge:
     18:
     :
00000000
00000000
00000000
00000000
,
00000000
00000000
00000000
00000000
,
00000000
00000000
00000000
00000000
,
00000000
00000000
00000000
00000000
,
00000000
00000000
00000000
00000000
,
00000000
00000000
00000000
00000000
,
00000001
00000100
00001000
01000000
00010000
00100000
01000000
00100000
,
00001000
00000010
00000100
00001000
00000001
00000010
00001000
01000000
,
00010000
10000000
01000000
01100000
00000000
00011000
00010000
00000010
,
00000000
00001001
00001000
00000100
00000000
00001001
00000001
00001000
,
00000100
00000000
00010000
00000000
00100000
00000000
01000000
00000000
00010000
00000000
10000000
01000000
00100000
00000000
10000000
00000000
,
00100000
00010000
10000000
00020000
00000000
00031000
00000100
00000010
,
00000001
00000000
00001000
00000000
00000010
00000000
00000100
00000000
00001000
00000000
00010000
00001000
01000000
00000000
00001000
00000000
,
00010000
00100000
10000000
02000000
00000000
03100000
00010000
10000000
,
00010000
00001000
00000010
00000110
00000000
00000011
00000001
00001000
,
00000010
00000100
00001000
00011000
00000000
00011000
00010000
00000010
,
00010000
00000010
00001000
00010000
01000000
00100000
00010000
00001000
,
00000010
00001000
00010000
00011000
00000000
00000000
00000000
00000000
,
10000000
00000000
00010000
01000000
00100000
00000000
00010000
00000000
00001000
00000000
00000100
00000010
00001000
00000000
00000001
00000000
,
00001000
00000100
00000010
00001000
00000010
00000000
00000100
00000000
00000000
00000000
00001000
00000000
00000100
00000000
00000010
00000000
,
00000001
00000000
00001000
00000010
00000100
00000000
00001000
00000000
00010000
00000000
00001000
01000000
00010000
00000000
00100000
00000000
,
00001000
00010000
00100000
01000000
00100000
00000000
10000000
00000000
00000000
00000000
00100000
00000000
00010000
00000000
00001000
00000000
,
00011000
00010000
00000100
00001001
00000000
00000110
00010000
00001000
,
00101000
00100000
00010000
10100000
00000000
10010000
00010000
00100000
,
01000000
00000000
00010000
00000010
00001000
00000001
00000010
00000100
,
00001001
00011000
10010000
00011000
,
00002000
00000000
00000000
00023000
,
00230000
00000000
02300000
03020000
00000000
20030000
30020000
00032000
,
00003200
00000320
00000032
00000203
00002300
02003000
03020000
00230000
,
00000000
02300000
00000000
20000000
00000000
00000000
33000000
00000000
,
10010000
01000000
00000000
01001000
00010000
00001000
00000000
00010100
,
00000000
00001001
00000000
00000001
00000100
00000000
00000110
00000000
,
00000001
00001000
00010000
01000000
10000000
01000000
00010000
20000000
,
00000000
00000000
30100000
00000000
00010000
00000000
00001000
00000000
00010000
00001000
00000010
00000100
00000010
00000001
00001000
00000010
,
00000100
00000000
00000001
00000010
00000100
00000000
00010000
00000000
00001000
00010000
00100000
01000000
10000000
00000000
01000000
00000000
,
00100000
00000000
10000000
01000000
00100000
00000000
00010000
00000000
00100000
00000000
00001000
00000010
00001000
00000000
00010000
00000000
,
00001000
00000000
00000100
00000001
00000100
00000000
00000010
00000000
00001000
00000001
00000010
00000100
00000010
00000000
00001000
00000000
,
00010000
01000000
00100000
00000000
01000000
10000000
00010000
00000000
01000000
00100000
00010000
00001000
00100000
00001000
00010000
00000100
,
00000010
00000000
00000001
00000100
00000010
00000000
00000001
00000000
00000010
00000000
00001000
00000010
00010000
00000000
00001000
00000000
,
00010000
00000000
00100000
01000000
10000000
00000000
01000000
00010000
00100000
00000000
00000000
00000000
00011000
00000000
00001000
00000000
,
00010000
00000100
00001000
00000100
00000010
00000001
00001000
00000010
00000100
00001000
00010000
00100000
01000000
00010000
10000000
01000000
,
00100000
00100000
01100000
01100000
00000000
10010000
10000000
01000000
,
01100000
00000000
00001000
00011000
00000000
00010100
00000100
00001000
,
00000001
00000000
00001000
00000000
00000100
00000000
00010000
00000000
00000100
00000000
00001000
00000010
00000100
00000000
00000001
00000000
,
00000101
00000000
00000000
00000000
00001001
00000000
00000001
00000000
00000100
00000000
00000000
00001000
00000000
00000000
01000000
00000000
,
00010000
10000000
02000000
00000000
00100000
00000000
00000000
00000000
13000000
00000000
00100000
00000000
00010000
00000000
00001000
00000000
,
00011000
00010000
00000010
00000001
00000010
00001000
00000001
00000010
,
00001000
00000000
00010000
00000000
00000100
00000000
00000010
00000000
00000100
00001000
00000010
00000100
00000001
00000010
00000100
00010000
,
00001000
00010000
00010100
00011000
00000000
01001000
00001000
00011000
,
00000000
00010010
00010000
00011000
00000000
00101000
00001000
00011000
,
00010000
00000000
00001000
00000100
00000010
00000000
00000100
00000000
00000001
00000100
00001000
00000000
00000100
00000001
00000010
00000000
,
00000100
00000000
00001000
00000001
00000000
00000100
00001000
00000000
00010000
00000000
00001000
01000000
00000000
00010000
00100000
00000000
,
00001000
00000000
01000000
00010000
00100000
00000000
01000000
00000000
10000000
00010000
01000000
00000000
10000000
00000000
01000000
00000000
,
00100000
00000000
10000000
01000000
00000000
00100000
00001000
00000000
00010000
00001000
00000100
00000000
00000010
00000000
00010000
00001000
,
00000100
00000000
00000010
00001000
00000100
00000000
00000010
00000000
00000001
00000000
00000100
00000000
00001000
00010000
00001000
01000000
,
00010000
00000000
00100000
01000000
00000000
10000000
00100000
00000000
00010000
00000000
00001000
00000100
00000000
00000010
00001000
00000000
,
00001001
00002000
00003200
00000320
00001030
00020000
02030000
03200000
,
00310000
10000000
00100000
01000000
00100000
00010000
00001000
00000100
00000010
00000100
00000001
00000010
00000100
00000000
00010000
00000000
,
00012000
00000000
00000000
00023000
,
00032000
00000000
00003020
00000230
00000000
00000320
00000032
00002003
,
00003002
00000203
00002300
02003000
00000000
00000000
03010000
00100000
,
01100000
00000000
11000000
01010000
00000000
00011000
00000000
00010100
,
00010000
00000000
00001000
00000000
00000100
00000010
00000100
00000000
00000001
00000000
00001000
00000010
00000001
00000000
00000010
00000000
,
00001000
00000010
00000200
00000000
00000010
00000000
00000000
00000000
00000301
00000000
00000100
00000000
00001000
00000000
00010000
00000000
,
00001000
00010000
00100000
01000000
00100000
10000000
00010000
01000000
00001000
00010000
00000100
00000010
00000100
00000000
00001000
00000000
,
00000001
00000101
00001100
00011000
00000000
10000000
00010000
00001000
,
00000100
00000000
00000000
00000000
00000110
00000000
00000010
00000000
00000001
00000000
00001000
00000001
00000100
00000000
00000010
00000000
,
00001000
00000000
00000001
00000010
00000100
00000000
00002100
00000000
00000000
00000000
00003010
00000000
00010000
00000000
00001000
00000000
,
00010000
01000000
00100000
10000000
00100000
00010000
10000000
01000000
00100000
00000000
00000000
00101000
00000000
00000000
00010010
00000000
,
00010000
00001000
00010000
00000000
00100000
00000000
01000000
00000000
00100000
00000000
10000000
00000000
00010000
00000000
00001000
00000000
,
00000100
00010000
00001000
00000100
00000010
00001000
00000100
00000010
,
00000001
00000100
00000010
00000100
00001000
00010000
00001000
00100000
01000000
10000000
00100000
01000000
00100000
00010000
00001000
00010000
,
00000100
00010100
00011000
01001000
00000000
00010010
00011000
00010100
,
00010000
00001000
00000010
00000100
00000001
00000100
00001000
00000100
00000010
00000001
00000100
00000010
00000100
00001000
00010000
00001000
,
01000000
00000000
00001000
00010000
00100000
00000000
00010000
00000000
00001000
00010000
00100000
00000000
01000000
00100000
10000000
01000000
,
00100000
00000000
00010000
01000000
00000000
10000000
01000000
00000000
00010000
00000000
10000000
01000000
00000000
00010000
01000000
00000000
,
00100000
00000000
00001000
00000000
00000010
00000000
00001000
00000000
00010000
00000000
00000100
00000000
00000010
00000001
00001000
00000000
,
00000001
00000000
00001000
00000100
00000000
00000010
00001000
00000000
00010000
00100000
00000000
10000000
00010000
00000000
00100000
00000000
,
01000000
00000000
10000000
00100000
01000000
00000000
00100000
00000000
00010000
00001000
00010000
00000000
00001000
00000100
00000010
00000100
,
00000001
00000000
00000100
00000010
00000000
00000100
00001000
00000000
00010000
01000000
00100000
00010000
01000000
00100000
10000000
00010000
,
10000000
01100000
00110000
10010000
00000000
00011000
00000000
00001001
,
00000000
00011000
00000000
10010000
00000000
00011000
00010000
00000010
,
00001000
00000100
00000010
00000001
00000100
00000010
00000100
00001000
00010000
00100000
10000000
00010000
00100000
01000000
10000000
00100000
,
01000000
00001000
00010000
00011000
00000000
00000000
00000000
00000000
;
