#TITLE:アガット;
#ARTIST:Bazole;
#TITLETRANSLIT:Agate;
#BANNER:Agate.png;
#BACKGROUND:Agate-bg.png;
#CDTITLE:./CDTitles/jb prop.png;
#MUSIC:Agate.ogg;
#SAMPLESTART:70.35;
#SAMPLELENGTH:15;
#BPMS:0=200,44=100,60=200;
#STOPS:89=0.6;
#TIMESIGNATURES:0=4=4,88=2=4,90=4=4;
#BGSTAGE:3;

//--------------- dance-single - Fred-104 ----------------
#NOTES:
     dance-single:
     Fred-104:
     Beginner:
     7:
     :
0000
0000
0000
0000
,
0000
0000
0000
0000
,
0000
1000
0010
1000
,
1000
0000
0001
0000
0001
0000
0000
1001
,
0000
1000
0100
1000
,
0001
0000
0001
0000
1000
0000
0000
1001
,
0000
0000
1000
0000
0100
0000
0000
1100
,
0000
0000
0010
0000
0001
0000
0000
0011
,
0000
0000
0001
0000
1000
0000
0000
2002
,
0000
0000
0000
0000
,
3003
0000
0000
0000
,
2000
0000
3020
0000
,
0230
0000
0302
0000
,
0023
0000
0032
0000
,
0203
0000
0000
0000
0301
0000
1000
1000
,
0001
0000
0001
0000
0000
0010
0000
0010
,
0000
0001
0000
0000
1000
0000
0001
0000
,
1000
0000
1000
0000
0000
0010
0000
0010
,
0000
0100
0000
0000
0001
0000
0100
0000
,
0001
0000
0001
0000
0000
1000
0000
1000
,
0000
0100
0000
0000
1000
0000
0001
0000
,
1000
0000
1000
0000
0000
0001
0000
1001
,
0000
0000
1000
0010
,
1000
0100
1000
0001
,
0100
0000
0001
0010
,
0001
0001
0100
0010
,
0100
0000
0001
1000
,
0001
0001
0010
0100
,
0010
0000
0001
0001
,
1000
0100
1000
0010
,
0100
0000
0001
1000
,
0001
0010
0100
0010
,
0100
0000
0010
0001
,
1000
0001
1000
0100
,
1000
0000
0010
1000
,
0010
1000
0100
1000
,
0001
0000
1001
0000
,
0110
0000
1001
0000
,
0000
0000
1000
0000
,
0010
0000
1000
1000
,
1000
0000
0001
0000
,
1000
0000
0001
0000
,
0010
0010
0010
0000
,
0001
0000
1000
0000
,
0010
0000
1000
0000
,
0001
0000
1000
0000
,
0001
0001
0001
0000
,
0100
0000
0001
0001
,
0010
0000
0000
0000
0001
0000
0000
1001
,
0000
0000
0000
1001
0000
0000
0000
0000
,
0000
0000
1001
0001
,
0100
0000
0001
0000
,
1000
0000
1000
0000
1000
0000
0000
0001
,
0000
0000
1000
0000
1001
0000
0000
1001
,
0000
0000
0000
1001
0000
0000
0001
0000
,
0100
0001
0010
0000
,
0001
0000
0000
1001
0000
0000
1000
0000
,
0100
0000
0000
1000
0000
0000
0010
0000
,
0000
1000
0000
1001
0000
0000
0001
0000
,
0010
0000
0000
1001
0000
0000
0001
0000
,
0100
0000
0000
0110
0000
0000
0010
0000
,
1000
0000
0000
0001
0000
0000
1001
0000
,
0000
0000
0000
0110
0000
0000
0010
0000
,
0100
0010
0100
0001
,
1000
0000
0000
1001
0000
0000
0001
0000
,
1000
0000
0000
1010
0000
0000
1000
0000
,
0000
0001
0000
1001
0000
0000
0000
0110
,
0000
0000
0000
1001
0000
0000
0000
1000
,
0000
0001
0000
1001
0000
0000
0000
0110
,
0000
0000
0000
1001
0000
0000
0000
0000
,
0002
0000
1003
0000
,
0010
0000
1000
0000
,
0100
0100
0100
0000
,
1000
0000
0001
0000
,
0010
0010
0010
0000
,
0001
0000
1000
0000
,
0001
0000
1001
0000
,
1001
0000
0001
0001
,
1000
1000
2002
0000
,
0000
0000
0000
3003
0000
0000
0000
0000
;

//--------------- dance-single - Fred-104 ----------------
#NOTES:
     dance-single:
     Fred-104:
     Easy:
     10:
     :
0000
0000
0000
0000
,
0000
0000
0000
0000
0000
0000
0000
1001
,
0000
0001
0100
0010
,
0100
0000
0001
0000
1000
0000
0000
1001
,
0000
0001
0010
0001
,
1000
0000
0100
0000
0010
0000
0000
0011
,
0000
0000
0001
0000
0100
0000
0000
0110
,
0000
0000
0010
0000
1000
0000
0000
1100
,
0000
0000
0100
0000
0010
0000
0000
2002
,
0000
0000
0000
0000
,
3003
0000
0000
0000
,
0001
0000
0001
0000
0000
1000
0000
1000
0000
1000
0000
0000
0001
0000
0100
0000
,
0010
0000
0010
0000
0000
0100
0000
0100
0000
0100
0000
0000
0001
0000
1000
0000
,
0100
0000
0100
0000
0000
1000
0000
1000
0000
1000
0000
0000
0010
0000
0100
0000
,
0010
0000
0010
0000
0000
0100
0000
0100
0000
0100
0000
0000
0001
0000
0000
0000
,
1001
0000
0001
0000
0000
0100
0000
0100
,
0000
0010
0000
0000
0100
0000
0001
0000
,
1000
0000
1000
0000
0000
0100
0000
0100
,
0000
1000
0000
0000
0010
0000
0100
0000
,
0001
0000
0010
0000
0000
0011
0000
0001
,
0000
1001
0000
0000
0001
0000
0100
0000
,
0010
0000
0010
0000
0000
1100
0000
1001
,
0000
0000
0000
0000
1000
0000
0100
1000
,
0000
0010
1000
0010
0000
0100
0001
0000
,
0010
0000
0100
0000
0010
0000
0001
0100
,
0000
0001
0010
0001
0000
0100
0010
0000
,
1000
0000
0100
0000
1000
0000
0010
1000
,
0000
0100
1000
0100
0000
0010
0100
0000
,
0010
0000
0001
0000
1000
0000
0001
0100
,
0000
0010
0100
0010
0000
1000
0100
0000
,
1000
0000
0001
0000
0010
0000
0001
0100
,
0000
0001
0010
0001
0000
1000
0001
0000
,
0100
0000
0010
0000
1000
0000
0100
1000
,
0000
0010
1000
0010
0000
0100
0010
0000
,
1000
0000
0100
0000
1000
0000
0010
0100
,
0000
0001
0010
0001
0000
0100
0010
0000
,
0100
0000
0001
0000
1000
0000
0001
0010
,
0000
0100
0010
0100
0000
0010
0001
0000
,
1000
0001
2000
0000
,
3020
0000
0130
0100
,
0001
0010
0001
0000
0100
0000
0000
0010
,
0000
0100
0000
0010
0000
0000
1000
0000
,
0100
0000
1000
0000
0001
0000
0000
1000
,
0000
0001
0100
0010
,
0100
0100
0000
0000
0001
0000
0100
0000
,
0010
1000
0001
0001
,
1000
0000
1000
0000
1001
0000
0000
0001
,
0000
0100
0010
0010
,
0100
0010
0100
0000
0001
0000
0000
0101
,
0000
0001
0000
1001
0000
2000
0000
3002
,
0000
0203
0000
0300
0110
0000
0000
0010
,
0000
1000
0100
1000
,
0001
0000
1000
0000
1001
0000
0000
0110
,
0000
0000
0000
0000
1001
0000
0000
0000
0001
0000
0000
1000
0000
0000
1001
0000
,
0000
0000
0000
0011
0000
0000
0001
0000
,
0100
0000
0010
0000
0100
0001
0100
0000
,
0010
0000
0000
1001
0000
0000
1000
0000
,
0100
0000
0000
0110
0000
0000
0010
0000
,
0001
0000
0000
1001
0000
0000
1000
0000
,
0010
0000
0000
0100
0000
0001
0010
0000
,
0001
0000
0000
1001
0000
0000
1000
0000
,
0100
0000
0000
1000
0000
0001
0100
0000
,
0001
0000
0000
1001
0000
0000
1000
0000
,
0001
0100
0001
0000
0100
0010
0100
0000
,
0010
0000
0000
1001
0000
0000
1000
0000
,
0100
0000
0000
0110
0000
0000
0010
0000
,
0001
0000
0000
0101
0000
0000
0000
1010
,
0000
0000
0000
0011
0000
0000
0000
1100
,
0000
1000
0000
1001
0000
0000
0000
0110
,
0000
0000
0000
1001
0000
0001
0000
0100
,
0002
0000
0000
0000
1003
0000
0000
0010
,
0000
0000
1000
0000
0000
0100
0000
0000
,
0010
0000
0001
0000
1000
0000
0000
0001
,
0000
0000
0100
0000
0000
0010
0000
0000
,
0100
0100
0001
0001
,
0010
0001
0100
0010
,
0100
0001
1000
0100
,
0001
0000
0100
0000
1000
0010
1000
0000
,
0001
0100
0001
0000
0110
0000
1001
0000
,
0000
0001
1000
0001
0000
0000
0000
0000
;

//--------------- dance-single - Fred-104 ----------------
#NOTES:
     dance-single:
     Fred-104:
     Medium:
     13:
     :
0000
0000
0000
0000
,
0000
0000
0000
0000
0000
0000
0000
1001
,
0000
0001
0010
0000
0001
1000
0001
0000
,
0100
0010
0100
0000
0010
1000
0010
0010
,
0000
0100
0001
0000
1000
0100
1000
0000
,
0010
0100
0010
0000
0100
0001
0100
0100
,
0000
0010
0100
0000
0001
0010
0001
0001
,
0000
0100
0010
0000
1000
0100
1000
1000
,
0000
0001
0100
0010
1000
0000
0000
2002
,
0000
0000
0000
0000
,
3003
0000
0000
0000
,
1000
0000
0010
0000
0000
1000
0100
1000
0000
0001
0000
0001
0100
0000
0010
0000
,
0100
0000
0001
0000
0000
0010
0001
0010
0000
0001
0000
1000
0010
0000
0100
0000
,
0001
0000
1000
0000
0000
0100
0010
0100
0000
1000
0000
0010
0100
0000
0010
0000
,
1000
0000
0100
0000
0000
0010
0001
1000
0000
0010
0000
0100
0001
1000
0001
0000
,
1001
0000
0110
0000
0000
0001
0100
0001
,
0000
1000
0000
0010
0100
0010
1000
0000
,
1100
0000
0110
0000
0000
0010
0001
0010
,
0000
0001
0000
0001
1000
0010
0100
0000
,
0101
0000
1010
0000
0000
0001
1000
0010
,
0000
1000
0000
1000
0100
0010
0100
0000
,
1100
0000
1001
0000
0000
0001
1000
0010
,
0000
0000
0000
0000
1000
0100
1000
0100
,
0000
0010
0100
0010
0000
0001
0100
0001
,
0010
0001
1000
0000
0001
0100
0001
0100
,
0000
0010
1000
0010
0000
1000
0100
1000
,
0010
0100
0001
0000
1000
0100
1000
0001
,
0000
0010
0001
0100
0000
0010
1000
0100
,
1000
0001
0100
0000
0001
0010
0100
1000
,
0000
0010
0100
0001
0000
1000
0100
0010
,
0001
1000
0001
0000
1000
0100
1000
0100
,
0000
0001
0100
1000
0000
0001
0100
0010
,
1000
0001
0010
0000
0001
0010
0001
0010
,
0000
1000
0010
0001
0000
0100
0001
0010
,
0001
1000
0010
0000
1000
0100
0010
0100
,
0000
1000
0001
0010
0000
0001
0100
0010
,
1000
0100
1000
0000
0001
0010
0100
1000
,
0000
0010
0100
1000
0000
0100
0010
1000
,
0001
0010
0001
1000
0001
0000
1000
0100
,
0001
0000
1000
0000
0010
0000
0001
0000
1000
0000
0000
0010
0000
0000
0100
0000
,
0010
1000
0100
0010
0001
0100
0100
2000
,
0000
3001
1000
0200
0000
1300
0001
0100
,
0010
0000
0000
0100
0000
0000
0001
0000
0010
0000
1000
0000
0010
0000
0002
0000
,
0000
1003
0100
0001
0200
0000
1300
0100
,
0010
0002
0000
0103
0010
1000
0001
0010
,
0100
0010
0001
1000
1010
0000
0101
0000
,
1100
0000
0011
0000
1000
0001
0010
0002
,
0000
0000
0013
0000
0100
0000
0010
0000
0001
0000
0000
0100
0000
0000
1000
0000
,
0001
0010
1000
0001
0100
0010
1000
0100
,
0000
0110
0000
0011
0000
0002
0000
2003
,
0000
3002
0000
0103
0110
0000
1000
0020
,
0000
1030
0100
0010
0001
0000
0101
0000
,
0001
0000
0000
0010
0000
0000
0001
0000
1000
0000
1000
0000
0000
0000
0001
0000
,
0001
0000
0000
0000
0100
0000
0010
0000
1000
0000
0000
1100
0000
0000
1001
0000
,
0000
0001
0100
0110
0000
1000
0100
0001
,
0100
1000
0100
0001
0100
1000
0001
0000
,
0100
0010
0100
0100
0000
0001
0010
1000
,
0010
0001
0100
0010
0000
1000
0100
0010
,
0000
0001
1000
0010
0000
0100
0001
0010
,
0100
1000
0100
0100
0000
1000
0100
0001
,
0000
1000
0010
0001
0000
1000
0100
0010
,
0001
0010
0100
1000
0000
0001
0101
0000
,
0010
1000
0100
1100
0000
1000
0100
0010
,
1000
0010
0001
0010
0100
1000
0001
0000
,
0100
0010
0001
0010
0000
1000
0010
0100
,
0001
1000
0100
0100
0000
0010
0001
0000
,
0010
0100
1000
0001
0000
0100
0010
1000
,
0000
0010
0100
0001
0000
1000
0100
0010
,
0000
0110
0000
1001
0000
0001
0010
1000
,
0000
0001
0100
1000
0000
0001
0010
0100
,
1000
0000
0000
0001
0000
0000
0100
0000
0001
0000
0010
0000
0001
0000
1000
0000
,
0010
1000
0001
0100
0010
0000
0100
0010
,
1000
0000
0000
0001
0000
0000
1000
0000
0100
0000
0010
0000
0001
0000
0100
0000
,
0010
1000
0001
0000
0100
0001
0010
0000
,
0001
0000
0000
1000
0000
0000
0001
0000
1000
0000
0100
0000
0010
0000
0100
0000
,
0010
0100
0010
0001
0100
0001
0100
0001
,
0010
0000
0000
0100
0000
0000
1000
0000
0001
0000
0100
0000
0001
0000
1000
0000
,
0010
1000
0001
0010
0100
1000
0010
0100
,
0001
1000
0001
0000
0110
0000
1001
0000
,
0000
0001
1000
0100
0000
0000
0000
0000
;

//--------------- dance-single - Fred-104 ----------------
#NOTES:
     dance-single:
     Fred-104:
     Hard:
     17:
     :
0000
0000
0000
0000
,
0000
0000
0000
0000
0000
0000
0000
1010
,
0000
1000
0100
1000
0010
1000
0100
0010
,
0001
0010
0001
1000
0010
0100
0001
0101
,
0000
0001
0010
0100
1000
0001
0010
0100
,
0010
0100
0010
0001
1000
0010
1000
1100
,
0000
0000
0100
0000
0010
0000
0000
0000
0001
0010
0100
0010
0001
0000
1001
0000
,
0000
0000
1000
0000
0010
1000
0010
1000
0100
0000
1000
0000
0001
0000
1001
0000
,
0000
0001
0100
1000
0001
0010
1000
2002
,
0000
0000
0000
0000
,
3003
0000
0000
0000
,
2100
0000
3020
0000
0000
1030
0001
0200
0000
0001
0000
0301
0010
1000
0020
0000
,
0032
0000
0203
0000
0000
1300
0100
0020
0000
1000
0000
1030
0100
0010
0002
0000
,
2003
0000
3020
0000
0000
0130
1000
0200
0000
0320
0000
1030
0001
0010
0002
0000
,
0203
0000
0302
0000
0000
0013
0100
0002
0000
0203
0000
0310
0002
2003
3200
0300
,
1100
0000
0101
0000
0000
1010
1000
1100
,
0000
0011
0000
1001
1000
0001
0101
0000
,
0110
0000
1001
0000
0000
1100
1000
1010
,
0000
1001
0000
0011
0001
0100
0110
0000
,
1010
0000
0101
0000
0000
1100
0100
0110
,
0000
0011
0000
1001
0001
0100
0110
0000
,
1010
0000
1001
0000
0000
0011
0010
0110
,
0000
0000
0000
0000
0000
0000
0000
0000
1000
0000
0001
0100
0001
0000
1000
0000
,
0001
0000
0010
0100
0010
0000
0001
0000
0100
0000
0010
1000
0010
0000
0100
0000
,
0001
0010
0100
1000
0001
0000
1000
0000
0100
0000
0010
0001
0010
0000
0100
0000
,
1000
0000
0010
1000
0010
0000
0100
0000
0001
0000
0010
0100
0010
0000
0001
0000
,
1000
0000
1000
0000
1010
0000
0000
0000
0001
0000
0100
0001
0100
0000
0010
0000
,
0100
0000
0001
0010
0001
0000
1000
0000
0100
0000
0010
0001
0010
0000
0001
0000
,
1000
0010
0100
0001
1000
0000
0100
0000
1000
0000
0001
0100
0001
0000
0010
0000
,
0100
0000
0010
0001
0010
0000
0100
0000
1000
0000
0010
1000
0010
0000
0100
0000
,
0010
1000
0001
0100
0010
0000
1000
0000
1100
0000
1000
0100
0010
0000
0001
0000
,
1000
0000
0001
1000
0010
0000
0100
0000
0001
0000
0010
0100
1000
0000
0001
0000
,
0100
0001
1000
0001
0010
0000
0100
0000
0010
0000
0001
1000
0010
0000
0100
0000
,
0001
0000
1000
0001
0100
0000
0010
0000
1000
0000
0001
0010
0100
0000
1000
0000
,
0001
0100
0010
1000
0010
0000
1000
0000
0001
0000
1000
0001
0010
0000
0100
0000
,
1000
0000
0001
1000
0010
0000
0100
0000
0010
0000
1000
0100
0010
0000
0001
0000
,
0100
0010
1000
0010
0100
0000
0001
0000
1001
0000
1000
0000
0010
0000
0010
0000
,
0100
0000
0100
0000
0001
0000
0001
0000
1000
0100
1000
0100
0010
0001
0010
0001
,
1000
0010
1000
0010
0100
0001
0100
0001
0100
0000
0000
0000
0001
1000
0001
1000
,
0001
0000
0010
0001
0010
0000
0100
1000
0100
0000
0000
1000
0000
0000
1000
0000
,
0001
0000
0100
0000
0001
0000
1000
0000
0100
0010
0100
0010
0100
0000
2000
0000
,
0000
0000
3001
0000
1000
0000
0020
0000
0000
0000
1030
0100
0010
0000
0001
0000
,
0100
0000
0000
0001
0000
0000
0001
0000
0010
0000
0100
1000
0100
0000
2000
0000
,
0000
3010
0001
0010
0200
0000
1300
0100
,
0001
0000
2000
0000
0000
0000
3100
0000
0010
0000
0001
0000
1000
0000
0001
0100
,
0001
0000
0010
0100
0010
0001
0010
0001
0010
0000
0001
0000
1000
0000
0100
0000
,
1000
0000
0001
0000
0100
0000
0010
0000
1010
0000
1000
0001
0010
0000
0200
0000
,
0000
0000
1300
0000
0001
0000
0010
0001
0100
0000
0000
0010
0000
0000
0010
0000
,
1000
0000
0100
0000
0010
0000
0001
0000
1001
0000
1000
0010
1000
0000
1100
0000
,
0000
0110
0010
0011
0000
2000
0000
3002
,
0000
0203
0000
0310
0110
0000
1000
0002
,
0000
0000
0013
0000
0100
0000
1000
0010
1000
0000
0000
0000
1001
0000
0000
0000
,
0001
0000
0000
0001
0000
0000
0001
0000
1000
0000
1010
0000
0000
0000
0001
0000
,
0101
0000
0000
0000
1000
0000
0100
0000
1100
0000
0000
0011
0000
0000
0110
0000
,
0000
0000
0001
0000
1000
0000
1001
0000
0000
0000
0001
0010
0001
0000
1000
0010
,
1000
0000
0001
1000
0001
1000
0001
0000
1000
0000
0100
0010
0100
0000
0000
0000
,
1000
0010
0100
0001
1000
0000
1001
0000
0000
0000
0001
0100
0001
0000
1000
0100
,
1000
0010
1000
0010
0100
0000
0001
0000
0000
0000
1000
0100
0010
0000
0001
0000
,
0000
0000
0001
1000
0001
1000
0010
0000
0000
0000
1000
0100
1000
0000
0001
0010
,
0001
0100
0001
0100
0001
0000
0011
0000
0000
0000
1000
0010
0100
0000
0101
0000
,
0000
0000
0001
0100
0001
0000
1001
0000
0000
0000
1000
0010
1000
0000
0001
0100
,
0001
0000
1000
0001
1000
0000
1010
0000
0000
0000
0101
0000
1001
0000
0000
0000
,
1001
0000
0100
0000
0010
0000
0011
0000
0000
0000
0001
0100
0010
0000
0100
0010
,
1000
0000
0010
1000
0001
1000
0100
1000
0001
0000
0100
0010
0100
0000
0000
0000
,
0001
0010
0100
1000
0001
0000
0101
0000
0000
0000
0001
0100
0010
0000
1000
0100
,
0010
0001
0010
0100
0010
0000
0011
0000
0000
0000
0001
0100
0010
0000
0000
0000
,
0010
0000
1000
0001
0100
0010
1000
0000
0000
0000
0100
0010
0001
0100
0010
0000
,
0000
0000
1000
0001
0010
0001
0100
0000
0000
0000
0001
1000
0001
0100
0010
0000
,
0000
0000
1010
0000
0000
0000
0101
0000
0000
0000
0001
0100
0010
0000
0110
0000
,
0000
0000
1000
0100
0010
0000
0110
0000
0000
0000
0010
0001
1000
0000
0001
0000
,
0100
0000
0000
0100
0000
0000
0100
0000
0010
0000
1000
0100
1000
0000
0010
0100
,
0010
0000
1000
0100
1000
0000
0001
0000
0100
0000
0101
0000
0001
0000
1000
0000
,
1100
0000
0000
0110
0000
0000
1100
0000
1000
0010
1000
0000
0001
0000
1000
0100
,
1000
0000
0001
0000
0100
0010
0100
0000
0001
0100
0001
0010
0001
1000
0001
0000
,
0011
0000
0000
1001
0000
0000
0101
0000
0001
0000
0010
0100
1000
0000
0001
0000
,
0010
0100
1000
0000
0001
0000
0100
0010
1000
0000
0001
0000
0100
0010
1000
0000
,
1100
0000
0000
0101
0000
0000
1010
0000
1000
0010
1000
0010
1000
0000
0001
0100
,
0001
0100
0001
0000
1000
0001
1000
0001
1000
0000
0001
0010
0001
0000
1000
0100
,
1000
0010
0100
0001
1000
0010
0100
0001
1000
0000
0000
0000
1001
0000
0000
0000
,
0000
0001
0100
0110
0000
0000
0000
0000
;

//--------------- dance-single - Fred-104† ----------------
#NOTES:
     dance-single:
     Fred-104†:
     Challenge:
     18:
     :
0000
0000
0000
0000
,
0000
0000
0000
0000
0000
0000
0000
1100
,
0000
0000
0001
1000
0010
0000
0100
0001
1000
0000
0001
0010
0100
0000
1000
0000
,
0001
0000
0100
0010
1000
0000
0001
0010
0100
1000
0100
0010
0001
0000
1001
0000
,
0000
0000
0001
1000
0100
0000
0010
0001
1000
0000
0010
0100
0001
0000
0100
0010
,
1000
0000
0001
0010
0100
0000
1000
0001
0100
0010
1000
0100
0010
0000
0011
0000
,
0000
0000
0101
0000
1001
0000
0000
0000
0001
0010
0100
1000
0001
0000
0101
0000
,
0000
0000
1000
0000
0001
0010
0100
0010
0001
1000
0010
0100
0001
0000
1001
0000
,
0000
0000
1000
0010
0100
0001
1000
0100
0010
0001
1000
0001
0100
0000
0220
0000
,
0000
0000
0000
0000
,
0330
0000
0000
0000
,
2001
0000
0100
0000
0000
0010
0010
0010
0000
0100
0000
0001
0001
0001
3001
0000
,
1002
0000
0100
0000
0000
0010
0010
0010
0000
0100
0000
1000
1000
1000
1003
0000
,
0210
0000
1000
0000
0000
1000
1000
1000
0000
0010
0000
0010
0010
0010
0310
0000
,
0012
0000
1000
0000
0000
0100
0100
0100
0000
0010
0000
1000
1000
1000
1003
0000
,
1100
0000
0101
0000
0000
1100
0110
0011
,
0000
0101
0000
1100
0101
0110
1001
0000
,
0011
0000
1010
0000
0000
0011
1010
0101
,
0000
1100
0000
0110
0011
0101
1001
0000
,
1100
0000
0011
0000
0000
1010
0101
1001
,
0000
1100
0000
0110
0011
1100
1001
0000
,
0101
0000
1010
0000
0000
0011
0110
1100
,
0000
0000
0000
0000
0000
0000
0000
0000
0000
0000
0000
0000
0000
0000
0000
0000
0000
0000
0000
0000
0000
0000
0000
0000
0001
0000
0000
0000
0000
0000
0000
0000
0100
0000
0000
0000
0000
0000
0000
0000
0010
0000
0000
0000
0000
0000
0000
0000
2000
0000
0000
3000
0000
0000
0000
0000
0000
0000
0000
0000
0000
0000
0000
0000
0000
0000
0000
0000
0000
0000
0000
0000
0000
0000
0000
0000
0000
0000
0000
0000
0000
0000
0000
0000
0000
0000
0000
0000
0000
0000
0000
0000
0000
0000
0000
0000
0001
0000
0000
0000
0000
0000
0000
0000
0000
0000
0000
0000
0000
0000
0000
0000
0000
0000
0000
0000
0000
0000
0000
0000
0010
0000
0000
0000
0000
0000
0000
0000
0000
0000
0000
0000
0100
0000
0000
0000
0000
0000
0000
0000
0000
0000
0000
0000
1000
0000
0000
0000
0000
0000
0000
0000
0000
0000
0000
0000
0000
0000
0000
0000
0000
0000
0000
0000
0000
0000
0000
0000
0001
0000
0000
0000
0000
0000
0000
0000
0000
0000
0000
0000
0000
0000
0000
0000
0000
0000
0000
0000
0000
0000
0000
0000
,
0100
0000
0010
1000
0100
0000
1000
0000
0001
0000
0100
0001
0010
0000
0100
0000
,
0010
0001
1000
0010
0100
0000
0001
0000
1000
0000
0100
0010
0001
0000
1000
0000
,
0010
0000
0100
0001
0010
0000
0100
0000
0010
0000
0001
0100
0010
0000
1000
0001
,
0010
0100
1000
0000
1001
0000
0000
0000
0001
0000
0010
0100
1000
0000
0001
0000
,
0100
0000
0001
0010
0100
0000
0010
0000
0001
0000
0100
0001
0010
0000
0100
0000
,
1000
0010
0100
0001
1000
0000
0001
0000
0010
0000
0100
0010
0001
0000
1000
0000
,
0010
0000
0100
0001
0010
0000
0100
0000
1000
0000
0100
0010
0001
0000
1000
0100
,
0010
0001
1000
0010
0100
0000
0001
0000
1000
0100
1000
0100
0010
0000
0001
0000
,
1000
0010
1000
0010
0100
0000
0001
0000
1000
0000
0001
0010
0100
0000
1000
0001
,
0100
0001
1000
0100
0010
0000
0001
0000
1000
0010
1000
0010
0100
0000
0001
0000
,
1000
0100
1000
0100
0010
0000
0001
0000
1000
0000
0001
0010
0100
0000
0010
0001
,
1000
0010
0100
0001
1000
0000
0100
0000
0010
0001
1000
0001
0010
0100
1000
0000
,
0001
0100
0010
1000
0010
0100
0001
0000
1000
0000
0100
0010
0001
0000
1000
0001
,
0010
0100
0010
0001
1000
0010
0100
0000
0001
0100
0001
0100
0010
1000
0010
1000
,
0001
0010
0001
0010
0100
1000
0100
1000
0001
0100
0010
1000
0010
0100
0001
1000
,
0100
0010
0001
0010
0100
1000
0001
0100
0010
0000
0000
0000
1000
0100
0010
0001
,
1000
0000
0001
0010
1000
0000
0001
0100
1000
0000
0001
0010
0000
0100
0001
0000
,
0100
0000
1000
0000
0001
0000
0100
0000
0010
1000
0001
0010
0100
0000
2100
0000
,
0000
0000
3001
0000
0100
0000
0120
0000
0000
0000
1030
0001
0010
0100
1000
0001
,
1000
0000
0000
0100
0000
0000
0100
0000
0001
0010
0001
0010
0100
0000
0002
0000
,
0000
0103
0010
0001
0020
0000
0031
1000
,
0010
0000
0002
0000
0000
0000
0013
0000
0100
0000
0001
0000
1000
0000
0100
0010
,
0001
0000
1000
0001
0100
0010
1000
0001
0010
0100
0010
0100
1000
0001
1000
0001
,
0010
0100
1000
0001
0100
0010
1000
0000
1001
0000
0001
0010
0100
0000
0120
0000
,
0000
0000
0031
0000
1000
0000
0010
1000
0001
0000
0000
0010
0000
0000
0010
0000
,
1000
0000
0100
0000
0010
0000
0001
0000
0011
0000
0001
1000
0010
0000
0110
0000
,
0000
0101
0100
0110
0000
0002
0000
0203
,
0000
0000
2300
0000
0000
0000
3010
0000
0011
0000
0000
0000
1000
0001
0020
0000
,
0000
0000
0130
0000
0010
0000
0001
1000
0010
0000
0000
0000
0100
0001
1000
0001
,
0010
0000
0100
0010
0000
0001
1000
0000
1100
0000
1001
0000
0000
0000
0101
0000
,
1001
0000
0000
0000
1010
0000
0011
0000
1001
0000
0000
0110
0000
0000
1001
0000
,
0000
0000
1000
0000
0100
0000
0120
0000
0000
0000
0031
1000
0010
0000
1000
0001
,
0010
0000
0000
0000
0000
0000
0100
0000
0000
1000
0000
0000
0001
0000
0000
0100
0000
0000
0010
0000
0000
1000
0000
0000
0001
0000
0000
0000
0000
0000
1000
0000
0010
0000
0100
0000
0001
0000
0000
0000
0000
0000
0000
0000
0000
0000
0000
0000
,
1000
0100
0010
0001
1000
0000
1001
0000
0000
0000
0001
1000
0100
0000
1000
0001
,
0100
0000
0000
0001
0000
0000
1000
0000
0000
0001
0000
0000
0010
0000
0000
0000
0000
0000
0110
0000
0000
0000
0000
0000
0000
0000
0000
0000
0000
0000
1000
0000
0100
0000
0010
0000
0001
0000
0000
0000
0000
0000
1001
0000
0000
0000
0000
0000
,
0000
0000
0001
0100
0010
1000
0001
0000
0000
0000
0010
0100
1000
0000
0001
0100
,
0010
0000
0000
1000
0000
0000
0100
0000
0000
0010
0000
0000
0001
0000
0000
0000
0000
0000
1001
0000
0000
0000
0000
0000
0000
0000
0000
0000
0000
0000
0001
0000
1000
0000
0010
0000
0100
0000
0000
0000
0000
0000
0101
0000
0000
0000
0000
0000
,
0000
0000
0001
0010
0100
0000
1100
0000
0000
0000
1000
0001
0010
0000
0001
1000
,
0010
0000
0000
1000
0001
0010
0100
0000
0000
1100
0000
0000
0000
0000
0000
0101
0000
0000
1001
0000
0000
0000
0000
0000
,
0011
0000
0010
0000
0100
0000
1100
0000
0000
0000
1000
0001
0010
0000
0001
1000
,
0010
0000
0000
0000
0000
0000
1000
0000
0000
0001
0000
0000
0010
0000
0000
0100
0000
0000
0010
0000
0000
0001
0000
0000
1000
0000
0000
0000
0000
0000
0001
0000
0100
0000
0010
0000
1000
0000
0000
0000
0000
0000
0000
0000
0000
0000
0000
0000
,
0100
0010
0001
1000
0010
0000
0110
0000
0000
0000
0100
0001
1000
0000
0100
0010
,
0001
0000
0000
0100
0000
0000
0010
0000
0000
1000
0000
0000
0100
0000
0000
0000
0000
0000
0110
0000
0000
0000
0000
0000
0000
0000
0000
0000
0000
0000
0010
0000
0001
0000
1000
0000
0001
0000
0000
0000
0000
0000
0000
0000
0000
0000
0000
0000
,
0110
0000
1000
0010
0100
0001
1000
0000
0000
0001
0010
0100
1000
0001
0100
0000
,
0000
0010
0100
0001
1000
0100
0010
0000
0000
0001
0010
0100
1000
0010
0100
0000
,
0000
0000
0101
0000
0000
0000
1001
0000
0000
0000
1000
0100
0001
0000
0011
0000
,
0000
0000
0001
0100
1000
0000
1010
0000
0000
0000
1000
0100
0010
0000
0001
0000
,
0100
0000
0000
0100
0000
0000
1000
0000
0001
0010
0100
1000
0001
0000
0100
0010
,
1000
0010
0100
0000
0001
0010
0100
1000
0001
0000
0100
0001
1000
0100
0010
0001
,
1000
0000
0000
1100
0000
0000
1001
0000
1000
0010
0100
0010
1000
0000
0001
0010
,
0100
1000
0001
0000
0100
0010
1000
0010
0100
0001
1000
0001
0010
0100
1000
0000
,
1100
0000
0000
0101
0000
0000
1001
0000
1000
0010
1000
0001
0100
0000
0001
1000
,
0100
0010
0001
0000
1000
0010
0100
0001
1000
0001
0010
0100
1000
0100
0010
0001
,
1000
0000
0000
1010
0000
0000
1001
0000
0001
0010
0100
1000
0001
0010
0001
0100
,
0010
1000
0001
0100
0001
1000
0100
0010
0001
1000
0010
0100
0001
1000
0100
0010
,
0100
1000
0010
0100
0001
0010
0100
1000
0001
0000
0000
0000
0110
0000
0000
0000
,
0000
1000
0100
0110
0000
0000
0000
0000
;

//--------------- dance-double - Fred-104 ----------------
#NOTES:
     dance-double:
     Fred-104:
     Easy:
     10:
     :
00000000
00000000
00000000
00000000
,
00000000
00000000
00000000
00000000
00000000
00000000
00000000
10010000
,
00000000
00010000
10000000
01000000
,
00100000
00000000
00001000
00000000
00010000
00000000
00000000
00011000
,
00000000
00001000
00000100
00000010
,
00001000
00000000
00000100
00000000
00000010
00000000
00000000
00000011
,
00000000
00000000
00000001
00000000
00000100
00000000
00000000
00000110
,
00000000
00000000
00010000
00000000
00001000
00000000
00000000
00011000
,
00000000
00000000
01000000
00000000
00100000
00000000
00000000
20020000
,
00000000
00000000
00000000
00000000
,
30030000
00000000
00000000
00000000
,
10000000
00000000
10000000
00000000
00000000
01000000
00000000
01000000
00000000
01000000
00000000
00000000
00100000
00000000
00001000
00000000
,
00010000
00000000
00010000
00000000
00000000
00000010
00000000
00000010
00000000
00000010
00000000
00000000
00010000
00000000
00000100
00000000
,
00001000
00000000
00001000
00000000
00000000
00000001
00000000
00000001
00000000
00000001
00000000
00000000
00000100
00000000
00001000
00000000
,
00010000
00000000
00010000
00000000
00000000
00100000
00000000
00100000
00000000
00100000
00000000
00000000
10000000
00000000
00000000
00000000
,
10010000
00000000
00010000
00000000
00000000
10000000
00000000
01000000
,
00000000
00100000
00000000
00000000
00001000
00000000
00010000
00000000
,
00001000
00000000
01000000
00000000
00000000
00001000
00000000
00010000
,
00000000
00000100
00000000
00000000
00001000
00000000
00000010
00000000
,
00000100
00000000
00000010
00000000
00000000
00001010
00000000
00000010
,
00000000
00000110
00000000
00000000
00000100
00000000
00000001
00000000
,
00001000
00000000
00000100
00000000
00000000
00010100
00000000
00011000
,
00000000
00000000
00000000
00000000
00001000
00000000
00010000
00001000
,
00000000
00100000
00001000
00100000
00000000
00001000
00010000
00000000
,
00000010
00000000
00001000
00000000
00000100
00000000
00010000
00000100
,
00000000
00001000
00000010
00010000
00000000
00001000
00010000
00000000
,
00001000
00000000
00100000
00000000
00010000
00000000
01000000
00100000
,
00000000
01000000
00010000
00100000
00000000
00001000
00010000
00000000
,
00000010
00000000
00001000
00000000
00000100
00000000
00010000
00001000
,
00000000
01000000
00100000
00010000
00000000
00001000
00000100
00000000
,
00000010
00000000
00010000
00000000
00001000
00000000
00100000
00001000
,
00000000
00010000
00000010
00001000
00000000
00000100
00001000
00000000
,
00000010
00000000
00000100
00000000
00001000
00000000
00010000
00100000
,
00000000
01000000
00001000
00010000
00000000
00001000
00100000
00000000
,
00001000
00000000
00010000
00000000
00001000
00000000
01000000
00100000
,
00000000
00010000
00001000
00000100
00000000
00000010
00010000
00000000
,
00001000
00000000
00010000
00000000
00000100
00000000
00010000
00001000
,
00000000
00100000
00010000
10000000
00000000
01000000
00100000
00000000
,
00001000
00010000
00000020
00000000
,
00002030
00000000
00003001
00000100
,
00001000
00000100
00000001
00000000
00000010
00000000
00000000
00000100
,
00000000
00000010
00000000
00001000
00000000
00000000
00010000
00000000
,
01000000
00000000
10000000
00000000
00010000
00000000
00000000
10000000
,
00000000
00010000
10000000
00100000
,
01000000
01000000
00000000
00000000
00100000
00000000
10000000
00000000
,
01000000
00010000
00001000
00000100
,
00000010
00000000
00001000
00000000
00001001
00000000
00000000
00000001
,
00000000
00000100
00000010
00000010
,
00001000
00000100
00001000
00000000
00000001
00000000
00000000
00000110
,
00000000
00001000
00000000
00011000
00000000
00002000
00000000
00203000
,
00000000
00320000
00000000
00030000
10010000
00000000
00000000
10000000
,
00000000
01000000
00100000
01000000
,
10000000
00000000
00100000
00000000
01100000
00000000
00000000
00011000
,
00000000
00000000
00000000
00000000
00011000
00000000
00000000
00000000
00000100
00000000
00000000
00000010
00000000
00000000
00000110
00000000
,
00000000
00000000
00000000
00001001
00000000
00000000
00000001
00000000
,
00000100
00000000
00001000
00000000
00000100
00000001
00000010
00000000
,
00000100
00000000
00000000
00001100
00000000
00000000
00010000
00000000
,
00001000
00000000
00000000
00101000
00000000
00000000
00100000
00000000
,
00010000
00000000
00000000
01010000
00000000
00000000
01000000
00000000
,
00100000
00000000
00000000
10000000
00000000
01000000
00100000
00000000
,
01000000
00000000
00000000
11000000
00000000
00000000
10000000
00000000
,
00100000
00000000
00000000
00010000
00000000
00001000
00010000
00000000
,
00100000
00000000
00000000
10010000
00000000
00000000
10000000
00000000
,
01000000
00010000
00001000
00000000
00010000
00001000
00000100
00000000
,
00000010
00000000
00000000
00001010
00000000
00000000
00001000
00000000
,
00000001
00000000
00000000
00000110
00000000
00000000
00000010
00000000
,
00001000
00000000
00000000
00001100
00000000
00000000
00000000
00010010
,
00000000
00000000
00000000
01001000
00000000
00000000
00000000
00110000
,
00000000
00001000
00000000
00011000
00000000
00000000
00000000
01100000
,
00000000
00000000
00000000
10010000
00000000
00100000
00000000
10000000
,
02000000
00000000
00000000
00000000
03100000
00000000
00000000
00010000
,
00000000
00000000
00100000
00000000
00000000
00001000
00000000
00000000
,
00010000
00000000
00000100
00000000
00001000
00000000
00000000
00000100
,
00000000
00000000
00000010
00000000
00000000
00000001
00000000
00000000
,
00000100
00000010
00001000
00000001
,
00000010
00000100
00000010
00001000
,
00010000
00100000
01000000
00010000
,
10000000
00000000
01000000
00000000
10000000
01000000
00010000
00000000
,
00010000
01000000
10000000
00000000
10100000
00000000
01010000
00000000
,
00000000
10000000
01000000
00100000
00000000
00000000
00000000
00000000
;

//--------------- dance-double - Fred-104 ----------------
#NOTES:
     dance-double:
     Fred-104:
     Medium:
     14:
     :
00000000
00000000
00000000
00000000
,
00000000
00000000
00000000
00000000
00000000
00000000
00000000
00001001
,
00000000
00000001
00000010
00000000
00000001
00000100
00000010
00000000
,
00001000
00000100
00010000
00000000
00001000
00010000
00001000
00011000
,
00000000
00001000
00100000
00000000
00010000
10000000
00010000
00000000
,
01000000
00100000
10000000
01000000
00100000
00010000
01000000
00010000
,
00000000
00100000
00001000
00000000
00010000
00000010
00001000
00001000
,
00000000
00000100
00001000
00000100
00000010
00000001
00001000
00001000
,
00000000
00000001
00000010
00000100
00001000
00000001
00001000
00002002
,
00000000
00000000
00000000
00000000
,
00003003
00000000
00000000
00000000
,
00000001
00000000
00000010
00000000
00000000
00000001
00000100
00000001
00000000
00000100
00000000
00001000
00010000
01000000
00100000
00000000
,
00100000
00000000
00010000
00000000
00000000
10000000
00010000
10000000
00000000
00100000
00000000
01000000
00100000
10000000
01000000
00000000
,
01000000
00000000
00100000
00000000
00000000
01000000
00010000
00001000
00000000
00000010
00000000
00000100
00001000
00000001
00000100
00000000
,
00000100
00000000
00000001
00000000
00000000
00000010
00001000
00010000
00000000
00100000
00000000
10000000
00010000
00100000
01000000
00000000
,
11000000
00000000
10100000
00000000
00000000
10000000
00100000
01000000
,
00000000
00100000
00000000
00010000
00001000
00000100
00000010
00000000
,
00001010
00000000
00001001
00000000
00000000
00000001
00000100
00001000
,
00000000
00010000
00000000
00001000
00000100
00001000
00010000
00000000
,
01010000
00000000
11000000
00000000
00000000
01000000
10000000
00010000
,
00000000
10000000
00000000
01000000
00100000
00001000
00010000
00000000
,
00011000
00000000
00010010
00000000
00000000
00000010
00001000
00000001
,
00000000
00000000
00000000
00000000
00000001
00000010
00000001
00000100
,
00000000
00000010
00001000
00000100
00000000
00001000
00000001
00000010
,
00000100
00001000
00000100
00000000
00010000
00001000
00100000
00001000
,
00000000
00010000
00000010
00001000
00000000
00000100
00010000
00001000
,
01000000
00010000
00100000
00000000
00001000
00010000
00100000
01000000
,
00000000
00010000
01000000
00100000
00000000
10000000
01000000
00100000
,
00010000
01000000
00001000
00000000
00000100
00010000
00001000
00010000
,
00000000
01000000
00100000
00010000
00000000
10000000
01000000
00010000
,
00001000
00000010
00000001
00001000
00000001
00000010
00000100
00000010
,
00000000
00000001
00000010
00000100
00000000
00000001
00000100
00000010
,
00000001
00000010
00001000
00010000
00001000
00010000
00100000
10000000
,
00000000
00010000
01000000
00100000
00000000
01000000
00010000
00000100
,
00001000
01000000
00010000
00000000
00001000
00010000
00000010
00001000
,
00000000
00100000
00010000
00000010
00000000
00001000
00100000
00010000
,
00001000
00010000
00001000
00100000
00010000
00100000
10000000
00100000
,
00000000
00010000
00001000
00010000
00001000
00000100
00000001
00000100
,
00001000
00010000
00001000
00000000
00010000
00001000
00100000
00001000
,
00010000
00000000
00000010
00000000
00001000
00000000
00000100
00000000
00010000
00000000
00000000
00001000
00000000
00000000
00000100
00000000
,
00000001
00001000
00000100
00000010
00000001
00000100
00001000
00000100
,
00000000
00000001
00000010
00001000
00000010
00000001
00000100
00001000
,
00010000
00000000
00000000
01000000
00000000
00000000
00100000
00000000
00010000
00000000
01000000
00000000
00100000
00000000
01000000
00000000
,
00000000
00010000
00001000
00000100
00000010
00000000
00000100
00001000
,
00010000
00100000
00000000
01000000
00010000
10000000
00100000
01000000
,
00010000
00100000
00001000
00010000
00001000
00000010
00001000
00010000
,
00001000
00100000
00001000
00000000
00010000
00001000
00000010
00000001
,
00000000
00000000
00001000
00000000
00000100
00000000
00000010
00000000
00000001
00000000
00000000
00001000
00000000
00000000
00000100
00000000
,
00000010
00000001
00000100
00000010
00000100
00001000
00010000
00100000
,
00000000
01000000
00010000
10010000
00000000
20000000
00000000
32000000
,
00000000
03020000
00000000
00031000
00011000
00000000
00010000
00001000
,
00000000
00000010
00000001
00001000
00000010
00000000
00000110
00000000
,
00000100
00000000
00000000
00000001
00000000
00000000
00000010
00000000
00000001
00000000
00000010
00000000
00000000
00000000
00001000
00000000
,
00010000
00000000
00000000
00000000
01000000
00000000
10000000
00000000
11000000
00000000
00000000
10100000
00000000
00000000
10010000
00000000
,
00000000
00010000
01000000
01100000
00000000
10000000
01000000
00010000
,
00001000
00010000
01000000
10000000
00100000
00010000
00001000
00000000
,
00000010
00000100
00001000
00000001
00000000
00001000
00000010
00000100
,
00001000
00000100
00000001
00000100
00000000
00000010
00001000
00000001
,
00000000
00000010
00001000
00010000
00000000
00001000
00010000
00100000
,
00010000
00001000
00000010
00001000
00000000
00010000
00001000
00010000
,
00000000
00000100
00010000
00001000
00000000
01000000
00010000
00100000
,
00001000
00010000
00000010
00001000
00000000
00000100
00010000
00000000
,
00001000
00010000
00001000
00011000
00000000
00010000
00001000
00000010
,
00000001
00000100
00001000
00010000
00001000
00010000
00001000
00000000
,
00010000
01000000
10000000
00010000
00000000
10000000
00100000
00010000
,
00100000
01000000
00100000
10000000
00000000
01000000
00010000
00000000
,
00001000
00010000
00000010
00001000
00000000
00000001
00000010
00001000
,
00000000
00010000
00001000
00000100
00000000
00000001
00001000
00000001
,
00000000
00000101
00000000
00001010
00000000
00010000
00001000
00000010
,
00000000
00001000
00010000
00100000
00000000
00010000
00001000
00010000
,
00001000
00000000
00000000
01000000
00000000
00000000
00010000
00000000
00100000
00000000
00010000
00000000
10000000
00000000
01000000
00000000
,
00010000
01000000
10000000
00100000
01000000
00010000
00100000
00001000
,
00010000
00000000
00000000
00001000
00000000
00000000
00000010
00000000
00000001
00000000
00000100
00000000
00001000
00000000
00010000
00000000
,
00001000
00000100
00000001
00000010
00000001
00000100
00001000
00010000
,
00100000
00000000
00000000
01000000
00000000
00000000
00010000
00000000
10000000
00000000
01000000
00000000
00010000
00000000
10000000
00000000
,
00100000
00010000
10000000
01000000
00100000
00001000
00010000
00100000
,
10000000
00000000
00000000
01000000
00000000
00000000
00010000
00000000
00001000
00000000
00000100
00000000
00000010
00000000
00001000
00000000
,
00000100
00000010
00000001
00001000
00000001
00000100
00001000
00010000
,
01000000
00100000
00010000
10000000
10010000
00000000
01100000
00000000
,
00000000
00100000
00001000
00011000
00000000
00000000
00000000
00000000
;

//--------------- dance-double - Fred-104 ----------------
#NOTES:
     dance-double:
     Fred-104:
     Hard:
     17:
     :
00000000
00000000
00000000
00000000
,
00000000
00000000
00000000
00000000
00000000
00000000
00000000
00011000
,
00000000
00010000
00000010
00001000
00000100
00010000
00001000
00100000
,
00010000
01000000
00001000
00010000
00000100
00001000
00000010
00000110
,
00000000
00001000
00000010
00010000
00001000
01000000
00010000
00100000
,
00001000
00010000
00000010
00001000
00000100
00010000
00001000
00011000
,
00000000
00000000
01000000
00000000
00100000
00000000
00000000
00000000
10000000
00010000
10000000
00010000
10000000
00000000
11000000
00000000
,
00000000
00000000
01000000
00000000
00100000
00010000
00100000
00010000
00100000
00000000
00001000
00000000
00010000
00000000
00011000
00000000
,
00000000
00010000
00001000
00000010
00000001
00000100
00001000
00022000
,
00000000
00000000
00000000
00000000
,
00033000
00000000
00000000
00000000
,
00102000
00000000
00023000
00000000
00000000
00030010
00001000
00000200
00000000
00000010
00000000
00000310
00000001
00001000
00000002
00000000
,
00000203
00000000
00002300
00000000
00000000
00013000
00100000
02000000
00000000
00010000
00000000
03010000
10000000
01000000
20000000
00000000
,
30020000
00000000
02030000
00000000
00000000
03100000
00010000
00200000
00000000
20300000
00000000
30010000
10000000
01000000
00200000
00000000
,
00302000
00000000
00023000
00000000
00000000
00030100
00001000
00000002
00000000
00000203
00000000
00000301
00000020
00000230
00000320
00000030
,
00000011
00000000
00001001
00000000
00000000
00000101
00000100
00000110
,
00000000
00001010
00000000
00010100
00010000
00001000
00011000
00000000
,
01001000
00000000
01010000
00000000
00000000
01100000
00100000
10100000
,
00000000
11000000
00000000
01100000
00100000
00001000
00011000
00000000
,
00010010
00000000
00001010
00000000
00000000
00000110
00000100
00000101
,
00000000
00001001
00000000
00000011
00000010
00001000
00011000
00000000
,
01010000
00000000
11000000
00000000
00000000
10010000
01000000
01100000
,
00000000
00000000
00000000
00000000
00000000
00000000
00000000
00000000
00100000
00000000
00001000
00010000
00001000
00000000
00000010
00000000
,
00000001
00000000
00001000
00000001
00001000
00000000
00000001
00000000
00000100
00000000
00000001
00000010
00000001
00000000
00001000
00000000
,
00000001
00001000
00000010
00001000
00000010
00000000
00000100
00000000
00000010
00000000
00001000
00000100
00001000
00000000
00000100
00000000
,
00010000
00000000
00001000
01000000
00001000
00000000
01000000
00000000
00010000
00000000
00100000
01000000
00100000
00000000
00010000
00000000
,
10000000
00000000
10000000
00000000
10010000
00000000
00000000
00000000
10000000
00000000
00100000
01000000
00100000
00000000
00010000
00000000
,
00001000
00000000
00000100
00000010
00000100
00000000
00000001
00000000
00001000
00000000
00000001
00000010
00000100
00000000
00010000
00000000
,
00001000
00100000
00001000
00100000
00010000
00000000
10000000
00000000
01000000
00000000
00010000
00001000
00010000
00000000
01000000
00000000
,
10000000
00000000
01000000
00010000
01000000
00000000
10000000
00000000
00100000
00000000
00010000
00001000
00010000
00000000
00100000
00000000
,
10000000
00010000
10000000
00010000
01000000
00000000
00001000
00000000
00011000
00000000
00010000
00000010
00001000
00000000
00000100
00000000
,
00000010
00000000
00000001
00001000
00000010
00000000
00000100
00000000
00000001
00000000
00000010
00000100
00000010
00000000
00000001
00000000
,
00001000
00000001
00000100
00000001
00001000
00000000
00000010
00000000
00000100
00000000
00000001
00000010
00000001
00000000
00001000
00000000
,
00000010
00000000
00010000
00001000
00010000
00000000
00000100
00000000
00010000
00000000
00001000
01000000
00001000
00000000
00010000
00000000
,
00001000
00100000
00010000
00100000
00001000
00000000
01000000
00000000
00010000
00000000
00100000
01000000
00100000
00000000
01000000
00000000
,
10000000
00000000
00010000
01000000
00010000
00000000
00100000
00000000
01000000
00000000
00100000
00010000
00100000
00000000
00001000
00000000
,
00010000
00000100
00001000
00000100
00000010
00000000
00000001
00000000
00001001
00000000
00001000
00000000
00000001
00000000
00000001
00000000
,
00000100
00000000
00000100
00000000
00000010
00000000
00000010
00000000
00001000
00000010
00001000
00000010
00000100
00000001
00000100
00000001
,
00001000
00000100
00001000
00000100
00010000
00001000
00010000
00001000
00010000
00000000
00000000
00000000
00001000
00010000
00001000
00010000
,
00001000
00000000
00100000
00010000
00100000
00000000
01000000
10000000
01000000
00000000
00000000
10000000
00000000
00000000
00010000
00000000
,
10000000
00000000
01000000
00000000
00100000
00000000
00001000
00000000
00010000
00001000
00010000
00001000
00010000
00000000
00000020
00000000
,
00000000
00000000
00001030
00000000
00000100
00000000
00020000
00000000
00000000
00000000
00031000
00010000
00000010
00000000
00010000
00000000
,
00001000
00000000
00000000
00100000
00000000
00000000
00001000
00000000
00010000
00000000
00001000
00010000
00001000
00000000
00020000
00000000
,
00000000
00030100
00010000
00001000
00200000
00000000
00310000
01000000
,
10000000
00000000
02000000
00000000
00000000
00000000
03010000
00000000
10000000
00000000
01000000
00000000
00100000
00000000
00010000
00100000
,
00010000
00000000
00100000
00001000
00100000
00001000
00010000
00001000
00010000
00000000
00001000
00000000
00000010
00000000
00000100
00000000
,
00001000
00000000
00000001
00000000
00000100
00000000
00000010
00000000
00000110
00000000
00000100
00000001
00000100
00000000
00000020
00000000
,
00000000
00000000
00001030
00000000
00000001
00000000
00000100
00000001
00000010
00000000
00000000
00001000
00000000
00000000
00010000
00000000
,
01000000
00000000
00100000
00000000
00010000
00000000
01000000
00000000
01010000
00000000
00010000
10000000
00010000
00000000
00110000
00000000
,
00000000
10010000
10000000
11000000
00000000
00200000
00000000
00302000
,
00000000
00003020
00000000
00000130
00001100
00000000
00001000
00000002
,
00000000
00000000
00000103
00000000
00000001
00000000
00000010
00000100
00000010
00000000
00000000
00000000
00000101
00000000
00000000
00000000
,
00000001
00000000
00000000
00001000
00000000
00000000
00000001
00000000
00000010
00000000
00000011
00000000
00000000
00000000
00000100
00000000
,
00001100
00000000
00000000
00000000
00010000
00000000
00001000
00000000
00011000
00000000
00000000
00010100
00000000
00000000
01001000
00000000
,
00000000
00000000
00001000
00000000
00010000
00000000
00011000
00000000
00000000
00000000
00001000
00100000
00001000
00000000
00010000
00000010
,
00010000
00000000
00001000
00010000
00001000
00010000
00001000
00000000
00100000
00000000
00010000
10000000
00010000
00000000
00000000
00000000
,
10000000
01000000
10000000
01000000
00100000
00000000
00110000
00000000
00000000
00000000
01000000
00001000
00010000
00000000
00001000
00000010
,
00000100
00001000
00000100
00001000
00000100
00000000
00000010
00000000
00000000
00000000
00000001
00001000
00000001
00000000
00000100
00000000
,
00000000
00000000
00000010
00001000
00000001
00001000
00000001
00000000
00000000
00000000
00001000
00000100
00001000
00000000
00000010
00001000
,
00000100
00010000
00001000
00010000
00001000
00000000
00011000
00000000
00000000
00000000
00001000
00010000
00100000
00000000
01100000
00000000
,
00000000
00000000
10000000
01000000
10000000
00000000
10100000
00000000
00000000
00000000
00010000
01000000
00010000
00000000
01000000
00100000
,
01000000
00000000
00010000
10000000
00010000
00000000
10010000
00000000
00000000
00000000
10100000
00000000
01100000
00000000
00000000
00000000
,
01010000
00000000
01000000
00000000
00001000
00000000
00011000
00000000
00000000
00000000
00010000
00000100
00010000
00000000
00000100
00001000
,
00000100
00000000
00010000
00001000
00010000
00000100
00001000
00000100
00000010
00000000
00000001
00001000
00000001
00000000
00000000
00000000
,
00000100
00000010
00000100
00000010
00000100
00000000
00000101
00000000
00000000
00000000
00000001
00001000
00000001
00000000
00001000
00000010
,
00000100
00000010
00001000
00000010
00000100
00000000
00000101
00000000
00000000
00000000
00000001
00000010
00000100
00000000
00000000
00000000
,
00010000
00000000
00001000
00100000
00010000
10000000
00100000
00000000
00000000
00000000
10000000
01000000
00100000
01000000
10000000
00000000
,
00000000
00000000
00010000
00100000
01000000
00100000
00010000
00000000
00000000
00000000
01000000
00001000
00010000
00001000
00100000
00000000
,
00000000
00000000
00011000
00000000
00000000
00000000
00010010
00000000
00000000
00000000
00001000
00000100
00000010
00000000
00000110
00000000
,
00000000
00000000
00000001
00000100
00000010
00000000
00000110
00000000
00000000
00000000
00001000
00000001
00000010
00000000
00000100
00000000
,
00010000
00000000
00000000
00001000
00000000
00000000
00010000
00000000
00001000
00000000
00100000
00001000
00100000
00000000
00001000
00010000
,
00001000
00000000
01000000
00001000
01000000
00000000
00010000
00000000
00100000
00000000
00110000
00000000
01000000
00000000
10000000
00000000
,
10100000
00000000
00000000
01010000
00000000
00000000
10010000
00000000
10000000
01000000
10000000
00000000
00100000
00000000
01000000
00010000
,
01000000
00000000
00001000
00000000
00010000
00000100
00010000
00000000
00000100
00001000
00000100
00001000
00000100
00000010
00000100
00000000
,
00001100
00000000
00000000
00000110
00000000
00000000
00000011
00000000
00000001
00000000
00000100
00000001
00001000
00000000
00000100
00000000
,
00001000
00000010
00000100
00000000
00000010
00000000
00001000
00000100
00010000
00000000
00001000
00000000
01000000
00010000
00100000
00000000
,
01100000
00000000
00000000
11000000
00000000
00000000
10010000
00000000
00010000
01000000
00010000
01000000
00010000
00000000
10000000
01000000
,
10000000
01000000
10000000
00000000
00010000
01000000
00010000
01000000
00010000
00000000
10000000
00100000
10000000
00000000
00100000
01000000
,
00010000
01000000
00010000
01000000
00001000
00010000
00000100
00001000
00000100
00000000
00000000
00000000
00000110
00000000
00000000
00000000
,
00000000
00000001
00001000
00001001
00000000
00000000
00000000
00000000
;

//--------------- dance-double - Fred-104† ----------------
#NOTES:
     dance-double:
     Fred-104†:
     Challenge:
     18:
     :
00000000
00000000
00000000
00000000
,
00000000
00000000
00000000
00000000
00000000
00000000
00000000
00011000
,
00000000
00000000
00000010
00000000
00001000
00000001
00000010
00000000
00000100
00000000
00000010
00000000
00000001
00000100
00001000
00000000
,
00010000
00000000
00100000
00000000
01000000
00010000
10000000
00000000
00010000
00100000
01000000
10000000
00010000
00000000
10010000
00000000
,
00000000
00000000
10000000
00000000
00100000
01000000
00100000
00000000
00010000
00000000
00001000
00000000
00000100
00000010
00000100
00000000
,
00000001
00000000
00001000
00000000
00000100
00000010
00000001
00000000
00000100
00001000
00010000
00001000
01000000
00000000
01100000
00000000
,
00000000
00000000
10100000
00000000
10010000
00000000
00000000
00000000
10000000
01000000
00100000
00010000
00100000
00000000
00101000
00000000
,
00000000
00000000
00001000
00000000
00010000
00000100
00001000
00000100
00000010
00000000
00000001
00001000
00000010
00000000
00000110
00000000
,
00000000
00000000
00001000
00000000
00000010
00000100
00001000
00000000
00010000
00000000
00100000
01000000
00010000
00000000
20020000
00000000
,
00000000
00000000
00000000
00000000
,
30030000
00000000
00000000
00000000
,
10010000
00000000
10000000
00000000
00000000
01000000
00100000
00010000
00000000
00000010
00000000
00000100
00001000
00000010
00010000
00000000
,
00011000
00000000
00010000
00000000
00000000
00001000
00000100
00000001
00000000
00001000
00000000
00000001
00000010
00000100
00010000
00000000
,
00011000
00000000
00001000
00000000
00000000
00010000
00100000
01000000
00000000
00001000
00000000
00010000
01000000
10000000
00100000
00000000
,
01100000
00000000
00010000
00000000
00000000
10000000
01000000
00010000
00000000
00001000
00000000
00000010
00000001
00001000
00000001
00000000
,
00000101
00000000
00001100
00000000
00000000
00000101
00000001
00001001
,
00000000
00010010
00000000
00101000
00001000
00010000
00011000
00000000
,
00010100
00000000
01001000
00000000
00000000
00011000
00001000
01001000
,
00000000
00110000
00000000
10010000
00010000
10000000
11000000
00000000
,
01010000
00000000
11000000
00000000
00000000
10100000
00100000
01100000
,
00000000
01010000
00000000
11000000
01000000
00100000
00101000
00000000
,
00011000
00000000
00010010
00000000
00000000
00001100
00000100
00000110
,
00000000
00000000
00000000
00000000
00000000
00000000
00000000
00000000
00000000
00000000
00000000
00000000
00000000
00000000
00000000
00000000
00000000
00000000
00000000
00000000
00000000
00000000
00000000
00000000
00000001
00000000
00000000
00000000
00000000
00000000
00000000
00000000
00000010
00000000
00000000
00000000
00000000
00000000
00000000
00000000
00000100
00000000
00000000
00000000
00000000
00000000
00000000
00000000
00002000
00000000
00000000
00003000
00000000
00000000
00000000
00000000
00000000
00000000
00000000
00000000
00000000
00000000
00000000
00000000
00000000
00000000
00000000
00000000
00000000
00000000
00000000
00000000
00000000
00000000
00000000
00000000
00000000
00000000
00000000
00000000
00000000
00000000
00000000
00000000
00000000
00000000
00000000
00000000
00000000
00000000
00000000
00000000
00000000
00000000
00000000
00000000
00000001
00000000
00000000
00000000
00000000
00000000
00000000
00000000
00000000
00000000
00000000
00000000
00000000
00000000
00000000
00000000
00000000
00000000
00000000
00000000
00000000
00000000
00000000
00000000
00000100
00000000
00000000
00000000
00000000
00000000
00000000
00000000
00000000
00000000
00000000
00000000
00000010
00000000
00000000
00000000
00000000
00000000
00000000
00000000
00000000
00000000
00000000
00000000
00000100
00000000
00000000
00000000
00000000
00000000
00000000
00000000
00000000
00000000
00000000
00000000
00000000
00000000
00000000
00000000
00000000
00000000
00000000
00000000
00000000
00000000
00000000
00000000
00001000
00000000
00000000
00000000
00000000
00000000
00000000
00000000
00000000
00000000
00000000
00000000
00000000
00000000
00000000
00000000
00000000
00000000
00000000
00000000
00000000
00000000
00000000
00000000
,
00010000
00000000
00100000
01000000
00100000
00000000
01000000
00000000
00010000
00000000
10000000
01000000
00100000
00000000
00001000
00000000
,
00010000
00001000
00010000
00000100
00001000
00000000
00000001
00000000
00000100
00000000
00000010
00000100
00001000
00000000
00010000
00000000
,
00100000
00000000
01000000
00010000
10000000
00000000
01000000
00000000
00100000
00000000
00001000
00010000
00001000
00000000
01000000
00001000
,
00010000
00000100
00001000
00000000
00001001
00000000
00000000
00000000
00001000
00000000
00000001
00000010
00000100
00000000
00010000
00000000
,
00001000
00000000
00010000
00001000
00000010
00000000
00000100
00000000
00001000
00000000
00000001
00000100
00001000
00000000
00010000
00000000
,
00100000
01000000
00010000
01000000
00010000
00000000
10000000
00000000
01000000
00000000
00100000
00010000
10000000
00000000
00100000
00000000
,
01000000
00000000
00001000
00010000
00001000
00000000
00100000
00000000
00001000
00000000
00010000
00001000
00000100
00000000
00000010
00001000
,
00000001
00001000
00000100
00000010
00000001
00000000
00001000
00000000
00000001
00000000
00001000
00000001
00000010
00000000
00000100
00000000
,
00010000
00000000
00001000
00000100
00000010
00000000
00001000
00000000
00000001
00000000
00000100
00000010
00000100
00000000
00001000
00000000
,
00010000
00100000
01000000
00100000
10000000
00000000
00010000
10000000
00100000
00000000
10000000
00010000
00100000
00000000
01000000
00000000
,
00100000
00000000
00001000
00010000
00001000
00000000
01000000
00000000
00001000
00000000
00010000
00001000
00000100
00000000
00000010
00000000
,
00010000
00001000
00000010
00000100
00001000
00000000
00000001
00001000
00000100
00000000
00000010
00000001
00001000
00000001
00000100
00000000
,
00000001
00000000
00000010
00000100
00001000
00000100
00010000
00000000
00000010
00000000
00010000
00001000
00100000
00000000
00001000
00010000
,
00001000
01000000
00010000
00100000
00001000
00000000
00100000
00000000
00010000
00000000
10000000
00010000
00100000
00000000
01000000
10000000
,
00010000
00000000
01000000
00100000
10000000
00000000
00010000
10000000
01000000
00100000
00010000
00100000
00001000
00010000
00000100
00001000
,
00000100
00000010
00000001
00001000
00000010
00000100
00000001
00001000
00000200
00000000
00000000
00000000
00000310
00000001
00000010
00000001
,
00000100
00000000
00001000
00010000
00001000
00000000
00010000
00100000
01000000
00000000
00000000
00010000
00000000
00000000
10000000
00000000
,
01000000
00000000
00010000
00000000
00001000
00000000
00010000
00000000
00100000
01000000
00100000
01000000
00100000
00000000
02100000
00000000
,
00000000
00000000
03001000
00000000
00010000
00000000
00012000
00000000
00000000
00000000
00013000
00001000
00010000
00000100
00001000
00000000
,
00000100
00000000
00000000
00000010
00000000
00000000
00000001
00000000
00001000
00000001
00000010
00000100
00000010
00000000
00000002
00000000
,
00000000
00000103
00001000
00010000
00002000
00000000
01003000
00100000
,
10000000
00000000
00020000
00000000
00000000
00000000
01030000
00000000
00001000
00000000
00010000
00000000
01000000
00000000
00100000
00010000
,
10000000
00000000
00010000
01000000
00100000
10000000
00100000
01000000
00010000
10000000
01000000
10000000
01000000
00100000
00010000
00100000
,
00001000
00010000
00000010
00001000
00000001
00000000
00000010
00000000
00000110
00000000
00000100
00001000
00000001
00000000
00000020
00000000
,
00000000
00000000
00000031
00000000
00000100
00000000
00001000
00010000
00001000
00000000
00000000
00010000
00000000
00000000
01000000
00000000
,
00100000
00000000
00001000
00000000
00010000
00100000
10000000
00000000
10010000
00000000
10000000
01000000
00100000
00000000
00110000
00000000
,
00000000
00001000
00010000
00011000
00000000
00020000
00000000
00032000
,
00003000
00000200
00000000
00000301
00001001
00000000
00000001
00000020
,
00000000
00000000
00001030
00000000
00010000
00000000
00100000
00000000
10000000
00000000
00010000
00000000
01000000
00100000
10000000
00100000
,
01000000
00000000
00000000
00001000
00000000
00000000
00010000
00000000
00011000
00000000
00010010
00000000
00000000
00000000
00011000
00000000
,
01001000
00000000
00000000
00000000
00010000
00000000
00001000
00000000
00011000
00000000
00000000
00010100
00000000
00000000
00101000
00000000
,
00000000
00000000
00010000
00000000
00001000
00000000
00011000
00000000
00000000
00000000
00010000
00000010
00001000
00000000
00000001
00000010
,
00000100
00000000
00000000
00000000
00000000
00000000
00001000
00000000
00000000
00000100
00000000
00000000
00000010
00000000
00000000
00000001
00000000
00000000
00001000
00000000
00000000
00000010
00000000
00000000
00000100
00000000
00000000
00000000
00000000
00000000
00000001
00000000
00001000
00000000
00000001
00000000
00001000
00000000
00000000
00000000
00000000
00000000
00000000
00000000
00000000
00000000
00000000
00000000
,
00000001
00000010
00000100
00010000
00001000
00000000
00011000
00000000
00000000
00000000
00001000
00100000
00010000
00000000
00100000
01000000
,
10000000
00000000
00000000
00010000
00000000
00000000
01000000
00000000
00000000
00100000
00000000
00000000
01000000
00000000
00000000
00000000
00000000
00000000
01100000
00000000
00000000
00000000
00000000
00000000
00000000
00000000
00000000
00000000
00000000
00000000
00010000
00000000
10000000
00000000
00010000
00000000
10000000
00000000
00000000
00000000
00000000
00000000
11000000
00000000
00000000
00000000
00000000
00000000
,
00000000
00000000
01000000
00100000
00010000
00000000
00110000
00000000
00000000
00000000
00100000
00001000
00010000
00000000
00000010
00001000
,
00000010
00000000
00000000
00010000
00000000
00000000
00001000
00000000
00000000
00010000
00000000
00000000
00000010
00000000
00000000
00000000
00000000
00000000
00001010
00000000
00000000
00000000
00000000
00000000
00000000
00000000
00000000
00000000
00000000
00000000
00001000
00000000
00000001
00000000
00000010
00000000
00000100
00000000
00000000
00000000
00000000
00000000
00001100
00000000
00000000
00000000
00000000
00000000
,
00000000
00000000
00010000
00001000
00010000
00000000
00011000
00000000
00000000
00000000
00001000
00010000
00100000
00000000
01000000
00010000
,
10000000
00000000
00000000
00010000
10000000
00010000
00100000
00000000
00000000
01100000
00000000
00000000
00000000
00000000
00000000
11000000
00000000
00000000
10010000
00000000
00000000
00000000
00000000
00000000
,
10000000
00000000
01000000
00000000
00010000
00000000
00011000
00000000
00000000
00000000
00010000
00000100
00001000
00000000
00000100
00010000
,
00001000
00000000
00000000
00000000
00000000
00000000
01000000
00000000
00000000
00010000
00000000
00000000
01000000
00000000
00000000
00001000
00000000
00000000
00010000
00000000
00000000
00000100
00000000
00000000
00001000
00000000
00000000
00000000
00000000
00000000
00000001
00000000
00000100
00000000
00000001
00000000
00001000
00000000
00000000
00000000
00000000
00000000
00000000
00000000
00000000
00000000
00000000
00000000
,
00000001
00000010
00000100
00010000
00001000
00000000
00011000
00000000
00000000
00000000
00001000
00010000
01000000
00000000
00100000
00010000
,
10000000
00000000
00000000
00000000
00000000
00000000
00100000
00000000
00000000
10000000
00000000
00000000
01000000
00000000
00000000
00000000
00000000
00000000
01100000
00000000
00000000
00000000
00000000
00000000
00000000
00000000
00000000
00000000
00000000
00000000
00100000
00000000
00001000
00000000
00100000
00000000
00001000
00000000
00000000
00000000
00000000
00000000
00000000
00000000
00000000
00000000
00000000
00000000
,
00011000
00000000
00010000
00000010
00001000
00000001
00000010
00000000
00000000
00000000
00000001
00000010
00000100
00001000
00000100
00000000
,
00000000
00000000
00010000
00000010
00001000
00000010
00010000
00000000
00000000
00000000
00001000
00100000
00010000
10000000
00100000
00000000
,
00000000
00000000
01100000
00000000
00000000
00000000
10010000
00000000
00000000
00000000
10000000
01000000
00010000
00000000
00011000
00000000
,
00000000
00000000
00001000
00000010
00000001
00000000
00001001
00000000
00000000
00000000
00000001
00000100
00001000
00000000
00010000
00000000
,
00100000
00000000
00000000
01000000
00000000
00000000
00010000
00000000
10000000
00010000
01000000
00010000
10000000
00000000
01000000
00100000
,
00010000
00100000
00001000
00000000
00010000
00001000
00010000
00000010
00001000
00000000
00000100
00000010
00000001
00000000
00001000
00000000
,
00000001
00000000
00000000
00000100
00000000
00000000
00000010
00000000
00001000
00000001
00000010
00000001
00001000
00000000
00000010
00010000
,
00001000
00100000
00010000
00000000
10000000
00010000
01000000
00100000
10000000
00000000
00010000
00100000
01000000
10000000
00010000
01000000
,
00100000
00000000
00000000
10100000
00000000
00000000
01010000
00000000
10000000
01000000
10000000
00010000
01000000
00000000
00001000
00010000
,
00000010
00001000
00000010
00000000
00010000
00000100
00001000
00000100
00000010
00000000
00000001
00001000
00000010
00000100
00000001
00000000
,
00001100
00000000
00000000
00000101
00000000
00000000
00001100
00000000
00001000
00000001
00000010
00000100
00001000
00000000
00000100
00010000
,
00001000
00100000
00010000
00000000
00100000
01000000
10000000
00010000
01000000
00100000
10000000
00100000
01000000
00010000
00100000
00001000
,
00010000
00000100
00001000
00000010
00000100
00000001
00001000
00000100
00000010
00000000
00000000
00000000
00000011
00000000
00000000
00000000
,
00000000
00010000
00001000
00011000
00000000
00000000
00000000
00000000
;
