#TITLE:Aerial Skydive;
#ARTIST:Dirty Androids;
#GENRE:DRUM & BASS;
#BANNER:Aerial Skydive.png;
#BACKGROUND:Aerial Skydive-bg.png;
#CDTITLE:./CDTitles/RB colette -Winter-.png;
#MUSIC:Aerial Skydive.ogg;
#SAMPLESTART:24.686;
#SAMPLELENGTH:15;
#BPMS:0=175;
#BGSTAGE:16;

//--------------- dance-single - Fred-104 ----------------
#NOTES:
     dance-single:
     Fred-104:
     Beginner:
     3:
     :
0000
0000
0000
0000
,
0000
0000
0000
0000
,
0000
0000
0000
0000
,
0000
0000
0000
0000
,
0000
0000
0000
0000
,
1000
0000
0000
0000
,
0000
0000
0000
0000
,
0001
0000
0000
0000
,
0000
0000
0000
0000
,
1000
0000
1000
0000
,
0100
0000
0000
0000
,
1000
0000
1000
0000
,
0001
0000
0000
0000
,
0100
0000
0100
0000
,
0010
0000
0000
0000
,
0100
0000
0001
0000
,
1000
0000
0000
0000
,
1001
0000
0000
0000
,
1000
0000
1000
0000
,
0010
0000
0000
0000
,
0010
0000
0010
0000
,
0001
0000
0000
0000
,
0001
0000
0001
0000
,
0010
0000
0000
0000
,
0100
0000
0010
0000
,
1000
0000
0000
0000
,
0001
0000
0001
0000
,
0010
0000
0000
0000
,
0010
0000
1000
0000
,
0010
0000
0000
0000
,
0010
0000
0100
0000
,
0010
0000
0000
0000
,
0010
0000
0001
0000
,
1000
0000
0000
0000
,
0001
0001
0001
0000
,
0010
0000
0100
0000
,
1000
0000
1000
0000
,
0001
0000
1000
0000
,
0010
0000
0010
0000
,
0100
0000
0001
0000
,
1000
0000
1000
0000
,
0001
0000
0000
0000
,
2000
0000
0000
3000
,
0002
0000
0000
0003
,
1000
0000
0001
0000
,
0010
0000
0010
0000
,
0200
0000
0000
0300
,
0020
0000
0000
0030
,
0100
0000
0100
0000
,
1000
0000
0000
0000
,
0001
0000
1000
0000
,
0001
0000
0001
0000
,
0100
0000
0010
0000
,
0100
0000
0100
0000
,
0001
0000
1000
0000
,
0001
0000
0010
0000
,
0100
0000
1000
0000
,
0002
0000
0000
0003
,
1001
0000
0000
0000
,
0000
0000
0000
0000
,
0000
0000
0000
0000
,
0000
0000
0000
0000
,
2000
0000
0000
3000
,
0002
0000
0000
0003
,
1000
0000
0000
0000
,
1001
0000
0000
0000
,
1000
0000
0010
0000
,
1000
0000
0000
0000
,
1000
0000
0010
0000
,
0001
0000
0000
0000
,
0001
0000
0010
0000
,
0100
0000
0000
0000
,
0100
0000
0010
0000
,
1000
0000
0000
0000
,
0001
0000
0010
0000
,
0100
0000
0000
0000
,
0100
0000
0000
0000
,
0010
0000
0000
0000
,
1000
0000
1000
0000
,
0010
0000
0001
0000
,
1000
0000
0001
0000
,
2002
0000
0000
3003
;

//--------------- dance-single - Fred-104 ----------------
#NOTES:
     dance-single:
     Fred-104:
     Easy:
     6:
     :
0000
0000
0000
0000
,
0000
0000
0000
0000
,
0000
0000
0000
0000
,
0000
0000
0000
0000
,
0000
0000
0000
0000
,
0002
0000
0000
0000
,
2003
0000
0000
0000
,
3002
0000
0000
0000
,
2003
0000
0000
3000
,
0100
0000
0010
0000
0000
0010
0000
0000
,
0001
0000
0000
0001
0000
0000
1000
0000
,
0001
1000
0001
0000
,
0100
0000
0000
0010
0000
0000
0100
0000
,
0001
0000
1000
0000
0000
1000
0000
0000
,
0100
0000
0000
0010
0000
0000
0001
0000
,
1000
0001
1000
0000
,
0001
0000
0000
0001
0000
0000
0001
0000
,
2002
0000
0000
3003
,
0001
0000
0010
0000
0000
0010
0000
0000
,
0100
0000
0000
0100
0000
0000
1000
0000
,
0001
0100
0010
0100
,
0100
0000
0000
0001
0000
0000
1000
0000
,
0001
0000
0010
0000
0000
0010
0000
0000
,
0100
0000
0000
0100
0000
0000
1000
0000
,
0001
1000
0010
0010
,
0100
0000
0000
0100
0000
0000
0100
0000
,
0010
0000
1000
0000
0000
0001
0000
0000
,
1000
0000
0000
0100
0000
0000
0010
0000
,
0001
0000
0000
0001
0000
0000
1000
0000
,
0010
0000
0000
0010
0000
0000
0100
0000
,
0010
0000
1000
0000
0000
0001
0000
0000
,
1000
0000
0000
0100
0000
0000
0010
0000
,
0100
1000
0001
1000
,
0001
0000
0000
1000
0000
0000
0001
0000
,
2000
3002
2003
3000
,
0100
0100
0010
0000
,
0002
2003
3002
0003
,
0100
0010
0100
0000
,
0002
2003
3002
0003
,
0010
0100
1000
0000
,
0002
2003
3020
0030
,
0100
0000
0000
0100
0000
0000
0100
0000
,
0001
0000
1000
0000
0000
0100
0000
0000
,
1000
0000
0000
0001
0000
0000
1000
0000
,
0010
0010
1000
1000
,
0100
0010
0001
0000
,
1000
0000
0100
0000
0000
1000
0000
0000
,
0001
0000
0000
1000
0000
0000
0010
0000
,
0100
0100
0001
1000
,
0001
0000
0000
1000
0000
0000
0001
0000
,
1000
0000
1000
0000
,
0100
0100
0010
0000
,
0100
0000
0001
0000
,
0100
0100
1000
0000
,
0001
0000
0100
0000
,
1000
0000
0100
0000
,
0001
0000
1000
0000
,
0001
0001
0001
0001
,
1001
0000
0000
0000
,
0000
0000
0000
0000
,
0000
0000
0000
0000
,
0000
0000
0000
0000
,
0200
0000
0010
0000
0000
0010
0000
0000
,
0010
0000
0000
0010
0000
0000
0310
0000
,
0110
0000
0000
0110
0000
0000
0110
0000
,
2002
0000
0000
3003
,
1000
0000
0010
0000
0000
0010
0000
0000
,
0100
0000
0000
0100
0000
0000
0001
0000
,
1000
0100
0010
0100
,
0100
0000
0000
1000
0000
0000
0001
0000
,
1000
0000
0010
0000
0000
0010
0000
0000
,
0100
0000
0000
0100
0000
0000
0001
0000
,
1000
0001
0010
0010
,
0100
0000
0000
0100
0000
0000
0100
0000
,
0010
0000
0001
0000
0000
1000
0000
0000
,
0001
0000
0000
0100
0000
0000
0010
0000
,
1000
0000
0000
1000
0000
0000
0001
0000
,
0010
0000
0000
0010
0000
0000
0100
0000
,
0010
0000
0001
0000
0000
1000
0000
0000
,
0001
0000
0000
0100
0000
0000
0010
0000
,
0100
0001
1000
0001
,
1000
0000
0000
0001
0000
0000
1001
0000
;

//--------------- dance-single - Fred-104 ----------------
#NOTES:
     dance-single:
     Fred-104:
     Medium:
     10:
     :
0000
0000
0000
0000
,
0000
0000
0000
0000
,
0000
0000
0000
0000
,
0000
0000
0000
0000
,
0000
0000
0000
0000
,
2000
0000
0000
0000
,
3002
0000
0000
0000
,
0023
0000
0000
0000
,
0230
0000
0000
0300
,
1000
0000
1000
0000
0001
0100
0001
0000
,
1000
0000
0100
0010
0000
0010
0001
0000
,
1000
0000
0001
0100
0010
0000
0100
0001
,
1000
0000
0001
0010
0000
0010
0100
0000
,
1000
0000
0001
0000
0100
0010
0100
0000
,
0001
0000
0010
0100
0000
0100
1000
0000
,
0010
1000
0001
0000
0100
0001
1000
0000
,
0100
0000
0000
0100
0000
0000
0010
0000
0000
0010
0000
0000
0110
0000
0000
0000
,
2002
0000
0000
3003
,
1000
0100
1000
0000
0001
0100
0000
0001
,
0100
0000
0010
1000
0000
0010
1000
0000
,
0001
0000
0010
0001
0010
0000
0100
1000
,
0001
0000
0100
0010
0000
0100
0010
0000
,
0100
0001
0100
0000
0010
1000
0000
0001
,
1000
0000
0100
1000
0000
0001
1000
0000
,
0100
0010
0001
0000
1000
0010
0100
0000
,
0001
0100
0001
0100
0000
0001
0001
0000
,
1000
0001
1000
0000
0100
0010
0000
0100
,
1000
0000
0001
1000
0000
0010
1000
0000
,
0001
0000
0010
0010
0000
0100
0010
0001
,
0100
0000
0010
0010
0000
1000
1000
0000
,
0001
0010
0100
0000
1000
0001
0000
1000
,
0010
0000
1000
0001
0000
0010
0100
0000
,
0010
0000
0001
0100
0010
0000
1000
0100
,
0010
0001
0010
0001
1000
0001
1000
0000
,
0002
0000
2003
0000
3010
1000
0001
0000
,
0020
0000
0130
1000
0001
0000
1001
0000
,
2000
0000
3020
0000
0130
0001
1000
0000
,
0200
0000
0301
0100
1000
0000
1001
0000
,
0002
0000
0023
0000
1030
0010
0001
0000
,
0200
0000
0310
0001
0010
0000
1010
0000
,
2000
0000
3200
0000
0310
0001
1000
0000
,
1001
0000
0001
0001
0000
0100
0100
0000
,
0001
0010
0001
0000
0010
0100
0000
0100
,
1000
0000
1000
0010
0000
0010
0100
0000
,
0001
0100
0010
0000
0100
0001
1000
0000
,
0100
0000
0010
0000
0001
0000
0000
1000
0000
0000
0001
0000
1001
0000
0000
0000
,
1000
0100
1000
0000
1000
0010
0000
0010
,
0100
0000
0100
0001
0000
0001
1000
0000
,
0001
0010
0100
0000
1000
0010
0100
0000
,
0001
0000
0000
0010
0000
0000
0100
0000
0000
0000
1000
0000
1001
0000
0000
0000
,
1000
0000
0110
0000
,
0010
0001
0000
0001
1000
0000
1001
0000
,
0001
0000
0101
0100
,
0020
0000
0230
0000
0301
1000
0001
0000
,
2000
3200
0320
0032
,
0203
0000
0320
0000
0130
0001
1000
0000
,
0001
0010
0200
2300
,
3020
0000
0000
0230
0000
0000
0301
1000
0001
1000
0000
0000
,
0002
0000
0000
0000
,
2003
0000
0000
0000
,
3002
0000
0000
0000
,
2003
0000
0000
0000
,
3200
0000
0320
0000
,
0032
0000
0000
0000
2003
0000
3001
1000
,
0001
0000
0000
0110
0000
0000
1001
0000
,
1000
0100
0010
0001
1000
0001
1000
0000
,
0001
0100
0001
0000
1000
0010
0000
1000
,
0001
0000
1000
0100
0000
0010
0001
0000
,
1000
0000
0010
1000
0100
0000
0010
0001
,
0100
0000
0010
1000
0000
0001
0010
0000
,
0100
0010
0001
0000
1000
0001
0000
0100
,
0001
0000
1000
0001
0000
0010
0100
0000
,
1000
0001
0100
0000
0010
1000
0001
0000
,
0010
0100
0010
0010
0000
0001
0001
0000
,
1000
0001
0100
0000
0010
1000
0000
0001
,
1000
0000
0100
0010
0000
0001
1000
0000
,
0010
0100
0001
0001
0000
1000
0100
0010
,
0001
0000
1000
1000
0000
0010
0010
0000
,
0100
0001
1000
0000
0100
0010
0000
0001
,
0010
0000
0100
1000
0000
0001
1000
0000
,
0010
1000
0010
0000
0100
0001
0100
0000
,
0010
0000
0000
0010
0000
0000
0100
0000
0001
0000
0000
0000
1001
0000
0000
0000
;

//--------------- dance-single - Fred-104 ----------------
#NOTES:
     dance-single:
     Fred-104:
     Hard:
     14:
     :
0000
0000
0000
0000
,
0000
0000
0000
0000
,
0000
0000
0000
0000
,
0000
0000
0000
0000
,
0000
0000
0000
0000
,
0002
0000
0010
0000
0000
0010
0000
0000
,
0010
0000
0000
0010
0000
0000
0013
0000
,
0200
1000
1000
0000
,
1000
0000
0000
1000
0000
0000
1300
0000
,
0001
0010
0100
1000
0001
0100
0010
1000
,
0002
0000
0013
2000
0000
3010
0002
0000
,
1003
0100
0010
0001
1000
0010
0100
0010
,
2000
0000
3001
0010
0100
1000
0010
0100
,
0001
1000
0100
1000
0001
0100
0010
1000
,
0200
0000
0310
2000
0000
3010
0002
0000
,
1003
0100
0010
0001
0100
0010
1000
0001
,
0010
0000
0000
0110
0000
0000
1000
0000
0000
1001
0000
0000
0101
0000
0001
0000
,
1000
0001
1000
0000
0010
0000
0100
0000
0001
1000
0001
1000
0001
0000
0000
0000
,
1000
0000
0100
0010
0100
0000
0010
0000
0001
0000
1000
0000
0010
0000
0100
0001
,
0100
0010
1000
0100
0001
0100
2000
0000
,
3001
0000
0010
0100
0010
0000
0001
0000
0100
0000
0010
0000
1000
0000
0001
0000
,
0010
0000
0100
0010
0100
0000
1000
0000
0010
0000
0100
0000
1000
0000
0100
0000
,
0001
0000
1000
0001
1000
0000
0100
0000
0010
0000
0100
0000
1000
0000
0001
1000
,
0001
0100
1000
0001
0010
1000
0002
0000
,
1003
0000
0100
1000
0100
0000
0010
0000
0100
0000
0001
0000
0100
0000
1000
0000
,
0001
0000
0100
0010
0100
0000
0110
0000
0000
0000
0010
0000
1000
0001
1000
0001
,
1000
0000
0100
0010
0100
0000
1000
0000
0001
0000
1000
0000
0001
0000
0010
0100
,
0010
0000
0001
0000
1000
0000
0010
0000
0001
0000
1000
0000
0100
0000
0001
1000
,
0001
0000
0000
0000
0010
0100
0010
0000
0000
0000
0011
0000
0001
0000
1000
0000
,
1010
0000
0001
0101
0000
1000
1001
0000
,
0001
0000
0010
0000
0100
0000
1000
0001
1000
0000
0010
0000
0001
0000
0010
0100
,
0010
1000
0001
0010
1000
0010
0001
1000
,
0010
0000
0100
0001
0100
0000
0010
0000
0100
0010
0100
0000
1000
0000
0100
0000
,
0001
0000
1000
0000
0001
0000
1000
0000
0001
1000
0001
1000
0001
0000
0000
0000
,
2000
0000
0010
0000
3020
0000
0100
0000
0130
0000
0001
0000
1000
0000
0100
0010
,
0200
0000
0000
0000
1300
0000
0001
0100
0001
0000
1000
0000
0020
0000
0000
0000
,
0230
0000
1000
0000
2300
0000
0100
0000
3100
0000
0001
0000
1000
0000
0100
0010
,
0200
0000
0000
0000
1300
0000
0001
0100
0001
0000
0100
0000
0110
0000
0000
0010
,
2000
0000
0001
0000
3002
0000
0100
0000
0103
0000
0010
0000
0001
0000
0010
0100
,
0020
0000
0000
0000
1030
0000
0001
0010
0001
0000
1000
0000
0001
0000
0100
0000
,
0020
0000
0100
0000
0230
0000
0001
0000
0301
0000
0010
0000
0100
0000
1000
0001
,
1000
0000
0000
0000
0001
0000
0101
0000
0000
1000
0001
1000
0001
0000
0000
0000
,
1000
0000
0001
0100
0001
0000
0000
0000
1000
0010
1000
0000
0000
0000
0001
0010
,
0001
0000
0000
0000
1000
0100
1000
0000
0000
0000
0001
1000
0001
0000
1000
0000
,
0001
0100
1000
0001
0010
1000
0001
0010
,
0100
0000
0010
0000
0100
0000
1000
0001
0000
0000
0001
0000
1001
0000
0000
0000
,
1000
0000
0100
0010
0100
0000
0000
0000
1000
0001
1000
0000
0000
0000
0001
0100
,
0001
0000
0000
0000
1000
0010
1000
0000
0000
0000
0001
0010
0001
0000
1000
0000
,
0010
0000
0100
0000
1000
0000
0001
0000
0010
0000
1000
0000
0001
1000
0001
1000
,
0001
0000
0000
0011
0000
0000
1001
0000
0000
1000
0100
1000
0100
0000
0010
0000
,
0110
0000
0000
0000
0000
0000
0100
0000
0000
1000
0000
0000
0001
0000
0000
0001
0000
0000
1000
0000
0001
0000
1000
0000
,
0010
0000
0200
0000
0000
0000
0301
0000
2000
0000
3100
0010
0002
0000
0013
0100
,
1000
0000
0000
0000
0000
0000
0001
0000
0000
0000
0000
0000
0100
0000
0000
0000
0010
0000
0000
0000
1000
0000
0000
0000
0001
0000
0000
0000
0000
0000
0000
0000
0000
1000
0000
0000
0001
0000
0000
1000
0000
0000
0010
0000
0000
0000
0000
0000
,
0100
0000
0001
0000
0100
0000
0001
0000
0000
1000
0000
0000
0010
0000
0000
0100
0000
0000
0001
0000
0000
1000
0000
0000
,
0100
0000
0100
0010
0100
1000
0001
1000
0001
0100
0010
1000
,
0001
0000
0010
0000
0001
0000
0010
0000
0000
0100
0000
0000
1000
0000
0000
0001
0000
0000
0100
0000
0000
0010
0000
0000
,
1000
0000
0000
0000
0000
0000
1000
0000
0000
0000
0000
0000
0001
0000
0000
1000
0000
0000
0001
0000
0000
0000
0000
0000
0100
0000
0000
0000
0010
0000
0000
0000
0100
0000
0000
0000
0001
0000
0000
0000
1000
0000
0000
0000
0001
0000
0000
0000
,
1000
0100
1000
0001
0010
0001
1000
0001
0100
0010
0000
0000
,
0200
0000
0000
0000
,
0000
0000
0000
0000
,
0320
0000
0000
0000
,
0000
0000
0000
0000
,
2030
0000
0010
0000
0000
0001
0000
0000
,
0100
0000
0000
0000
0000
0000
0001
0000
0000
0000
0000
0000
3010
0000
0100
0001
,
0100
0000
0000
0110
0000
0000
1001
0000
,
1000
0001
1000
0000
0100
0000
0010
0000
0001
1000
0001
1000
0001
0000
0000
0000
,
1000
0000
0010
0100
0010
0000
1000
0000
0001
0000
0010
0000
0100
0000
1000
0001
,
1000
0001
0100
1000
0001
0010
0200
0000
,
0301
0000
1000
0100
1000
0000
0001
0000
1000
0000
0010
0000
0100
0000
0001
0000
,
1000
0100
0001
1000
0001
0100
1000
0001
,
0100
0000
0010
1000
0010
0000
0100
0000
0001
0000
1000
0000
0100
0000
1000
0001
,
1000
0001
0100
1000
0001
0010
0200
0000
,
0301
0000
1000
0000
0100
0000
0010
0000
0001
1000
0001
0000
0100
0000
0010
1000
,
0010
0000
0100
0010
0100
0000
0101
0000
0000
0000
0001
0000
1001
0000
0000
0000
,
1000
0000
0010
0000
1000
0000
0001
0000
1000
0000
0100
0000
0010
0000
0001
1000
,
0002
0000
1003
0020
0000
0031
0020
0000
,
0130
0000
0001
1000
0001
1000
0001
0000
0000
0000
0010
0000
0100
1000
0100
0000
,
0110
0000
0000
0010
0001
0000
0001
0000
1000
0000
0010
0000
0110
0000
0000
0000
,
1000
0000
0001
0000
0010
0000
1000
0000
0001
0000
1000
0000
0010
0000
0001
1000
,
0001
0100
0010
0001
1000
0100
0002
0000
,
1003
0000
0100
1000
0100
0000
0010
0000
0001
1000
0001
0000
0100
0000
0010
0000
,
0110
0000
0000
0110
0000
0000
0101
0000
0001
1000
0001
1000
0001
0000
0000
0000
;

//--------------- dance-double - Fred-104 ----------------
#NOTES:
     dance-double:
     Fred-104:
     Easy:
     6:
     :
00000000
00000000
00000000
00000000
,
00000000
00000000
00000000
00000000
,
00000000
00000000
00000000
00000000
,
00000000
00000000
00000000
00000000
,
00000000
00000000
00000000
00000000
,
00020000
00000000
00000000
00000000
,
00032000
00000000
00000000
00000000
,
00203000
00000000
00000000
00000000
,
00302000
00000000
00000000
00000000
,
00013000
00000000
00000100
00000000
00000000
00000010
00000000
00000000
,
00000001
00000000
00000000
00001000
00000000
00000000
00000001
00000000
,
00000100
00001000
00010000
00000000
,
00001000
00000000
00000000
00010000
00000000
00000000
01000000
00000000
,
10000000
00000000
00010000
00000000
00000000
01000000
00000000
00000000
,
00100000
00000000
00000000
10000000
00000000
00000000
01000000
00000000
,
00010000
00001000
00010000
00000000
,
00000100
00000000
00000000
00000010
00000000
00000000
00001000
00000000
,
00022000
00000000
00000000
00033000
,
00010000
00000000
00001000
00000000
00000000
00000100
00000000
00000000
,
00000001
00000000
00000000
00001000
00000000
00000000
00000100
00000000
,
00000010
00000001
00001000
00000000
,
00000001
00000000
00000000
00000100
00000000
00000000
00001000
00000000
,
00010000
00000000
00001000
00000000
00000000
00000010
00000000
00000000
,
00001000
00000000
00000000
00010000
00000000
00000000
00001000
00000000
,
00100000
00010000
10000000
00000000
,
00100000
00000000
00000000
00100000
00000000
00000000
00100000
00000000
,
01000000
00000000
00010000
00000000
00000000
10000000
00000000
00000000
,
01000000
00000000
00000000
00010000
00000000
00000000
00001000
00000000
,
00010000
00000000
00000000
00000100
00000000
00000000
00000010
00000000
,
00000001
00000000
00000000
00000001
00000000
00000000
00000001
00000000
,
00000010
00000000
00001000
00000000
00000000
00010000
00000000
00000000
,
00001000
00000000
00000000
00000100
00000000
00000000
00001000
00000000
,
00010000
00100000
10000000
00010000
,
00100000
00000000
00000000
00001000
00000000
00000000
00010000
00000000
,
00002000
00023000
00032000
00003000
,
00010000
00000000
00000100
00000000
,
00000020
00000032
00000023
00000030
,
00000001
00000000
00000100
00000000
,
00002000
00023000
00032000
00003000
,
00100000
00000000
01000000
00000000
,
20000000
30020000
20030000
30000000
,
00100000
00000000
00000000
01000000
00000000
00000000
00100000
00000000
,
10000000
00000000
01000000
00000000
00000000
00100000
00000000
00000000
,
00001000
00000000
00000000
00010000
00000000
00000000
00000100
00000000
,
00000010
00000001
00001000
00000001
,
00001000
00000010
00010000
00000000
,
00001000
00000000
00010000
00000000
00000000
00100000
00000000
00000000
,
01000000
00000000
00000000
00100000
00000000
00000000
00010000
00000000
,
00001000
00100000
00010000
01000000
,
00100000
00000000
00000000
01000000
00000000
00000000
00010000
00000000
,
10010000
00000000
10000000
00000000
,
01000000
01000000
00010000
00000000
,
00001000
00000000
00010000
00000000
,
00000100
00000100
00000010
00000000
,
00000001
00000000
00001000
00000000
,
00000010
00000010
00000100
00000000
,
00001000
00000000
00010000
00000000
,
00001000
00001000
00001000
00001000
,
00011000
00000000
00000000
00000000
,
00000000
00000000
00000000
00000000
,
00000000
00000000
00000000
00000000
,
00000000
00000000
00000000
00000000
,
00020000
00000000
00001000
00000000
00000000
00001000
00000000
00000000
,
00001000
00000000
00000000
00001000
00000000
00000000
00001000
00030000
,
00011000
00000000
00000000
00101000
00000000
00000000
00010010
00000000
,
00022000
00000000
00000000
00033000
,
00001000
00000000
00010000
00000000
00000000
01000000
00000000
00000000
,
10000000
00000000
00000000
00010000
00000000
00000000
01000000
00000000
,
00100000
10000000
00010000
00000000
,
10000000
00000000
00000000
01000000
00000000
00000000
00010000
00000000
,
00001000
00000000
00010000
00000000
00000000
00100000
00000000
00000000
,
00010000
00000000
00000000
00001000
00000000
00000000
00010000
00000000
,
00000010
00001000
00000001
00000000
,
00000010
00000000
00000000
00000010
00000000
00000000
00000010
00000000
,
00000100
00000000
00001000
00000000
00000000
00000001
00000000
00000000
,
00000100
00000000
00000000
00001000
00000000
00000000
00010000
00000000
,
00001000
00000000
00000000
01000000
00000000
00000000
00100000
00000000
,
10000000
00000000
00000000
10000000
00000000
00000000
10000000
00000000
,
00100000
00000000
00010000
00000000
00000000
00001000
00000000
00000000
,
00010000
00000000
00000000
01000000
00000000
00000000
00010000
00000000
,
00001000
00000010
00000100
00010000
,
00001000
00000000
00000000
01000000
00000000
00000000
10010000
00000000
;

//--------------- dance-double - Fred-104 ----------------
#NOTES:
     dance-double:
     Fred-104:
     Medium:
     10:
     :
00000000
00000000
00000000
00000000
,
00000000
00000000
00000000
00000000
,
00000000
00000000
00000000
00000000
,
00000000
00000000
00000000
00000000
,
00000000
00000000
00000000
00000000
,
00002000
00000000
00000000
00000000
,
00023000
00000000
00000000
00000000
,
00032000
00000000
00000000
00000000
,
00023000
00000000
00000000
00030000
,
00001000
00000000
00010000
00000000
00100000
01000000
00100000
00000000
,
10000000
00000000
01000000
00100000
00000000
00100000
00001000
00000000
,
00010000
00000000
00000100
00001000
00000100
00000000
00000010
00000001
,
00000010
00000000
00000001
00001000
00000000
00001000
00000100
00000000
,
00000010
00000000
00001000
00000000
00010000
00001000
00010000
00000000
,
00001000
00000000
01000000
00010000
00000000
00010000
00100000
00000000
,
01000000
10000000
00100000
00000000
01000000
00001000
00010000
00000000
,
00001000
00000000
00000000
00001000
00000000
00000000
00010000
00000000
00000000
00010000
00000000
00000000
00011000
00000000
00000000
00000000
,
00022000
00000000
00000000
00033000
,
00010000
00000100
00001000
00000000
00000001
00001000
00000000
00000010
,
00001000
00000000
00000100
00000010
00000000
00000001
00001000
00000000
,
00000010
00000000
00000100
00001000
00010000
00000000
00100000
00010000
,
00001000
00000000
00010000
01000000
00000000
10000000
00010000
00000000
,
01000000
00100000
10000000
00000000
00010000
00100000
00000000
00001000
,
00010000
00000000
00001000
00000100
00000000
00000010
00001000
00000000
,
00000100
00000010
00000001
00000000
00001000
00000010
00000100
00000000
,
00001000
00010000
00001000
00001000
00000000
00010000
00010000
00000000
,
00001000
00100000
00010000
00000000
10000000
00100000
00000000
01000000
,
00010000
00000000
10000000
01000000
00000000
00100000
00001000
00000000
,
00010000
00000000
00001000
00001000
00000000
00010000
00000010
00000010
,
00001000
00000000
00000100
00000100
00000000
00000010
00000010
00000000
,
00000001
00001000
00000010
00000000
00001000
00000001
00000000
00000010
,
00000100
00000000
00010000
00001000
00000000
01000000
00010000
00000000
,
00100000
00001000
00010000
00000000
00001000
00100000
01000000
10000000
,
00010000
01000000
00010000
01000000
00100000
10000000
00010000
00000000
,
20000000
00000000
32000000
00000000
03010000
00001000
00010000
00000000
,
00002000
00000000
00023000
00000000
00030100
00000010
00000001
00000000
,
00002000
00000000
00003020
00000000
00000130
00000001
00001000
00000000
,
00000200
00000000
00000320
00000000
00001030
00010000
00001000
00000000
,
00200000
00000000
02300000
00000000
03100000
00010000
10000000
00000000
,
00200000
00000000
01300000
00100000
00010000
00000000
00011000
00000000
,
00002000
00000000
00003200
00000000
00000310
00001000
00000001
00000000
,
00000110
00000000
00001000
00001000
00000000
00000001
00000001
00000000
,
00001000
00000010
00000100
00000000
00000001
00000010
00000000
00000100
,
00010000
00000000
00001000
00100000
00000000
01000000
10000000
00000000
,
00010000
01000000
00100000
00000000
10000000
00010000
00100000
00000000
,
00001000
00000000
00010000
00000000
00001000
00000000
00000000
01000000
00000000
00000000
00010000
00000000
01000000
00000000
00000000
00000000
,
00100000
10000000
00010000
00000000
10000000
01000000
00000000
00100000
,
00001000
00000000
00010000
00000100
00000000
00000010
00000100
00000000
,
00001000
00000010
00000100
00000000
00000010
00001000
00000001
00000000
,
00000010
00000000
00000000
00001000
00000000
00000000
00010000
00000000
00000000
00000000
00001000
00000000
00011000
00000000
00000000
00000000
,
00010000
00000000
00011000
00001000
,
00010000
00100000
00000000
00100000
10000000
00000000
11000000
00000000
,
01000000
00000000
00101000
00001000
,
00020000
00000000
00030020
00000000
00000130
00000001
00001000
00000000
,
00000200
00000320
00000032
00000203
,
00002300
00000000
00023000
00000000
00031000
00100000
00010000
00000000
,
01000000
00100000
20000000
32000000
,
03020000
00000000
00000000
00032000
00000000
00000000
00003010
00000001
00000010
00000001
00000000
00000000
,
00002000
00000000
00000000
00000000
,
00000000
00000000
00000000
00000000
,
00003002
00000000
00000000
00000000
,
00000000
00000000
00000000
00000000
,
00000023
00000000
00000000
00000000
,
00000230
00000000
00000000
00000000
00010300
00000000
00001000
00010000
,
00001000
00000000
00000000
00011000
00000000
00000000
00110000
00000000
,
00100000
10000000
00010000
10000000
01000000
00100000
00010000
00000000
,
10000000
00010000
01000000
00000000
00100000
00010000
00000000
00001000
,
00010000
00000000
00001000
00000010
00000000
00001000
00010000
00000000
,
00001000
00010000
00000100
00000000
00001000
00000001
00000100
00000000
,
00000010
00000000
00001000
00000001
00000000
00000010
00000100
00000000
,
00010000
00001000
00100000
00000000
01000000
00100000
00000000
00010000
,
10000000
00000000
00100000
00010000
00000000
00001000
00010000
00000000
,
00000010
00001000
00000100
00000000
00000010
00000001
00000100
00000000
,
00001000
00010000
00001000
00001000
00000000
00010000
00010000
00000000
,
00001000
00100000
00010000
00000000
10000000
00010000
00000000
01000000
,
00010000
00000000
10000000
01000000
00000000
00100000
00001000
00000000
,
00010000
00000100
00001000
00001000
00000000
00000010
00010000
00000000
,
00001000
00000000
00100000
00100000
00000000
00001000
00001000
00000000
,
00010000
00001000
00000100
00000000
00000010
00001000
00000000
00000100
,
00000010
00000000
00000001
00001000
00000000
00000001
00000100
00000000
,
00001000
00010000
00001000
00000000
00100000
00010000
10000000
00000000
,
00100000
00000000
00000000
00010000
00000000
00000000
00001000
00000000
00010000
00000000
00000000
00000000
00011000
00000000
00000000
00000000
;

//--------------- dance-double - Fred-104 ----------------
#NOTES:
     dance-double:
     Fred-104:
     Hard:
     14:
     :
00000000
00000000
00000000
00000000
,
00000000
00000000
00000000
00000000
,
00000000
00000000
00000000
00000000
,
00000000
00000000
00000000
00000000
,
00000000
00000000
00000000
00000000
,
00020000
00000000
00032000
00000000
,
00003020
00000000
00000031
00001000
,
00000002
00000000
00000203
00000000
,
00002300
00000000
00013000
00001000
,
00010000
00001000
00100000
00010000
10000000
00100000
01000000
00010000
,
20000000
00000000
31000000
00020000
00000000
00031000
00020000
00000000
,
00031000
00010000
00000100
00000010
00000001
00001000
00000001
00000100
,
00000010
00000000
00000010
00000100
00001000
00010000
00001000
00100000
,
00010000
10000000
00100000
01000000
00010000
10000000
01000000
00010000
,
00002000
00000000
00013000
00200000
00000000
00310000
00002000
00000000
,
00013000
00000010
00000100
00000010
00001000
00000001
00000010
00001000
,
00010000
00000000
00000000
00011000
00000000
00000000
00001000
00000000
00000000
00001100
00000000
00000000
00000101
00000000
00000001
00000000
,
00001000
00000001
00001000
00000000
00000100
00000000
00010000
00000000
00001000
00010000
00001000
00010000
00001000
00000000
00000000
00000000
,
00001000
00100000
00010000
10000000
00100000
01000000
10000000
01000000
,
00010000
10000000
01000000
00010000
00001000
00000100
00000002
00000000
,
00001003
00000100
00000010
00001000
00010000
00001000
00000100
00000001
,
00001000
00000100
00000010
00001000
00010000
01000000
00100000
00010000
,
01000000
00100000
10000000
00010000
00100000
10000000
00100000
00010000
,
01000000
00100000
00010000
00000010
00001000
00100000
00020000
00000000
,
00031000
00010000
01000000
00100000
10000000
00100000
00010000
00100000
,
00001000
00000000
00010000
00001000
00010000
00000000
00010010
00000000
00000000
00000000
00001000
00000000
00000001
00001000
00000001
00001000
,
00000001
00001000
00000001
00000010
00001000
00100000
01000000
10000000
,
00010000
00000000
10000000
00000000
00100000
00000000
00010000
00000000
00001000
00000000
00010000
00000000
01000000
00000000
00100000
00010000
,
00100000
00000000
00001000
00010000
00001000
00000000
00011000
00000000
00000000
00000000
00010010
00000000
00010000
00000000
00001000
00000000
,
01001000
00000000
00100000
01100000
00000000
00010000
10010000
00000000
,
10000000
01000000
00010000
00001000
00100000
00001000
00000010
00000100
,
00001000
00000001
00000100
00001000
00010000
00100000
02000000
00000000
,
03010000
00100000
10000000
00100000
00001000
00000010
00000100
00010000
,
00001000
00000000
00001000
00000000
00010000
00000000
00010000
00000000
00001000
00010000
00001000
00010000
00001000
00000000
00000000
00000000
,
00020000
00000000
00001000
00000000
00032000
00000000
00010000
00000000
00013000
00000000
00000100
00000000
00000010
00000000
00000001
00001000
,
00000002
00000000
00000000
00000000
00000103
00000000
00000010
00000100
00000010
00000000
00000100
00000000
00002000
00000000
00000000
00000000
,
00023000
00000000
00001000
00000000
00032000
00000000
01000000
00000000
01003000
00000000
00001000
00000000
00010000
00000000
01000000
00100000
,
02000000
00000000
00000000
00000000
13000000
00000000
00010000
01000000
00010000
00000000
00100000
00000000
00101000
00000000
00000000
00001000
,
00020000
00000000
00000100
00000000
00030200
00000000
00000010
00000000
00000310
00000000
00001000
00000000
00000010
00000000
00000001
00001000
,
00000002
00000000
00000000
00000000
00001003
00000000
00000001
00000100
00000001
00000000
00000010
00000000
00000100
00000000
00010000
00000000
,
00002000
00000000
00000010
00000000
00003020
00000000
00000001
00000000
00000031
00000000
00000100
00000000
00001000
00000000
00010000
00001000
,
00010000
00000000
00000000
00000000
00001000
00000000
00101000
00000000
00000000
00010000
10000000
00010000
10000000
00000000
00000000
00000000
,
10000000
01000000
01000000
00010000
00001000
00001000
00000010
00000001
,
00000001
00000100
00001000
00001000
00010000
00100000
00100000
10000000
,
00010000
00100000
01000000
00010000
00001000
00000010
00000100
00001000
,
00000010
00000000
00010000
00000000
00001000
00000000
00000100
00000001
00000000
00000000
00000010
00000000
00000110
00000000
00000000
00000000
,
00000001
00000100
00000100
00001000
00010000
00010000
00100000
10000000
,
10000000
01000000
00010000
00010000
00001000
00000010
00000010
00000001
,
00001000
00000100
00000010
00001000
00010000
01000000
00100000
00001000
,
00010000
00000000
00000000
00011000
00000000
00000000
00001100
00000000
00000000
00000100
00000001
00000100
00000001
00000000
00000000
00000000
,
00001001
00000000
00000000
00000000
00000000
00000000
00001000
00000000
00000000
00000100
00000000
00000000
00000010
00000000
00000000
00000001
00000000
00000000
00001000
00000000
00000010
00000000
00010000
00000000
,
00001000
00000000
00020000
00000000
00000000
00000000
00031000
00000000
00200000
00000000
00010000
10300000
00200000
00000000
10000000
00310000
,
00100000
00000000
00000000
00000000
00000000
00000000
01000000
00000000
00000000
00000000
00000000
00000000
00010000
00000000
00000000
00000000
00001000
00000000
00000000
00000000
00010000
00000000
00000000
00000000
00001000
00000000
00000000
00000000
00000000
00000000
00000000
00000000
00000000
00010000
00000000
00000000
00000100
00000000
00000000
00001000
00000000
00000000
00000100
00000000
00000000
00000000
00000000
00000000
,
00000010
00000000
00000001
00000000
00000010
00000000
00000001
00000000
00000000
00001000
00000000
00000000
00000010
00000000
00000000
00000100
00000000
00000000
00001000
00000000
00000000
00010000
00000000
00000000
,
00001000
00000000
00001000
00010000
00001000
00100000
00010000
10000000
00100000
01000000
00010000
10000000
,
01000000
00000000
00100000
00000000
00010000
00000000
00100000
00000000
00000000
00001000
00000000
00000000
00010000
00000000
00000000
00001000
00000000
00000000
00000100
00000000
00000000
00000001
00000000
00000000
,
00001000
00000000
00000000
00000000
00000000
00000000
00001000
00000000
00000000
00000000
00000000
00000000
00000100
00000000
00000000
00000010
00000000
00000000
00000001
00000000
00000000
00000000
00000000
00000000
00001000
00000000
00000000
00000000
00000010
00000000
00000000
00000000
00001000
00000000
00000000
00000000
00000010
00000000
00000000
00000000
00010000
00000000
00000000
00000000
00001000
00000000
00000000
00000000
,
00100000
00010000
00100000
00010000
10000000
00010000
10000000
00100000
01000000
00010000
00000000
00000000
,
00200000
00000000
00000000
00000000
,
00000000
00000000
00000000
00000000
,
00302000
00000000
00000000
00000000
,
00000000
00000000
00000000
00000000
,
00023000
00000000
00001000
00000000
00000000
00000010
00000000
00000000
,
00001000
00000000
00000000
00000000
00000000
00000000
01000000
00000000
00000000
00000000
00000000
00000000
00031000
00000000
00010000
00001000
,
00010000
00000000
00000000
00101000
00000000
00000000
00010100
00000000
,
00000100
00001000
00000100
00000000
00000010
00000000
00000001
00000000
00001000
00000001
00001000
00000001
00001000
00000000
00000000
00000000
,
00000001
00000100
00001000
00010000
00000010
00000100
00001000
00010000
,
00100000
10000000
01000000
00010000
01000000
10000000
00010000
01000000
,
00100000
10000000
00010000
00100000
00001000
00000010
00000100
00010000
,
00000010
00000100
00001000
00010000
00100000
01000000
00100000
10000000
,
00010000
00100000
10000000
00010000
01000000
10000000
00010000
01000000
,
00001000
00010000
00001000
00000100
00000010
00010000
00001000
00100000
,
00001000
00000000
00010000
00000000
00000100
00000000
00000010
00000000
00001000
00000000
00000001
00000000
00000100
00000000
00001000
00000001
,
00001000
00000000
00000010
00010000
00000010
00000000
00010010
00000000
00000000
00000000
00010000
00000000
00011000
00000000
00000000
00000000
,
00001000
00000000
01000000
00000000
00010000
00000000
00100000
00000000
01000000
00000000
00100000
00000000
00010000
00000000
10000000
00010000
,
10000000
01000000
00010000
00001000
00000010
00000001
00001000
00000010
,
00000100
00000000
00001000
00010000
00001000
00010000
00001000
00000000
00000000
00000000
00010000
00000000
00000010
00001000
00000010
00000000
,
00000110
00000000
00000000
00000100
00000001
00000000
00000001
00000000
00000010
00000000
00001000
00000000
00011000
00000000
00000000
00000000
,
00001000
00000000
00100000
00000000
10000000
00000000
00010000
00000000
01000000
00000000
00100000
00000000
00010000
00000000
10000000
00010000
,
10000000
00100000
00010000
00001000
00000100
00000010
00001000
00000100
,
00010000
00000000
00001000
00100000
00001000
00000000
00010000
00000000
00001000
01000000
00001000
00000000
00010000
00000000
00000100
00000000
,
00000110
00000000
00000000
00000010
00000000
00000000
00000011
00000000
00000001
00001000
00000001
00001000
00000001
00000000
00000000
00000000
;
