#TITLE:Abyss;
#ARTIST:dj TAKA;
#GENRE:INTELLIGENCE;
#BANNER:Abyss.png;
#BACKGROUND:Abyss-bg.png;
#CDTITLE:./CDTitles/bm IIDX 5th style.png;
#MUSIC:Abyss.ogg;
#SAMPLESTART:86.197;
#SAMPLELENGTH:15;
#BPMS:0=142,132=71,133=142;
#STOPS:132=2.536;
#TIMESIGNATURES:0=4=4,132=1=4,133=4=4;
#STAGE:22;

//--------------- dance-single - Fred-104 ----------------
#NOTES:
     dance-single:
     Fred-104:
     Beginner:
     2:
     :
0000
0000
0000
0000
,
0000
0000
0000
0000
,
0000
0000
0000
0000
,
0000
0000
0000
0000
,
0000
0000
0000
0000
,
1000
0000
0000
0000
,
0001
0000
0000
0000
,
0100
0000
0000
0000
,
0001
0000
0000
0000
,
1000
0000
0000
0000
,
0001
0000
0000
0000
,
0010
0000
0000
0000
,
0001
0000
0000
0000
,
1000
0000
0010
0000
,
1000
0000
0001
0000
,
1000
0000
1000
0000
,
0001
0000
0001
0000
,
0001
0000
0000
0000
,
0100
0000
0010
0000
,
0100
0000
0000
0000
,
0001
0000
1000
0000
,
0001
0000
0000
0000
,
1000
0000
0010
0000
,
1000
0000
0000
0000
,
0001
0000
0100
0000
,
0001
0000
0000
0000
,
1000
0000
0001
0000
,
1000
0000
0000
0000
,
0001
0000
0100
0000
,
0001
0000
0000
0000
,
1000
0000
0000
0000
,
0001
0000
1000
0000
,
0001
0000
1000
0000
,
1001
0000
0000
1000
,
0000
0000
0000
0001
,
0001
0001
0000
1000
,
0000
0010
0000
0100
,
0000
0001
0000
0000
,
0000
1000
0000
0010
,
0000
1000
0000
0001
,
0000
1000
0000
0000
,
0000
0001
0000
0000
,
0000
0001
0000
1000
,
0000
0010
0000
0000
,
0000
1000
0000
0001
,
0000
1000
0000
0000
,
0000
0001
0000
0010
,
0000
0001
0000
0000
,
0000
1000
0000
1000
,
0000
0001
0000
0000
,
0000
1000
0000
0001
,
0000
0100
0000
0000
,
0000
0001
0000
0010
,
0000
0001
0000
0000
,
0000
1000
0000
0001
,
0000
1000
0000
1000
,
0000
0001
0000
0001
,
0000
0001
0000
0000
,
0000
1000
0000
0000
,
0000
0001
0000
0000
,
0000
0100
0000
0100
,
0000
0100
0000
0000
,
0000
0010
0000
0000
,
0000
1000
0000
0001
,
0000
1000
0000
0001
,
0000
1001
0000
0000
;

//--------------- dance-single - Fred-104 ----------------
#NOTES:
     dance-single:
     Fred-104:
     Easy:
     6:
     :
0000
0000
0000
0000
,
0000
0000
0000
0000
,
0000
0000
0000
0000
,
0000
0000
0000
0000
,
0000
0000
0000
0000
,
1000
0000
0010
0100
,
0001
0010
0010
0001
,
1000
0001
1000
0100
,
1000
0000
0010
0000
0100
0010
0100
0000
,
1001
0000
0001
0100
,
0001
0100
0010
1000
,
1100
0000
0100
0010
,
0001
0000
1000
0000
0001
0100
0001
0000
,
2000
3020
0230
0302
,
2003
3200
0320
0032
,
0023
0230
2300
3002
,
0103
0000
0010
0000
1000
0001
1000
0000
,
0001
0010
0100
1000
,
0010
0100
0100
0001
,
1001
0000
0100
1000
,
0010
0000
0100
0000
0001
0000
1000
0001
,
1000
0000
0001
0010
,
0100
0000
0010
0000
0001
0000
1000
0010
,
1000
0000
0001
0100
,
0010
0000
1000
0000
0001
1000
0001
0000
,
1000
0010
0100
0100
,
0001
1000
0010
0000
,
0100
0001
1000
0001
,
0010
0100
1000
0000
,
0002
0100
0000
0103
,
2000
0100
0000
3100
,
0001
0001
1000
1000
,
0010
0010
0100
0100
,
2002
3003
0000
0000
0000
0000
0000
0000
0000
0000
0000
0000
0000
0000
0000
0000
0010
0000
0000
0000
0000
0000
0000
0000
0000
0000
0000
0000
0000
0000
0000
0000
0000
0000
0000
0000
0000
0000
0000
0000
0000
0000
0000
0000
0000
0000
0000
0000
0100
0000
0000
0000
0000
0000
0000
0000
0000
0000
0000
0000
0000
0000
0000
0000
,
0000
0001
0000
1000
,
0001
1000
0000
0001
,
0000
0100
0000
0010
,
0100
0110
0000
0001
,
0000
1000
0000
0010
,
0000
1000
0000
0100
,
0000
1000
0000
0001
,
1000
0001
0000
0100
,
0010
0100
0001
1000
,
0001
1000
0000
0010
,
0100
0001
0010
0100
,
1000
1001
0000
0001
,
0100
0010
0010
1000
,
0001
1000
0000
0010
,
0000
0000
0100
0000
0001
0000
1000
0001
,
1000
1001
0001
0100
,
0010
0000
0100
0000
0001
0000
1000
0100
,
1000
0001
1000
1000
,
0100
0000
0010
0000
0001
0000
0100
0001
,
0100
0001
0010
0001
,
0001
0000
1000
0000
0001
0000
0100
0010
,
0100
1001
0000
0110
,
0000
1001
0001
0100
,
0010
0000
1000
0000
0000
0010
1000
0000
,
0000
0001
0010
0000
0000
0001
0100
0000
,
0010
0100
0001
1000
,
0001
1000
0000
0010
,
0100
1001
0001
0000
,
1000
0000
0010
0000
,
0100
0001
0000
1000
,
0000
0001
0100
0010
,
1000
1001
0000
0000
;

//--------------- dance-single - Fred-104 ----------------
#NOTES:
     dance-single:
     Fred-104:
     Medium:
     11:
     :
0000
0000
0000
0000
,
0000
0000
0000
0000
,
0000
0000
0000
0000
,
0000
0000
0000
0000
,
0000
0000
0000
0000
,
0001
0000
1000
0000
,
0010
1000
0001
0100
,
0001
0100
0010
0000
1000
0100
0010
0000
,
0001
0100
0001
0100
0010
0100
0010
1000
,
0001
0000
0000
0001
1000
0000
0000
0000
0010
0000
1000
0000
0100
0000
0010
0000
,
0100
0000
0000
0100
0010
0000
0000
0000
0001
0000
1000
0000
0001
0000
0100
0000
,
0001
0000
0000
0001
0100
0000
0000
0000
0010
0000
1000
0000
0010
0000
0100
0000
,
0001
0000
0000
0001
0010
0000
0000
0000
0100
0000
1000
0000
0001
0000
0100
0000
,
0001
0010
0000
0000
0010
0100
0000
0000
0100
1000
0000
0000
1000
0010
0000
0000
,
0010
0100
0000
0000
0100
0001
0000
0000
0001
1000
0000
0000
1000
0001
0000
0000
,
0001
0010
0000
0000
0010
0100
0000
0000
0100
0010
0000
0000
0010
0001
0000
0000
,
0001
0000
0100
0000
0010
0000
1000
0000
0001
1000
0001
1000
0001
0000
1000
0000
,
0001
0000
0000
0001
0100
0000
0000
0000
1000
0000
0000
1000
0100
0000
0000
0000
,
0001
0000
0000
0001
0010
0000
0000
0000
1000
0000
0000
1000
0010
0000
0000
0000
,
0001
0000
0000
0100
0010
0000
0000
0000
1000
0000
0000
0100
0010
0000
0000
0000
,
0001
0000
0100
0000
0010
0000
1000
0010
1000
0000
0100
0000
0010
0000
0001
0000
,
1000
0000
0000
0100
0010
0000
0000
0000
0001
0000
0000
0100
0010
0000
0000
0000
,
1000
0000
0000
0001
0010
0000
0000
0000
0010
0000
0000
0001
0100
0000
0000
0000
,
0010
0000
0000
1000
0001
0000
0100
0000
0010
0000
0100
0000
0001
0000
0000
0000
,
1000
0000
0100
0000
0010
0000
0001
0000
1000
0000
0001
1000
0000
0001
0000
0000
,
0010
0001
1000
0100
0010
0001
1000
0100
,
0010
0001
1000
0100
1000
0010
0100
0000
,
0001
0100
0010
1000
0001
0100
0010
0100
,
0001
1000
0001
0100
0010
0100
0001
0000
,
0002
0103
2000
3100
,
0002
0013
2000
3010
,
0001
0100
0010
1000
0100
0010
0001
1000
,
0010
0100
0001
1000
0100
1000
0001
0000
,
2002
3003
0000
0000
0000
0000
0000
0000
0000
0000
0000
0000
0000
0000
0000
0000
2000
0000
0000
0000
0000
0000
0000
0000
0000
0000
0000
0000
0000
0000
0000
0000
0000
0000
0000
0000
0000
0000
0000
0000
0000
0000
0000
0000
0000
0000
0000
0000
3020
0000
0000
0000
0000
0000
0000
0000
0000
0000
0000
0000
0000
0000
0000
0000
,
0230
0302
0000
0023
,
0230
0000
0000
0000
1300
0000
0000
0000
0001
0000
0000
0000
0100
0000
0000
0100
,
0000
0100
0001
0000
0000
0010
0100
0000
,
0110
2001
0000
3200
,
0000
0302
0000
0203
,
2300
0000
3001
0000
0100
0001
0100
0000
,
0010
0000
0000
1000
0000
0000
0010
0000
0000
1000
0000
0000
0001
0000
0000
0100
0000
0000
0010
0000
0100
0000
0001
0000
,
0100
0000
0001
0010
0001
0000
1000
0010
,
0100
0010
1000
0000
0001
0010
0010
0000
,
0001
0100
0100
0000
0010
0000
1000
0000
,
0100
0000
0010
0000
0001
0000
0000
0001
1000
0000
0000
1000
0001
0000
0000
0001
,
0100
0010
1000
0000
0001
0000
1000
0100
,
0010
0001
0100
0000
0001
0100
0100
0000
,
1000
0100
0100
0000
0001
0010
0010
0000
,
1000
0010
0010
0000
0100
0001
1000
0001
,
0000
1001
0000
0000
1000
0000
0010
0000
1000
0000
0100
0000
1000
0000
0001
0000
,
0100
0000
0001
0010
0001
1000
0010
0100
,
0001
0000
0100
0010
0100
0001
1000
0100
,
0010
0000
0001
0100
0010
1000
0100
0010
,
0001
0010
0000
0000
0001
0000
0100
0000
0001
0000
0100
0000
0010
0000
1000
0000
,
0001
1000
0100
0010
0100
1000
0100
0010
,
0001
0000
1100
0000
0010
0001
0101
0000
,
0010
1000
0001
0100
0010
0100
0001
0100
,
0010
1000
0002
0000
2003
3010
0200
0000
,
0302
0013
0200
0000
2300
3001
0200
0000
,
0320
2030
3200
0302
,
0203
0000
1300
0010
0100
0001
0010
0100
,
1000
0001
0100
0000
0001
0010
0010
0000
,
1000
0010
0010
0000
0001
0100
0100
0000
,
1000
0100
0100
0000
0001
0000
0100
0000
,
0010
0000
1000
0001
1000
0100
0010
0001
,
0100
0010
0110
0000
0000
0000
0000
0000
;

//--------------- dance-single - Fred-104 ----------------
#NOTES:
     dance-single:
     Fred-104:
     Hard:
     15:
     :
0000
0000
0000
0000
,
0000
0000
0000
0000
,
0000
0000
0000
0000
,
0000
0000
0000
0000
,
0000
0000
0000
0000
,
0001
1000
0001
0100
,
0010
1000
0100
0010
,
0001
0100
0001
0000
0100
0010
0100
0000
,
0010
1000
0001
0100
0010
0100
0001
0000
,
1000
0100
1100
1000
0001
0100
0110
0010
,
1000
0001
0011
0010
0100
1000
1010
0010
,
0100
0001
1000
0100
0010
0001
1001
1000
,
0010
0100
0110
0100
0001
1000
1010
0010
,
0100
0001
0000
0100
0001
0010
0000
0001
0010
0100
0000
0010
0100
1000
0000
1000
,
0010
0100
0000
0100
0001
0010
0000
0100
1000
0010
0000
0100
0001
1000
0000
1000
,
0001
0010
0000
0010
0001
0100
0000
0100
0001
1000
0000
1000
0001
0100
0000
0100
,
0001
0100
0001
0100
0010
1000
0010
1000
0001
1000
0001
1000
0001
0000
1000
0000
,
0001
0000
0010
0000
0100
0000
1000
0010
0100
0000
0010
0000
1000
0000
0001
0010
,
0100
0000
1000
0000
0001
0000
1000
0100
0010
0000
0001
0000
1000
0000
1000
0000
,
0001
0000
0100
0000
0010
0000
1000
0001
0100
0000
0010
0000
1000
0000
0100
0010
,
0001
0000
1000
0000
0010
0000
0100
0001
0010
0000
0100
0000
0010
0001
0010
0001
,
1000
0000
0010
0000
1000
0000
0100
1000
0001
0000
0100
0000
0001
0000
0010
0001
,
0100
0000
0000
0000
0000
0000
0000
0000
0010
0000
0000
0000
0000
0000
0000
0000
1000
0000
0000
0000
0000
0000
0000
0000
0001
0000
0000
0000
0100
0000
0000
0000
0001
0000
0000
0000
0000
0000
0000
0000
1000
0000
0000
0000
0000
0000
0000
0000
0200
0300
0000
0000
0000
0000
0000
0000
0200
0300
0000
0000
0000
0000
0000
0000
,
0001
0000
0100
0000
1000
0000
0100
0001
1000
0000
0100
0000
0001
0000
0100
1000
,
0001
0100
0001
0000
0100
0010
0100
0000
0010
1000
0010
1000
0001
1000
0001
0000
,
1000
0100
0010
0100
0010
0001
1000
0010
,
0100
0001
0010
0001
1000
0010
0100
0001
,
1000
0100
0010
0001
1000
0010
0100
0010
,
1000
0000
0100
0000
0001
0000
0100
0000
1000
0000
0000
0001
0100
0000
0010
0000
,
0210
0001
0010
1300
,
0002
0100
0010
0103
,
0001
0100
0010
0100
0001
0010
0100
1000
,
0001
1000
0001
1000
0010
0100
0010
0100
0001
0010
0100
1000
0010
0000
0100
0000
,
0220
0330
0000
0000
0000
0000
0000
0000
0000
0000
0000
0000
0000
0000
0000
0000
0001
0000
0000
0000
0000
0000
0000
0000
0000
0000
0000
0000
0000
0000
0000
0000
0001
0000
0000
0000
0000
0000
0000
0000
0000
0000
0000
0000
0000
0000
0000
0000
1000
0000
0000
0000
0000
0000
0000
0000
0000
0000
0000
0000
0000
0000
0000
0000
,
0010
0000
1000
0000
0001
0100
1000
0000
,
0001
0000
0010
0000
1000
0000
0000
0000
0001
0000
0000
0000
0100
0000
0000
0010
,
0000
0000
0100
0000
0001
0000
0000
0000
0000
0000
1000
0000
0010
0100
0001
1000
,
0100
0010
0000
0000
0011
0000
0000
0000
0001
0000
0000
0000
1000
0000
0000
0000
,
0010
0100
0001
1000
,
0001
1000
0001
0100
0010
1000
1000
0100
,
0010
0000
0000
0000
0000
0000
0001
0000
0000
0000
0000
0000
0001
0000
0000
0100
0000
0000
0001
0000
0000
0100
0000
0000
0010
0000
0000
1000
0000
0000
0010
0000
0000
1000
0000
0000
0001
0000
0000
0000
0010
0000
0000
0000
0100
0000
0000
0000
,
1000
0000
0000
0000
0100
0000
0000
0000
0010
0000
0000
0000
0001
0000
0000
0000
0000
0000
1000
0000
0000
0000
0000
0000
0100
0000
0000
0000
0000
0000
0010
0000
0000
0100
0000
0000
0010
0000
0000
0000
0000
0000
0001
0000
0000
0100
0000
0000
,
0001
0000
1000
0001
1000
0000
0010
0000
0100
0000
0001
0100
0001
0000
0100
0010
,
1000
0000
1000
0000
0001
0000
0010
0000
0100
0000
1000
0100
1000
0000
0010
0100
,
0010
0000
0000
0000
0000
0000
1000
0000
0000
0001
0000
0000
1000
0000
0000
0000
0000
0000
0000
0000
1000
0000
0100
0000
1000
0000
0000
0000
0000
0000
0000
0000
0001
0000
0100
0000
0001
0000
0000
0000
0000
0000
0100
0000
0000
0000
0000
0000
,
0010
0000
0000
0000
0000
0000
1000
0000
0001
0000
1000
0000
0001
0000
0000
0000
0000
0000
1000
0000
0000
0000
0000
0000
0100
0000
0000
0000
0000
0000
0010
0000
0000
0001
0000
0000
1000
0000
0000
0000
0000
0000
0001
0000
0000
0000
0000
0000
,
0100
0000
0010
0000
1000
0000
0100
0000
0010
0000
0001
0100
0010
0000
1000
0000
,
0002
0000
0203
0000
0301
0000
0010
0000
0100
0000
1000
0100
1000
0000
0001
0000
,
0100
0000
0100
0000
0001
0010
0001
0010
0100
1000
0100
1000
0001
1000
0001
1000
,
0010
0100
0000
0000
0001
0100
0001
0000
0100
0000
0010
1000
0010
0100
0001
0000
,
1000
0000
0100
0010
0001
0100
0010
0000
1000
0000
1000
0001
0100
0001
1000
0100
,
0010
0000
0001
0000
0001
1000
0010
0000
1000
0000
0001
0010
0001
0100
0010
0000
,
0100
0000
0001
0010
0100
1000
0001
0000
1000
0000
0100
1000
0001
0100
0010
1000
,
0001
0100
0000
0000
0010
0100
0010
0000
1000
0000
0100
0010
0001
1000
0010
0000
,
1000
0000
0001
0010
0100
1000
0001
0000
1000
0000
0010
1000
0100
1000
0001
0010
,
0001
0000
1000
0000
0001
0100
1000
0000
0100
0000
0001
0000
1000
0100
0001
0000
,
0100
0000
1000
0000
0001
0100
0001
0100
0010
0100
0010
0100
0010
1000
0010
1000
,
0100
0010
0001
1000
0002
0000
0000
0000
0203
0000
0310
1000
0200
0000
0000
0000
,
0320
0000
0031
0010
0200
0000
0000
0000
2300
0000
3001
0100
0010
0000
0000
0000
,
0110
0000
0002
0103
2000
3100
0002
0013
,
2000
0000
3010
0000
0001
0000
0100
0000
0010
0000
0100
0000
0001
0100
0010
1000
,
0001
0010
0000
0000
1001
0000
0000
0000
0000
0000
1000
0000
0100
0000
0000
0000
,
0010
0000
0000
0000
0000
0000
0000
0001
0000
0000
0000
0000
0010
0000
0000
0000
0000
0000
0000
0000
0000
0000
0000
0000
0000
0000
0000
0000
0000
0000
0001
0000
0000
0000
0000
0000
1000
0000
0000
0000
0000
0000
0000
0000
0000
0000
0000
0000
,
0001
0000
0000
0100
0000
0000
0001
0010
0001
0010
0000
0000
0100
0000
0000
2000
0000
0000
3010
0100
0010
0100
0000
0000
,
0001
0000
0000
0000
0000
0000
2000
0000
0000
0000
0000
0000
3001
0000
0100
0000
0001
0000
0100
0000
0000
0000
0000
0000
0010
0000
1000
0000
0010
0000
1000
0000
0000
0000
0000
0000
0001
0000
0010
0000
0001
0000
0010
0000
0000
0100
0000
0000
,
1000
0001
0100
0010
1000
0000
0000
0000
0000
0000
0000
0000
0000
0000
0000
0000
;

//--------------- dance-double - Fred-104 ----------------
#NOTES:
     dance-double:
     Fred-104:
     Easy:
     6:
     :
00000000
00000000
00000000
00000000
,
00000000
00000000
00000000
00000000
,
00000000
00000000
00000000
00000000
,
00000000
00000000
00000000
00000000
,
00000000
00000000
00000000
00000000
,
00010000
00000000
00001000
00010000
,
00000100
00001000
00000001
00001000
,
00000001
00000100
00000001
00000100
,
00000010
00000000
00001000
00000000
00000100
00010000
00001000
00000000
,
00011000
00000000
00010000
00001000
,
00100000
00010000
00100000
01000000
,
11000000
00000000
10000000
00100000
,
10000000
00000000
00100000
00000000
01000000
00010000
01000000
00000000
,
00002000
00023000
00030200
00002300
,
00003002
00000203
00000302
00000203
,
00000320
00002030
00003020
00002030
,
00003001
00000000
00000010
00000000
00000100
00000010
00000100
00000000
,
00000010
00001000
00000100
00010000
,
00001000
00001000
00010000
00010000
,
00011000
00000000
00010000
00100000
,
01000000
00000000
10000000
00000000
00010000
00000000
10000000
00100000
,
10000000
00000000
00100000
10000000
,
00100000
00000000
01000000
00000000
00010000
00000000
00100000
00010000
,
00100000
00000000
00001000
00010000
,
00000100
00000000
00001000
00000000
00000001
00001000
00000001
00000000
,
00001000
00000010
00001000
00000010
,
00001000
00000001
00000100
00000000
,
00000001
00000010
00000001
00000010
,
00000100
00010000
00001000
00000000
,
00002000
00000100
00000000
00003100
,
00020000
01000000
00000000
01030000
,
00001000
00001000
00010000
00010000
,
00100000
00100000
10000000
10000000
,
20020000
30030000
00000000
00000000
00000000
00000000
00000000
00000000
00000000
00000000
00000000
00000000
00000000
00000000
00000000
00000000
00010000
00000000
00000000
00000000
00000000
00000000
00000000
00000000
00000000
00000000
00000000
00000000
00000000
00000000
00000000
00000000
00000000
00000000
00000000
00000000
00000000
00000000
00000000
00000000
00000000
00000000
00000000
00000000
00000000
00000000
00000000
00000000
10000000
00000000
00000000
00000000
00000000
00000000
00000000
00000000
00000000
00000000
00000000
00000000
00000000
00000000
00000000
00000000
,
00000000
00100000
00000000
01000000
,
00100000
10000000
00000000
00100000
,
00000000
01000000
00000000
00001000
,
00010000
00011000
00000000
00010000
,
00000000
00000100
00000000
00001000
,
00000000
00000001
00000000
00000100
,
00000000
00000010
00000000
00000100
,
00000010
00000100
00000000
00000001
,
00000010
00000100
00001000
00000100
,
00000010
00000001
00000000
00001000
,
00000010
00000100
00000010
00010000
,
00001000
00011000
00000000
00001000
,
00010000
00100000
00100000
01000000
,
10000000
00010000
00000000
10000000
,
00000000
00000000
00100000
00000000
01000000
00000000
00100000
01000000
,
00100000
10010000
10000000
00100000
,
01000000
00000000
00010000
00000000
01000000
00000000
00010000
10000000
,
00010000
10000000
10000000
00100000
,
01000000
00000000
00100000
00000000
01000000
00000000
00001000
00010000
,
00001000
00010000
00000100
00001000
,
00000001
00000000
00001000
00000000
00000010
00000000
00000100
00000010
,
00000100
00001001
00000000
00000110
,
00000000
00000001
00000010
00000100
,
00010000
00000000
00011000
00000000
00000000
00010000
00001000
00000000
,
00000000
00001000
00010000
00000000
00000000
00010000
00100000
00000000
,
01000000
10000000
00100000
01000000
,
00100000
10000000
00000000
10000000
,
00010000
10010000
10000000
00000000
,
00100000
00000000
00010000
00000000
,
00001000
00000010
00000000
00000001
,
00000000
00000100
00001000
00010000
,
01000000
10010000
00000000
00000000
;

//--------------- dance-double - Fred-104 ----------------
#NOTES:
     dance-double:
     Fred-104:
     Medium:
     11:
     :
00000000
00000000
00000000
00000000
,
00000000
00000000
00000000
00000000
,
00000000
00000000
00000000
00000000
,
00000000
00000000
00000000
00000000
,
00000000
00000000
00000000
00000000
,
00001000
00000000
00010000
00000000
,
00100000
10000000
01000000
00010000
,
00000010
00001000
00000001
00000000
00000100
00000010
00001000
00000000
,
00000100
00010000
00001000
00100000
01000000
01000000
01000000
01000000
,
10000000
00000000
00000000
00010000
01000000
00000000
00000000
00000000
00100000
00000000
10000000
00000000
01000000
00000000
00100000
00000000
,
00001000
00010000
00010000
00001000
00001000
00010000
00000100
00000100
,
00010000
00000000
00000000
00000010
00000100
00000000
00000000
00000000
00000001
00000000
00001000
00000000
00000100
00000000
00010000
00000000
,
00010000
00001000
01000000
01000000
00001000
00010000
00000100
00001000
,
00000010
00010000
00000000
00000000
00010000
00001000
00000000
00000000
00001000
00100000
00000000
00000000
00100000
00010000
00000000
00000000
,
00010000
10000000
00000000
00000000
10000000
01000000
00000000
00000000
01000000
00100000
00000000
00000000
00100000
00010000
00000000
00000000
,
00010000
01000000
00000000
00000000
01000000
00001000
00000000
00000000
00001000
00010000
00000000
00000000
00010000
00000100
00000000
00000000
,
00000100
00000010
00000001
00001000
00000010
00000100
00000001
00000100
,
00000010
00000000
00000000
00000100
00000001
00000000
00000000
00000000
00001000
00000000
00000000
00000100
00000010
00000000
00000000
00000000
,
00000001
00000000
00000000
00000100
00001000
00000000
00000000
00000000
00000100
00000000
00000000
00000001
00000010
00000000
00000000
00000000
,
00000100
00000000
00000000
00010000
00001000
00000000
00000000
00000000
00100000
00000000
00000000
10000000
01000000
00000000
00000000
00000000
,
00010000
00001000
00100000
00001000
00000100
00000001
00000100
00000010
,
00001000
00000000
00000000
00000001
00000100
00000000
00000000
00000000
00001000
00000000
00000000
00010000
01000000
00000000
00000000
00000000
,
10000000
00000000
00000000
00100000
01000000
00000000
00000000
00000000
00010000
00000000
00000000
00001000
01000000
00000000
00000000
00000000
,
00010000
00000010
00000100
00000001
00000010
00000100
00001000
00000001
,
00000100
00000000
00000010
00000000
00001000
00000000
00000100
00000000
00010000
00000000
00000000
00100000
00000000
01000000
00000000
00000000
,
10000000
00100000
01000000
00010000
00100000
00001000
00010000
00000100
,
00001000
00000010
00000100
00000001
00000100
00000010
00001000
00000000
,
00000001
00000100
00001000
00010000
01000000
10000000
00010000
01000000
,
00100000
10000000
00010000
00100000
01000000
00100000
00010000
00000000
,
00020000
01030000
20000000
30100000
,
00002000
00003100
00000002
00000013
,
00001000
00010000
00100000
00000000
10000000
01000000
00010000
00000000
,
00001000
00000100
00000001
00001000
00000001
00000100
00001000
00000000
,
00022000
00033000
00000000
00000000
00000000
00000000
00000000
00000000
00000000
00000000
00000000
00000000
00000000
00000000
00000000
00000000
00020000
00000000
00000000
00000000
00000000
00000000
00000000
00000000
00000000
00000000
00000000
00000000
00000000
00000000
00000000
00000000
00000000
00000000
00000000
00000000
00000000
00000000
00000000
00000000
00000000
00000000
00000000
00000000
00000000
00000000
00000000
00000000
02030000
00000000
00000000
00000000
00000000
00000000
00000000
00000000
00000000
00000000
00000000
00000000
00000000
00000000
00000000
00000000
,
03200000
20300000
00000000
32000000
,
03200000
00000000
00000000
00000000
00301000
00000000
00000000
00000000
00010000
00000000
00000000
00000000
00000100
00000000
00000000
00010000
,
00000000
00001000
00010000
00000000
00000000
00000010
00001000
00000000
,
00001010
00000102
00000000
00000203
,
00000000
00000320
00000000
00002030
,
00023000
00000000
00130000
00000000
00010000
00100000
00010000
00000000
,
10000000
00000000
00000000
00100000
00000000
00000000
10000000
00000000
00000000
00100000
00000000
00000000
01000000
00000000
00000000
00010000
00000000
00000000
01000000
00000000
00100000
00000000
10000000
00000000
,
00100000
00000000
10000000
01000000
00010000
00000000
00001000
00010000
,
00100000
10000000
00010000
00000000
01000000
00100000
10000000
00000000
,
00010000
00100000
01000000
00000000
00001000
00000000
00010000
00000000
,
00000100
00000000
00001000
00000000
00000001
00000000
00000000
00000100
00000010
00000000
00000000
00000010
00001000
00000000
00000000
00001000
,
00000100
00000010
00000001
00000000
00000100
00000000
00001000
00010000
,
01000000
10000000
00010000
00000000
01000000
01000000
10000000
00000000
,
01000000
01000000
00010000
00000000
10000000
01000000
00100000
00000000
,
00001000
00010000
00000100
00000000
00010000
00001000
00010000
00001000
,
00000000
00011000
00000000
00000000
00010000
00000000
00000100
00000000
00001000
00000000
00000010
00000000
00000100
00000000
00000001
00000000
,
00001000
00000000
00000001
00000100
00001000
00000000
00000001
00000010
,
00001000
00000000
00000001
00000100
00000010
00001000
00000100
00010000
,
00001000
00000000
00010000
00001000
00000100
00000000
00001000
00010000
,
01000000
00000000
00001000
00010000
00001000
00100000
00010000
10000000
,
01000000
10000000
00100000
01000000
00010000
00100000
00001000
00010000
,
00000100
00001100
00000010
00000101
,
00000010
00000000
00001000
00000001
00000100
00001000
00010000
01000000
,
10000000
00010000
20000000
00000000
30200000
01300000
00020000
00000000
,
20030000
31000000
00200000
00000000
00302000
00013000
00002000
00000000
,
00023000
00030020
00020030
00032000
,
00023000
00000000
00031000
00001000
00001000
00001000
00000100
00000100
,
00000100
00000100
00000001
00000000
00000100
00000000
00001000
00000000
,
00000100
00010000
00001000
00100000
,
01000000
00000000
10000000
00100000
01000000
00000000
00010000
10000000
,
01000000
00000000
00010000
00001000
00000100
00000001
00000010
00001000
,
00010000
00011000
00000000
00000000
;

//--------------- dance-double - Fred-104 ----------------
#NOTES:
     dance-double:
     Fred-104:
     Hard:
     15:
     :
00000000
00000000
00000000
00000000
,
00000000
00000000
00000000
00000000
,
00000000
00000000
00000000
00000000
,
00000000
00000000
00000000
00000000
,
00000000
00000000
00000000
00000000
,
00001000
00001000
00010000
00010000
,
01000000
01000000
10000000
10000000
,
00010000
01000000
00100000
00000000
10000000
01000000
00100000
00000000
,
00001000
00010000
00000100
00000010
00000001
00001000
00000010
00000000
,
00001000
00000010
00000110
00000100
00000001
00000010
00000011
00000001
,
00000100
00000010
00001010
00001000
00000100
00010000
00011000
00001000
,
00100000
00010000
10010000
10000000
00100000
01000000
01010000
00010000
,
10000000
01000000
01100000
00100000
00001000
00010000
00011000
00010000
,
00000100
00001000
00000000
00000000
00001000
00000001
00000000
00000000
00000001
00000010
00000000
00000000
00000010
00000100
00000000
00000000
,
00000100
00010000
00000000
00000000
00010000
00001000
00000000
00000000
00001000
01000000
00000000
00000000
01000000
00010000
00000000
00000000
,
00010000
10000000
00000000
10000000
00100000
01000000
00000000
01000000
00010000
00100000
00000000
00100000
00001000
00010000
00000000
00010000
,
00001000
00010000
00001000
00010000
00000100
00001000
00000100
00001000
00000001
00000010
00000100
00001000
00000001
00000000
00000100
00000000
,
00000010
00000000
00001000
00000000
00000010
00000000
00000100
00000010
00000100
00000000
00001000
00000000
00010000
00000000
00001000
00010000
,
00001000
00000000
00100000
00000000
00010000
00000000
01000000
00100000
01000000
00000000
00010000
00000000
00001000
00000000
00000100
00000000
,
00000010
00000000
00010000
00000000
00001000
00000000
00100000
00001000
00100000
00000000
00001000
00000000
00010000
00000000
00000010
00001000
,
00000010
00000000
00010000
00000000
00001000
00000000
01000000
00010000
01000000
00000000
00010000
00000000
00100000
00001000
00010000
00000100
,
00001000
00000000
00000010
00000000
00010000
00000000
00001000
00100000
00010000
00000000
01000000
00000000
00001000
00000000
00100000
00010000
,
01000000
00000000
00001000
00000000
00100000
00000000
00001000
00010000
00001000
00000000
00010000
00000000
00010000
00000000
00010000
00000000
,
00001000
00000000
00000100
00000000
00000010
00000000
00010000
00001000
00010000
00000000
00001000
00000000
00100000
00000000
00010000
00000000
,
01000000
00001000
01000000
00000000
00001000
00010000
00001000
00000000
00010000
00000100
00010000
00000100
00001000
00000001
00001000
00000000
,
00000001
00000010
00001000
00010000
00001000
00000010
00000001
00001000
,
00010000
00100000
10000000
00100000
00010000
00001000
00010000
00100000
,
10000000
01000000
00010000
00001000
00010000
01000000
10000000
00010000
,
00001000
00000000
00000100
00000000
00000001
00000000
00000100
00000000
00001000
00000000
00000000
00010000
00001000
00000000
00010000
00000000
,
00012000
00000010
00100000
00003010
,
00020000
00000100
01000000
00030100
,
00010000
00001000
00100000
00010000
01000000
00001000
00010000
00001000
,
00010000
00001000
00010000
00001000
00010000
00000100
00010000
00000100
00010000
00001000
00010000
00001000
00010000
00000000
00001000
00000000
,
00022000
00033000
00000000
00000000
00000000
00000000
00000000
00000000
00000000
00000000
00000000
00000000
00000000
00000000
00000000
00000000
00001000
00000000
00000000
00000000
00000000
00000000
00000000
00000000
00000000
00000000
00000000
00000000
00000000
00000000
00000000
00000000
00010000
00000000
00000000
00000000
00000000
00000000
00000000
00000000
00000000
00000000
00000000
00000000
00000000
00000000
00000000
00000000
00100000
00000000
00000000
00000000
00000000
00000000
00000000
00000000
00000000
00000000
00000000
00000000
00000000
00000000
00000000
00000000
,
10000000
00000000
00010000
00000000
10000000
01000000
00100000
00000000
,
00010000
00000000
01000000
00000000
00100000
00000000
00000000
00000000
10000000
00000000
00000000
00000000
01000000
00000000
00000000
00100000
,
00000000
00000000
00100000
00000000
00001000
00000000
00000000
00000000
00000000
00000000
00100000
00000000
00010000
01000000
00010000
01000000
,
00100000
10000000
00000000
00000000
10010000
00000000
00000000
00000000
10000000
00000000
00000000
00000000
01000000
00000000
00000000
00000000
,
00100000
00001000
00010000
00000010
,
00010000
00000100
00001000
00000100
00000010
00000001
00001000
00000100
,
00000001
00000000
00000000
00000000
00000000
00000000
00000100
00000000
00000000
00000000
00000000
00000000
00001000
00000000
00000000
00000010
00000000
00000000
00001000
00000000
00000000
00000010
00000000
00000000
00000100
00000000
00000000
00000001
00000000
00000000
00000100
00000000
00000000
00000001
00000000
00000000
00001000
00000000
00000000
00000000
00000001
00000000
00000000
00000000
00000100
00000000
00000000
00000000
,
00000010
00000000
00000000
00000000
00001000
00000000
00000000
00000000
00000100
00000000
00000000
00000000
00010000
00000000
00000000
00000000
00000000
00000000
00000100
00000000
00000000
00000000
00000000
00000000
00010000
00000000
00000000
00000000
00000000
00000000
00001000
00000000
00000000
00010000
00000000
00000000
00001000
00000000
00000000
00000000
00000000
00000000
01000000
00000000
00000000
00010000
00000000
00000000
,
01000000
00000000
00100000
00000000
10000000
00000000
01000000
00000000
00100000
00000000
00010000
00100000
00010000
00000000
10000000
00100000
,
10000000
00000000
00010000
00000000
01000000
00000000
00100000
00000000
00010000
00000000
00001000
00000000
00000100
00000000
00010000
00001000
,
00010000
00000000
00000000
00000010
00000000
00000000
00001000
00000000
00000000
00000000
00000010
00001000
00000010
00000000
00000000
00000000
00001000
00000100
00001000
00000000
00000000
00000010
00000000
00000000
,
00000100
00000000
00000000
00000000
00000000
00000000
00000001
00000000
00001000
00000000
00000001
00000000
00001000
00000000
00000000
00000000
00000000
00000000
00000100
00000000
00000000
00000000
00000000
00000000
00000010
00000000
00000000
00000000
00000000
00000000
00000001
00000000
00000000
00001000
00000000
00000000
00000001
00000000
00000000
00000000
00000000
00000000
00000100
00000000
00000000
00000000
00000000
00000000
,
00001000
00000000
00010000
00001000
00010000
00000000
01000000
00000000
10000000
00000000
00010000
10000000
00010000
00000000
01000000
00000000
,
00200000
00000000
20300000
00000000
30010000
00000000
00100000
00000000
01000000
00000000
10000000
00100000
01000000
00000000
00010000
00000000
,
00100000
00000000
00010000
00000000
01000000
00010000
01000000
00010000
00100000
00001000
00100000
00001000
00010000
00000100
00001000
00000100
,
00000010
00000100
00000000
00000000
00010000
00001000
00010000
00000000
00001000
00000000
00100000
00010000
10000000
00010000
01000000
00000000
,
00100000
00000000
10000000
01000000
00100000
00010000
10000000
00000000
00100000
00000000
01000000
00010000
00100000
00000000
00001000
00010000
,
00001000
00000000
00000100
00000000
00000010
00000001
00001000
00000000
00000001
00000000
00001000
00000100
00000010
00000001
00001000
00000000
,
00000001
00000000
00000100
00000010
00001000
00000001
00000010
00000000
00000100
00000000
00010000
00001000
00010000
00000000
00001000
01000000
,
00001000
00000000
00010000
00000000
00001000
00100000
00010000
00000000
10000000
00000000
00010000
00100000
01000000
00100000
00010000
00000000
,
10000000
00000000
00100000
10000000
01000000
00100000
00001000
00000000
00010000
00000000
00001000
00100000
00001000
00000000
00010000
00000010
,
00010000
00000000
00001000
00000000
00010000
00001000
00000100
00000000
00000010
00000000
00000001
00000000
00001000
00000010
00000100
00000000
,
00000001
00000000
00000010
00000000
00000001
00000100
00000001
00000100
00000010
00001000
00000010
00001000
00000100
00010000
00001000
00100000
,
00010000
10000000
00100000
01000000
00020000
00000000
00000000
00000000
00230000
00000000
00301000
00010000
00000020
00000000
00000000
00000000
,
00002030
00000000
00003001
00000010
00000200
00000000
00000000
00000000
00000320
00000000
00000031
00000100
00000010
00000000
00000000
00000000
,
00011000
00000000
00001000
00100000
00010000
00010000
00001000
01000000
,
00010000
00000000
00010000
00000000
00001000
00000000
00010000
00000000
00100000
00000000
10000000
00000000
00010000
01000000
00100000
10000000
,
00010000
00100000
00000000
00000000
01100000
00000000
00000000
00000000
10000000
00000000
01000000
00000000
00100000
00000000
00000000
00000000
,
00010000
00000000
00000000
00000000
00000000
00000000
00000000
00001000
00000000
00000000
00000000
00000000
00010000
00000000
00000000
00000000
00000000
00000000
00000000
00000000
00000000
00000000
00000000
00000000
00001000
00000000
00000000
00000000
00000000
00000000
00000100
00000000
00000000
00000000
00000000
00000000
00000001
00000000
00000000
00000000
00000000
00000000
00000000
00000000
00000000
00000000
00000000
00000000
,
00000100
00001000
00000010
00000100
00000001
00000010
00000100
00001000
,
00010000
00000000
00000000
00000000
00000000
00000000
01000000
00000000
00000000
00000000
00000000
00000000
10000000
00000000
00100000
00000000
10000000
00000000
00100000
00000000
00000000
00000000
00000000
00000000
01000000
00000000
00010000
00000000
01000000
00000000
00010000
00000000
00000000
00000000
00000000
00000000
10000000
00000000
01000000
00000000
00100000
00000000
00010000
00000000
00000000
00100000
00000000
00000000
,
00001000
00010000
00001000
00000000
00011000
00000000
00000000
00000000
00000000
00000000
00000000
00000000
00000000
00000000
00000000
00000000
;
