#TITLE:紫陽花 -AZISAI-;
#ARTIST:Camellia Vs. Expander;
#TITLETRANSLIT:AZISAI;
#GENRE:ORIENTAL TECHDANCE;
#BANNER:AZISAI.png;
#BACKGROUND:AZISAI-bg.png;
#CDTITLE:./CDTitles/bm IIDX 23 copula.png;
#MUSIC:AZISAI.ogg;
#SAMPLESTART:68.11;
#SAMPLELENGTH:15;
#BPMS:0=155,36=77.5,37.5=155,57=310,58=155,61=310,62=155,65=310,66=77.5,68=155,100=77.5,108=155,108.5=77.5,112=155,192=77.5,196=155,216=77.5,218=155,269=310,270=155,273=310,274=155,277=310,278=77.5,280=155;
#STOPS:37.5=0.194,57=0.193,61=0.065,61.333=0.064,61.667=0.065,65=0.193,108=0.049,108.125=0.048,108.25=0.048,108.375=0.049,269=0.194,273=0.064,273.333333=0.065,273.666667=0.065,277=0.193;
#TIMESIGNATURES:0=4=4,36=2=4,38=4=4,66=2=4,68=4=4,216=2=4,218=4=4,278=2=4,280=4=4;
#BGSTAGE:19;

//--------------- dance-single - Fred-104 ----------------
#NOTES:
     dance-single:
     Fred-104:
     Beginner:
     3:
     :
0000
0000
0000
0000
,
0000
0000
0000
0000
,
0000
0000
0000
0000
,
0000
0000
0000
0000
,
0000
0000
0000
0000
,
0000
0000
0000
0000
,
1000
0000
0000
0000
,
0001
0000
0000
0000
,
1000
0000
0000
0000
,
0000
0000
0000
0000
,
0000
0000
0001
0000
,
0000
0000
0010
0000
,
0000
0000
0010
0000
,
0000
0000
0100
0000
,
0000
0000
1000
0000
,
0000
0000
0001
0000
,
0000
0000
0000
0000
,
0000
0000
0001
0000
,
0001
0000
0000
0000
,
1000
0000
0000
0000
,
0001
0000
0000
0000
,
0100
0000
0000
0000
,
0010
0000
0000
0000
,
1000
0000
0000
0000
,
0000
0000
0000
0000
,
0001
0000
0010
0000
,
0100
0000
0010
0000
,
0002
0003
1000
0000
,
0001
0000
1000
0000
,
2002
0000
3003
0000
,
0002
0000
0000
0000
,
0003
0000
0000
0000
,
2000
0000
0000
0000
,
3000
0000
0000
0000
,
0002
0000
0000
0000
,
0003
0000
0000
0000
,
2000
0000
0000
0000
,
3000
0000
0000
0000
,
1001
0000
0000
0000
,
0000
0000
0000
0000
,
0001
0000
0010
0000
,
0100
0000
0000
0000
,
1000
0000
1000
0000
,
0001
0000
0000
0000
,
0100
0000
0010
0000
,
0100
0000
0001
0000
,
0002
0000
0000
0003
,
2000
0000
0000
3000
,
1001
0000
0000
0000
,
0001
0000
1000
0000
,
0001
0000
0000
0000
,
0010
0000
0100
0000
,
0010
0000
0000
0000
,
0001
0000
1000
0000
,
1001
0000
0001
0000
,
1000
0000
0010
0000
,
0000
0000
2000
0000
,
3000
0000
0001
0000
,
0010
0000
0002
0000
,
0003
0000
1000
0000
,
0001
0000
1000
0000
,
0001
0000
0200
0000
,
0300
0000
0002
0000
,
0000
0003
2000
0000
,
0000
3000
0002
0000
,
0000
0003
2000
0000
,
0000
3000
1001
0000
,
0000
0000
0110
0000
,
0000
0000
1001
0000
,
0000
0000
0110
0000
,
2002
0000
0000
0000
,
0000
0000
0000
0000
,
3003
0000
0000
0000
;

//--------------- dance-single - Fred-104 ----------------
#NOTES:
     dance-single:
     Fred-104:
     Easy:
     7:
     :
0000
0000
0000
0000
,
0000
0000
0000
0000
,
0000
0000
0000
0000
,
0000
0000
0000
0000
,
0000
0000
0000
0000
,
0000
0000
0000
0000
,
0001
0010
0001
0001
,
1000
0010
0100
0100
,
0001
1000
0100
0010
,
2002
0000
0000
3003
0001
0000
0010
0000
,
0100
1000
0010
0100
,
0020
0030
1000
0100
,
0001
0100
1000
0100
,
0010
0010
0010
0000
0001
0000
1000
0000
,
2002
3003
0001
0100
,
0220
0330
2002
3003
,
0220
0000
0330
0000
2002
0000
0000
3003
,
1000
0100
0001
0010
,
0100
0010
1000
0001
,
0020
0030
0200
0300
,
1000
0100
0001
0100
,
1000
0010
0001
0100
,
0010
0100
1000
0000
,
0001
0000
0000
0100
0100
0000
0000
0010
,
0010
0000
0000
1000
1000
0000
0001
0000
,
1001
0110
0001
1000
,
0100
0000
0010
0000
0001
1000
1001
0000
,
2000
3000
1001
0000
0001
0100
0010
1000
,
0001
0001
1000
0100
,
0220
0000
0330
0000
,
2000
0000
0000
0000
,
3100
0010
0001
1000
,
0002
0203
2300
3200
,
0302
0000
0003
0000
,
2000
0000
0000
0000
,
3020
0000
0000
0000
,
0032
0203
2300
3002
,
2003
0000
0000
3000
,
2002
0000
0000
0000
,
3003
0000
0000
0000
,
1000
0100
0010
0001
,
1000
0010
0001
0010
,
2000
3000
0002
0003
,
0100
0000
0100
0000
0010
0100
0010
0000
,
0100
0001
1000
0001
,
1000
0010
0001
0010
,
2000
3000
0002
0003
,
1001
0110
1001
0000
,
2002
0000
0000
0000
0000
0000
3003
0000
0001
0000
0000
1000
0000
0000
1001
0000
,
0001
1000
0001
0100
,
1000
0100
0001
1000
,
0200
0300
0020
0030
,
0001
0000
1000
0000
0010
0100
0010
0000
,
1000
0000
0000
1000
0000
0000
1000
0000
0001
0000
0000
0001
0000
0000
0001
0000
,
2002
0000
0000
3003
0001
0000
1000
0000
,
0100
0100
0020
0000
0032
0000
2003
0000
,
3002
0203
0320
2030
,
3200
0000
0310
0001
0010
0000
0001
0000
,
1000
0001
2002
3003
,
0001
1000
0001
0000
0010
0000
0100
0000
,
1000
0001
0100
0100
,
0010
0000
0010
0000
0100
0010
0100
0000
,
0001
1000
0001
0000
0010
0000
0100
0000
,
1000
0001
0200
0300
,
0110
0000
1000
0100
,
0001
0100
1000
0001
,
0100
0010
0100
0000
0001
0000
0010
0000
,
2200
3300
1000
0010
,
0202
0303
2002
3003
,
0220
0000
0330
0000
2002
0000
0000
3003
,
2002
0000
0000
0000
,
0000
0000
0000
0000
,
3003
0000
0000
0000
;

//--------------- dance-single - Fred-104 ----------------
#NOTES:
     dance-single:
     Fred-104:
     Medium:
     12:
     :
0000
0000
0000
0000
,
0000
0000
0000
0000
,
0000
0000
0000
0000
,
0000
0000
0000
0000
,
0000
0000
0000
0000
,
0000
0000
0000
0000
,
1000
0100
0001
0000
1000
0010
0001
0000
,
1000
0010
0001
0000
1000
0100
0001
0000
,
1000
0010
0100
0001
0010
0100
1000
0000
,
2002
0000
0000
3003
0001
0010
0100
1000
,
0010
0100
0010
1000
0001
0010
0100
0010
,
0001
1000
0010
0000
1000
0001
1000
0100
,
0010
0100
1000
0001
0100
0010
1000
0001
,
0010
0010
0010
0000
0100
1000
0001
0100
,
0010
0000
0000
0000
0000
0000
0000
0000
1000
0000
0000
0000
0000
0000
0000
0000
2002
3003
0000
0000
0000
0000
0000
0000
0000
0000
0000
0000
0000
0000
0000
0000
1000
0000
0000
0000
0000
0000
0000
0000
0100
0000
0000
0000
0000
0000
0000
0000
0010
0000
0000
0000
0000
0000
0000
0000
0001
0000
0000
0000
0000
0000
0000
0000
,
1000
0000
0002
0000
1003
0010
0110
0000
,
0001
0000
0000
0000
0000
0000
0000
0000
0010
0000
0000
0000
0000
0000
0000
0000
0220
0330
0000
0000
0000
0000
0000
0000
0000
0000
0000
0000
0000
0000
0000
0000
2002
0000
0000
0000
0000
0000
0000
0000
0000
0000
0000
0000
0000
0000
0000
0000
0000
0000
0000
0000
0000
0000
0000
0000
3003
0000
0000
0000
0000
0000
0000
0000
,
1100
0000
0000
1000
0100
0000
0000
0100
0010
0000
0000
0010
0001
0000
0000
0001
,
1000
0000
0000
1000
0010
0000
0000
0010
0100
0000
0001
0000
1000
0000
0100
0000
,
0010
0001
0100
0010
0001
1000
0100
0010
,
1000
1000
1000
0100
0001
0100
1000
0000
,
1001
0000
0000
0001
0100
0000
0000
0100
1000
0000
0000
1000
0100
0000
0000
0100
,
0001
0000
0000
0001
1000
0000
0000
1000
0100
0000
0010
0000
0001
0000
1000
0000
,
1001
0000
0000
0001
0000
0010
0100
0000
1000
0000
0000
0001
0000
0100
0001
0000
,
1000
0000
0000
0100
0000
0010
0001
0000
1000
0000
0001
0000
0100
0000
0010
0000
,
0110
0000
0001
0000
1001
0000
1000
0000
0100
0100
0010
0010
0001
1000
0001
0000
,
1000
0000
0100
0000
2000
0000
0000
0000
3010
0000
1000
0000
0001
0000
0000
0000
0010
0000
0001
0000
1000
0000
0010
0000
0100
0000
0000
0100
0000
0000
0100
0000
,
0002
2003
3001
0000
0010
0100
1000
0000
0001
0100
1000
0100
0001
1000
0200
0300
,
0110
0000
0000
0010
0001
0000
0000
1000
0000
0000
0001
0000
0100
0000
0010
0000
,
2020
0000
3030
0000
,
0002
0000
0000
0013
,
0200
0000
0000
0000
1300
1000
0020
0000
,
0032
0023
0230
0320
,
2030
0000
0002
3003
,
1002
0000
0000
0023
,
0230
0000
0000
0000
0000
0000
0000
1300
,
0002
0203
2300
3020
,
0031
0010
0100
1000
0010
0100
0001
0010
,
0220
0000
0000
0000
,
0330
0000
0000
0000
0000
0000
0000
0000
0000
0000
0000
0000
0001
1000
0001
1000
,
0001
0010
0100
1000
0010
1000
0001
0100
,
0010
0000
0000
0010
1000
0000
0000
1000
0100
0000
0000
0100
0010
0000
0001
0000
,
1000
0010
0100
0100
0001
0010
0100
0100
,
1000
0000
0001
0000
0100
0000
0010
1000
0010
0000
1000
0000
0001
0000
0010
0000
,
0200
0000
1300
0100
0002
0000
1003
0010
,
0002
0023
0230
2300
3010
0200
0302
2003
,
3100
0010
0010
0001
1000
0010
0010
0100
,
0101
0000
0000
0001
0010
0000
0000
0100
1000
0000
0001
0000
0100
0000
0010
0000
,
0200
0000
0000
0000
0000
0000
0000
0000
0000
0000
0000
0000
0300
0000
0000
0000
0001
0000
0000
0001
0000
0000
1000
0000
0000
1000
0000
0000
0002
0000
0000
0000
,
1003
0100
0001
0100
0010
0001
1000
0010
,
0100
0100
0010
0010
2000
3002
0023
0230
,
1300
0000
0000
1000
0100
0000
0010
0000
0001
0000
0000
0001
0100
0000
0010
0000
,
0100
0010
0100
0010
0100
0000
0001
0000
1000
0000
0001
0000
1000
0000
0000
0000
,
1100
0000
0000
0010
0000
0000
0001
0000
0101
0000
0000
0010
0000
0000
1000
0000
,
2002
0000
0000
3003
0001
0010
0100
1000
,
0001
1000
0001
1000
0002
0000
0000
0000
1003
0000
0100
0000
0001
0000
0100
0000
,
0020
0000
0230
0000
1300
0100
0001
1000
,
0010
0001
0010
0100
1000
0001
0100
0010
,
1000
0000
0001
0000
0010
0000
0000
0000
0100
0010
0100
0010
0100
0000
1000
0000
,
0001
1000
0010
0000
0100
0001
1000
0001
,
0010
0010
0100
0000
1000
0010
1000
0100
,
1000
0001
0100
0010
0100
0001
1000
0001
,
0010
0100
1000
0000
0001
0010
0100
1000
,
0001
0000
0000
0100
0000
0000
0010
0000
0000
1000
0000
0000
0002
0000
0000
0000
0000
0000
1003
0000
0100
0000
1000
0000
,
0100
0000
0011
0000
0001
1000
0001
0000
,
0100
0010
1000
0000
1010
0000
0101
0000
,
1000
1000
0001
0001
0010
0100
1000
0001
,
0100
0000
0000
0000
0000
0000
0000
0000
0010
0000
0000
0000
0000
0000
0000
0000
0220
0330
0000
0000
0000
0000
0000
0000
0000
0000
0000
0000
0000
0000
0000
0000
1000
0000
0000
0000
0000
0000
0000
0000
0100
0000
0000
0000
0000
0000
0000
0000
0010
0000
0000
0000
0000
0000
0000
0000
0000
0000
0000
0000
0000
0000
0000
0000
,
0001
0000
2000
0000
3001
0100
0110
0000
,
1000
0000
0000
0000
0000
0000
0000
0000
0100
0000
0000
0000
0000
0000
0000
0000
0220
0330
0000
0000
0000
0000
0000
0000
0000
0000
0000
0000
0000
0000
0000
0000
2002
0000
0000
0000
0000
0000
0000
0000
0000
0000
0000
0000
0000
0000
0000
0000
0000
0000
0000
0000
0000
0000
0000
0000
3003
0000
0000
0000
0000
0000
0000
0000
,
0220
0000
0000
0000
,
0000
0000
0000
0000
,
0330
0000
0000
0000
;

//--------------- dance-single - Fred-104 ----------------
#NOTES:
     dance-single:
     Fred-104:
     Hard:
     16:
     :
0000
0000
0000
0000
,
0000
0000
0000
0000
,
0000
0000
0000
0000
,
0000
0000
0000
0000
,
0000
0000
0000
0000
,
0000
0000
0000
0000
,
0001
0000
0010
0100
0010
0000
0001
0010
0001
0000
1000
0010
1000
0000
0001
0100
,
0001
0000
1000
0100
1000
0000
0001
1000
0001
0000
0010
0100
1000
0000
0001
0000
,
0100
0010
0100
0000
0010
1000
0010
0000
0100
0001
1000
0100
0010
0001
1000
0000
,
0002
0000
0000
0000
0000
0000
0000
0000
0203
0000
0000
0000
0000
0000
0000
0000
0320
0000
0000
0000
1030
0000
0000
0000
2002
3003
0000
0000
0000
0000
0000
0000
0001
0000
0000
0000
0010
0000
0000
0000
0000
0000
0000
0000
0100
0000
0000
0000
1000
0000
0000
0000
0000
0000
0000
0000
0001
0000
0000
0000
1000
0000
0000
0000
,
0000
0010
0000
1000
0001
0000
0010
0100
0000
1000
0000
0100
0010
0000
0001
1000
,
0000
0010
0000
0100
0001
1000
0100
0000
0010
0100
1000
0000
0010
0100
0001
0000
,
1000
0100
0010
0001
1000
0000
0001
0000
0010
0100
0010
0100
0010
0000
0001
0000
,
1000
0010
0100
0001
1000
0000
1000
0000
0001
0010
0000
0100
1000
0010
1000
0000
,
0001
0000
0000
0000
0000
0000
0000
0000
0001
0000
0000
0000
0000
0000
0000
0000
0202
0303
0000
0000
0000
0000
0000
0000
0000
0000
0000
0000
0000
0000
0000
0000
1000
0000
0000
0000
0100
0000
0000
0000
0000
0000
0000
0000
0010
0000
0000
0000
0100
0000
0000
0000
1000
0000
0000
0000
0001
0000
0000
0000
0000
0000
0000
0000
,
0100
0000
0000
0000
0000
0000
0000
0000
0000
0000
0000
0000
0000
0000
0000
0000
0001
0000
0000
0000
0000
0000
0000
0000
0000
0000
0000
0000
0000
0000
0000
0000
0100
0000
0000
0000
0000
0000
0000
0000
0000
0000
0000
0000
0000
0000
0000
0000
0020
0000
0000
0030
0000
0000
0000
0000
0000
0000
0000
0000
0000
0000
0000
0000
2000
0000
0000
3000
0000
0000
0000
0000
0000
0000
0000
0000
0000
0000
0000
0000
0002
0000
0000
0003
0000
0000
0000
0000
0000
0000
0000
0000
0000
0000
0000
0000
1000
0000
0000
0000
0000
0000
0000
0000
0000
0000
0000
0000
0001
0000
0000
0000
0000
0000
0000
0000
0000
0000
0000
0000
0010
0000
0000
0000
0000
0000
0000
0000
0000
0000
0000
0000
0100
0000
0000
0000
0000
0000
0000
0000
0000
0000
0000
0000
2000
0000
0000
0000
0000
0000
0000
0000
0000
0000
0000
0000
0000
0000
0000
0000
0000
0000
0000
0000
0000
0000
0000
0000
3002
0000
0000
0000
0000
0000
0000
0000
0000
0000
0000
0000
0000
0000
0000
0000
0000
0000
0000
0000
0000
0000
0000
0000
,
0103
0000
0000
0000
0010
0000
0000
0000
0100
0000
0000
0000
0010
0000
0000
0000
0200
0300
0000
0000
0000
0000
0000
0000
0000
0000
0000
0000
0000
0000
0000
0000
0110
0000
0000
0000
0000
0000
1010
0000
0000
0000
0000
0000
0101
0000
0000
0000
0000
0000
1100
0000
0000
0000
0000
0000
0011
0000
0000
0000
1000
0000
0001
0000
,
0200
0000
0001
1300
0200
0000
1000
0301
0200
0000
0301
0000
1000
0000
0001
1000
,
0020
0000
0000
0000
0000
0000
1000
0000
0000
0031
0000
0000
0020
0000
0000
0000
0000
0000
0001
0000
0000
1030
0000
0000
0020
0000
0000
0000
0000
0000
0230
0000
0000
0000
0000
0000
0301
0000
1000
0000
0001
0000
1000
0000
0000
0000
0000
0000
,
0100
0000
0010
0001
1000
0000
0010
0000
0100
0010
0000
0010
0100
0010
1000
0000
,
0001
0010
0100
1000
0002
0000
2003
0000
3010
0000
0100
0001
1000
0001
0010
0100
,
0020
0000
0001
0130
0020
0000
1000
0130
0020
0000
0031
0000
1000
0000
0001
0010
,
0200
0000
0000
0000
0000
0000
1000
0000
0000
0310
0000
0000
0200
0000
0000
0000
0000
0000
0001
0000
0000
0310
0000
0000
0200
0000
0000
0000
0000
0000
1300
0000
0000
0000
0000
0000
0001
0000
0100
0000
0001
0000
0100
0000
0000
0000
0000
0000
,
0110
0000
0000
0001
0000
0001
1000
0100
0010
0000
0001
1000
0000
0010
1000
0001
,
0010
0000
0000
0000
0000
0000
0010
0000
0000
0100
0000
0000
0000
0000
0000
1000
0000
0000
0001
0000
0000
1000
0000
0000
0010
0000
0000
0000
0000
0000
0100
0000
0001
0000
0100
0000
0002
0000
0000
0000
0000
0000
2003
0000
0000
0000
0000
0000
,
3100
0000
0010
0000
0001
0000
1000
0000
2001
0000
3002
0000
0203
0000
0320
0000
0130
0001
0100
0001
1000
0000
0001
1000
0001
0000
0010
0100
1000
0100
1000
0100
,
0002
0000
0203
0000
0320
0000
0000
0031
1000
0000
0001
0100
0010
1000
0002
0000
0013
0100
0010
0000
0100
1000
0100
1000
0001
0000
1000
0010
0000
0100
0001
0000
,
2000
3000
0002
0003
2000
3000
0002
0003
1000
0000
0000
0000
0001
0000
0000
0000
0011
0000
0000
0000
0100
0000
0000
0000
2000
0000
0000
0000
0000
0000
0000
0000
3010
0000
0100
0000
0010
0000
0100
0000
1000
0000
0100
0000
1000
0000
0100
0000
0010
0000
0000
0000
1000
0000
0001
0000
1000
0000
0100
0000
0000
0000
0000
0000
,
0011
0000
0000
1000
0001
0000
0010
0100
0000
0100
1000
0000
0010
1000
0010
1000
,
0002
0000
0003
0000
,
2001
0000
0000
0000
0000
0000
0000
0000
0000
0000
0000
0000
3001
0000
0010
0100
,
0020
0000
0000
0000
0000
0000
0000
0000
0031
1000
0001
1000
0002
0000
0000
0000
,
0203
0320
0032
0023
,
2030
0000
3002
1003
,
2001
0000
0000
0000
0000
0000
0000
0000
0000
0000
0000
0000
3001
1000
0010
0100
,
0002
0000
0000
0000
0000
0000
0000
1003
,
0200
0302
0203
0320
,
0130
0000
1000
0000
0001
0000
0100
0000
0010
1000
0001
0010
0100
1000
0001
0000
,
0220
0000
0000
0000
,
0330
0000
0000
0000
0000
0000
0000
0000
0000
0000
0000
0000
1000
0001
1000
0001
,
0100
0000
0010
0000
1000
0001
1000
0000
0001
0010
0100
0010
0001
0000
1000
0000
,
0200
0000
1000
0301
0200
0000
0001
1300
0200
0000
1000
0301
0200
0000
0320
0000
,
1030
0000
0001
0000
0010
0100
1000
0000
0001
0000
1000
0001
0100
0000
0010
0000
,
0100
0000
0000
0001
0000
0000
0010
0000
0000
0100
0000
0000
1000
0000
0000
0000
0000
0000
0001
0000
0000
0010
0000
0000
0001
0000
0000
0000
0000
0000
1000
0000
0000
0000
0000
0000
0001
0000
0100
0000
0001
0000
0100
0000
0000
0000
0000
0000
,
0020
0000
1000
0000
1000
0000
1030
0100
0020
0000
0001
0000
0001
0000
0031
1000
,
0010
0000
0001
0010
0200
0000
0320
0000
2030
0000
3001
0010
2000
0000
3020
0000
,
0032
0000
1003
0100
0010
0001
1000
0000
0100
0010
0001
0000
1000
0001
0100
0000
,
0110
0000
0000
0010
1000
0000
0000
0100
0010
0000
0001
0100
0010
1000
0001
0000
,
2002
0000
0000
0000
0000
0000
0000
0000
0000
0000
0000
0000
3003
0000
0000
0000
1100
0000
0000
1010
0000
0000
0101
0000
0000
0011
0000
0000
0001
1000
0001
0000
,
0010
0000
0100
1000
0001
0100
0010
0000
1000
0001
0010
0100
0010
0000
0001
1000
,
0010
1000
0001
1000
0100
0010
0001
0010
0200
0000
2300
0000
3001
1000
0010
0100
,
0001
0000
1000
0001
0010
0000
0100
1000
0001
0000
0100
0010
1000
0010
0100
0001
,
1000
0100
0010
0001
1000
0000
0010
0000
0001
0000
1000
0000
0100
0001
1000
0000
,
1100
0000
0000
0101
0000
0000
0110
0000
0011
0000
0000
1010
0000
0000
0110
0000
,
2002
0000
0000
0000
0000
0000
3003
0000
1000
0100
0000
0100
0010
0000
0001
1000
,
0010
0100
0010
1000
0002
0000
0000
0000
0013
0100
1000
0001
0010
0100
1000
0001
,
0200
0000
0000
0000
0320
0000
0000
0000
1030
0100
0010
0001
0100
0010
1000
0001
,
1000
0100
0010
0100
0002
0000
0203
0000
1300
0001
1000
0001
0010
0100
0010
0100
,
1000
0001
0100
0010
2000
0000
0000
0000
3002
2003
3002
2003
3001
0000
1000
0001
,
0020
0000
0130
0010
0002
0000
1003
0010
0200
0000
0302
0000
1003
0100
0010
0002
,
0000
1003
0100
0010
0001
1000
0002
0000
1003
0001
0100
0001
1000
0001
0010
0100
,
1000
0001
0100
0010
1000
0010
0100
0001
1000
0000
0100
0010
0001
0000
1000
0100
,
0010
0001
1000
0010
0100
0010
0100
0000
0001
1000
0000
0100
0010
0000
0001
1000
,
0000
0000
0000
0010
0000
0000
1000
0000
0000
0001
0000
0000
0010
0000
0000
0100
0000
0000
1000
0000
0000
0000
0000
0000
0001
0000
0000
1000
0000
0000
0100
0000
0000
1000
0000
0000
0001
0000
0000
0000
0100
0000
0000
0000
1000
0000
0000
0000
,
0100
0000
0001
1000
0001
0010
0000
0010
0100
0000
0100
0000
1100
0000
0001
1000
,
0010
0000
1000
0001
0010
0000
0100
0000
0120
0000
0001
0130
0020
0000
1000
0130
,
0010
0000
0011
0000
1000
0001
1000
0001
1000
0001
0000
0001
0100
1000
0100
0000
,
0001
0000
0000
0000
0000
0000
0000
0000
0001
0000
0000
0000
0000
0000
0000
0000
0022
0033
0000
0000
0000
0000
0000
0000
0000
0000
0000
0000
0000
0000
0000
0000
1000
0000
0000
0000
0010
0000
0000
0000
0000
0000
0000
0000
0010
0000
0000
0000
0100
0000
0000
0000
0001
0000
0000
0000
1000
0000
0000
0000
0000
0000
0000
0000
,
0001
0000
0000
0000
0000
0000
0000
0000
0000
0000
0000
0000
0000
0000
0000
0000
0010
0000
0000
0000
0000
0000
0000
0000
0000
0000
0000
0000
0000
0000
0000
0000
0100
0000
0000
0000
0000
0000
0000
0000
0000
0000
0000
0000
0000
0000
0000
0000
2000
0000
0000
3000
0000
0000
0000
0000
0000
0000
0000
0000
0000
0000
0000
0000
0002
0000
0000
0003
0000
0000
0000
0000
0000
0000
0000
0000
0000
0000
0000
0000
2000
0000
0000
3000
0000
0000
0000
0000
0000
0000
0000
0000
0000
0000
0000
0000
0001
0000
0000
0000
0000
0000
0000
0000
0000
0000
0000
0000
0100
0000
0000
0000
0000
0000
0000
0000
0000
0000
0000
0000
0001
0000
0000
0000
0000
0000
0000
0000
0000
0000
0000
0000
0100
0000
0000
0000
0000
0000
0000
0000
0000
0000
0000
0000
0020
0000
0000
0000
0000
0000
0000
0000
0000
0000
0000
0000
0000
0000
0000
0000
0000
0000
0000
0000
0000
0000
0000
0000
0032
0000
0000
0000
0000
0000
0000
0000
0000
0000
0000
0000
0000
0000
0000
0000
0000
0000
0000
0000
0000
0000
0000
0000
,
0013
0000
0000
0000
0100
0000
0000
0000
0010
0000
0000
0000
1000
0000
0000
0000
0002
0003
0000
0000
0000
0000
0000
0000
0000
0000
0000
0000
0000
0000
0000
0000
1100
0000
0000
0000
0000
0000
0101
0000
0000
0000
0000
0000
1010
0000
0000
0000
0000
0000
0011
0000
0000
0000
0000
0000
0110
0000
0000
0000
1100
0000
0000
0000
,
2002
0000
0000
0000
,
0000
0000
0000
0000
,
3003
0000
0000
0000
;

//--------------- dance-single - Fred-104† ----------------
#NOTES:
     dance-single:
     Fred-104†:
     Challenge:
     18:
     :
0000
0000
0000
0000
,
0000
0000
0000
0000
,
0000
0000
0000
0000
,
0000
0000
0000
0000
,
0000
0000
0000
0000
,
0000
0000
0000
0000
,
1000
0000
0100
0010
0001
0000
1000
0100
0010
0001
0100
0010
1000
0001
0010
0100
,
0010
0000
0001
1000
0010
1000
0001
0010
0100
1000
0100
0010
0001
1000
0010
1000
,
0001
0010
0100
1000
0001
0100
0010
1000
0001
1000
0100
0010
0001
1000
0010
1000
,
0002
0000
0000
0000
0000
0000
0000
0000
0023
0000
0000
0000
0000
0000
0000
0000
0130
0000
0000
0000
1000
0000
0000
0000
2200
3300
0000
0000
0000
0000
0000
0000
0001
0000
0000
0000
1000
0000
0000
0000
0010
0000
0000
0000
0001
0000
0000
0000
0010
0000
0000
0000
0000
0000
0000
0000
0100
0000
0000
0000
0001
0000
0000
0000
,
0000
1000
0001
0010
0100
1000
0001
1000
0000
0010
0100
1000
0100
0010
1000
0100
,
0000
0010
0001
1000
0010
0100
0010
1000
0001
0010
0100
1000
0010
2000
0001
0000
,
3001
0010
0001
0100
0010
2000
0100
0000
3100
0000
0010
1000
0010
0001
0010
0100
,
1000
0000
0000
0001
0000
0000
0100
0000
0010
0000
1000
0000
0020
0000
0000
0000
0000
0000
0230
0000
0000
0000
0000
0000
0301
0000
0000
1000
0000
0000
0100
0000
0000
0010
0000
0000
0001
0000
0000
1000
0000
0000
0010
0000
0000
0100
0000
0000
,
0001
0000
0000
0000
0000
0000
0000
0000
1000
0000
0000
0000
0001
0000
0000
0000
2002
3003
0000
0000
0000
0000
0000
0000
0000
0000
0000
0000
0000
0000
0000
0000
0001
0000
0000
0000
0010
0000
0000
0000
0100
0000
0000
0000
1000
0000
0000
0000
0001
0000
0000
0000
0100
0000
0000
0000
0010
0000
0000
0000
0000
0000
0000
0000
,
0100
0000
0000
0000
0000
0000
0000
0000
0000
0000
0000
0000
0000
0000
0000
0000
0100
0000
0000
0000
0000
0000
0000
0000
0000
0000
0000
0000
0000
0000
0000
0000
0100
0000
0000
0000
0000
0000
0000
0000
0000
0000
0000
0000
0000
0000
0000
0000
0020
0000
0000
0030
0000
0000
0000
0000
0000
0000
0000
0000
0000
0000
0000
0000
0020
0000
0000
0030
0000
0000
0000
0000
0000
0000
0000
0000
0000
0000
0000
0000
0020
0000
0000
0030
0000
0000
0000
0000
0000
0000
0000
0000
0000
0000
0000
0000
1000
0000
0000
0000
0000
0000
0000
0000
0000
0000
0000
0000
0001
0000
0000
0000
0000
0000
0000
0000
0000
0000
0000
0000
0010
0000
0000
0000
0000
0000
0000
0000
0000
0000
0000
0000
1000
0000
0000
0000
0000
0000
0000
0000
0000
0000
0000
0000
0020
0000
0000
0000
0000
0000
0000
0000
0000
0000
0000
0000
0000
0000
0000
0000
0000
0000
0000
0000
0000
0000
0000
0000
0032
0000
0000
0000
0000
0000
0000
0000
0000
0000
0000
0000
0000
0000
0000
0000
0000
0000
0000
0000
0000
0000
0000
0000
,
1003
0000
0000
0000
0000
0000
0000
0000
0000
0000
0000
0000
0010
0000
0000
0000
0000
0000
0000
0000
0000
0000
0000
0000
0001
0000
0000
0000
0000
0000
0000
0000
0000
0000
0000
0000
0010
0000
0000
0000
0000
0000
0000
0000
0000
0000
0000
0000
2000
0000
0000
3000
0000
0000
0000
0000
0000
0000
0000
0000
0000
0000
0000
0000
0000
0000
0000
0000
0000
0000
0000
0000
0000
0000
0000
0000
0000
0000
0000
0000
0000
0000
0000
0000
0000
0000
0000
0000
0000
0000
0000
0000
0000
0000
0000
0000
0011
0000
0000
0000
0000
0000
0000
0000
0000
0000
0000
0000
0000
0000
0000
0000
0000
0000
1010
0000
0000
0000
0000
0000
0000
0000
0000
0000
0000
0000
0001
0000
0000
0000
0000
0000
0100
0000
0000
0000
0010
0000
0000
0000
1000
0000
0000
0000
0001
0000
0000
0000
0000
0000
0000
0000
0001
0000
0000
0000
0000
0000
0000
0000
0001
0000
0000
0000
0000
0000
0000
0000
0020
0000
0000
0000
0000
0000
0000
0000
0000
0000
0000
0000
0130
0000
0000
0000
1000
0000
0000
0000
0100
0000
0000
0000
,
2000
0000
0000
3001
0100
0010
2000
0000
0000
3001
0010
0100
2000
0000
0000
3020
0000
0000
0230
0000
0000
0301
1000
0001
,
0020
0000
0000
0130
0010
0001
2000
0000
0000
3010
0100
0001
2000
0000
0000
3200
0000
0000
0310
0001
1000
0002
0000
0000
,
1003
0100
0010
1000
0001
0100
0020
0000
0031
0100
0010
0001
1000
0100
0020
0000
,
1030
0001
0100
0010
2000
0000
0100
3000
1100
0000
0000
0101
0000
1000
0100
0010
,
0002
0000
0000
0000
0000
0000
1003
0000
0001
0000
0010
0000
0200
0000
0000
0000
0000
0000
1300
0000
0001
0000
0100
0000
0020
0000
0000
0000
0000
0000
1030
0000
0000
0001
0000
0000
0020
0000
0000
0000
0000
0000
0130
0000
1000
0000
0001
0000
,
0200
0000
0000
0310
1000
0001
0020
0000
0000
0130
0010
0001
2000
0000
0000
3020
0000
0000
0130
0001
1000
0001
0000
0000
,
1001
0000
1000
0001
0000
0010
1000
0010
0100
0000
1000
0010
0100
0001
1000
0000
,
0001
0000
0000
0000
0000
0000
1000
0000
0000
0100
0000
0000
0000
0000
0000
0001
0000
0000
0100
0000
0000
0010
0000
0000
0001
0000
1000
0000
0001
0000
1000
0000
0001
0000
0010
0000
0100
0000
0000
1000
0000
0000
0002
0000
0000
0003
0000
0000
,
1001
0000
0000
0000
0000
0000
0001
0000
0000
0010
0000
0000
0000
0000
0000
0100
0000
0000
1000
0000
0000
0001
0000
0000
2000
0000
0000
0000
0000
0000
3200
0000
0000
0000
0000
0000
0302
0000
0000
0000
0000
0000
0203
0000
0000
0000
0000
0000
1300
0000
0000
0001
0000
0000
0100
0000
0000
0010
0000
0000
2000
0000
0000
0000
0000
0000
3001
0000
0010
0000
0100
0000
0020
0000
0000
0000
0000
0000
0031
0000
0000
1000
0000
0000
0010
0000
0000
0001
0000
0000
1000
0000
0000
0100
0000
0000
,
0001
1000
0000
1000
0100
0000
0010
0001
1000
0001
1000
0001
0200
0000
0320
0000
0130
0001
1000
0001
0010
0100
1000
0010
0100
0000
0001
0010
0000
1000
0010
0000
,
0100
0000
0000
0000
0000
0000
2000
0000
0000
3000
0000
0000
0200
0000
0000
0300
0000
0000
2000
0000
0000
3000
0000
0000
0200
0000
0000
0000
0000
0000
0000
0000
0000
0000
0000
0000
0310
0000
0000
0000
0000
0000
0000
0000
0000
0000
0000
0000
0011
0000
0000
0000
0000
0000
0000
0000
0000
0000
0000
0000
1000
0000
0000
0000
0000
0000
0001
0000
0000
0000
0000
0000
0100
0000
0000
0000
0000
0000
0010
0000
0000
0000
0000
0000
0100
0000
0000
0000
0000
0000
0010
0000
0000
0000
0000
0000
1000
0000
0000
0000
0000
0000
0100
0000
0000
0000
0000
0000
0010
0000
0000
0000
0000
0000
0001
0000
0000
0000
0000
0000
0100
0000
0000
0000
0000
0000
0010
0000
0000
0000
0000
0000
1000
0000
0000
0000
0001
0000
0000
0000
1000
0000
0000
0000
0002
0000
0000
0000
0000
0000
0000
0000
0000
0000
0000
0000
0103
0000
0000
0000
0000
0000
1000
0000
0000
0000
0000
0000
0100
0000
0000
0000
0000
0000
0001
0000
0000
0000
0000
0000
1000
0000
0000
0000
0000
0000
0100
0000
0000
0000
0000
0000
,
0010
0000
0000
0000
0011
0000
0001
0100
0000
0100
0010
0000
0001
0010
0100
0001
,
2002
0000
0000
0000
0000
0000
0000
0000
0000
3003
0000
0000
0001
0000
0001
0000
0001
0000
1001
0000
0000
0000
0000
0000
,
2100
0000
0000
0000
0000
0000
0000
0000
0000
0000
0000
0000
3001
0000
1000
0001
,
0010
0100
0010
0100
0010
1000
0010
1000
0010
0001
0010
0001
0020
0000
0230
0000
,
2300
0100
0001
3010
,
2000
0000
3010
0100
0001
1000
0100
0010
0001
0010
0200
0000
2300
0000
0000
0000
,
3002
0000
0000
0000
0000
0000
0100
0000
0100
0000
0000
0000
1003
0000
0001
0100
,
0010
1000
0010
1000
0001
0010
0100
0010
0001
1000
0010
0100
0002
0000
2003
0000
,
3020
0001
0100
1030
,
0001
0000
0000
0100
0000
0000
0010
0000
0000
1000
0000
0000
0100
0000
0000
0010
0000
0000
0001
0000
0000
1000
0000
0000
0010
0000
0100
0000
0001
0000
1000
0000
0100
0000
0010
0000
0001
0000
0010
0000
0100
0000
1000
0000
0001
0000
2000
0000
,
0002
0000
0000
0000
,
3003
0000
0000
0000
0000
0000
0000
0000
2000
0000
3001
0010
0200
2300
3200
2300
,
3001
0000
0000
0000
0000
0000
0100
0000
0000
0010
0000
0000
0001
0000
0000
0010
0000
0000
0200
0000
0000
0000
0000
0000
0310
0000
0000
1000
0000
0000
0001
0000
0010
0000
0001
0000
0020
0000
0000
0000
0000
0000
0230
0000
0000
0000
0000
0000
,
1300
0001
0100
0010
2000
0000
3001
0010
1000
0000
1000
0010
0002
0000
2003
0000
,
3020
0000
0000
0000
0000
0000
0031
0000
0000
0010
0000
0000
0100
0000
0000
0010
0000
0000
2000
0000
0000
0000
0000
0000
3001
0000
0000
0010
0000
0000
0100
0000
1000
0000
0001
0000
0200
0000
0000
0000
0000
0000
0320
0000
0000
0000
0000
0000
,
0130
0000
0000
0001
0000
0000
0100
0000
0000
0000
0000
0000
0010
0000
0000
0000
0000
0000
1000
0000
0000
0000
0000
0000
0100
0000
0000
0000
0000
0000
0010
0000
0000
0000
0000
0000
0001
0000
0000
0000
0000
0000
1000
0000
0000
0000
0000
0000
0020
0000
0000
0000
0000
0000
0000
0000
0000
0000
0000
0000
0230
0000
0000
0000
0000
0000
0000
0000
0000
0000
0000
0000
0301
0000
0000
0000
0010
0000
0000
0000
0100
0000
0000
0000
1000
0000
0000
0000
0000
0000
0001
0000
0000
0000
0000
0000
,
0200
0000
0000
0000
0000
0000
1000
0000
0000
0000
0000
0000
0010
0000
0000
0000
0000
0000
0301
0000
0000
1000
0000
0000
0200
0000
0000
0000
0000
0000
0010
0000
0000
0000
0000
0000
0001
0000
0000
0000
0000
0000
1300
0000
0001
0000
0100
0000
,
0020
0000
1030
0100
0020
0000
0001
0000
0000
0000
0230
0000
2300
0000
3002
0000
,
2003
0000
0000
0000
0000
0000
3001
0000
0010
0000
0100
0000
1000
0000
0000
0001
0000
0000
0010
0000
0000
0100
0000
0000
0010
0000
0000
0001
0000
0000
1000
0000
0000
0010
0000
0000
0100
0000
0000
0001
0000
0000
0100
0000
0000
0010
0000
0000
,
1000
1000
0100
0010
0001
0001
0100
0010
1000
0001
0010
0100
0010
0001
1000
0001
,
2002
0000
0000
0000
0000
0000
0000
0000
0000
0000
0000
0000
3003
0000
1000
0100
1100
0000
0000
0101
0000
0000
0011
0000
0000
1010
0000
0000
1000
0100
0010
0000
,
0012
0000
0000
0000
0000
0000
1003
0000
0000
0001
0000
0000
0100
0000
0001
0000
1000
0000
0200
0000
0000
0000
0000
0000
0301
0000
0000
0100
0000
0000
0010
0000
0000
0100
0000
0000
2000
0000
0000
0000
0000
0000
3001
0000
0000
1000
0000
0000
,
0010
0000
0000
0100
0000
0000
1000
0000
0000
0100
0000
0000
0010
0000
0000
0001
0000
0000
1000
0000
0000
0100
0000
0000
0002
0000
0000
0000
0000
0000
2003
0000
0000
0000
0000
0000
3100
0000
0010
0000
0001
0000
1000
0000
0000
0001
0000
0000
,
0200
0000
0310
1000
0002
0000
0013
0100
2000
0000
3001
0100
0010
1000
0002
0000
,
1003
0000
0100
0000
0010
0000
0001
0000
0000
1000
0000
0000
0020
0000
0000
0000
0000
0000
2030
0000
0000
0000
0000
0000
3002
0000
0000
0000
0000
0000
0013
0000
0000
0001
0000
0000
0100
0000
0000
0001
0000
0000
0010
0000
0000
0100
0000
0000
,
1100
0000
0000
0101
0000
0000
1000
0100
0110
0000
0000
0011
0000
0000
1000
0001
,
0010
0000
0000
0100
0000
0000
2000
0000
0000
0000
0000
0000
3001
0000
0100
0000
0010
0000
1000
0000
0000
0100
0000
0000
0010
0000
0000
0100
0000
0000
1000
0000
0000
0001
0000
0000
0100
0000
0000
0010
0000
0000
1000
0000
0000
0001
0000
0000
1000
0000
0000
0000
0000
0000
0010
0000
0000
0000
0000
0000
0000
0000
0000
0000
0000
0000
0001
0000
0000
0000
0000
0000
0010
0000
0000
0000
0000
0000
0000
0000
0000
0000
0000
0000
0100
0000
0000
0000
0000
0000
0010
0000
0000
0000
0000
0000
,
1000
0000
0000
0001
0000
0000
0010
0000
0000
0100
0000
0000
0020
0000
0000
0000
0000
0000
0000
0000
0000
0000
0000
0000
0031
0000
0000
1000
0000
0000
0001
0000
0010
0000
0100
0000
1000
0000
0000
0001
0000
0000
1000
0000
0010
0000
0100
0000
,
0002
0000
0000
0000
0000
0000
0023
0000
0000
0000
0000
0000
0130
1000
0001
1000
0010
0100
0001
0100
0010
1000
0001
0010
,
0100
0000
1000
0000
0100
0000
0010
0000
0001
0000
1000
0000
0020
0000
0000
0000
0000
0000
0230
0000
0000
0000
0000
0000
0301
0000
0000
0000
0000
0000
1000
0000
0000
0001
0000
0000
0100
0000
0000
1000
0000
0000
0001
0000
0000
0010
0000
0000
,
0100
0001
1000
0100
0020
0000
0000
0000
0032
2003
3002
2003
3001
0100
0010
0001
,
1000
0100
0010
0001
1000
0100
0010
1000
0001
0000
1000
0001
0010
0100
0001
0200
,
0000
1300
0001
0100
0010
1000
0001
1000
0001
0100
1000
0100
0010
0100
0001
1000
,
0100
0010
1000
0010
0100
1000
0001
0100
0010
1000
0001
0010
0001
1000
0010
0100
,
0010
0000
0000
1000
0000
0000
0001
0000
0010
0000
0100
0000
1000
0000
0000
0001
0000
0000
0100
0000
0000
0001
0000
0000
1000
0000
0000
0100
0000
0000
0000
0000
0000
0001
0000
0000
0100
0000
0000
0000
0000
0000
0010
0000
0000
1000
0000
0000
,
0000
0000
0000
0010
0000
0000
0001
0000
0000
0010
0000
0000
0100
0000
0000
1000
0000
0000
0001
0000
0000
1000
0000
0000
0001
0000
0100
0000
0010
0000
1000
0000
0010
0000
0100
0000
0001
0000
0000
0000
0001
0000
0000
0000
0001
0000
0000
0000
,
1001
0000
0000
0000
0000
0000
1000
0000
0100
0000
0010
0000
0001
0000
0000
0100
0000
0000
0010
0000
0000
1000
0000
0000
0001
0000
0000
0010
0000
0000
1000
0000
0000
0001
0000
0000
0100
0000
0000
0010
0000
0000
0001
0000
0000
1000
0000
0000
,
0100
1000
0001
0100
0010
1000
0001
0000
1100
0000
1000
0100
0110
0000
0001
0010
,
0100
0000
0000
1000
0000
0000
0001
0000
0100
0000
0010
0000
2000
0000
0000
0000
0000
0000
3002
0000
0000
0000
0000
0000
1003
0000
0000
0010
0000
0000
0100
0000
0000
1000
0000
0000
0001
0000
0000
0010
0000
0000
0100
0000
0000
0001
0000
0000
,
1000
0000
0000
0000
0000
0000
0000
0000
0100
0000
0000
0000
0010
0000
0000
0000
0022
0033
0000
0000
0000
0000
0000
0000
0000
0000
0000
0000
0000
0000
0000
0000
0001
0000
0000
0000
0100
0000
0000
0000
1000
0000
0000
0000
0001
0000
0000
0000
0010
0000
0000
0000
0100
0000
0000
0000
0002
0000
0000
0000
0000
0000
0000
0000
,
1003
0000
0000
0000
0000
0000
0000
0000
0000
0000
0000
0000
0000
0000
0000
0000
1000
0000
0000
0000
0000
0000
0000
0000
0000
0000
0000
0000
0000
0000
0000
0000
1000
0000
0000
0000
0000
0000
0000
0000
0000
0000
0000
0000
0000
0000
0000
0000
0002
0000
0000
0003
0000
0000
0000
0000
0000
0000
0000
0000
0000
0000
0000
0000
0002
0000
0000
0003
0000
0000
0000
0000
0000
0000
0000
0000
0000
0000
0000
0000
0002
0000
0000
0003
0000
0000
0000
0000
0000
0000
0000
0000
0000
0000
0000
0000
1000
0000
0000
0000
0000
0000
0000
0000
0000
0000
0000
0000
0100
0000
0000
0000
0000
0000
0000
0000
0000
0000
0000
0000
0010
0000
0000
0000
0000
0000
0000
0000
0000
0000
0000
0000
0100
0000
0000
0000
0000
0000
0000
0000
0000
0000
0000
0000
0002
0000
0000
0000
0000
0000
0000
0000
0000
0000
0000
0000
0000
0000
0000
0000
0000
0000
0000
0000
0000
0000
0000
0000
0203
0000
0000
0000
0000
0000
0000
0000
0000
0000
0000
0000
0000
0000
0000
0000
0000
0000
0000
0000
0000
0000
0000
0000
,
1300
0000
0000
0000
0000
0000
0000
0000
0000
0000
0000
0000
0001
0000
0000
0000
0000
0000
0000
0000
0000
0000
0000
0000
0100
0000
0000
0000
0000
0000
0000
0000
0000
0000
0000
0000
0010
0000
0000
0000
0000
0000
0000
0000
0000
0000
0000
0000
2000
0000
0000
3000
0000
0000
0000
0000
0000
0000
0000
0000
0000
0000
0000
0000
0000
0000
0000
0000
0000
0000
0000
0000
0000
0000
0000
0000
0000
0000
0000
0000
0000
0000
0000
0000
0000
0000
0000
0000
0000
0000
0000
0000
0000
0000
0000
0000
1100
0000
0000
0000
0000
0000
0000
0000
0000
0000
0000
0000
0000
0000
0000
0000
0000
0000
0101
0000
0000
0000
0000
0000
0000
0000
0000
0000
0000
0000
1000
0000
0000
0000
0000
0000
0001
0000
0000
0000
0100
0000
0000
0000
0010
0000
0000
0000
0100
0000
0000
0000
0000
0000
0000
0000
0100
0000
0000
0000
0000
0000
0000
0000
0100
0000
0000
0000
0000
0000
0000
0000
0101
0000
0000
0000
0000
0000
0000
0000
0000
0000
0000
0000
1010
0000
0000
0000
0000
0000
0000
0000
0000
0000
0000
0000
,
2002
0000
0000
0000
,
0000
0000
0000
0000
,
3003
0000
0000
0000
;

//--------------- dance-double - Fred-104 ----------------
#NOTES:
     dance-double:
     Fred-104:
     Easy:
     8:
     :
00000000
00000000
00000000
00000000
,
00000000
00000000
00000000
00000000
,
00000000
00000000
00000000
00000000
,
00000000
00000000
00000000
00000000
,
00000000
00000000
00000000
00000000
,
00000000
00000000
00000000
00000000
,
00010000
00001000
00000100
00000001
,
00001000
00000010
00010000
00001000
,
00100000
00000000
00010000
00000000
10000000
00010000
10000000
00000000
,
20020000
00000000
00000000
30030000
10000000
00000000
01000000
00000000
,
00010000
00001000
00010000
00001000
,
01000000
00001000
00010000
00001000
,
00000100
00000010
00001000
00000001
,
00000010
00000100
00000010
00000000
00000001
00000000
00000100
00000000
,
00000220
00000330
00010000
00001000
,
00022000
00033000
02200000
03300000
,
20020000
00000000
30030000
00000000
22000000
00000000
00000000
33000000
,
00010000
10000000
00100000
00010000
,
00001000
00000100
00000001
00000010
,
00000200
00000300
00020000
00030000
,
00001000
00000000
00010000
00000000
00001000
01000000
00001000
00000000
,
00010000
00001000
00000010
00000100
,
00000010
00000001
00000100
00001000
,
00011000
00000000
00000000
00010000
00010000
00000000
00000000
00001000
,
00001000
00000000
00000000
01000000
01000000
00000000
00001000
00000000
,
00011000
00000000
00000110
00000000
00001000
00000100
00000010
00000000
,
00000001
00000100
00001000
00000000
00010000
00001000
00011000
00000000
,
00002000
00003000
00011000
00000000
00001000
00010000
00100000
01000000
,
00010000
00000000
10000000
00000000
01000000
00100000
01100000
00000000
,
20020000
00000000
30030000
00000000
,
20000000
00000000
00000000
00000000
,
31000000
00100000
00001000
00010000
,
00002000
00003020
00000230
00020300
,
00032000
00000000
00003000
00000000
,
00002000
00000000
00000000
00000000
,
02003000
00000000
00000000
00000000
00000000
00000000
00000000
03010000
,
20000000
30200000
00320000
00032000
,
00003200
00000000
00000302
00000003
,
00002002
00000000
00000000
00000000
,
00003003
00000000
00000000
00000000
,
00000001
00000100
00000001
00000100
,
00001000
00010000
00001000
01000000
,
00002000
00003000
00020000
00030000
,
00001000
00000000
00010000
00000000
00100000
01000000
00100000
00000000
,
10000000
00010000
10000000
00010000
,
00100000
10000000
00100000
00010000
,
20000000
30000000
00200000
00300000
,
00010000
00001000
00011000
00000000
,
00000220
00000000
00000000
00000000
00000000
00000000
00000330
00000000
00001000
00000000
00000000
00000001
00000000
00000000
00001001
00000000
,
00000001
00000010
00001000
00010000
,
00001000
00100000
00001000
00010000
,
00002000
00003000
02000000
03000000
,
00001000
00100000
00010000
10000000
,
00010000
00000000
00000000
00010000
00000000
00000000
01000000
00000000
00001000
00000000
00000000
00001000
00000000
00000000
00010000
00000000
,
00022000
00000000
00000000
00033000
00001000
00000000
00010000
00000000
,
01000000
10000000
02000000
23000000
,
30020000
02030000
03200000
20300000
,
32000000
03200000
00301000
00010000
,
00000100
00010000
00022000
00033000
,
00010000
00000100
00010000
00000000
00000100
00000000
00001000
00000000
,
00000001
00000100
00000001
00000000
00000010
00000000
00000010
00000000
,
00000100
00000000
00000100
00000000
00010000
00000100
00010000
00000000
,
00001000
00010000
00001000
00000000
00010000
00000000
01000000
00000000
,
10000000
00010000
02000000
03000000
,
10010000
00000000
10000000
00100000
,
00010000
00001000
00000010
00000001
,
00001000
00000001
00001000
00000000
00000010
00000000
00010000
00000000
,
00022000
00033000
01000000
00010000
,
20020000
30030000
02200000
03300000
,
00022000
00000000
00033000
00000000
00000220
00000000
00000000
00000330
,
00002002
00000000
00000000
00000000
,
00000000
00000000
00000000
00000000
,
00003003
00000000
00000000
00000000
;

//--------------- dance-double - Fred-104 ----------------
#NOTES:
     dance-double:
     Fred-104:
     Medium:
     12:
     :
00000000
00000000
00000000
00000000
,
00000000
00000000
00000000
00000000
,
00000000
00000000
00000000
00000000
,
00000000
00000000
00000000
00000000
,
00000000
00000000
00000000
00000000
,
00000000
00000000
00000000
00000000
,
00000001
00000100
00001000
00000000
00010000
00100000
10000000
00000000
,
10000000
01000000
00010000
00000000
00001000
00000010
00000001
00000000
,
00000100
00000010
00000100
00001000
00010000
00001000
01000000
00001000
,
00022000
00000000
00000000
00033000
00001000
00010000
00000010
00001000
,
00000100
00010000
00000100
00001000
00000010
00000100
00000001
00000100
,
00000010
00001000
00000001
00000000
00000010
00000100
00000010
00001000
,
00010000
01000000
00100000
01000000
10000000
00100000
00010000
00001000
,
00010000
00010000
00010000
00000000
00001000
00010000
00100000
00000000
,
10000000
00000000
00000000
00000000
00000000
00000000
00000000
00000000
00010000
00000000
00000000
00000000
00000000
00000000
00000000
00000000
20020000
30030000
00000000
00000000
00000000
00000000
00000000
00000000
00000000
00000000
00000000
00000000
00000000
00000000
00000000
00000000
10000000
00000000
00000000
00000000
00000000
00000000
00000000
00000000
01000000
00000000
00000000
00000000
00000000
00000000
00000000
00000000
00100000
00000000
00000000
00000000
00000000
00000000
00000000
00000000
00000000
00000000
00000000
00000000
00000000
00000000
00000000
00000000
,
00002000
00000000
00023000
00000000
00031000
00010000
00011000
00000000
,
00000010
00000000
00000000
00000000
00000000
00000000
00000000
00000000
00000100
00000000
00000000
00000000
00000000
00000000
00000000
00000000
00000220
00000330
00000000
00000000
00000000
00000000
00000000
00000000
00000000
00000000
00000000
00000000
00000000
00000000
00000000
00000000
00002002
00000000
00000000
00000000
00000000
00000000
00000000
00000000
00000000
00000000
00000000
00000000
00000000
00000000
00000000
00000000
00000000
00000000
00000000
00000000
00000000
00000000
00000000
00000000
00003003
00000000
00000000
00000000
00000000
00000000
00000000
00000000
,
00000001
00000000
00000000
00000001
00000100
00000000
00000000
00000100
00001000
00000000
00000000
00001000
00010000
00000000
00000000
00010000
,
00100000
00000000
00000000
00100000
01000000
00000000
00000000
01000000
00100000
00000000
10000000
00000000
00010000
00000000
00100000
00000000
,
01000000
00100000
00001000
00000010
00000100
00001000
00000010
00000000
,
00010000
00001000
00000100
00000010
00000100
00001000
00010000
00000000
,
00011000
00000000
00000000
00001000
00010000
00000000
00000000
00010000
01000000
00000000
00000000
01000000
00100000
00000000
00000000
00100000
,
00010000
00000000
00000000
00010000
10000000
00000000
00000000
10000000
00100000
00000000
00010000
00000000
00001000
00000000
00010000
00000000
,
00011000
00000000
00000000
00010000
00000000
00000100
00001000
00000000
00000001
00000000
00000000
00001000
00000000
00000010
00010000
00000000
,
00001000
00000000
00000000
00100000
00000000
00010000
10000000
00000000
00010000
00000000
00100000
00000000
01000000
00000000
10000000
00000000
,
10010000
00000000
00010000
00000000
01100000
00000000
10000000
00000000
01000000
01000000
00100000
00100000
00001000
00010000
00001000
00000000
,
00010000
00000000
00001000
00000000
00000020
00000000
00000000
00000000
00000031
00000000
00000010
00000000
00000100
00000000
00000000
00000000
00010000
00000000
00001000
00000000
00000100
00000000
00000000
00000000
00000001
00000000
00000000
00000100
00000000
00000000
00001000
00000000
,
00020000
00032000
00023000
00030000
00011000
00000000
01100000
00000000
00010000
01000000
10000000
01000000
00010000
10000000
01000000
00100000
,
00001000
00000000
00011000
00000000
00010000
00000010
00010000
00000000
,
00022000
00000000
00033000
00000000
,
00002000
00000000
00000000
00013000
,
02000000
00000000
00000000
03100000
,
00002000
00023000
00030020
00002030
,
00003020
00000000
00000200
00000330
,
00001002
00000000
00000000
00000203
,
00002300
00000000
00000000
00000000
00000000
00000000
00000000
00013000
,
00002000
02003000
03200000
20300000
,
31000000
00100000
00001000
00010000
00000010
00010000
00001000
01000000
,
02200000
00000000
00000000
00000000
,
03300000
00000000
00000000
00000000
00000000
00000000
00000000
00000000
00000000
00000000
00000000
00000000
00010000
10000000
00010000
10000000
,
00010000
01000000
10000000
01000000
00010000
10000000
01000000
00010000
,
00001000
00000000
00000000
00001000
00010000
00000000
00000000
00010000
00000100
00000000
00000000
00000100
00000010
00000000
00000001
00000000
,
00001000
00000001
00000010
00000010
00000100
00010000
00001000
00001000
,
01000000
00000000
00010000
00000000
00100000
00000000
01000000
10000000
01000000
00000000
00100000
00000000
00001000
00000000
00010000
00000000
,
00002000
00000000
00013000
00100000
20000000
00000000
31000000
00010000
,
00002000
00023000
00030020
00020030
00031000
00020000
00030200
00000320
,
00000031
00000100
00000100
00000010
00010000
00000100
00001000
00001000
,
00001001
00000000
00000000
00000001
00000100
00000000
00000000
00000100
00001000
00000000
00010000
00000000
00001000
00000000
01000000
00000000
,
00002000
00000000
00000000
00000000
00000000
00000000
00000000
00000000
00000000
00000000
00000000
00000000
00003000
00000000
00000000
00000000
00010000
00000000
00000000
00010000
00000000
00000000
00001000
00000000
00000000
00001000
00000000
00000000
00011000
00000000
00000000
00000000
,
00010000
00001000
00000100
00000010
00001000
00000001
00000010
00000001
,
00001000
00000100
00000010
00001000
00020000
02030000
23000000
30020000
,
00130000
00000000
00000000
00100000
01000000
00000000
10000000
00000000
00010000
00000000
00000000
00010000
01000000
00000000
00001000
00000000
,
00010000
00001000
00010000
00001000
00010000
00000000
00001000
00000000
00000100
00000000
00000010
00000000
00001000
00000000
00000000
00000000
,
00000001
00000000
00000000
00000010
00000000
00000000
00001000
00000000
00010000
00000000
00000000
00100000
00000000
00000000
10000000
00000000
,
20020000
00000000
00000000
00000000
00000000
00000000
30030000
00000000
10000000
00000000
00000000
00100000
00010000
00000000
00001000
00000000
,
00000100
00000010
00002000
00000000
00003100
00000100
00000010
00000010
,
00000002
00000000
00002003
00000000
00003001
00000010
00001000
00010000
,
00100000
10000000
01000000
00200000
00000000
00301000
00010000
00001000
,
00100000
00000000
01000000
00000000
00100000
00000000
00000000
00000000
00010000
10000000
00010000
10000000
00010000
00000000
01000000
00000000
,
00100000
00010000
00001000
00000100
00000010
00001000
00000100
00000010
,
00000001
00000010
00001000
00000000
00010000
00001000
00100000
00001000
,
00010000
00001000
01000000
00010000
10000000
00010000
00100000
01000000
,
00010000
00001000
00010000
00000000
00001000
00010000
00100000
10000000
,
00010000
00000000
00000000
00100000
00000000
00000000
01000000
00000000
00000000
00000000
00000000
00000000
00020000
00000000
00000000
00000000
00000000
00000000
00031000
00000000
00010000
00000000
00001000
00000000
,
00010000
00000000
00000110
00000000
00001000
00000001
00000010
00000000
,
00000100
00010000
00001000
00000000
01001000
00000000
00010100
00000000
,
00001000
00001000
00010000
00010000
00001000
00010000
00100000
10000000
,
00010000
00000000
00000000
00000000
00000000
00000000
00000000
00000000
00100000
00000000
00000000
00000000
00000000
00000000
00000000
00000000
02200000
03300000
00000000
00000000
00000000
00000000
00000000
00000000
00000000
00000000
00000000
00000000
00000000
00000000
00000000
00000000
10000000
00000000
00000000
00000000
00000000
00000000
00000000
00000000
00010000
00000000
00000000
00000000
00000000
00000000
00000000
00000000
01000000
00000000
00000000
00000000
00000000
00000000
00000000
00000000
00001000
00000000
00000000
00000000
00000000
00000000
00000000
00000000
,
00011000
00000000
00002000
00000000
00013000
00001000
00000100
00000000
,
00000001
00000000
00000000
00000000
00000000
00000000
00000000
00000000
00000010
00000000
00000000
00000000
00000000
00000000
00000000
00000000
00000220
00000330
00000000
00000000
00000000
00000000
00000000
00000000
00000000
00000000
00000000
00000000
00000000
00000000
00000000
00000000
00020200
00000000
00000000
00000000
00000000
00000000
00000000
00000000
00000000
00000000
00000000
00000000
00000000
00000000
00000000
00000000
00000000
00000000
00000000
00000000
00000000
00000000
00000000
00000000
00030300
00000000
00000000
00000000
00000000
00000000
00000000
00000000
,
00022000
00000000
00000000
00000000
,
00000000
00000000
00000000
00000000
,
00033000
00000000
00000000
00000000
;

//--------------- dance-double - Fred-104 ----------------
#NOTES:
     dance-double:
     Fred-104:
     Hard:
     16:
     :
00000000
00000000
00000000
00000000
,
00000000
00000000
00000000
00000000
,
00000000
00000000
00000000
00000000
,
00000000
00000000
00000000
00000000
,
00000000
00000000
00000000
00000000
,
00000000
00000000
00000000
00000000
,
00010000
00000000
00000010
00001000
00000010
00000000
00010000
00001000
00010000
00000000
00001000
00000010
00001000
00000000
00010000
00000000
,
00001000
00000000
00100000
00010000
00100000
00000000
00001000
00010000
00001000
00000000
00010000
00100000
00010000
00000000
00001000
00000000
,
00010000
00000010
00001000
00000000
00000010
00010000
00001000
00000000
00100000
00010000
10000000
00000000
00100000
10000000
01000000
00000000
,
00200000
00000000
00000000
00000000
00000000
00000000
00000000
00000000
00302000
00000000
00000000
00000000
00000000
00000000
00000000
00000000
00003020
00000000
00000000
00000000
00000130
00000000
00000000
00000000
00000220
00000330
00000000
00000000
00000000
00000000
00000000
00000000
00000001
00000000
00000000
00000000
00000100
00000000
00000000
00000000
00000000
00000000
00000000
00000000
00000010
00000000
00000000
00000000
00001000
00000000
00000000
00000000
00000000
00000000
00000000
00000000
00000001
00000000
00000000
00000000
00000010
00000000
00000000
00000000
,
00000000
00000100
00000000
00010000
00001000
00000000
00010000
00100000
00000000
01000000
00000000
00100000
10000000
00000000
01000000
00100000
,
00000000
00001000
00000000
00010000
00000010
00001000
00000010
00000000
00010000
00001000
00000100
00000000
00000010
00000100
00000001
00000000
,
00001000
00000100
00001000
00000100
00000010
00000000
00000001
00000000
00000100
00001000
00000100
00001000
00010000
00000000
00100000
00000000
,
01000000
00010000
01000000
00010000
10000000
00000000
10000000
00000000
01000000
00100000
00000000
00001000
00010000
00000010
00001000
00000000
,
00000100
00000000
00000000
00000000
00000000
00000000
00000000
00000000
00000100
00000000
00000000
00000000
00000000
00000000
00000000
00000000
00000220
00000330
00000000
00000000
00000000
00000000
00000000
00000000
00000000
00000000
00000000
00000000
00000000
00000000
00000000
00000000
00000001
00000000
00000000
00000000
00000100
00000000
00000000
00000000
00000000
00000000
00000000
00000000
00000010
00000000
00000000
00000000
00000100
00000000
00000000
00000000
00001000
00000000
00000000
00000000
00010000
00000000
00000000
00000000
00000000
00000000
00000000
00000000
,
00001000
00000000
00000000
00000000
00000000
00000000
00000000
00000000
00000000
00000000
00000000
00000000
00000000
00000000
00000000
00000000
01000000
00000000
00000000
00000000
00000000
00000000
00000000
00000000
00000000
00000000
00000000
00000000
00000000
00000000
00000000
00000000
00001000
00000000
00000000
00000000
00000000
00000000
00000000
00000000
00000000
00000000
00000000
00000000
00000000
00000000
00000000
00000000
00020000
00000000
00000000
00030000
00000000
00000000
00000000
00000000
00000000
00000000
00000000
00000000
00000000
00000000
00000000
00000000
00000200
00000000
00000000
00000300
00000000
00000000
00000000
00000000
00000000
00000000
00000000
00000000
00000000
00000000
00000000
00000000
00020000
00000000
00000000
00030000
00000000
00000000
00000000
00000000
00000000
00000000
00000000
00000000
00000000
00000000
00000000
00000000
00001000
00000000
00000000
00000000
00000000
00000000
00000000
00000000
00000000
00000000
00000000
00000000
00010000
00000000
00000000
00000000
00000000
00000000
00000000
00000000
00000000
00000000
00000000
00000000
00001000
00000000
00000000
00000000
00000000
00000000
00000000
00000000
00000000
00000000
00000000
00000000
00010000
00000000
00000000
00000000
00000000
00000000
00000000
00000000
00000000
00000000
00000000
00000000
02000000
00000000
00000000
00000000
00000000
00000000
00000000
00000000
00000000
00000000
00000000
00000000
00000000
00000000
00000000
00000000
00000000
00000000
00000000
00000000
00000000
00000000
00000000
00000000
03200000
00000000
00000000
00000000
00000000
00000000
00000000
00000000
00000000
00000000
00000000
00000000
00000000
00000000
00000000
00000000
00000000
00000000
00000000
00000000
00000000
00000000
00000000
00000000
,
00310000
00000000
00000000
00000000
10000000
00000000
00000000
00000000
00100000
00000000
00000000
00000000
01000000
00000000
00000000
00000000
00020000
00030000
00000000
00000000
00000000
00000000
00000000
00000000
00000000
00000000
00000000
00000000
00000000
00000000
00000000
00000000
11000000
00000000
00000000
00000000
00000000
00000000
01010000
00000000
00000000
00000000
00000000
00000000
00011000
00000000
00000000
00000000
00000000
00000000
00001010
00000000
00000000
00000000
00000000
00000000
00000011
00000000
00000000
00000000
00001000
00000000
00000001
00000000
,
00000020
00000000
00000001
00001030
00000020
00000000
00001000
00000031
00000020
00000000
00000130
00000000
00020000
00000000
00001000
00130000
,
00020000
00000000
00000000
00000000
00000000
00000000
00100000
00000000
00000000
00031000
00000000
00000000
00020000
00000000
00000000
00000000
00000000
00000000
00001000
00000000
00000000
00130000
00000000
00000000
00020000
00000000
00000000
00000000
00000000
00000000
20030000
00000000
00000000
00000000
00000000
00000000
30010000
00000000
01000000
00000000
00010000
00000000
01000000
00000000
00000000
00000000
00000000
00000000
,
00010000
00000000
00100000
01000000
00010000
00000000
00001000
00000000
00010000
00001000
00000000
00001000
00010000
00000010
00001000
00000000
,
00000100
00000010
00000001
00001000
00000020
00000000
00000230
00000000
00000301
00000000
00001000
00000001
00001000
00000010
00010000
00001000
,
00200000
00000000
00010000
01300000
00200000
00000000
10000000
01300000
00200000
00000000
00301000
00000000
00010000
00000000
00000010
00001000
,
00000200
00000000
00000000
00000000
00000000
00000000
00000010
00000000
00000000
00000301
00000000
00000000
00000200
00000000
00000000
00000000
00000000
00000000
00000010
00000000
00000000
00001300
00000000
00000000
00000200
00000000
00000000
00000000
00000000
00000000
00010300
00000000
00000000
00000000
00000000
00000000
00001000
00000000
01000000
00000000
00001000
00000000
01000000
00000000
00000000
00000000
00000000
00000000
,
01100000
00000000
00000000
00010000
00000000
10000000
01000000
00100000
00001000
00000000
00000000
00010000
00000000
00001000
00000100
00000000
,
00000001
00000000
00000010
00000100
00000000
00001000
00000100
00010000
00001000
01000000
00001000
01000000
00002000
00000000
00023000
00000000
,
00031000
00000000
00010000
00000000
00100000
00000000
10000000
00000000
10020000
00000000
20030000
00000000
32000000
00000000
03200000
00000000
00301000
00010000
00001000
00010000
00001000
00000000
00010000
00000100
00010000
00000000
00000100
00001000
00000100
00000010
00000001
00000000
,
00002000
00000000
00003200
00000000
00000302
00000000
00000000
00000103
00000020
00000000
00000032
00000000
00000203
00000000
00002300
00000000
00013000
00001000
00010000
00000000
01000000
00100000
01000000
00100000
01000000
00000000
00000000
00100000
00000000
00000000
00010000
00000000
,
20000000
30000000
00200000
00300000
20000000
30000000
00200000
00300000
01000000
00000000
00000000
00000000
00010000
00000000
00000000
00000000
10010000
00000000
00000000
00000000
10000000
00000000
00000000
00000000
02000000
00000000
00000000
00000000
00000000
00000000
00000000
00000000
03010000
00000000
00001000
00000000
00010000
00000000
00001000
00000000
00000100
00000000
00000010
00000000
00000100
00000000
00000010
00000000
00000100
00000000
00000000
00000000
00000001
00000000
00001000
00000000
00000100
00000000
00010000
00000000
00000000
00000000
00000000
00000000
,
00011000
00000000
00000000
00010000
00001000
00000000
00000100
00000001
00000000
00001000
00000100
00000000
00000010
00000000
00000001
00000000
,
00002002
00000000
00003003
00000000
,
00000002
00000000
00000000
00000000
00000000
00000000
00000000
00000000
00000000
00000000
00000000
00000000
00000103
00000000
00001000
00010000
,
00002000
00000000
00000000
00000000
00000000
00000000
00000000
00000000
01003000
00100000
01000000
00100000
02000000
00000000
00000000
00000000
,
03020000
20030000
30200000
00320000
,
00032000
00000000
00023000
00031000
,
00021000
00000000
00000000
00000000
00000000
00000000
00000000
00000000
00000000
00000000
00000000
00000000
00031000
00010000
00000010
00001000
,
00000200
00000000
00000000
00000000
00000000
00000000
00000000
00000310
,
00000002
00000203
00002300
00023000
,
00031000
00010000
00100000
10000000
01000000
00010000
00001000
00010000
,
00022000
00000000
00000000
00000000
,
00033000
00000000
00000000
00000000
00000000
00000000
00000000
00000000
00000000
00000000
00000000
00000000
00010000
00001000
00010000
00001000
,
00010000
00000000
00100000
00000000
01000000
00010000
10000000
00000000
01000000
00100000
00010000
00100000
00001000
00000000
00010000
00000000
,
00000020
00000000
00001000
00000031
00000020
00000000
00000001
00001030
00000020
00000000
00001000
00000031
00000020
00000000
00000230
00000000
,
00010300
00000000
00001000
00000000
00000100
00000001
00000010
00000000
00000100
00000000
00000010
00000001
00000100
00000000
00000010
00000000
,
00001000
00000000
00000000
00000010
00000000
00000000
00000100
00000000
00000000
00001000
00000000
00000000
00010000
00000000
00000000
00000000
00000000
00000000
00100000
00000000
00000000
10000000
00000000
00000000
00010000
00000000
00000000
00000000
00000000
00000000
00100000
00000000
00000000
00000000
00000000
00000000
01000000
00000000
10000000
00000000
01000000
00000000
10000000
00000000
00000000
00000000
00000000
00000000
,
00020000
00000000
01000000
00000000
01030000
00000000
00100000
10000000
02000000
00000000
00100000
00000000
03100000
00000000
00001000
00010000
,
00000010
00000000
00001000
00000100
00000002
00000000
00000203
00000000
00000320
00000000
00000031
00000100
00000020
00000000
00000032
00000000
,
00000023
00000000
00001030
00000001
00000010
00000100
00010000
00000000
00001000
01000000
00010000
00000000
00100000
01000000
10000000
00000000
,
11000000
00000000
00000000
01000000
00010000
00000000
00000000
00001000
00000010
00000000
00000001
00000010
00000100
00000000
00010000
00000000
,
00022000
00000000
00000000
00000000
00000000
00000000
00000000
00000000
00000000
00000000
00000000
00000000
00033000
00000000
00000000
00000000
00010010
00000000
00000000
00101000
00000000
00000000
00010100
00000000
00000000
01001000
00000000
00000000
00001000
00010000
00001000
00000000
,
00010000
00000000
00001000
00000100
00000010
00000100
00000010
00000000
00001000
00000100
00000010
00000001
00001000
00000000
00000010
00010000
,
00001000
00100000
00001000
01000000
00010000
00100000
01000000
10000000
00200000
00000000
00320000
00000000
00031000
00010000
00000100
00010000
,
00001000
00000000
00010000
00000100
00001000
00000000
00000100
00010000
00001000
00000000
00010000
00001000
00000100
00000001
00001000
00000100
,
00000010
00000001
00000010
00000001
00000100
00000000
00001000
00000000
00010000
00000000
00100000
00000000
01000000
00010000
10000000
00000000
,
10100000
00000000
00000000
00110000
00000000
00000000
00011000
00000000
00001100
00000000
00000000
00000101
00000000
00000000
00000110
00000000
,
00002002
00000000
00000000
00000000
00000000
00000000
00003003
00000000
00000001
00000100
00000000
00000010
00001000
00000000
00000001
00000100
,
00000010
00000100
00001000
00010000
00002000
00000000
00000000
00000000
01003000
00010000
10000000
00010000
00100000
01000000
10000000
00010000
,
02000000
00000000
00000000
00000000
03200000
00000000
00000000
00000000
00310000
00001000
00010000
00001000
00000010
00000100
00000010
00000100
,
00000010
00000001
00000010
00000001
00002000
00000000
00003020
00000000
00000130
00000000
00000001
00000010
00000100
00000000
00010000
00001000
,
01000000
00001000
00010000
00001000
00200000
00000000
00000000
00000000
00320000
20030000
30020000
20030000
30010000
00000000
10000000
01000000
,
00200000
00000000
00301000
00100000
02000000
00000000
13000000
00010000
02000000
00000000
23000000
00000000
31000000
00010000
10000000
02000000
,
00000000
03100000
00001000
00010000
00000010
00001000
00000002
00000000
00000013
00000001
00001000
00000000
00000010
00001000
00000001
00000000
,
00000100
00000001
00001000
00000001
00000010
00000100
00001000
00000100
00010000
00000000
00001000
00100000
00010000
00000000
01000000
00010000
,
00100000
01000000
00100000
00010000
10000000
00100000
01000000
00000000
00010000
01000000
00000000
10000000
01000000
00000000
00010000
00100000
,
00000000
00000000
00000000
01000000
00000000
00000000
00000000
00000000
00000000
00100000
00000000
00000000
00001000
00000000
00000000
00010000
00000000
00000000
00000010
00000000
00000000
00000000
00000000
00000000
00010000
00000000
00000000
00001000
00000000
00000000
00010000
00000000
00000000
00001000
00000000
00000000
00010000
00000000
00000000
00000000
00001000
00000000
00000000
00000000
00000010
00000000
00000000
00000000
,
00000100
00000000
00001000
00000001
00000010
00000100
00000000
00000100
00010000
00000000
00001000
00000000
00011000
00000000
00001000
00100000
,
00010000
00000000
10000000
00100000
01000000
00000000
00010000
00000000
01010000
00000000
00000000
10000000
11000000
00000000
00000000
00010000
,
10000000
01000000
00100000
00010000
00200000
00000000
00302000
00000000
00013000
00001000
00000000
01000000
00010000
10000000
01000000
00000000
,
00100000
00000000
00000000
00000000
00000000
00000000
00000000
00000000
00001000
00000000
00000000
00000000
00000000
00000000
00000000
00000000
00022000
00033000
00000000
00000000
00000000
00000000
00000000
00000000
00000000
00000000
00000000
00000000
00000000
00000000
00000000
00000000
00010000
00000000
00000000
00000000
00001000
00000000
00000000
00000000
00000000
00000000
00000000
00000000
00000100
00000000
00000000
00000000
00000010
00000000
00000000
00000000
00000100
00000000
00000000
00000000
00001000
00000000
00000000
00000000
00000000
00000000
00000000
00000000
,
00010000
00000000
00000000
00000000
00000000
00000000
00000000
00000000
00000000
00000000
00000000
00000000
00000000
00000000
00000000
00000000
00001000
00000000
00000000
00000000
00000000
00000000
00000000
00000000
00000000
00000000
00000000
00000000
00000000
00000000
00000000
00000000
00100000
00000000
00000000
00000000
00000000
00000000
00000000
00000000
00000000
00000000
00000000
00000000
00000000
00000000
00000000
00000000
00020000
00000000
00000000
00030000
00000000
00000000
00000000
00000000
00000000
00000000
00000000
00000000
00000000
00000000
00000000
00000000
02000000
00000000
00000000
03000000
00000000
00000000
00000000
00000000
00000000
00000000
00000000
00000000
00000000
00000000
00000000
00000000
00200000
00000000
00000000
00300000
00000000
00000000
00000000
00000000
00000000
00000000
00000000
00000000
00000000
00000000
00000000
00000000
10000000
00000000
00000000
00000000
00000000
00000000
00000000
00000000
00000000
00000000
00000000
00000000
01000000
00000000
00000000
00000000
00000000
00000000
00000000
00000000
00000000
00000000
00000000
00000000
00100000
00000000
00000000
00000000
00000000
00000000
00000000
00000000
00000000
00000000
00000000
00000000
01000000
00000000
00000000
00000000
00000000
00000000
00000000
00000000
00000000
00000000
00000000
00000000
00020000
00000000
00000000
00000000
00000000
00000000
00000000
00000000
00000000
00000000
00000000
00000000
00000000
00000000
00000000
00000000
00000000
00000000
00000000
00000000
00000000
00000000
00000000
00000000
00032000
00000000
00000000
00000000
00000000
00000000
00000000
00000000
00000000
00000000
00000000
00000000
00000000
00000000
00000000
00000000
00000000
00000000
00000000
00000000
00000000
00000000
00000000
00000000
,
00003010
00000000
00000000
00000000
00000100
00000000
00000000
00000000
00000010
00000000
00000000
00000000
00000001
00000000
00000000
00000000
00002000
00003000
00000000
00000000
00000000
00000000
00000000
00000000
00000000
00000000
00000000
00000000
00000000
00000000
00000000
00000000
00000011
00000000
00000000
00000000
00000000
00000000
00001010
00000000
00000000
00000000
00000000
00000000
00011000
00000000
00000000
00000000
00000000
00000000
01010000
00000000
00000000
00000000
00000000
00000000
11000000
00000000
00000000
00000000
01100000
00000000
00000000
00000000
,
20020000
00000000
00000000
00000000
,
00000000
00000000
00000000
00000000
,
30030000
00000000
00000000
00000000
;

//--------------- dance-double - Fred-104† ----------------
#NOTES:
     dance-double:
     Fred-104†:
     Challenge:
     18:
     :
00000000
00000000
00000000
00000000
,
00000000
00000000
00000000
00000000
,
00000000
00000000
00000000
00000000
,
00000000
00000000
00000000
00000000
,
00000000
00000000
00000000
00000000
,
00000000
00000000
00000000
00000000
,
00010000
00000000
00001000
00010000
00000010
00000000
00001000
00000001
00000010
00000100
00001000
00000100
00010000
00001000
00010000
00000000
,
00001000
00000000
00100000
00001000
00010000
00000100
00001000
00000001
00001000
00000100
00000010
00000001
00001000
00000010
00010000
00000000
,
00001000
01000000
00010000
10000000
00010000
00100000
00001000
00010000
00001000
00010000
00000010
00001000
00000100
00000010
00000001
00000000
,
00000200
00000000
00000000
00000000
00000000
00000000
00000000
00000000
00002300
00000000
00000000
00000000
00000000
00000000
00000000
00000000
00023000
00000000
00000000
00000000
00031000
00000000
00000000
00000000
00022000
00033000
00000000
00000000
00000000
00000000
00000000
00000000
00001000
00000000
00000000
00000000
00010000
00000000
00000000
00000000
00000000
00000000
00000000
00000000
00100000
00000000
00000000
00000000
01000000
00000000
00000000
00000000
00000000
00000000
00000000
00000000
00010000
00000000
00000000
00000000
00100000
00000000
00000000
00000000
,
00000000
01000000
10000000
00100000
10000000
01000000
00100000
00001000
00000000
00010000
00001000
00000100
00000010
00001000
00000001
00000010
,
00000000
00000100
00001000
00000100
00010000
00001000
01000000
00001000
00010000
00001000
00000010
00000001
00000010
00000200
00001000
00000000
,
00010300
00001000
01000000
00010000
10000000
02000000
00100000
00000000
13000000
00000000
00100000
01000000
10000000
01000000
00100000
10000000
,
00010000
00000000
00000000
10000000
00000000
00000000
01000000
00000000
00100000
00000000
00010000
00000000
00200000
00000000
00000000
00000000
00000000
00000000
00302000
00000000
00000000
00000000
00000000
00000000
00013000
00000000
00000000
00000010
00000000
00000000
00001000
00000000
00000000
00000001
00000000
00000000
00001000
00000000
00000000
00000100
00000000
00000000
00010000
00000000
00000000
00001000
00000000
00000000
,
00010000
00000000
00000000
00000000
00000000
00000000
00000000
00000000
00001000
00000000
00000000
00000000
00000000
00000000
00000000
00000000
00022000
00033000
00000000
00000000
00000000
00000000
00000000
00000000
00000000
00000000
00000000
00000000
00000000
00000000
00000000
00000000
00010000
00000000
00000000
00000000
00001000
00000000
00000000
00000000
00000010
00000000
00000000
00000000
00000001
00000000
00000000
00000000
00001000
00000000
00000000
00000000
00000100
00000000
00000000
00000000
00000010
00000000
00000000
00000000
00000000
00000000
00000000
00000000
,
00000001
00000000
00000000
00000000
00000000
00000000
00000000
00000000
00000000
00000000
00000000
00000000
00000000
00000000
00000000
00000000
00000010
00000000
00000000
00000000
00000000
00000000
00000000
00000000
00000000
00000000
00000000
00000000
00000000
00000000
00000000
00000000
00000100
00000000
00000000
00000000
00000000
00000000
00000000
00000000
00000000
00000000
00000000
00000000
00000000
00000000
00000000
00000000
00002000
00000000
00000000
00003000
00000000
00000000
00000000
00000000
00000000
00000000
00000000
00000000
00000000
00000000
00000000
00000000
00002000
00000000
00000000
00003000
00000000
00000000
00000000
00000000
00000000
00000000
00000000
00000000
00000000
00000000
00000000
00000000
00002000
00000000
00000000
00003000
00000000
00000000
00000000
00000000
00000000
00000000
00000000
00000000
00000000
00000000
00000000
00000000
00000001
00000000
00000000
00000000
00000000
00000000
00000000
00000000
00000000
00000000
00000000
00000000
00000100
00000000
00000000
00000000
00000000
00000000
00000000
00000000
00000000
00000000
00000000
00000000
00001000
00000000
00000000
00000000
00000000
00000000
00000000
00000000
00000000
00000000
00000000
00000000
00010000
00000000
00000000
00000000
00000000
00000000
00000000
00000000
00000000
00000000
00000000
00000000
00200000
00000000
00000000
00000000
00000000
00000000
00000000
00000000
00000000
00000000
00000000
00000000
00000000
00000000
00000000
00000000
00000000
00000000
00000000
00000000
00000000
00000000
00000000
00000000
20300000
00000000
00000000
00000000
00000000
00000000
00000000
00000000
00000000
00000000
00000000
00000000
00000000
00000000
00000000
00000000
00000000
00000000
00000000
00000000
00000000
00000000
00000000
00000000
,
31000000
00000000
00000000
00000000
00000000
00000000
00000000
00000000
00000000
00000000
00000000
00000000
00010000
00000000
00000000
00000000
00000000
00000000
00000000
00000000
00000000
00000000
00000000
00000000
00001000
00000000
00000000
00000000
00000000
00000000
00000000
00000000
00000000
00000000
00000000
00000000
00000010
00000000
00000000
00000000
00000000
00000000
00000000
00000000
00000000
00000000
00000000
00000000
00000002
00000000
00000000
00000003
00000000
00000000
00000000
00000000
00000000
00000000
00000000
00000000
00000000
00000000
00000000
00000000
00000000
00000000
00000000
00000000
00000000
00000000
00000000
00000000
00000000
00000000
00000000
00000000
00000000
00000000
00000000
00000000
00000000
00000000
00000000
00000000
00000000
00000000
00000000
00000000
00000000
00000000
00000000
00000000
00000000
00000000
00000000
00000000
00000101
00000000
00000000
00000000
00000000
00000000
00000000
00000000
00000000
00000000
00000000
00000000
00000000
00000000
00000000
00000000
00000000
00000000
00001100
00000000
00000000
00000000
00000000
00000000
00000000
00000000
00000000
00000000
00000000
00000000
00010000
00000000
00000000
00000000
00000000
00000000
00001000
00000000
00000000
00000000
00010000
00000000
00000000
00000000
00000100
00000000
00000000
00000000
00010000
00000000
00000000
00000000
00000000
00000000
00000000
00000000
00010000
00000000
00000000
00000000
00000000
00000000
00000000
00000000
00010000
00000000
00000000
00000000
00000000
00000000
00000000
00000000
00011000
00000000
00000000
00000000
00000000
00000000
00000000
00000000
00000000
00000000
00000000
00000000
00001000
00000000
00000000
00000000
00010000
00000000
00000000
00000000
00001000
00000000
00000000
00000000
,
00020000
00000000
00000000
00031000
00100000
00001000
00200000
00000000
00000000
00310000
10000000
00010000
20000000
00000000
00000000
32000000
00000000
00000000
03200000
00000000
00000000
00301000
00010000
00001000
,
00020000
00000000
00000000
00030010
00001000
00000010
00002000
00000000
00000000
00003001
00000010
00000001
00000020
00000000
00000000
00000230
00000000
00000000
00010300
00001000
00010000
00002000
00000000
00000000
,
00013000
00001000
00000100
00001000
00010000
00001000
00000020
00000000
00000031
00001000
00000010
00000100
00001000
00010000
00002000
00000000
,
00013000
00000000
00001000
00100000
00010000
00000000
10000000
00010000
01010000
00000000
00000000
10010000
00000000
00010000
10000000
01000000
,
00200000
00000000
00000000
00301000
00010000
00001000
00020000
00000000
00000000
00030010
00001000
00000010
00002000
00000000
00000000
00003020
00000000
00000000
00020030
00000000
00000000
00031000
00100000
00001000
,
00200000
00000000
00000000
00301000
00010000
00001000
00020000
00000000
00000000
01030000
00100000
01000000
00200000
00000000
00000000
00320000
00000000
00000000
10030000
00100000
10000000
00100000
00000000
00000000
,
01100000
00000000
00010000
10000000
00000000
00010000
01000000
00001000
00010000
00000000
00000100
00001000
00000001
00000100
00000010
00000000
,
00001000
00000000
00000000
00000000
00000000
00000000
00000001
00000000
00000000
00000010
00000000
00000000
00000000
00000000
00000000
00000100
00000000
00000000
00001000
00000000
00000000
00000001
00000000
00000000
00000100
00000000
00000010
00000000
00001000
00000000
00000010
00000000
00000000
00000100
00000000
00000000
00000002
00000000
00000000
00000000
00000000
00000000
00000013
00000000
00000000
00000000
00000000
00000000
,
00000110
00000000
00000000
00000000
00000000
00000000
00000100
00000000
00000000
00001000
00000000
00000000
00000000
00000000
00000000
00000001
00000000
00000000
00001000
00000000
00000000
00000000
00000000
00000000
00000200
00000000
00000000
00000000
00000000
00000000
00000320
00000000
00000000
00000000
00000000
00000000
00002030
00000000
00000000
00000000
00000000
00000000
00203000
00000000
00000000
00000000
00000000
00000000
01300000
00000000
00000000
10000000
00000000
00000000
01000000
00000000
00000000
10000000
00000000
00000000
00020000
00000000
00000000
00000000
00000000
00000000
01030000
00000000
00010000
00000000
01000000
00000000
00020000
00000000
00000000
00000000
00000000
00000000
10030000
00000000
00000000
01000000
00000000
00000000
00100000
00000000
00000000
00010000
00000000
00000000
00100000
00000000
00000000
00001000
00000000
00000000
,
00010000
00000010
00000000
00000010
00002000
00000000
00003100
00000010
00000001
00001000
00000010
00001000
00000020
00000000
00000230
00000000
00000301
00000010
00000001
00000010
00000100
00001000
00000100
00010000
00001000
00000000
00010000
00001000
00000000
00000100
00000001
00000000
,
00000020
00000000
00000000
00000030
00000000
00000000
00000200
00000000
00000000
00000300
00000000
00000000
00000020
00000000
00000000
00000030
00000000
00000000
00000200
00000000
00000000
00000300
00000000
00000000
00001000
00000000
00000000
00000000
00000000
00000000
00000000
00000000
00000000
00000000
00000000
00000000
00000100
00000000
00000000
00000000
00000000
00000000
00000000
00000000
00000000
00000000
00000000
00000000
00010100
00000000
00000000
00000000
00000000
00000000
00000000
00000000
00000000
00000000
00000000
00000000
00010000
00000000
00000000
00000000
00000000
00000000
00001000
00000000
00000000
00000000
00000000
00000000
02000000
00000000
00000000
03000000
00000000
00000000
00000000
00000000
00000000
00000000
00000000
00000000
02000000
00000000
00000000
03000000
00000000
00000000
00000000
00000000
00000000
00000000
00000000
00000000
10000000
00000000
00000000
00000000
00000000
00000000
01000000
00000000
00000000
00000000
00000000
00000000
10000000
00000000
00000000
00000000
00000000
00000000
00010000
00000000
00000000
00000000
00000000
00000000
01000000
00000000
00000000
00000000
00000000
00000000
00001000
00000000
00000000
00000000
00000000
00000000
00010000
00000000
00000000
00000000
00000100
00000000
00000000
00000000
00010000
00000000
00000000
00000000
00000200
00000000
00000000
00000000
00000000
00000000
00000000
00000000
00000000
00000000
00000000
00000000
00001300
00000000
00000000
00000000
00000000
00000000
00000100
00000000
00000000
00000000
00000000
00000000
00000010
00000000
00000000
00000000
00000000
00000000
00000001
00000000
00000000
00000000
00000000
00000000
00000100
00000000
00000000
00000000
00000000
00000000
00000010
00000000
00000000
00000000
00000000
00000000
,
00001000
00000000
00000000
00000000
00000101
00000000
00000001
00001000
00000000
00000010
00010000
00000000
00001000
00010000
00100000
10000000
,
20020000
00000000
00000000
00000000
00000000
00000000
00000000
00000000
00000000
30030000
00000000
00000000
01000000
00000000
00100000
00000000
01000000
00000000
10010000
00000000
00000000
00000000
00000000
00000000
,
10020000
00000000
00000000
00000000
00000000
00000000
00000000
00000000
00000000
00000000
00000000
00000000
10030000
00000000
01000000
00100000
,
00001000
00010000
00001000
00010000
00001000
00000010
00001000
00000010
00001000
00010000
00001000
00010000
00002000
00000000
02003000
00000000
,
03002000
00010000
00000100
00013000
,
00002000
00000000
00013000
00001000
00000100
00000010
00000100
00000001
00001000
00000100
00000020
00000000
00000032
00000000
00000000
00000000
,
00002003
00000000
00000000
00000000
00000000
00000000
00000010
00000000
00003010
00000000
00000000
00000000
00010000
00000000
00001000
01000000
,
00010000
10000000
00010000
10000000
00010000
00100000
00001000
00010000
00000010
00001000
00000010
00001000
00000002
00000000
00002003
00000000
,
00003200
00000001
00000010
00001300
,
00000001
00000000
00000000
00001000
00000000
00000000
00000010
00000000
00000000
00010000
00000000
00000000
00001000
00000000
00000000
00100000
00000000
00000000
00010000
00000000
00000000
10000000
00000000
00000000
00010000
00000000
00100000
00000000
01000000
00000000
10000000
00000000
00000000
00010000
00000000
00000000
01000000
00000000
00001000
00000000
00010000
00000000
00000100
00000000
00000000
00010000
00000000
00000000
,
00002000
00000000
00000000
00000000
,
00003000
00000000
00000000
00000000
00000000
00000000
00000000
00000000
00010000
00000000
00001000
00000000
00000200
00000302
00000203
00000302
,
00000023
00000000
00000000
00000000
00000000
00000000
00000130
00000000
00000000
00000001
00000000
00000000
00000100
00000000
00000000
00000010
00000000
00000000
00000002
00000000
00000000
00000000
00000000
00000000
00001003
00000000
00000000
00000010
00000000
00000000
00010000
00000000
00001000
00000000
00010000
00000000
00002000
00000000
00000000
00000000
00000000
00000000
02003000
00000000
00000000
00000000
00000000
00000000
,
03010000
10000000
01000000
00100000
00020000
00000000
00130000
01000000
00020000
00000000
00031000
00000100
00000002
00000000
00000023
00000000
,
00000230
00000000
00000000
00000000
00000000
00000000
00000301
00000000
00000000
00000100
00000000
00000000
00001000
00000000
00000000
00000001
00000000
00000000
00000200
00000000
00000000
00000000
00000000
00000000
00000310
00000000
00000000
00001000
00000000
00000000
00000001
00000000
00000010
00000000
00000100
00000000
00002000
00000000
00000000
00000000
00000000
00000000
00003200
00000000
00000000
00000000
00000000
00000000
,
00010300
00000000
00000000
00001000
00000000
00000000
00010000
00000000
00000000
00000000
00000000
00000000
00001000
00000000
00000000
00000000
00000000
00000000
01000000
00000000
00000000
00000000
00000000
00000000
00010000
00000000
00000000
00000000
00000000
00000000
10000000
00000000
00000000
00000000
00000000
00000000
01000000
00000000
00000000
00000000
00000000
00000000
00100000
00000000
00000000
00000000
00000000
00000000
00002000
00000000
00000000
00000000
00000000
00000000
00000000
00000000
00000000
00000000
00000000
00000000
00003020
00000000
00000000
00000000
00000000
00000000
00000000
00000000
00000000
00000000
00000000
00000000
00000130
00000000
00000000
00000000
00001000
00000000
00000000
00000000
00000100
00000000
00000000
00000000
00010000
00000000
00000000
00000000
00000000
00000000
00001000
00000000
00000000
00000000
00000000
00000000
,
00020000
00000000
00000000
00000000
00000000
00000000
00001000
00000000
00000000
00000000
00000000
00000000
00001000
00000000
00000000
00000000
00000000
00000000
00031000
00000000
00000000
01000000
00000000
00000000
00020000
00000000
00000000
00000000
00000000
00000000
00100000
00000000
00000000
00000000
00000000
00000000
00100000
00000000
00000000
00000000
00000000
00000000
00130000
00000000
01000000
00000000
00100000
00000000
,
02000000
00000000
13000000
01000000
00020000
00000000
00001000
00000000
00000000
00000000
00032000
00000000
00003200
00000000
00000320
00000000
,
00002030
00000000
00000000
00000000
00000000
00000000
00003001
00000000
00001000
00000000
00000010
00000000
00001000
00000000
00000000
00000001
00000000
00000000
00001000
00000000
00000000
00000100
00000000
00000000
00010000
00000000
00000000
00001000
00000000
00000000
00100000
00000000
00000000
00010000
00000000
00000000
10000000
00000000
00000000
00010000
00000000
00000000
01000000
00000000
00000000
00001000
00000000
00000000
,
00010000
00000010
00001000
00000100
00010000
00000100
00001000
00000010
00010000
00001000
00010000
00000100
00000010
00000001
00001000
00000000
,
00002002
00000000
00000000
00000000
00000000
00000000
00000000
00000000
00000000
00000000
00000000
00000000
00003003
00000000
00000001
00000010
00000011
00000000
00000000
00010100
00000000
00000000
01001000
00000000
00000000
10100000
00000000
00000000
00010000
10000000
00010000
00000000
,
21000000
00000000
30010000
10000000
01000000
00010000
00002000
00000000
00013000
00000100
00001000
00000001
00000200
00000000
00000310
00001000
,
00000001
00000000
00000000
00000010
00000000
00000000
00000100
00000000
00000000
00000001
00000000
00000000
00001000
00000000
00000000
00000010
00000000
00000000
00000100
00000000
00000000
00001000
00000000
00000000
00000200
00000000
00000000
00000000
00000000
00000000
00000320
00000000
00000000
00000000
00000000
00000000
00000031
00000000
00000100
00000000
00000010
00000000
00001000
00000000
00000000
00000010
00000000
00000000
,
00000200
00000000
00000301
00001000
00000200
00000000
00000310
00001000
00020000
00000000
01030000
00100000
00010000
10000000
00100000
10000000
,
00010000
00000000
10000000
00000000
01000000
00000000
00100000
00000000
00000000
00001000
00000000
00000000
00020000
00000000
00000000
00000000
00000000
00000000
00032000
00000000
00000000
00000000
00000000
00000000
00003020
00000000
00000000
00000000
00000000
00000000
00000130
00000000
00000000
00001000
00000000
00000000
00000100
00000000
00000000
00010000
00000000
00000000
00001000
00000000
00000000
00000000
00000000
00000000
,
01001000
00000000
00000000
10010000
00000000
00000000
10000000
01000000
01010000
00000000
00000000
00011000
00000000
00000000
00001000
00000010
,
00000001
00000000
00000000
00001000
00000000
00000000
00000002
00000000
00000000
00000000
00000000
00000000
00000103
00000000
00000010
00000000
00000100
00000000
00000010
00000000
00000000
00001000
00000000
00000000
00000001
00000000
00000000
00000010
00000000
00000000
00000100
00000000
00000000
00010000
00000000
00000000
00001000
00000000
00000000
00100000
00000000
00000000
02000000
00000000
00000000
00000000
00000000
00000000
13000000
00000000
00000000
00000000
00000000
00000000
01000000
00000000
00000000
00000000
00000000
00000000
00000000
00000000
00000000
00000000
00000000
00000000
00010000
00000000
00000000
00000000
00000000
00000000
00001000
00000000
00000000
00000000
00000000
00000000
00000000
00000000
00000000
00000000
00000000
00000000
00010000
00000000
00000000
00000000
00000000
00000000
00100000
00000000
00000000
00000000
00000000
00000000
,
01000000
00000000
00000000
00100000
00000000
00000000
00010000
00000000
00000000
00100000
00000000
00000000
20000000
00000000
00000000
00000000
00000000
00000000
00000000
00000000
00000000
00000000
00000000
00000000
31000000
00000000
00000000
00100000
00000000
00000000
00001000
00000000
00010000
00000000
00001000
00000000
00010000
00000000
00000000
00000010
00000000
00000000
00001000
00000000
00000001
00000000
00001000
00000000
,
00000020
00000000
00000000
00000000
00000000
00000000
00002030
00000000
00000000
00000000
00000000
00000000
00003001
00000010
00000100
00001000
00000100
00010000
00001000
00100000
00010000
00100000
00001000
00010000
,
00000100
00000000
00001000
00000000
00000100
00000000
00000010
00000000
00000100
00000000
00000010
00000000
00000002
00000000
00000000
00000000
00000000
00000000
00002003
00000000
00000000
00000000
00000000
00000000
00003001
00000000
00000000
00000000
00000000
00000000
00001000
00000000
00000000
00000010
00000000
00000000
00000100
00000000
00000000
00000001
00000000
00000000
00000100
00000000
00000000
00000010
00000000
00000000
,
00001000
00000100
00000010
00001000
00020000
00000000
00000000
00000000
00032000
00023000
00032000
00023000
00031000
00100000
01000000
10000000
,
00100000
00010000
00001000
00000100
00000010
00001000
00000100
00000010
00001000
00000000
00010000
00001000
01000000
00000000
00001000
00020000
,
00000000
00030100
00001000
00000100
00000010
00000001
00000010
00000100
00001000
00000001
00000100
00000010
00000100
00001000
00010000
00100000
,
01000000
00010000
10000000
00010000
00100000
01000000
00100000
00001000
00010000
00000000
00001000
00000000
00000100
00000010
00001000
00000100
,
00000010
00000000
00000000
00000001
00000000
00000000
00001000
00000000
00000010
00000000
00001000
00000000
00000010
00000000
00000000
00010000
00000000
00000000
00001000
00000000
00000000
01000000
00000000
00000000
00001000
00000000
00000000
00010000
00000000
00000000
00000000
00000000
00000000
00100000
00000000
00000000
01000000
00000000
00000000
00000000
00000000
00000000
00100000
00000000
00000000
00010000
00000000
00000000
,
00000000
00000000
00000000
00001000
00000000
00000000
00010000
00000000
00000000
00000100
00000000
00000000
00001000
00000000
00000000
00000001
00000000
00000000
00001000
00000000
00000000
00000001
00000000
00000000
00000100
00000000
00000001
00000000
00000100
00000000
00000001
00000000
00000100
00000000
00000001
00000000
00000100
00000000
00000000
00000000
00000100
00000000
00000000
00000000
00000100
00000000
00000000
00000000
,
00000110
00000000
00000000
00000000
00000000
00000000
00000001
00000000
00001000
00000000
00000001
00000000
00001000
00000000
00000000
00000001
00000000
00000000
00000010
00000000
00000000
00000100
00000000
00000000
00010000
00000000
00000000
00001000
00000000
00000000
01000000
00000000
00000000
00001000
00000000
00000000
00010000
00000000
00000000
00001000
00000000
00000000
01000000
00000000
00000000
00000000
00000000
00000000
,
00001000
00010000
01000000
00100000
00010000
10000000
00010000
00000000
10010000
00000000
00010000
01000000
00200000
00000000
10300000
01000000
,
00100000
00000000
00000000
00001000
00000000
00000000
00010000
00000000
00000100
00000000
00010000
00000000
00000200
00000000
00000000
00000000
00000000
00000000
00002300
00000000
00000000
00000000
00000000
00000000
00003001
00000000
00000000
00000100
00000000
00000000
00000010
00000000
00000000
00000100
00000000
00000000
00001000
00000000
00000000
00010000
00000000
00000000
00100000
00000000
00000000
10000000
00000000
00000000
,
01000000
00000000
00000000
00000000
00000000
00000000
00000000
00000000
00100000
00000000
00000000
00000000
00000000
00000000
00000000
00000000
00022000
00033000
00000000
00000000
00000000
00000000
00000000
00000000
00000000
00000000
00000000
00000000
00000000
00000000
00000000
00000000
00001000
00000000
00000000
00000000
00010000
00000000
00000000
00000000
01000000
00000000
00000000
00000000
00100000
00000000
00000000
00000000
00010000
00000000
00000000
00000000
10000000
00000000
00000000
00000000
00100000
00000000
00000000
00000000
00000000
00000000
00000000
00000000
,
00010000
00000000
00000000
00000000
00000000
00000000
00000000
00000000
00000000
00000000
00000000
00000000
00000000
00000000
00000000
00000000
00000010
00000000
00000000
00000000
00000000
00000000
00000000
00000000
00000000
00000000
00000000
00000000
00000000
00000000
00000000
00000000
00010000
00000000
00000000
00000000
00000000
00000000
00000000
00000000
00000000
00000000
00000000
00000000
00000000
00000000
00000000
00000000
00002000
00000000
00000000
00003000
00000000
00000000
00000000
00000000
00000000
00000000
00000000
00000000
00000000
00000000
00000000
00000000
00002000
00000000
00000000
00003000
00000000
00000000
00000000
00000000
00000000
00000000
00000000
00000000
00000000
00000000
00000000
00000000
00002000
00000000
00000000
00003000
00000000
00000000
00000000
00000000
00000000
00000000
00000000
00000000
00000000
00000000
00000000
00000000
00010000
00000000
00000000
00000000
00000000
00000000
00000000
00000000
00000000
00000000
00000000
00000000
00001000
00000000
00000000
00000000
00000000
00000000
00000000
00000000
00000000
00000000
00000000
00000000
00000010
00000000
00000000
00000000
00000000
00000000
00000000
00000000
00000000
00000000
00000000
00000000
00000001
00000000
00000000
00000000
00000000
00000000
00000000
00000000
00000000
00000000
00000000
00000000
00000200
00000000
00000000
00000000
00000000
00000000
00000000
00000000
00000000
00000000
00000000
00000000
00000000
00000000
00000000
00000000
00000000
00000000
00000000
00000000
00000000
00000000
00000000
00000000
00002300
00000000
00000000
00000000
00000000
00000000
00000000
00000000
00000000
00000000
00000000
00000000
00000000
00000000
00000000
00000000
00000000
00000000
00000000
00000000
00000000
00000000
00000000
00000000
,
00013000
00000000
00000000
00000000
00000000
00000000
00000000
00000000
00000000
00000000
00000000
00000000
00100000
00000000
00000000
00000000
00000000
00000000
00000000
00000000
00000000
00000000
00000000
00000000
10000000
00000000
00000000
00000000
00000000
00000000
00000000
00000000
00000000
00000000
00000000
00000000
01000000
00000000
00000000
00000000
00000000
00000000
00000000
00000000
00000000
00000000
00000000
00000000
00020000
00000000
00000000
00030000
00000000
00000000
00000000
00000000
00000000
00000000
00000000
00000000
00000000
00000000
00000000
00000000
00000000
00000000
00000000
00000000
00000000
00000000
00000000
00000000
00000000
00000000
00000000
00000000
00000000
00000000
00000000
00000000
00000000
00000000
00000000
00000000
00000000
00000000
00000000
00000000
00000000
00000000
00000000
00000000
00000000
00000000
00000000
00000000
00011000
00000000
00000000
00000000
00000000
00000000
00000000
00000000
00000000
00000000
00000000
00000000
00000000
00000000
00000000
00000000
00000000
00000000
00101000
00000000
00000000
00000000
00000000
00000000
00000000
00000000
00000000
00000000
00000000
00000000
00001000
00000000
00000000
00000000
00000000
00000000
00010000
00000000
00000000
00000000
00001000
00000000
00000000
00000000
01000000
00000000
00000000
00000000
00010000
00000000
00000000
00000000
00000000
00000000
00000000
00000000
00010000
00000000
00000000
00000000
00000000
00000000
00000000
00000000
00010000
00000000
00000000
00000000
00000000
00000000
00000000
00000000
00110000
00000000
00000000
00000000
00000000
00000000
00000000
00000000
00000000
00000000
00000000
00000000
01100000
00000000
00000000
00000000
00000000
00000000
00000000
00000000
00000000
00000000
00000000
00000000
,
22000000
00000000
00000000
00000000
,
00000000
00000000
00000000
00000000
,
33000000
00000000
00000000
00000000
;
