#TITLE:AVEL;
#ARTIST:BEMANI Sound Team "Power Of Nature";
#ARTISTTRANSLIT:Power Of Nature;
#BANNER:AVEL.png;
#BACKGROUND:AVEL-bg.png;
#CDTITLE:./CDTitles/GITADORA FUZZ-UP.png;
#MUSIC:AVEL.ogg;
#SAMPLESTART:80.317;
#SAMPLELENGTH:15;
#BPMS:0=158;
#BGSTAGE:16;

//--------------- dance-single - Fred-104 ----------------
#NOTES:
     dance-single:
     Fred-104:
     Beginner:
     4:
     :
0000
0000
0000
0000
,
0000
0000
0000
0000
,
0000
0000
0000
0000
,
0000
0000
0000
0000
,
0000
0000
0000
0000
,
1000
0000
0000
0000
,
0001
0000
0000
0000
,
1000
0000
0000
0000
,
0001
0000
0000
0000
,
1000
0000
1000
0000
,
0010
0000
0010
0000
,
0001
0000
0001
0000
,
0010
0000
1000
1000
,
1000
0000
0000
0000
,
0001
0000
0001
0000
,
0010
0000
0010
0000
,
1000
0000
1000
0000
,
0100
0000
0100
0000
,
0001
0000
0001
0000
,
1000
0000
1000
0000
,
0001
0000
0001
0000
,
1000
1000
1000
1000
,
1000
0000
1000
0000
,
0100
0000
0000
0000
,
0001
0000
0001
0000
,
0100
0000
0000
0000
,
1000
0000
1000
0000
,
0001
0001
0001
0001
,
0001
0000
1000
0000
,
0001
1000
0001
0000
,
1000
0000
0100
0000
,
0010
0000
0010
0000
,
0001
0000
0001
0000
,
1000
0000
0001
0000
,
0100
0100
0010
0010
,
0100
0100
0001
0000
,
1000
0000
0001
0000
,
1000
0001
1000
0000
,
1001
0000
0000
0000
,
0000
0000
0000
0000
,
0000
0000
0000
0000
,
0000
0000
0000
0000
,
1000
1000
0100
0000
,
0001
0001
0100
0000
,
1000
0001
1000
0000
,
0001
1000
0001
0000
,
1000
1000
0010
0010
,
0100
0010
0100
0001
,
1000
1000
1000
0000
,
0001
0001
1000
1000
,
0001
0001
0001
0000
,
1000
0000
0001
0001
,
1001
0000
0000
0000
,
1000
0000
1000
0000
,
0100
0000
0100
0000
,
0010
0000
0010
0000
,
0100
0100
0001
0001
,
0100
0000
0100
0000
,
1000
0000
1000
0000
,
0001
0000
0001
0000
,
1000
1000
1000
0000
,
0002
0000
0000
0003
,
2000
0000
0000
3000
,
0002
0000
0000
0003
,
2000
0000
0000
3000
,
0020
0000
0000
0030
,
0200
0000
0000
0300
,
0020
0000
0000
0030
,
0200
0000
0000
0300
,
0001
0000
0000
0001
0000
0000
0000
0001
,
0000
0000
0000
1000
0000
1000
0000
0000
,
0002
0003
2000
3000
,
0002
0003
2000
3000
,
2002
0000
0000
0000
,
0000
0000
0000
0000
,
0000
0000
0000
0000
,
3003
0000
0000
0000
;

//--------------- dance-single - Fred-104 ----------------
#NOTES:
     dance-single:
     Fred-104:
     Easy:
     8:
     :
0000
0000
0000
0000
,
0000
0000
0000
0000
,
0000
0000
0000
0000
,
0000
0000
0000
0000
,
0000
0000
0000
0000
,
0001
0000
1000
0000
,
0001
0000
0100
0100
,
0010
0000
0100
0000
,
0001
0000
1000
1000
,
0100
0100
0010
0100
,
1000
0000
1000
0000
0001
1000
0001
0000
,
0100
0100
0010
0010
,
1000
0010
1000
0000
0001
0100
0001
0000
,
1001
0000
0000
0000
,
1000
1000
0100
0100
,
0001
0001
0100
1000
,
0001
0001
0100
0100
,
1000
0000
0100
0000
0001
1000
0001
0000
,
1000
1000
0010
0010
,
0001
0001
0010
1000
,
0001
0001
0010
1000
,
0010
0000
0001
0000
1000
0001
1000
0000
,
0001
0100
0001
0000
0010
0000
0100
0000
,
1000
0001
1000
0000
0010
0000
1000
0000
,
0001
0100
0001
0000
0010
0000
0100
0000
,
0010
0001
0010
0000
0001
0000
1000
0000
,
0001
1000
0001
0000
0100
0000
0010
0000
,
0100
0010
0100
0010
0100
0010
0100
0010
,
0100
0000
0001
0000
1000
0100
1000
0000
,
0001
1000
1001
0000
,
1000
0200
0000
0310
,
0010
0000
0001
0000
1000
1000
0001
0000
,
0100
0010
1000
0001
,
0010
0100
1000
0001
,
1000
1000
0100
0000
0010
0010
0001
0000
,
1000
0001
0100
0010
,
0100
0100
0001
0000
1000
0000
0001
0000
,
0010
0010
0100
0000
2002
0000
3003
0000
,
1001
0000
1000
0000
,
0100
0000
0001
0000
,
0001
0000
0010
0000
,
1000
0000
0001
0000
,
1000
1000
0001
0001
,
0010
0100
0010
0010
,
0001
0001
0100
0100
,
0010
1000
0001
0000
,
1000
0100
0001
0100
,
1000
0001
1000
0010
,
0100
0100
0010
0010
,
0100
0101
0010
1010
,
1000
1000
0001
0001
,
1000
0000
1000
0000
1000
0000
0100
0000
0000
0010
0000
0000
,
2002
0000
3003
0000
,
1000
1000
0100
0000
0010
0000
0001
0000
,
1000
0001
1000
0000
0001
0000
0100
0000
,
0010
0010
0100
0000
0010
0000
1000
0000
,
0001
0001
0100
0000
1000
0000
0100
0000
,
0001
1000
0001
0000
0010
0000
0100
0000
,
1000
1000
0001
0000
0100
0000
0010
0000
,
0100
0100
0001
0000
0100
0100
0010
0000
,
1000
0001
1000
0001
1000
0000
0000
0000
,
0001
0001
0010
0000
0100
0000
1000
0000
,
0001
0001
0100
0000
0010
0010
0010
0000
,
0100
0100
0001
0000
1000
0000
0100
0000
,
0010
0010
0001
0000
1000
1000
1000
0000
,
0001
0100
0001
0000
1000
1000
0001
0000
,
1000
0100
1000
0000
0001
0001
1000
0000
,
0001
0010
0100
0000
1000
1000
0001
0000
,
1000
0010
0100
0100
0001
0001
1000
0000
,
0100
0000
0000
0100
0000
0010
0000
1001
,
0000
0000
0000
1000
0000
1001
0000
0000
,
1000
1000
0100
0100
,
0001
0001
0010
1000
,
2002
0000
0000
0000
,
0000
0000
0000
0000
,
0000
0000
0000
0000
,
3003
0000
0000
0000
;

//--------------- dance-single - Fred-104 ----------------
#NOTES:
     dance-single:
     Fred-104:
     Medium:
     12:
     :
0000
0000
0000
0000
,
0000
0000
0000
0000
,
0000
0000
0000
0000
,
0000
0000
0000
0000
,
0000
0000
0000
0000
,
1000
0000
0100
0010
0100
0010
0001
0000
,
1000
0000
0001
0100
0010
1000
0001
0000
,
0010
0000
0100
1000
0001
1000
0010
0000
,
0110
0000
0100
0001
1000
0001
0100
0001
,
1000
0000
0100
0000
1000
0100
0000
0100
1000
0000
0001
0000
1000
0000
0000
0000
,
0001
0000
0100
0000
0001
0100
0000
0100
0001
0000
1000
0000
0001
0000
0000
0000
,
0100
0000
0010
0000
0100
0010
0000
0010
0100
0000
0010
0000
0100
0000
0001
0000
,
1000
0100
0010
0001
1000
0010
0100
0001
,
1001
0000
0000
0000
,
0001
0000
1000
0100
0001
0000
1000
0010
,
0001
0000
0001
0100
1000
0001
0010
1000
,
0001
0000
1000
0010
0001
0000
1000
0100
,
0001
0000
0001
0010
1000
0001
0100
0010
,
0001
0000
1000
0010
0001
0000
0001
0010
,
1000
0000
0001
0010
1000
0010
0001
0100
,
0010
0000
0010
1000
0100
0000
0100
0001
,
0100
0010
0001
0100
0010
1000
0001
0000
,
1000
0000
0100
0000
0010
0000
0001
1000
0000
0000
1000
0000
0001
0000
0100
0001
,
0000
0000
0001
0000
0010
0000
0100
0010
0000
0000
0010
0000
0001
0000
1000
0000
,
0001
0000
0100
0000
0010
0000
1000
0010
0000
0000
0010
0000
1000
0000
0001
0010
,
0000
0000
0010
0000
0100
0000
1000
0001
1000
0000
0000
0000
1001
0000
0000
0000
,
0001
0000
0100
0000
0010
0000
1000
0001
0000
0000
0001
0000
0010
0000
0100
0000
,
0000
1000
0100
0001
0100
1000
0100
0010
,
0001
0000
1000
0000
0001
0000
0100
0010
0000
0000
0010
0000
0100
0000
0001
1000
,
0000
0000
1000
0000
0100
0000
0010
0002
0000
0000
0000
0000
0003
0000
0000
0000
,
0110
0000
0000
0000
1001
0000
0000
0001
0000
0000
0100
0000
0010
0000
1000
0000
,
0001
0000
0010
0000
0100
0000
1000
0001
0000
0001
1000
0000
0010
0000
0100
0000
,
0001
0000
1000
0000
0000
0100
0000
0000
1000
0000
0000
0001
0000
0000
1000
0000
,
0010
0000
0100
0000
0001
0000
1000
0001
0000
0000
0010
0000
0110
0000
0000
0000
,
1000
0010
1000
0010
0001
0010
0001
0010
,
1000
0000
0001
0000
0010
0000
0100
0010
0000
0000
0010
0000
0001
0000
1000
0000
,
0001
0000
0100
0000
0010
0000
0100
0001
0000
0000
0001
0000
1000
0000
0001
0000
,
0010
0000
0100
0000
1000
0000
0001
2000
0000
0000
0000
0000
3000
0000
0000
0000
,
1001
0000
0001
0000
,
0010
0000
0100
0100
,
1000
0000
0001
0000
,
1000
0000
1000
0000
1000
0000
0001
0000
0001
0000
0001
0000
,
1000
0000
0000
0010
0000
1000
0001
0000
0000
0010
0000
0100
,
0010
0000
0000
0001
0000
1000
0001
0000
0100
0010
0000
1000
,
0001
0000
0000
0010
0000
0100
1000
0000
0000
0001
0000
1000
,
0010
0000
0000
0100
0000
0001
1000
0000
0001
0010
0000
0001
,
1000
0000
1000
0100
0000
0100
0010
0000
0010
0001
0000
0001
,
1000
0000
1000
0010
0000
0010
0100
0000
0100
0001
0000
1000
,
0001
0000
1000
0000
0001
0000
0000
0001
0000
1000
0000
0000
0001
0000
1000
0000
,
0001
0101
1000
1010
,
0001
0000
1000
0000
0001
0000
0000
0001
0000
1000
0000
0000
0100
0000
0010
0000
,
0001
0000
0001
0000
0001
0000
1000
0000
0000
0001
0000
0000
,
2002
0000
3003
0000
,
0001
0000
1000
0000
0001
0000
0000
0001
0000
0000
0100
0000
0010
0000
0000
0010
,
0000
0000
1000
0000
0001
0000
0000
0001
0000
0000
0010
0000
0100
0000
1000
0000
,
0001
0000
1000
0000
0010
0000
0000
0010
0000
0000
0100
0000
0001
0000
0000
0001
,
0000
0000
1000
0000
0100
0000
0000
0100
0000
0000
0010
0000
0001
0000
1000
0000
,
0010
0000
1000
0000
0001
0000
0000
0001
0000
0000
0010
0000
0100
0000
0000
0100
,
0000
0000
0010
0000
0001
0000
0000
0001
0000
0000
1000
0000
0001
0000
0100
0000
,
0010
0000
1000
0000
0100
0000
0000
0100
0000
0000
0010
0000
0001
0000
1000
0000
,
0010
0100
0110
0000
2002
0000
3003
0000
,
1000
0100
1000
0000
0100
0001
0100
0000
,
1000
0001
1000
0000
0010
0100
0001
0000
,
1000
0010
1000
0000
0010
0001
0010
0000
,
1000
0001
1000
0000
0100
0010
0001
0000
,
1000
0010
1000
0001
1000
0100
1000
1000
,
0001
0010
0001
1000
0001
0100
0001
0001
,
1000
0100
0010
0001
0010
0100
1000
1000
,
0001
0100
0010
1000
0010
0100
0002
0000
,
1003
0000
0100
0000
0010
0000
0001
0000
0000
0001
0000
0000
1000
0000
0010
0000
,
0000
0000
0100
0001
1000
1001
0000
0000
,
1000
0000
1000
0100
0000
0100
0010
0000
0010
0001
0000
0001
,
1000
0010
1000
0010
1000
0010
0100
0001
0100
0001
0100
0001
,
0200
0000
0000
0000
,
0000
0000
0000
0000
,
0000
0000
0000
0000
,
0300
0000
0000
0000
;

//--------------- dance-single - Fred-104 ----------------
#NOTES:
     dance-single:
     Fred-104:
     Hard:
     16:
     :
0000
0000
0000
0000
,
0000
0000
0000
0000
,
0000
0000
0000
0000
,
0000
0000
0000
0000
,
0000
0000
0000
0000
,
1001
0000
0000
0000
0000
0000
0000
0000
0000
0000
1000
0000
0000
0001
0000
0000
,
0100
0110
0000
0000
0000
0000
1000
0000
,
1010
0000
0000
0000
0000
0000
0011
0000
0000
0000
1100
0000
0000
0001
0000
0000
,
0110
0000
0100
0000
0010
0100
0010
0100
0010
0000
1000
0001
1000
0000
1000
0000
,
0001
0000
0100
0000
0010
1000
0000
0010
1000
0000
0001
0000
0010
0000
0100
1000
,
0001
0000
1000
0000
0010
0100
0000
0010
0100
0000
0001
1000
0100
0000
0100
0000
,
0010
0000
0001
0000
1000
0001
0000
1000
0010
0100
0010
0100
0001
1000
0100
1000
,
0001
0100
0001
0000
1000
0010
1000
0000
0001
0010
0100
1000
0001
0010
0100
0000
,
1001
0000
0000
0000
0000
0000
0000
0001
0000
0001
0000
0001
1000
0000
1000
0000
,
0002
0000
0000
0000
1003
0010
0100
0002
0000
0000
0000
0000
1003
0001
0010
0200
,
0000
0000
0000
0000
0310
0001
1000
0010
0100
0000
0100
0000
0001
1000
0001
0000
,
2000
0000
0000
0000
3001
0010
0100
2000
0000
0000
0000
0000
3001
1000
0010
0200
,
0000
0000
0000
0000
0301
1000
0001
1000
0100
0010
0100
0010
0100
1000
0001
0000
,
0200
0000
0000
0000
0310
1000
0001
0020
0000
0000
0000
0000
0130
0010
0100
2000
,
0000
0000
3001
0000
1000
0001
0010
0100
1000
0000
0001
0100
0001
0100
0010
0000
,
0200
0000
0000
0000
0301
1000
0100
0020
0000
0000
0031
0000
1000
0001
1000
0020
,
0000
0000
0130
0000
0001
1000
0000
1000
0001
0010
0001
0010
0100
1000
0100
0000
,
1000
0000
0001
0000
1000
0010
0000
0010
0100
0000
0010
1000
0001
0000
0010
0100
,
0000
0100
1000
0000
0001
0000
1000
0001
0000
0001
0100
0000
0010
0000
1000
0001
,
0010
0000
0100
0000
1000
0001
0000
0001
0100
0000
0010
0000
0100
0000
0001
1000
,
0000
1000
0100
0000
0010
0000
0001
1000
0000
1000
0010
0100
0001
0010
0100
0000
,
1000
0000
0001
0000
1000
0010
1000
0010
0000
1000
0001
0000
0010
0100
0000
0100
,
0020
0000
0000
0000
0000
0000
0000
0000
0001
0000
0000
0000
0100
0000
0000
0030
0020
0000
0000
0000
0000
0000
0000
0000
1000
0000
0000
0000
0100
0000
0000
0030
0020
0000
0000
0000
0000
0000
0000
0000
0001
0000
0000
0000
0100
0000
0000
0030
0020
0000
0000
0000
0000
0000
0000
0000
1000
0000
0000
0000
0100
0000
0000
0030
,
0010
0000
0001
0000
1000
0010
0000
0010
0100
0000
0010
1000
0001
0000
1000
0100
,
0010
0000
0000
0001
0000
0000
1000
0000
0000
0000
0000
0000
0001
0000
0000
0000
0000
0000
0100
0000
0000
0010
0000
0000
0000
0000
0000
0000
1000
0000
0000
0000
0100
0000
0000
0000
0001
0000
0000
0000
0100
0000
0000
0000
1000
0000
0000
0000
,
0001
0000
0000
1000
0010
0000
1000
0001
0000
1000
0100
0000
0010
0001
1000
0000
,
0010
1000
0010
1000
0001
0010
0001
0010
0000
0010
0100
0000
0010
0001
1000
0000
,
0001
0100
0010
0000
1000
0100
0000
0010
0001
0000
0100
0010
0000
1000
0001
0000
,
0010
0100
1000
0000
1001
0000
0001
0100
0000
0000
0110
0000
1000
0001
1000
0000
,
0001
1000
0010
1000
0001
0010
0001
1000
0100
1000
0001
0100
0001
1000
0100
0010
,
0001
1000
0001
1000
0010
0100
0010
0100
0000
0000
1001
0000
1000
0100
0010
0001
,
1000
0000
1010
0000
0010
0100
0010
0100
0000
0001
0100
0000
0010
1000
0001
0000
,
0010
0100
0010
0100
0010
0001
1000
0002
0000
0000
0000
0000
0003
0000
0000
0000
,
1001
0000
0001
0000
,
0100
0000
1000
0000
,
0010
0000
0001
0000
,
1000
0000
1000
0000
1000
0000
0001
0000
0001
0000
0001
0000
,
1001
0000
0001
1000
0010
1000
0001
0000
1000
0100
0010
0001
,
1000
0000
0001
0100
0010
1000
0010
0100
0001
1000
0100
0010
,
0001
0100
0010
1000
0001
0010
0100
0000
0100
0010
0001
1000
,
0001
0010
0001
1000
0100
1000
0001
0100
0010
1010
0000
0001
,
1000
0100
0010
0001
0100
0010
1000
0001
0010
0100
0010
0001
,
1000
0100
0010
1000
0001
0100
0010
0001
1000
0002
0000
1003
,
0001
0000
0001
0000
1000
0001
1000
0001
0000
1001
0000
0000
1000
0001
1000
0001
,
1000
0100
0010
0001
0100
0010
1000
0010
0100
0001
0010
0100
,
0010
0000
0110
0000
0100
0010
0100
0010
0000
0110
0000
0000
1000
0001
1000
0001
,
1000
0000
1000
0000
1000
0000
0001
0100
0010
1000
0010
0100
,
0002
0000
0000
0000
0000
0000
0000
0000
0003
0000
0000
0000
0000
0000
1000
0001
,
1000
0000
0001
0000
0100
0010
0000
1000
0010
0000
0100
0000
0001
1000
0000
0100
,
1000
0000
0001
0000
0100
0010
0000
1000
0010
0000
0100
0000
0010
1000
0100
0010
,
0001
0000
1000
0000
0001
0000
0100
0010
0000
0010
0001
0000
0010
0000
1000
0000
,
0200
0000
0000
0000
0000
0000
0000
0000
0010
0000
0000
0000
0001
0000
0000
0300
0200
0000
0000
0000
0000
0000
0000
0000
0010
0000
0000
0000
1000
0000
0000
0300
0100
0000
0000
0000
0000
0000
0000
0000
0100
0000
0000
0000
0000
0000
0000
0000
0010
0000
0000
0000
0000
0000
0000
0000
0010
0000
0000
0000
0000
0000
0000
0000
,
0001
1000
0001
0000
1000
0010
0000
1000
0001
0000
0010
0100
0010
0000
0001
0100
,
0000
0010
1000
0000
0001
0000
1000
0100
0000
0010
0100
0000
1000
0000
0001
1000
,
0010
0000
1000
0000
0001
0010
0000
0010
0100
1000
0001
0000
0100
0010
1000
0000
,
0001
0000
1000
0100
0001
0000
0001
0100
1000
0000
0000
0000
1001
0000
0000
0000
,
1000
0100
1000
0000
1000
0100
1000
0000
0001
0100
0010
1000
0010
0100
0001
0000
,
1000
0010
1000
0000
1000
0010
1000
0000
0001
0010
0100
1000
0100
0010
0001
0000
,
1000
0100
1000
0000
1000
0100
1000
0000
0001
0100
0010
1000
0100
0010
0001
0000
,
1000
0010
1000
0000
1000
0010
1000
0000
0001
0010
0100
1000
0010
0100
0001
0000
,
1000
0100
1000
0001
0100
0001
1000
0100
1000
0001
0100
0001
1000
0010
0100
0000
,
0001
0010
0001
1000
0010
1000
0001
0010
0001
1000
0010
1000
0001
0100
0010
0000
,
1000
0001
1000
0100
0010
0100
1000
0001
1000
0010
0100
0010
1000
0001
1000
0000
,
0001
0010
0001
0010
0100
1000
0001
0100
0010
1000
0010
0100
0001
2000
0000
0000
,
3001
0100
0001
0100
0010
1000
0002
0000
0000
1003
0001
0010
0100
1000
0002
0000
,
0000
0000
0000
0103
0010
0100
0001
1000
0100
0010
0002
0000
0000
0000
0003
0000
,
0001
0010
0100
1000
0010
0001
0010
1000
0100
0010
0001
1000
,
0001
0001
0001
1000
1000
1000
0010
0010
0010
0100
0100
0100
,
2002
0000
0000
0000
,
0000
0000
0000
0000
,
0000
0000
0000
0000
,
3003
0000
0000
0000
;

//--------------- dance-single - Fred-104† ----------------
#NOTES:
     dance-single:
     Fred-104†:
     Challenge:
     18:
     :
0000
0000
0000
0000
,
0000
0000
0000
0000
,
0000
0000
0000
0000
,
0001
0000
0010
0000
0100
0000
1000
0000
0001
1000
0010
1000
0001
1000
0100
0010
0001
0000
1000
0000
0001
0000
1000
0000
,
1001
0001
0100
1000
0100
0001
1001
0001
0010
1000
0010
0001
,
1000
0000
1000
0000
0001
0010
0001
0010
0001
0000
0010
0000
0100
1000
0100
1000
,
0100
0000
1000
0000
0001
0100
0001
0100
0010
0000
0010
0000
1000
0001
1000
0001
,
1000
0000
1000
0000
0010
0100
0010
0100
0010
0000
0100
0000
0001
1000
0001
1000
,
0100
0000
0100
0000
0010
0001
0010
0001
1000
0000
0001
0100
0010
1000
0001
1000
,
0010
0000
1000
0000
0001
0010
0100
1000
0001
1000
0010
0100
0001
1000
0100
0010
,
0100
0000
1000
0000
0001
1000
0010
0100
0010
1000
0001
1000
0100
0000
0100
0000
,
0010
0000
0001
0000
1000
0001
1000
0010
0100
0010
1000
0001
0010
0100
0010
0001
,
0100
0010
1000
0001
0100
0010
1000
0001
0010
0100
1000
0100
0010
0001
0100
0010
,
1001
0000
0000
0000
0000
0000
0000
0000
0000
0000
0000
0000
1000
0001
1000
0000
0000
0000
1000
0000
0000
0000
1000
0000
0001
0000
0000
0000
0001
0000
0000
0000
,
1000
0000
0001
0000
1000
0100
0010
0001
0000
1000
0001
0000
0100
0010
1000
0001
,
0000
0010
0100
0000
0010
0001
0100
0010
1000
0000
0010
0100
0001
1000
0100
0000
,
0010
0000
0001
0000
1000
0001
0100
0010
0000
0100
0001
0000
0010
0001
0010
0100
,
2000
0000
0000
0000
3001
0100
0010
1000
0010
0100
0010
1000
0010
0100
0001
1000
,
0100
0000
0010
0000
0001
1000
0010
0100
0010
1000
0010
0100
0001
1000
0001
0010
,
0100
0000
1000
0000
0100
0010
0001
1000
0010
0100
0001
0010
0100
1000
0010
0100
,
0001
0000
1000
0000
0001
0010
0100
1000
0100
0010
0100
1000
0001
1000
0010
0100
,
0001
0000
0001
0000
1000
0100
0010
0001
0100
0010
1000
0100
0010
0100
1000
0001
,
0100
0000
0001
0000
1000
0100
0000
0100
0010
0000
0001
1000
0001
0100
0000
0100
,
0010
0000
1000
0000
0001
0010
0000
0010
0100
0010
0001
0000
0100
0000
0001
0010
,
0100
0000
1000
0000
0001
0100
0000
0100
0010
0000
1000
0001
1000
0100
0000
0100
,
0010
0000
0001
0000
1000
0001
1000
0010
0000
0010
0100
0001
0010
0100
1000
0001
,
0100
0000
0010
0000
0100
0001
0100
0001
0000
0001
0010
0100
1000
0010
0000
0010
,
0100
0000
0000
0000
0000
0000
0001
0000
0010
0000
0100
0000
1000
0000
0000
0000
0000
0000
0001
0000
0100
0000
0010
0000
1000
0000
0000
0000
0000
0000
0001
0000
1000
0000
0010
0000
0100
0000
0000
0001
0000
0000
1000
0000
0000
0100
0000
0000
,
0010
0000
0001
0000
1000
0001
0000
0001
0100
0000
0010
0100
0010
1000
0000
1000
,
0100
0010
0100
0000
1000
0001
1000
0001
0000
1000
0010
0100
0000
0001
0010
0100
,
0010
0000
0000
0000
0001
0000
1000
0000
0010
0000
1000
0000
0000
0000
1000
0000
0001
0000
0000
0000
0010
0000
0000
0000
0100
0010
0100
0000
1000
0000
0001
0000
,
1000
0001
1000
0100
0010
0001
0100
0010
0000
0010
1000
0000
0001
0010
0100
1000
,
0001
0010
0001
0100
0010
1000
0100
1000
0010
0100
0001
0010
0100
1000
0001
0100
,
0010
1000
0100
0000
0110
0000
0010
0001
0000
0000
1001
0000
1000
0001
1000
0001
,
1000
0000
0000
0100
0000
0000
0010
0000
0000
0001
0000
0000
0010
0000
0000
0100
0000
0000
1000
0000
0001
0000
1000
0000
0010
0000
0100
0000
0010
0000
1000
0000
0001
0000
0010
0000
0100
0000
1000
0000
0100
0000
0010
0000
0001
0000
1000
0000
,
0001
0100
0010
1000
0001
0100
0010
1000
0000
0000
1000
0001
0010
0100
0010
0100
,
0010
0001
1000
0001
0100
0010
1000
0001
0000
0001
0010
0100
1000
0001
0100
0010
,
1000
0000
0001
0000
1000
0000
0100
0000
0010
0000
0001
0000
0010
0000
0000
0100
0000
0000
1000
0000
0000
0001
0000
0000
0000
0000
0000
0000
1000
0000
0100
0000
0010
0000
0001
0000
1000
0000
0010
0000
0100
0000
0001
0000
0100
0000
0001
0000
,
2000
0000
0010
0010
,
3002
0000
0100
0100
,
2003
0000
0100
0100
,
3001
0000
0001
0000
0001
0100
1000
0000
1000
0100
0001
0000
,
1001
0000
0000
0000
0001
0000
1000
0000
0010
0000
0100
0001
0100
0000
0000
0000
0001
0000
0011
0000
0010
0000
0100
0000
,
1100
0000
0000
0000
1000
0000
0001
0000
0100
0000
0010
0000
1010
0000
1000
0000
0001
0000
0010
0100
1000
0000
0001
0000
,
0101
0000
0100
0000
0010
0000
1000
0001
1000
0100
0010
0001
0010
0000
0000
0000
0001
0000
1001
0000
1000
0000
0010
0000
,
0011
0000
0001
0000
1000
0000
0100
0000
0001
0000
0010
0000
0100
1000
0100
0000
0010
0000
0011
0000
0000
0000
1000
0000
,
1001
0000
0001
0000
0100
0000
1000
0000
0100
0000
0010
0000
0110
0000
0100
0000
0001
0000
1000
0100
0010
0000
0001
0000
,
1001
1000
0010
0001
1000
0100
0110
0010
1000
0002
0000
0013
,
0110
0000
0100
0000
0010
0100
0010
0100
0000
1100
0000
0000
0001
1000
0001
1000
,
0001
0000
0001
0000
0001
0000
0100
0000
0010
0000
1000
0000
0001
0000
0001
0000
0001
0000
0010
0000
0100
0000
1000
0001
,
1000
0000
1010
0000
0001
0010
0100
0010
0000
0011
0000
0000
0001
1000
0001
1000
,
0001
0000
1000
0000
0001
0000
0011
0010
0100
1100
1000
0001
,
2002
0000
0000
0000
0000
0000
3003
0000
0001
0100
0010
1000
0100
0010
0001
1000
,
0001
0000
0100
0000
0010
1000
0010
1000
0000
1000
0001
0000
0010
0100
0010
0100
,
0000
0100
0010
0000
0001
0100
0001
0100
0000
0100
0010
0000
0100
0001
1000
0100
,
0010
0000
0100
0000
1000
0001
1000
0001
0000
0001
0100
0000
0020
0000
2030
0000
,
3100
0000
1000
0010
0100
0000
0001
0010
0000
0010
0100
0000
1000
0001
0100
0010
,
1000
0001
0010
0000
0100
0010
0100
0010
0000
0010
0001
1000
0001
0100
0010
0100
,
0000
0100
0001
0000
1000
0100
0010
0001
0000
0001
1000
0000
0001
0000
1000
0100
,
1000
0000
0001
0000
0100
0010
0100
0010
1000
0001
1000
0001
0010
0100
1000
0001
,
0100
0000
0000
0001
0010
0100
1000
0000
0000
0001
0100
0010
2000
0000
0000
0000
0000
0000
3000
0000
0000
0000
0000
0000
,
1000
0100
0010
0100
1000
0001
1000
0010
0100
0001
1000
0001
0010
0100
1000
0001
,
0100
0010
1000
0010
0100
0001
1000
0100
0010
0001
0010
0100
1000
0001
1000
0010
,
0100
0001
1000
0001
0010
0100
0010
0001
1000
0001
0100
0010
0100
0001
1000
0100
,
0010
0001
1000
0010
0100
0010
1000
0001
0010
0100
1000
0010
0100
0001
0010
0100
,
1000
0010
0100
0001
0010
0001
0100
0010
1000
0001
0010
0001
0100
0010
1000
0001
,
1000
0100
0010
0001
0100
0001
0010
0100
1000
0001
0100
0001
0010
0100
1000
0001
,
1000
0100
1000
0010
0100
0001
0010
0001
0100
0010
1000
0100
1000
0001
0100
0010
,
1000
0100
0010
0001
0100
0001
0010
0100
1000
0010
0100
0001
1000
0002
0000
0000
,
1003
0100
0010
0001
0100
0010
2010
0000
0000
3001
0010
0100
1000
0001
0201
0000
,
0000
0000
0310
0100
0010
1000
0001
0010
0100
1000
2002
0000
0000
0000
3003
0000
,
1001
0000
0001
0000
0100
0000
1000
0000
0100
0010
0100
0000
0101
0000
0001
0000
1000
0000
0100
0000
0010
0000
0001
0000
,
1000
0001
1000
0000
0010
0000
0100
0001
0100
0000
0010
0000
1010
0000
1000
0000
0001
0010
0100
1000
0100
0000
1000
0000
,
2002
0000
0000
0000
,
0000
0000
0000
0000
,
0000
0000
0000
0000
,
3003
0000
0000
0000
;

//--------------- dance-double - Fred-104 ----------------
#NOTES:
     dance-double:
     Fred-104:
     Easy:
     8:
     :
00000000
00000000
00000000
00000000
,
00000000
00000000
00000000
00000000
,
00000000
00000000
00000000
00000000
,
00000000
00000000
00000000
00000000
,
00000000
00000000
00000000
00000000
,
00010000
00000000
00001000
00000000
,
01000000
00000000
00001000
00001000
,
00010000
00000000
00001000
00000000
,
00000100
00000000
00000001
00000001
,
00001000
00001000
00000100
00000100
,
00000010
00000000
00010000
00000000
00001000
00010000
00001000
00000000
,
00010000
00010000
00100000
00100000
,
10000000
01000000
00100000
00000000
00010000
01000000
00100000
00000000
,
10010000
00000000
00000000
00000000
,
10000000
10000000
01000000
01000000
,
00010000
00010000
00001000
00000100
,
00000001
00000010
00001000
00000010
,
00000001
00000000
00000100
00000000
00001000
00010000
00001000
00000000
,
00010000
00010000
00001000
00001000
,
00000010
00000010
00000001
00000100
,
00001000
00001000
00010000
00100000
,
01000000
00000000
00100000
00000000
10000000
01000000
00100000
00000000
,
00010000
10000000
00100000
00000000
01000000
00000000
00100000
00000000
,
00010000
00001000
00010000
00000000
00000010
00000000
00001000
00000000
,
00000100
00000010
00000001
00000000
00001000
00000000
00000010
00000000
,
00010000
00001000
00010000
00000000
00000100
00000000
00010000
00000000
,
00001000
00100000
00001000
00000000
00010000
00000000
00001000
00000000
,
00010000
00001000
00010000
00001000
01000000
00100000
01000000
00100000
,
01000000
00000000
00010000
00000000
00100000
01000000
00010000
00000000
,
00001000
00010000
00011000
00000000
,
00001000
00020000
00000000
00031000
,
00100000
00000000
01000000
00000000
10000000
10000000
00010000
00000000
,
01000000
00100000
00010000
00001000
,
00000100
00000001
00001000
00000100
,
00000010
00000010
00000001
00000000
00000100
00000100
00001000
00000000
,
00010000
00001000
01000000
00010000
,
00100000
00100000
01000000
00000000
10000000
00000000
00100000
00000000
,
01000000
01000000
00010000
00000000
20020000
00000000
30030000
00000000
,
10010000
00000000
10000000
00000000
,
01000000
00000000
00010000
00000000
,
00001000
00000000
00000010
00000000
,
00000001
00000000
00001000
00000000
,
00000001
00000010
00000100
00001000
,
00010000
00100000
01000000
10000000
,
00010000
01000000
00100000
10000000
,
01000000
00100000
00001000
00000000
,
00010000
00001000
00000010
00001000
,
00010000
00001000
00000100
00001000
,
00010000
00010000
00001000
00001000
,
00010000
00001010
00001000
00110000
,
00001000
00010000
00000100
00010000
,
00000100
00000000
00000100
00000000
00000010
00000000
00000001
00000000
00000000
00001000
00000000
00000000
,
00002002
00000000
00003003
00000000
,
00001000
00001000
00000100
00000000
00000010
00000000
00000001
00000000
,
00001000
00001000
00000010
00000000
00000100
00000000
00001000
00000000
,
00010000
00010000
00001000
00000000
01000000
00000000
00010000
00000000
,
00100000
00100000
00001000
00000000
00010000
00000000
00001000
00000000
,
01000000
00100000
01000000
00000000
00010000
00000000
10000000
00000000
,
01000000
00100000
00001000
00000000
00010000
00000000
00000100
00000000
,
00000010
00000010
00000001
00000000
00000100
00000100
00000001
00000000
,
00000010
00000100
00000010
00000100
00010000
00000000
00000000
00000000
,
00001000
00001000
00010000
00000000
00100000
00000000
10000000
00000000
,
01000000
01000000
00100000
00000000
00001000
00001000
00010000
00000000
,
00000100
00000100
00000010
00000000
00000001
00000000
00001000
00000000
,
00000010
00000010
00000100
00000000
00001000
00001000
00001000
00000000
,
00010000
00001000
01000000
00000000
00100000
10000000
00010000
00000000
,
10000000
01000000
00100000
00000000
00001000
00010000
00001000
00000000
,
00010000
00000100
00001000
00000000
00000010
00000100
00000001
00000000
,
00001000
00000001
00001000
00000001
00000010
00000100
00001000
00000000
,
00000100
00000000
00000000
00010000
00000000
00001000
00000000
00011000
,
00000000
00000000
00000000
00010000
00000000
00011000
00000000
00000000
,
00001000
00010000
00100000
10000000
,
01000000
00010000
00001000
00010000
,
00022000
00000000
00000000
00000000
,
00000000
00000000
00000000
00000000
,
00000000
00000000
00000000
00000000
,
00033000
00000000
00000000
00000000
;

//--------------- dance-double - Fred-104 ----------------
#NOTES:
     dance-double:
     Fred-104:
     Medium:
     12:
     :
00000000
00000000
00000000
00000000
,
00000000
00000000
00000000
00000000
,
00000000
00000000
00000000
00000000
,
00000000
00000000
00000000
00000000
,
00000000
00000000
00000000
00000000
,
00001000
00000000
00010000
00001000
01000000
00010000
00100000
00000000
,
01000000
00000000
10000000
00010000
01000000
00100000
00010000
00000000
,
00001000
00000000
00010000
00000100
00000010
00000001
00001000
00000000
,
00001001
00000000
00000001
00000100
00001000
00010000
00001000
00000100
,
00001000
00000000
00010000
00000000
00001000
00100000
00001000
00000000
00010000
00000000
00001000
00000000
01000000
00000000
00000000
00000000
,
00100000
00000000
10000000
00000000
00010000
01000000
00010000
00000000
10000000
00000000
01000000
00000000
00100000
00000000
00000000
00000000
,
00001000
00000000
00010000
00000000
00000010
00001000
00000010
00000000
00000100
00000000
00000001
00000000
00001000
00000000
00000100
00000000
,
00000010
00000001
00001000
00000001
00000100
00001000
00010000
00000000
,
00011000
00000000
00000000
00000000
,
00010000
00000000
00001000
00010000
00100000
00000000
00100000
00010000
,
00001000
00000000
00001000
00010000
00000010
00001000
00000100
00000010
,
00000001
00000000
00001000
00000100
00000001
00000000
00000001
00000100
,
00001000
00000000
00000001
00000100
00001000
00010000
01000000
10000000
,
00010000
00000000
10000000
00100000
00010000
00000000
00010000
00100000
,
10000000
00000000
00010000
00100000
10000000
00100000
01000000
00100000
,
00001000
00000000
00010000
00001000
00000010
00000000
00000010
00001000
,
00010000
00000000
00001000
00100000
00010000
10000000
00100000
01000000
,
00010000
00000000
10000000
00000000
01000000
00000000
00100000
00001000
00000000
00000000
00001000
00000000
00010000
00000000
00000010
00001000
,
00000000
00000000
00001000
00000000
00000100
00000000
00000010
00000001
00000000
00000000
00000001
00000000
00001000
00000000
00000001
00000000
,
00000100
00000000
00000010
00000000
00000100
00000000
00001000
00010000
00000000
00000000
00010000
00000000
00001000
00000000
01000000
00010000
,
00000000
00000000
00010000
00000000
00100000
00000000
00001000
00010000
00000000
00000000
00010000
00000000
00011000
00000000
00000000
00000000
,
00001000
00000000
00010000
00000000
00100000
00000000
10000000
00010000
00000000
00000000
00010000
00000000
00100000
00000000
01000000
00100000
,
00000000
00100000
00001000
00010000
00001000
00000010
00001000
00010000
,
00001000
00000000
00010000
00000000
00000100
00000000
00000010
00000001
00000000
00000000
00000001
00000000
00001000
00000000
00000001
00000010
,
00000000
00000000
00000010
00000000
00001000
00000000
00010000
00002000
00000000
00000000
00000000
00000000
00003000
00000000
00000000
00000000
,
00011000
00000000
00000000
00000000
00010010
00000000
00000000
00010000
00000000
00000000
00001000
00000000
00100000
00000000
01000000
00000000
,
10000000
00010000
01000000
10000000
01000000
00010000
10000000
01000000
,
00100000
00100000
00001000
00001000
00010000
00010000
00000100
00000100
,
00000010
00000001
00001000
00000001
00000100
00001000
00010000
00000000
,
00001000
00010000
00001000
00010000
01000000
00010000
01000000
00010000
,
00001000
00000000
00010000
00000000
00000100
00000000
00001000
00000001
00000000
00000000
00000001
00000000
00000100
00000000
00000010
00000000
,
00000100
00000000
00001000
00000000
00010000
00000000
00001000
00100000
00000000
00100000
00010000
00000000
10000000
00000000
00100000
00000000
,
00010000
00000000
00001000
00000000
00000100
00000000
00000001
00002000
00000000
00000000
00000000
00000000
00003000
00000000
00000000
00000000
,
00001001
00000000
00001000
00000000
,
00000001
00000000
00000100
00001000
,
00010000
00000000
00100000
00000000
,
10000000
00000000
10000000
00000000
10000000
00000000
00010000
00000000
00010000
00000000
00010000
00000000
,
10010000
00000000
00000000
10000000
00000000
01000000
00100000
00000000
00010000
00100000
00000000
00001000
,
00010000
00000000
00000000
00000010
00000000
00001000
00000001
00000000
00001000
00000100
00000000
00000010
,
00000100
00000000
00000000
00001000
00000000
00000001
00000100
00000000
00000010
00000100
00000000
00001000
,
00010000
00000000
00000000
00001000
00000000
00100000
00010000
00000000
01000000
00010000
00000000
00100000
,
00001000
00000000
00001000
00010000
00000000
00010000
00000100
00000000
00000100
00000010
00000000
00000010
,
00000001
00000000
00000001
00000100
00000000
00000100
00001000
00000000
00001000
00010000
00000000
00001000
,
00010000
00000000
00010000
00000000
00001000
00000000
00000000
00010000
00000000
00010000
00000000
00000000
00001000
00000000
00010000
00000000
,
00001000
00110000
00001000
01010000
,
00001000
00000000
00001000
00000000
00010000
00000000
00000000
00001000
00000000
00001000
00000000
00000000
00010000
00000000
00100000
00000000
,
10000000
00000000
10000000
00000000
01000000
00000000
00100000
00000000
00000000
00001000
00000000
00000000
,
00022000
00000000
00033000
00000000
,
00010000
00000000
00001000
00000000
00010000
00000000
00000000
00010000
00000000
00000000
00000100
00000000
00000010
00000000
00000000
00000010
,
00000000
00000000
00000001
00000000
00001000
00000000
00000000
00001000
00000000
00000000
00000001
00000000
00000100
00000000
00001000
00000000
,
00010000
00000000
00001000
00000000
00000010
00000000
00000000
00000010
00000000
00000000
00001000
00000000
00010000
00000000
00000000
00010000
,
00000000
00001000
00100000
00010000
10000000
00100000
01000000
00010000
,
10000000
00000000
01000000
00000000
00010000
00000000
00000000
00010000
00000000
00000000
01000000
00000000
00100000
00000000
00000000
00001000
,
00000000
00000000
00001000
00000000
00010000
00000000
00000000
00000100
00000000
00000000
00000100
00000000
00000010
00000000
00000001
00000000
,
00001000
00000000
00000010
00000000
00010000
00000000
00000000
00010000
00000000
00000000
00000100
00000000
00001000
00000000
00000010
00000000
,
00010010
01001000
00022000
00033000
,
00001000
00001000
00010000
00010000
00100000
00100000
10000000
10000000
,
00010000
00010000
00100000
00100000
01000000
01000000
10000000
10000000
,
00010000
00010000
01000000
01000000
00001000
00001000
00010000
00010000
,
00000100
00000100
00000010
00000010
00000001
00001000
00000001
00000000
,
00001000
00000100
00001000
00000100
00000010
00000001
00001000
00000010
,
00000100
00001000
00000100
00001000
00010000
00100000
01000000
00100000
,
10000000
00010000
10000000
00010000
00100000
01000000
00010000
00001000
,
00010000
00000100
00000010
00000001
00001000
00000010
00010000
00000000
,
00001000
00000000
00010000
00000000
00001000
00000000
01000000
00000000
00000000
01000000
00000000
00000000
00001000
00000000
00010000
00000000
,
00000000
00000000
00010000
00001000
00000100
00000002
00000000
00000003
,
00001000
00000000
00001000
00000001
00000000
00000001
00000010
00000000
00000010
00000100
00000000
00000100
,
00010000
00001000
00010000
00001000
00010000
00001000
01000000
00010000
01000000
00010000
01000000
00010000
,
20000000
00000000
00000000
00000000
,
00000000
00000000
00000000
00000000
,
00000000
00000000
00000000
00000000
,
30000000
00000000
00000000
00000000
;

//--------------- dance-double - Fred-104 ----------------
#NOTES:
     dance-double:
     Fred-104:
     Hard:
     16:
     :
00000000
00000000
00000000
00000000
,
00000000
00000000
00000000
00000000
,
00000000
00000000
00000000
00000000
,
00000000
00000000
00000000
00000000
,
00000000
00000000
00000000
00000000
,
00011000
00000000
00000000
00000000
00000000
00000000
00000000
00000000
00000000
00000000
00001000
00000000
00000000
01000000
00000000
00000000
,
01100000
00100000
00000000
00000000
00000000
00000000
10010000
00000000
,
11000000
00000000
00000000
00000000
00000000
00000000
01010000
00000000
00000000
00000000
00011000
00000000
00000000
00001000
00000000
00000000
,
00011000
00000000
00010000
00000000
00001000
00010000
00001000
00010000
00001000
00000000
00000100
00000010
00000100
00000000
00000001
00000000
,
00001000
00000000
00000100
00000000
00000010
00000001
00000010
00000000
00000001
00000000
00001000
00000000
00000010
00000000
00010000
00001000
,
00010000
00000000
00001000
00000000
00100000
01000000
00100000
00000000
00010000
00000000
01000000
00100000
00010000
00000000
00010000
00000000
,
00001000
00000000
00100000
00000000
00010000
10000000
00100000
00000000
01000000
00010000
01000000
00010000
10000000
01000000
00100000
00000000
,
00001000
00010000
00001000
00000000
00010000
00000100
00010000
00000000
00000100
00001000
00000001
00000000
00000100
00000010
00001000
00000000
,
00001001
00000000
00000000
00000000
00000000
00000000
00000000
00000001
00000000
00000001
00000000
00000001
00000100
00000000
00001000
00000000
,
00020000
00000000
00000000
00000000
00031000
00100000
00010000
20000000
00000000
00000000
00000000
00000000
30100000
01000000
00010000
20000000
,
00000000
00000000
00000000
00000000
31000000
00100000
00010000
00100000
00001000
00000000
00001000
00000000
00010000
00001000
00010000
00000000
,
00000200
00000000
00000000
00000000
00000310
00000001
00001000
00000200
00000000
00000000
00000000
00000000
00000310
00000100
00010000
00002000
,
00000000
00000000
00000000
00000000
00013000
00001000
01000000
00000000
00010000
00001000
00000010
00000000
00000100
00000001
00001000
00000100
,
00000020
00000000
00000000
00000000
00001030
00010000
00001000
00200000
00000000
00000000
00000000
00000000
01300000
10000000
00010000
02000000
,
00000000
00000000
03100000
00000000
10000000
01000000
00100000
00010000
00100000
00000000
00001000
00010000
00001000
00010000
00001000
00000000
,
02000000
00000000
00000000
00000000
03001000
00010000
00001000
00000200
00000000
00000000
00000310
00000000
00001000
00000100
00000010
00000200
,
00000000
00000000
00001300
00000000
00000001
00000100
00000000
00000100
00000010
00000100
00001000
00000000
00010000
00001000
01000000
00000000
,
00100000
00000000
10000000
00000000
00010000
00000000
00100000
01000000
00000000
01000000
10000000
00000000
00010000
00000000
01000000
00100000
,
00000000
00100000
00010000
00000000
00001000
00000000
00000100
00000010
00000000
00000010
00001000
00000000
00000001
00000000
00000100
00000010
,
00001000
00000000
00000100
00000000
00000010
00000000
00001000
00010000
00000000
00010000
01000000
00000000
10000000
00000000
00010000
10000000
,
00000000
10000000
00100000
00000000
00010000
00000000
00001000
00010000
00000000
00100000
01000000
00010000
10000000
00010000
10000000
00000000
,
00010000
00000000
01000000
00000000
00100000
00000000
00010000
00001000
00000000
00001000
00000100
00000000
00000010
00001000
00000000
00001000
,
00000200
00000000
00000000
00000000
00000000
00000000
00000000
00000000
00000010
00000000
00000000
00000000
00000001
00000000
00000000
00000300
00000200
00000000
00000000
00000000
00000000
00000000
00000000
00000000
00000010
00000000
00000000
00000000
00001000
00000000
00000000
00000300
00000200
00000000
00000000
00000000
00000000
00000000
00000000
00000000
00000010
00000000
00000000
00000000
00000001
00000000
00000000
00000300
00000200
00000000
00000000
00000000
00000000
00000000
00000000
00000000
00000010
00000000
00000000
00000000
00001000
00000000
00000000
00000300
,
00000100
00000000
00000010
00000000
00001000
00000000
00010000
00001000
00000000
00001000
00100000
00000000
00010000
00000000
10000000
00100000
,
01000000
00000000
00000000
00010000
00000000
00000000
10000000
00000000
00000000
00000000
00000000
00000000
01000000
00000000
00000000
00000000
00000000
00000000
00100000
00000000
00000000
00001000
00000000
00000000
00000000
00000000
00000000
00000000
00010000
00000000
00000000
00000000
00001000
00000000
00000000
00000000
00010000
00000000
00000000
00000000
00000100
00000000
00000000
00000000
00010000
00000000
00000000
00000000
,
00001000
00000000
00000000
00001000
00010000
00000000
00000010
00001000
00000000
00000010
00001000
00000000
00000001
00000010
00000100
00000000
,
00001000
00000100
00001000
00000100
00010000
00001000
00010000
00001000
00000000
00001000
00010000
00000000
00100000
00000000
10000000
00000000
,
01000000
00100000
00010000
00000000
01000000
00100000
00000000
00010000
00001000
00000000
00000100
00000010
00000000
00001000
00000100
00000000
,
00000010
00000001
00001000
00000000
00001001
00000000
00000001
00000100
00000000
00000000
00000110
00000000
00000010
00000000
00001000
00000010
,
00010000
00001000
00010000
00001000
00100000
00010000
10000000
00010000
10000000
00010000
01000000
00010000
01000000
00001000
00010000
00000000
,
00001000
00010000
00001000
00000000
00010000
00001000
00010000
00000100
00000000
00000000
00000110
00000000
00000010
00000001
00001000
00000000
,
00000001
00000000
00000011
00000000
00000010
00000100
00000010
00000100
00000000
00010000
00001000
00000000
00100000
00010000
10000000
00000000
,
00010000
01000000
00010000
10000000
01000000
00100000
00001000
00020000
00000000
00000000
00000000
00000000
00030000
00000000
00000000
00000000
,
00011000
00000000
00001000
00000000
,
00010000
00000000
00100000
10000000
,
01000000
00000000
00100000
00000000
,
00001000
00000000
00001000
00000000
00001000
00000000
00010000
00000000
00010000
00000000
00010000
00000000
,
00011000
00000000
00001000
00100000
00010000
00100000
00001000
00000000
00001000
00010000
00000010
00010000
,
00001000
00000000
00001000
00010000
00000100
00000010
00000001
00000100
00000010
00001000
00000001
00000010
,
00000100
00001000
00000001
00000100
00001000
00010000
00001000
00000000
00001000
00100000
00010000
10000000
,
00010000
00100000
01000000
10000000
00100000
01000000
00010000
10000000
01000000
01100000
00000000
00100000
,
00001000
00010000
00001000
00010000
00001000
00000100
00000010
00001000
00000001
00000010
00000100
00001000
,
00000100
00010000
00001000
00010000
00001000
00010000
00100000
01000000
00010000
20000000
00000000
30010000
,
01000000
00000000
01000000
00000000
00100000
01000000
00100000
01000000
00000000
01100000
00000000
00000000
00100000
01000000
00100000
01000000
,
00010000
10000000
01000000
00010000
00001000
00010000
00001000
00000010
00000001
00001000
00000001
00001000
,
00000100
00000000
00000010
00000000
00000100
00000010
00000100
00000010
00000000
00000110
00000000
00000000
00000001
00001000
00000001
00001000
,
00000001
00000000
00000100
00000000
00001000
00000000
00010000
00001000
00000100
00000010
00001000
00000001
,
00002000
00000000
00000000
00000000
00000000
00000000
00000000
00000000
00003000
00000000
00000000
00000000
00000000
00000000
00000001
00001000
,
00000001
00000000
00000010
00000000
00000100
00000000
00010000
00001000
00000000
00001000
00010000
00000000
00100000
00000000
01000000
00010000
,
00000000
00010000
10000000
00000000
01000000
00000000
00100000
00001000
00000000
00001000
00010000
00000000
00000010
00001000
00000010
00001000
,
00000010
00000000
00000100
00000000
00000001
00000000
00001000
00000100
00000000
00000100
00000010
00000000
00001000
00000000
00010000
00000000
,
00002000
00000000
00000000
00000000
00000000
00000000
00000000
00000000
00010000
00000000
00000000
00000000
00000100
00000000
00000000
00003000
00002000
00000000
00000000
00000000
00000000
00000000
00000000
00000000
00000100
00000000
00000000
00000000
00010000
00000000
00000000
00003000
00001000
00000000
00000000
00000000
00000000
00000000
00000000
00000000
00001000
00000000
00000000
00000000
00000000
00000000
00000000
00000000
00100000
00000000
00000000
00000000
00000000
00000000
00000000
00000000
00100000
00000000
00000000
00000000
00000000
00000000
00000000
00000000
,
00010000
10000000
00010000
00000000
10000000
00000000
00100000
01000000
00000000
01000000
00100000
00000000
00010000
00000000
00001000
00010000
,
00000000
00010000
00000100
00000000
00000010
00000000
00000100
00001000
00000000
00001000
00000001
00000000
00001000
00000000
00000010
00010000
,
00001000
00000000
00010000
00000000
00100000
00000000
01000000
00100000
00000000
00100000
10000000
00000000
01000000
00100000
00010000
00000000
,
10000000
00000000
00100000
01000000
00001000
00000000
00010000
00000010
00000100
00000000
00000000
00000000
00001001
00000000
00000000
00000000
,
00000001
00000010
00000100
00000000
00001000
00000100
00010000
00000000
00001000
00100000
00010000
00000000
10000000
00100000
01000000
00000000
,
00010000
10000000
01000000
00000000
00100000
00001000
00010000
00000000
00001000
00000100
00000010
00000000
00001000
00000001
00000010
00000000
,
00000100
00001000
00000001
00000000
00001000
00000010
00010000
00000000
00001000
00010000
00100000
00000000
01000000
00100000
10000000
00000000
,
00010000
00100000
01000000
00000000
10000000
01000000
00100000
00000000
00001000
00010000
00000100
00000000
00001000
00000001
00001000
00000000
,
00000001
00000010
00000100
00001000
00000100
00010000
00001000
00100000
00010000
00100000
01000000
10000000
00010000
10000000
00010000
00000000
,
10000000
00100000
01000000
00010000
01000000
00001000
00010000
00000010
00001000
00000010
00000100
00000001
00001000
00000001
00001000
00000000
,
00000001
00000010
00000100
00001000
00000100
00010000
00001000
00100000
00010000
00100000
01000000
10000000
00010000
01000000
00100000
00000000
,
10000000
00010000
10000000
01000000
00100000
00010000
00100000
00001000
00010000
00000010
00001000
00000010
00000100
00000002
00000000
00000000
,
00001003
00000001
00000010
00000100
00001000
00000001
00002000
00000000
00000000
00003010
00010000
00001000
00010000
00100000
02000000
00000000
,
00000000
00000000
00000000
03010000
10000000
01000000
00100000
00010000
00100000
00001000
00020000
00000000
00000000
00000000
00030000
00000000
,
00001000
00100000
00010000
10000000
00100000
01000000
00001000
00010000
00000010
00001000
00000100
00000010
,
00000001
00000100
00000010
00010000
00001000
01000000
00010000
00100000
00001000
00010000
00000010
00000100
,
00002002
00000000
00000000
00000000
,
00000000
00000000
00000000
00000000
,
00000000
00000000
00000000
00000000
,
00003003
00000000
00000000
00000000
;

//--------------- dance-double - Fred-104† ----------------
#NOTES:
     dance-double:
     Fred-104†:
     Challenge:
     18:
     :
00000000
00000000
00000000
00000000
,
00000000
00000000
00000000
00000000
,
00000000
00000000
00000000
00000000
,
00010000
00000000
00001000
00000000
00010000
00000000
00000010
00000000
00001000
00000010
00001000
00000001
00001000
00000100
00000010
00000001
00001000
00000000
00000001
00000000
00001000
00000000
00000001
00000000
,
00000011
00000000
00001010
00000000
00011000
00000000
01010000
00000000
00011000
00000000
00011000
00001000
,
00010000
00000000
00010000
00000000
00000100
00001000
00000100
00001000
00000100
00000000
00000100
00000000
00000010
00000001
00000010
00000001
,
00000010
00000000
00000010
00000000
00000001
00001000
00000001
00001000
00000001
00000000
00000001
00000000
00000100
00001000
00000100
00001000
,
00010000
00000000
00010000
00000000
00001000
00100000
00001000
00100000
00010000
00000000
00010000
00000000
01000000
00100000
01000000
00100000
,
01000000
00000000
01000000
00000000
00010000
10000000
00010000
10000000
01000000
00000000
00100000
00010000
00100000
00001000
00010000
00001000
,
00000100
00000000
00000001
00000000
00001000
00000100
00000010
00000001
00001000
00000001
00000100
00000010
00000100
00001000
00010000
00001000
,
00100000
00000000
01000000
00000000
00010000
01000000
00100000
00010000
10000000
00100000
10000000
01000000
00100000
00000000
00100000
00000000
,
00001000
00000000
00010000
00000000
00001000
00000100
00000010
00000001
00000010
00001000
00000001
00000010
00000100
00001000
00000010
00010000
,
00001000
00100000
00010000
00100000
00001000
00010000
00000010
00001000
00000010
00010000
00001000
00100000
01000000
10000000
00100000
00000000
,
01100000
00000000
00000000
00000000
00000000
00000000
00000000
00000000
00000000
00000000
00000000
00000000
01000000
00010000
01000000
00000000
00000000
00000000
00001000
00000000
00000000
00000000
00001000
00000000
00010000
00000000
00000000
00000000
00010000
00000000
00000000
00000000
,
00001000
00000000
00010000
00000000
00000100
00001000
00000100
00001000
00000000
00000001
00001000
00000000
00000100
00000010
00000001
00001000
,
00000010
00000000
00010000
00000000
00000010
00000100
00000010
00000100
00000000
00001000
00010000
00000000
00001000
00100000
01000000
00000000
,
00100000
00000000
00010000
00000000
00100000
00001000
00010000
00001000
00000000
01000000
00010000
00000000
00100000
01000000
10000000
00010000
,
02000000
00000000
00000000
00000000
03100000
10000000
00010000
10000000
00100000
01000000
00010000
01000000
00001000
00010000
00000100
00001000
,
00000100
00000000
00010000
00000000
00001000
00010000
01000000
00100000
00010000
10000000
00100000
01000000
00100000
10000000
00010000
00100000
,
00001000
00000000
00010000
00000000
00001000
00000100
00000010
00000100
00000001
00000010
00000100
00001000
00000100
00010000
00000100
00001000
,
00000100
00000000
00010000
00000000
00001000
00100000
00010000
00100000
01000000
10000000
00010000
01000000
00001000
00010000
00001000
00010000
,
00001000
00000000
00001000
00000000
00010000
00001000
00000010
00000001
00001000
00000010
00000100
00000001
00000010
00000100
00001000
00000100
,
00010000
00000000
00001000
00000000
00100000
00010000
00000000
00010000
10000000
00000000
00010000
01000000
00100000
01000000
00000000
01000000
,
00010000
00000000
10000000
00000000
01000000
00100000
00000000
00100000
01000000
00010000
00001000
00000000
00010000
00000000
00001000
00000100
,
00000010
00000000
00001000
00000000
00000001
00000010
00000000
00000010
00000100
00000000
00001000
00000001
00000100
00001000
00000000
00001000
,
00010000
00000000
00001000
00000000
00010000
00000100
00010000
00000100
00000000
00000100
00001000
00000001
00000100
00000010
00001000
00000001
,
00000010
00000000
00000100
00000000
00010000
00000010
00010000
00000010
00000000
00000010
00001000
00000010
00000100
00001000
00000000
00001000
,
00010000
00000000
00000000
00000000
00000000
00000000
00001000
00000000
00100000
00000000
00001000
00000000
00100000
00000000
00000000
00000000
00000000
00000000
00010000
00000000
10000000
00000000
00010000
00000000
10000000
00000000
00000000
00000000
00000000
00000000
00100000
00000000
01000000
00000000
00100000
00000000
01000000
00000000
00000000
00010000
00000000
00000000
10000000
00000000
00000000
01000000
00000000
00000000
,
00100000
00000000
00001000
00000000
00010000
00001000
00000000
00001000
00010000
00000000
00000010
00001000
00000010
00001000
00000000
00001000
,
00000100
00010000
00001000
00000000
00010000
00001000
00010000
00001000
00000000
00001000
00000100
00000010
00000000
00001000
00000100
00000010
,
00000001
00000000
00001000
00000001
00001000
00000001
00000000
00000001
00000100
00000000
00000010
00000000
00001000
00000001
00000010
00000100
,
00010000
00001000
00100000
00001000
00010000
00000010
00001000
00000100
00000000
00000100
00000010
00000000
00000100
00010000
00001000
00000000
,
00010000
00000100
00001000
00000010
00000100
00000001
00000010
00000001
00000100
00000010
00001000
00000100
00010000
00001000
00100000
00010000
,
01000000
00100000
10000000
00000000
10010000
00000000
00010000
00100000
00000000
00000000
00101000
00000000
00001000
00010000
00001000
00010000
,
00001000
00000000
00000000
00100000
00000000
00000000
00010000
00000000
00000000
10000000
00000000
00000000
00100000
00000000
00000000
01000000
00000000
00000000
00010000
00000000
10000000
00000000
00010000
00000000
10000000
00000000
01000000
00000000
00100000
00000000
00010000
00000000
00000000
00100000
00000000
00000000
00001000
00000000
00010000
00000000
00001000
00000000
00010000
00000000
00000000
00000100
00000000
00000000
,
00001000
00000001
00000010
00000100
00001000
00000001
00000010
00000100
00000000
00000000
00001100
00000000
00000100
00010000
00001000
00010000
,
00001000
00100000
00010000
00100000
00001000
00010000
00001000
00100000
00000000
00100000
01000000
10000000
00010000
01000000
00100000
10000000
,
00010000
00000000
00100000
00000000
00010000
00000000
00100000
00000000
01000000
00000000
10000000
00000000
00010000
00000000
00000000
10000000
00000000
00000000
00100000
00000000
00000000
01000000
00000000
00000000
00000000
00000000
00000000
01000000
00000000
00000000
10000000
00000000
00000000
01000000
00000000
00000000
00010000
00000000
10000000
00000000
01000000
00000000
00100000
00000000
00000000
00001000
00000000
00000000
,
00020000
00000000
00031000
00000100
,
00000002
00000000
00000013
00000100
,
00020000
00000000
00031000
00100000
,
01000000
00000000
10000000
00000000
00100000
00010000
00001000
00000000
00000100
00000001
00001000
00000000
,
00001001
00000000
00000000
00000000
00000001
00000000
00000010
00000000
00000100
00000000
00001000
00000001
00001000
00000000
00000000
00000000
00000010
00000000
00010000
00000000
00001000
00000000
00010000
00000000
,
00011000
00000000
00000000
00000000
00001000
00000000
00010000
00000000
00100000
00000000
01000000
00000000
01100000
00000000
01000000
00000000
00010000
00000000
10000000
00010000
10000000
00000000
01000000
00000000
,
01100000
00000000
00100000
00000000
00001000
00000000
00010000
00001000
00010000
00001000
00010000
00000000
00000100
00000000
00000000
00000000
00000100
00000000
00000110
00000000
00000010
00000000
00000001
00000000
,
00001001
00000000
00001000
00000000
00000001
00000000
00000100
00000000
00001000
00000000
00010000
00000000
00001000
00100000
00001000
00000000
00010000
00000000
00011000
00000000
00000000
00000000
00001000
00000000
,
00011000
00000000
00010000
00000000
00100000
00000000
10000000
00000000
01000000
00000000
00100000
00000000
00101000
00000000
00001000
00000000
00010000
00000000
00000010
00001000
00000010
00000000
00000100
00000000
,
00000101
00000001
00000010
00001000
00010000
00001000
00011000
00010000
01000000
00200000
00000000
00310000
,
10010000
00000000
10000000
00000000
00010000
10000000
00010000
10000000
00000000
01100000
00000000
00000000
00010000
10000000
00010000
10000000
,
00010000
00010000
00010000
10000000
00100000
00010000
00001000
00001000
00001000
00000100
00000001
00000010
,
00000100
00000000
00000110
00000000
00001000
00000001
00001000
00000001
00000000
00001001
00000000
00000000
00001000
00000100
00010000
00000010
,
00001000
00000000
00000001
00000000
00000010
00000000
00000001
00000100
00001000
00010000
01000000
10000000
,
20020000
00000000
00000000
00000000
00000000
00000000
30030000
00000000
00010000
10000000
01000000
00100000
00010000
01000000
00100000
10000000
,
00010000
00000000
10000000
00000000
01000000
00100000
01000000
00100000
00000000
00100000
00001000
00000000
00010000
00000010
00010000
00000010
,
00000000
00000010
00001000
00000000
00000100
00010000
00000100
00010000
00000000
00010000
00001000
00000000
00000100
00000010
00001000
00000100
,
00000010
00000000
00000001
00000000
00001000
00000001
00001000
00000001
00000000
00000001
00000100
00000000
00002000
00000000
00203000
00000000
,
00310000
00000000
10000000
00010000
00100000
00000000
00010000
10000000
00000000
00100000
10000000
00000000
01000000
00100000
00001000
00000000
,
00010000
00001000
00010000
00000000
01000000
00100000
01000000
00100000
00000000
00010000
10000000
00010000
01000000
00001000
00010000
00001000
,
00000000
00001000
00000010
00000000
00000001
00001000
00000100
00001000
00000000
00001000
00000010
00000000
00000100
00000000
00001000
00010000
,
00001000
00000000
00010000
00000000
00000100
00001000
00000100
00001000
00000000
00000001
00001000
00000000
00000100
00000010
00000001
00000000
,
00001000
00000000
00000000
00000001
00000100
00000010
00001000
00000000
00000000
00000100
00010000
00001000
00020000
00000000
00000000
00000000
00000000
00000000
00030000
00000000
00000000
00000000
00000000
00000000
,
00001000
00010000
01000000
10000000
00010000
01000000
00100000
10000000
00100000
01000000
00010000
00100000
01000000
00010000
00001000
00010000
,
00000100
00001000
00000001
00000100
00000010
00000100
00001000
00010000
00001000
00010000
00000100
00000010
00000001
00000100
00000010
00000100
,
00001000
00010000
00001000
00100000
01000000
10000000
00010000
10000000
00100000
00010000
00001000
00010000
00000100
00000010
00000001
00001000
,
00000010
00000100
00001000
00010000
00001000
00010000
00100000
01000000
00010000
00100000
01000000
10000000
00100000
00010000
00001000
00010000
,
00001000
00100000
00010000
01000000
00010000
00100000
00001000
00010000
00000100
00001000
00000010
00001000
00000100
00010000
00001000
00010000
,
00001000
01000000
00010000
00100000
00010000
01000000
00001000
00010000
00000010
00001000
00000100
00001000
00000010
00010000
00001000
00010000
,
00001000
00100000
00010000
01000000
00100000
10000000
01000000
10000000
00100000
01000000
00010000
00100000
00001000
00010000
00000100
00001000
,
00000010
00000100
00000001
00000010
00000100
00001000
00000001
00000100
00001000
00010000
00100000
10000000
01000000
00200000
00000000
00000000
,
00301000
00010000
00000010
00001000
00000010
00000100
00000102
00000000
00000000
00001003
00000001
00000010
00000100
00010000
00012000
00000000
,
00000000
00000000
00013000
00001000
00010000
00100000
10000000
00010000
00100000
01000000
02200000
00000000
00000000
00000000
03300000
00000000
,
10010000
00000000
00010000
00000000
10000000
00000000
01000000
00000000
00100000
00001000
00010000
00000000
00011000
00000000
00001000
00000000
00000100
00000000
00000010
00000000
00001000
00000000
00000100
00000000
,
00000010
00000001
00000010
00000000
00000100
00000000
00010000
00001000
00010000
00000000
00001000
00000000
00101000
00000000
00100000
00000000
00010000
10000000
00010000
10000000
00100000
00000000
01000000
00000000
,
02200000
00000000
00000000
00000000
,
00000000
00000000
00000000
00000000
,
00000000
00000000
00000000
00000000
,
03300000
00000000
00000000
00000000
;
