#TITLE:ATARAX1A;
#ARTIST:DJ Genki;
#TITLETRANSLIT:ATARAXIA;
#BANNER:ATARAX1A.png;
#BACKGROUND:ATARAX1A-bg.png;
#CDTITLE:./CDTitles/WACCA.png;
#MUSIC:ATARAX1A.ogg;
#SAMPLESTART:93.176;
#SAMPLELENGTH:15;
#BPMS:0=170;
#BGSTAGE:15;

//--------------- dance-single - Fred-104 ----------------
#NOTES:
     dance-single:
     Fred-104:
     Beginner:
     2:
     :
0000
0000
0000
0000
,
0000
0000
0000
0000
,
0000
0000
0000
0000
,
0000
0000
0000
0000
,
0000
0000
0000
0000
,
0000
0000
0000
0000
,
0000
0000
0000
0000
,
0000
0000
0000
0000
,
0000
0000
0000
0000
,
0000
0000
0000
0000
,
1000
0000
0000
0000
,
0000
0000
0000
0000
,
0001
0000
0000
0000
,
0000
0000
0000
0000
,
1000
0000
0000
0000
,
0000
0000
0000
0000
,
0001
0000
0000
0000
,
0000
0000
0000
0000
,
1000
0000
0000
0000
,
0000
0000
0000
0000
,
0010
0000
0000
0000
,
0000
0000
0000
0000
,
1000
0000
0000
0000
,
0000
0000
0000
0000
,
0001
0000
0000
0000
,
0000
0000
0000
0000
,
1000
0000
0000
0000
,
0000
0000
0000
0000
,
0010
0000
0000
0000
,
0000
0000
0000
0000
,
0100
0000
0000
0000
,
0100
0000
0000
0000
,
0100
0000
0000
0000
,
0100
0000
0000
0000
,
0001
0000
0000
0000
,
0000
0000
0000
0000
,
1000
0000
0000
0000
,
0000
0000
0000
0000
,
0001
0000
0000
0000
,
0000
0000
0000
0000
,
1000
0000
0000
0000
,
0000
0000
0000
0000
,
0001
0000
0000
0000
,
0001
0000
0000
0000
,
1000
0000
0000
0000
,
1000
0000
0000
0000
,
0001
0000
0000
0000
,
0000
0000
0000
0000
,
1000
0000
0000
0000
,
0000
0000
0000
0000
,
0001
0000
0000
0000
,
0000
0000
0000
0000
,
0010
0000
0000
0000
,
0000
0000
0000
0000
,
0100
0000
0000
0000
,
0000
0000
0000
0000
,
1000
0000
0000
0000
,
0000
0000
0000
0000
,
0000
0000
0000
0000
,
0001
0000
0000
0000
,
1000
0000
0000
0000
,
0001
0000
0000
0000
,
1000
0000
0000
0000
,
0010
0000
0000
0000
,
1000
0000
0000
0000
,
0001
0000
0000
0000
,
1000
0000
0000
0000
,
0000
0000
0000
0000
,
0001
0000
0000
0000
,
0000
0000
0000
0000
,
0100
0000
0000
0000
,
0000
0000
0000
0000
,
0010
0000
0000
0000
,
0000
0000
0000
0000
,
0100
0000
0000
0000
,
0000
0000
0000
0000
,
0001
0000
0000
0000
,
0000
0000
0000
0000
,
1000
0000
0000
0000
,
0000
0000
0000
0000
,
0001
0000
0000
0000
,
0000
0000
0000
0000
,
1000
0000
0000
0000
,
0000
0000
0000
0000
,
1000
0000
0000
0000
,
0000
0000
0000
0000
,
1000
0000
0000
0000
;

//--------------- dance-single - Fred-104 ----------------
#NOTES:
     dance-single:
     Fred-104:
     Easy:
     7:
     :
0000
0000
0000
0000
,
0000
0000
0000
0000
,
0000
0000
0000
0000
,
0000
0000
0000
0000
,
0000
0000
0000
0000
,
0000
0000
0000
0000
,
0000
0000
0000
0000
,
0000
0000
0000
0000
,
0000
0000
0000
0000
,
0000
0000
0000
0000
,
0001
0000
0000
0001
0000
0000
1000
0000
,
0000
0000
0000
0000
,
0010
0000
0000
0010
0000
0000
0100
0000
,
0000
0000
0000
0000
,
0001
0000
0000
1000
0000
0000
0001
0000
,
0000
0000
0000
1000
,
1000
0000
0000
0010
0000
0000
0000
0000
,
1000
0000
0000
0001
0000
0000
0000
0000
,
1000
1000
0001
0000
,
0100
0100
0010
0100
,
0002
0003
2000
3000
,
0001
0100
1000
0100
,
0001
0000
1000
0000
,
0001
0001
1000
1000
,
0001
0000
0000
1001
0000
0000
0000
0000
,
0100
0000
0000
0110
0000
0000
0000
0000
,
0100
0100
0001
0010
,
0001
0001
1000
0010
,
0100
0100
0001
1000
,
0100
0100
0010
0001
,
1000
1000
0001
0100
,
0001
0001
1000
0100
,
1000
1000
1000
0000
0001
0001
0001
0000
,
2002
0000
0000
3003
,
1000
0000
0100
0000
1000
0000
0000
0001
,
0000
0001
0000
0000
0100
0000
0010
0000
,
0100
0100
0001
1000
,
0001
0000
1000
0000
,
0001
0000
1000
0000
0001
0000
0000
0100
,
0000
0100
0000
0000
0001
0000
1000
0000
,
0001
0010
0100
1000
,
0001
0001
1000
1000
,
1001
0000
0000
0000
0110
0000
0000
0001
,
0000
1000
0000
0000
0001
0000
0100
0000
,
0010
0000
0010
1000
,
0001
0000
0100
0010
,
1000
0000
1000
0000
0001
0000
0000
0010
,
0000
0010
0000
0000
0100
0000
0010
0000
,
0001
0001
0001
0000
1000
1000
1000
0000
,
2002
0000
0000
3003
,
1000
0010
0200
0300
,
0001
1000
0020
0030
,
0100
0001
2000
3000
,
0001
0010
0100
0010
,
0001
1000
0020
0030
,
0100
0001
2000
3000
,
0010
1000
0200
0300
,
1000
0100
0010
0001
,
2002
0000
0000
3003
,
0001
1000
0002
0003
,
0100
0010
0200
0300
,
0001
0010
1000
0010
,
0001
1000
0200
0300
,
0001
0100
0010
1000
,
0001
0001
0001
0000
1000
1000
1000
0000
,
2002
0000
0000
3003
,
0001
0100
0010
0100
,
0001
1000
0200
0300
,
1000
0000
0001
0000
,
0100
0010
0110
0000
,
0001
1000
0010
1000
,
0100
0010
0200
0300
,
1000
0010
1000
1000
,
0001
0000
1001
0000
,
1000
0001
0100
0100
,
0001
1000
0010
0000
,
0100
0010
1000
0000
,
0001
1000
1001
0000
,
0001
0000
0100
0000
0001
0001
0001
0000
,
0010
0000
0100
0000
1000
1000
1000
0000
,
0001
0000
0000
1001
0000
0000
0000
0000
,
0100
0000
0000
0110
0000
0000
0000
0000
,
0100
0100
0001
0000
,
0010
0010
0200
0300
,
1000
0001
1000
0000
,
0001
0100
0020
1030
,
1001
0000
0000
0000
;

//--------------- dance-single - Fred-104 ----------------
#NOTES:
     dance-single:
     Fred-104:
     Medium:
     12:
     :
0000
0000
0000
0000
,
0000
0000
0000
0000
,
0000
0000
0000
0000
,
0000
0000
0000
0000
,
0000
0000
0000
0000
,
0000
0000
0000
0000
,
0000
0000
0000
0000
,
0000
0000
0000
0000
,
0000
0000
0000
0000
,
0000
0000
0000
0000
,
0001
0010
0001
1000
0001
0100
0001
0000
,
1000
0001
0100
0010
1000
0010
0000
0010
,
0110
0000
0000
0110
0000
0000
0001
1000
,
0001
0000
0000
1000
0000
0000
0001
0000
0100
0000
0010
0000
1000
0000
0010
0000
,
0100
0001
1000
0001
0100
0010
1000
0000
,
0001
0010
0100
1000
0001
0100
0000
0001
,
1001
0000
0000
1001
0000
0000
0001
1000
,
0010
0000
0000
0110
0000
0000
1001
0000
,
1000
0100
1000
0001
0100
0001
1000
0000
,
0001
0010
0001
1000
0010
0100
0000
0100
,
0001
1000
0100
0010
0000
0001
1000
0000
,
0001
0000
0000
1000
0000
0000
0010
0000
0100
0000
0001
0000
1000
0000
0000
0000
,
0100
0010
0001
1000
0010
0100
0001
0000
,
0100
0010
1000
0001
0010
0100
0010
0001
,
1001
0000
0000
0110
0000
0000
0000
0000
,
1010
0000
0000
0101
0000
0000
1001
0000
,
1000
0010
0000
0010
1000
0000
0001
0010
,
0100
0010
0000
0010
0001
1000
0001
0100
,
0010
0100
0000
0100
0001
0000
1000
0001
,
0010
0100
1000
0001
0100
0010
0100
0000
,
0001
0001
0100
0100
0001
0100
0101
0000
,
1000
1000
0100
0100
1000
0100
1100
0000
,
0001
0100
0001
0100
1000
0100
1000
0100
,
0001
1000
0100
0010
0001
1000
1001
0000
,
0001
1000
0001
0000
0100
0010
1000
1100
,
0000
1001
0000
0001
1000
0001
0100
0010
,
1000
0010
0100
0001
1000
0100
0020
0000
,
0031
0100
0010
1000
0001
0010
0110
0000
,
1000
0001
1000
0000
0001
0100
0010
1010
,
0000
1001
0000
0001
1000
0100
0010
0001
,
1000
1000
0001
0100
0010
0010
0100
0001
,
1001
0000
0110
0000
1000
0001
1001
0000
,
2100
0000
3001
0000
0102
0000
1003
1001
,
0000
0110
0000
0001
1000
0001
0020
0130
,
1000
0010
0000
0010
0100
0000
0001
1000
,
0100
0010
0000
0010
0100
1000
0001
1000
,
1001
0000
0000
0001
0100
0000
0010
0000
1000
0000
0000
1000
0100
0000
0110
0000
,
0000
0011
0000
0001
1000
0001
0100
0010
,
1000
1000
0100
0100
0010
0010
0001
0001
,
1000
0100
0001
1000
0010
0001
1001
0000
,
1000
0000
0000
0001
0000
0000
1000
0000
0100
0000
0000
0000
0010
0000
0100
0000
,
1000
0000
0000
0001
0000
0000
0100
0000
0010
0000
0100
0000
0001
0000
0000
0000
,
1000
0000
0000
0001
0000
0000
0100
0000
0010
0000
0000
0000
1000
0000
0001
0000
,
0010
0000
0000
0100
0000
0000
1000
0000
0001
0000
0100
0000
0020
0000
0000
0000
,
1030
0000
0000
0100
0000
0000
1000
0000
0001
0000
0000
0000
0100
0000
0010
0000
,
0100
0000
0000
0001
0000
0000
1000
0000
0001
0000
0010
0000
0100
0000
0000
0000
,
0010
0000
0000
0100
0000
0000
1000
0000
0001
0000
0000
0000
0100
0000
0010
0000
,
0220
0000
0000
0330
0000
0000
0000
0000
2020
0000
3030
0000
0000
0000
0000
0000
0202
0303
0000
0000
0000
0000
0000
0000
2002
0000
0000
0000
3003
0000
0000
0000
,
1000
0000
0000
1000
0000
0000
1000
0000
0100
0000
0010
0000
0001
0000
0000
0000
,
1000
0000
0000
0001
0000
0000
0100
0000
0010
0000
1000
0000
0010
0000
0000
0000
,
0100
0000
0000
0001
0000
0000
1000
0000
0100
0000
0000
0000
0010
0000
0001
0000
,
1000
0000
0000
0001
0000
0000
0100
0000
0010
0000
1000
0000
0010
0000
0000
0000
,
1000
0000
0000
0001
0000
0000
1000
0000
0010
0000
0000
0000
0100
0000
0010
0000
,
1000
0000
0000
0001
0000
0000
0010
0000
0100
0000
0010
0000
0001
0000
0000
0000
,
0100
0100
0010
0010
1000
1000
0001
0001
,
2002
0000
0000
3003
,
1000
0001
0100
0001
1000
0100
0010
0000
,
0001
1000
0010
0100
0001
1000
0000
1000
,
0100
0010
0001
1000
0010
1000
0001
0000
,
0100
0000
0000
0010
0000
0000
0100
0000
0001
0000
1000
0000
0010
0000
0000
0000
,
1000
0001
0010
0001
1000
0010
0100
0000
,
0010
1000
0001
1000
0001
0010
0000
0010
,
0100
1000
0001
0100
0010
1000
0010
0000
,
0100
0001
1000
0000
0001
0010
0100
1000
,
0001
0100
0010
1000
0100
0010
0100
0000
,
1000
0001
0100
0001
1000
0010
0000
0010
,
0100
0100
0010
1000
0001
1000
0100
0000
,
0010
0000
0000
0100
0000
0000
1000
0000
0001
0000
1000
0000
0010
0000
0000
0000
,
0100
0001
1000
0001
0010
0100
0010
0001
,
0001
0100
0010
0100
0001
0010
0100
1000
,
1100
0000
0000
0101
0000
0000
0000
0000
,
1010
0000
0000
0011
0000
1000
0001
0100
,
0110
0000
0000
0000
0010
0000
1000
0100
0000
1000
0001
0000
0010
0000
0100
0000
,
0010
0000
0000
0000
0001
0000
1000
0001
0000
0100
0001
0000
1000
0001
1000
0000
,
0100
0000
0000
0000
0010
0000
0100
1000
0000
0001
1000
0000
0010
0000
1000
0000
,
0001
0000
0000
0000
0010
0000
0100
1000
0000
0100
1000
0000
0001
1000
0001
0000
,
1001
0000
0000
0000
;

//--------------- dance-single - Fred-104 ----------------
#NOTES:
     dance-single:
     Fred-104:
     Hard:
     17:
     :
0000
0000
0000
0000
,
0000
0000
0000
0000
,
0000
0000
0000
0000
,
0000
0000
0000
0000
,
0000
0000
0000
0000
,
0000
0000
0000
0000
,
0000
0000
0000
0000
,
0000
0000
0000
0000
,
0000
0000
0000
0000
,
0000
0000
0000
0000
,
1100
0000
0000
0101
0000
0000
1010
0000
,
0000
0000
0000
0000
0000
0000
0000
0000
0000
0000
0000
0000
1001
0000
0001
1000
,
0100
0000
0000
1100
0000
0000
0101
0001
,
1000
0000
0000
0001
0000
0000
1000
0000
0100
0000
1000
0001
0010
0100
1000
0001
,
0100
0000
0000
0110
0000
0000
1010
0000
,
0000
0000
0000
0000
0000
0000
0000
0000
0000
0000
0000
0000
0000
0000
0000
0000
0000
0000
1001
0000
0000
1000
0100
0010
,
0001
0000
0000
0000
0000
0000
0000
0000
0000
0011
0000
0000
0000
0000
0000
0000
0000
0000
1001
0000
0000
0001
0100
0010
,
1000
0000
0000
0110
0000
0000
1001
0000
,
0001
0100
0010
1000
0001
0010
0001
0000
,
1000
0000
0100
0000
0010
0000
0100
0000
1000
0000
0001
0000
0100
0000
0001
1000
,
0002
0013
0100
0002
0103
0010
0002
2003
,
3001
0100
0000
0100
0010
0000
1000
0000
0001
0000
1000
0000
0001
0010
0100
1000
,
0001
0000
0010
0000
0100
0000
0010
0000
0001
0000
1000
0000
0010
0000
0100
0001
,
1000
0000
0001
0100
0001
0000
1000
0100
1000
0001
0100
0001
1000
0100
0010
0000
,
0011
0000
0000
1001
0000
0000
0000
0000
,
1100
0000
0000
0000
0000
0000
1001
0000
0000
0000
0000
0000
0110
0000
0001
1000
,
0001
0010
0001
1000
0100
0000
0010
0010
,
0100
0000
1000
0000
0001
0000
0100
0000
0010
0000
0000
0000
0010
1000
0010
1000
,
0001
0000
0100
0000
0001
0000
1000
0000
0010
0000
0000
0000
0010
0100
0010
0000
,
1000
0000
0001
0000
0010
0000
0001
0000
1000
0010
0100
0001
1000
0100
0010
0001
,
1000
0100
1000
0100
0010
0100
0010
0100
1000
0100
1000
0100
0010
0000
0001
0000
,
1000
0010
0100
0000
0001
0100
0010
0000
1000
0001
0010
0001
1000
0010
1000
0000
,
0001
0010
0100
0000
1000
0100
0010
0000
0001
1000
0010
0100
0001
1000
0010
0100
,
0001
0100
1000
0001
0010
1000
1001
0000
,
1000
0000
0001
0100
0001
0000
1000
0010
1000
0000
0001
0010
0100
0000
1100
0000
,
0000
0000
0101
0000
0001
0000
1000
0100
0010
0000
0001
1000
0010
0000
1000
0001
,
0100
0000
0000
0000
0000
0000
0000
0000
0010
0000
0000
0000
1000
0000
0000
0000
0001
0000
0000
0000
0000
0000
0000
0000
1000
0000
0000
0000
0100
0000
0000
0000
0010
0000
0000
0000
0000
0000
0000
0000
0001
0000
0000
0000
1000
0000
0000
0000
0200
0300
0000
0000
0000
0000
0000
0000
0200
0300
0000
0000
0000
0000
0000
0000
,
0001
0100
0001
0000
1000
0100
1000
0000
0001
0100
0010
1000
0001
1000
0001
0000
,
1001
0000
1000
0010
1000
0000
0001
0010
0001
0000
1000
0001
0100
0000
0110
0000
,
0000
0000
1001
0000
0001
0000
1000
0001
0010
0000
0100
1000
0001
0000
0100
0010
,
1000
0001
0100
0000
0001
1000
0100
0000
1000
0001
0100
0010
1000
0000
0001
0000
,
2100
3010
0102
0013
2001
3100
0220
0330
,
2100
0000
3010
0000
0102
0000
0013
1001
,
0000
0000
1100
0000
0100
0010
0000
0010
0001
0000
1000
0000
0010
0100
0002
0000
,
1003
0100
0010
0000
0000
0000
0001
0100
0010
0000
0000
0000
0010
0000
0200
0000
,
0310
0000
0002
0000
0013
0000
2000
0000
3001
0000
0200
0000
0301
1000
0100
0000
,
0110
0000
0000
0010
0001
0000
1000
0000
0010
0000
0100
0001
0100
0000
0101
0000
,
0000
0000
1001
0000
1100
0000
1000
0001
0100
0000
0010
0100
0001
1000
0001
1000
,
0001
0100
0001
0100
0010
1000
0010
1000
0001
0010
0001
0010
0100
1000
0100
1000
,
0001
0100
1000
0001
0010
1000
1001
0000
,
1000
0000
0001
0100
0000
0010
1000
0010
0100
0000
0001
0000
1000
0100
0010
0000
,
0001
0000
1000
0001
0000
0010
0001
0000
1000
0010
0100
0000
0001
1000
0001
0000
,
0010
0000
0100
1000
0000
0001
0100
0000
0010
1000
0001
0000
0100
0001
1000
0000
,
0100
0000
0010
0100
0000
1000
0001
0000
0100
0001
1000
0001
0010
0100
2000
0000
,
3001
0000
0100
0010
0000
1000
0010
0000
0100
0000
0001
0000
1000
0100
0010
0000
,
0001
0000
1000
0001
0000
0010
0001
0000
1000
0001
0100
0000
0010
1000
0001
0000
,
0100
0000
0001
1000
0000
0100
0010
0001
1000
0000
0001
0000
0100
0010
1000
0000
,
2020
0000
0000
3030
0000
0000
0000
0000
0202
0000
0303
0000
0000
0000
0000
0000
2200
3300
0000
0000
0000
0000
0000
0000
2002
0000
0000
0000
3003
0000
0000
0000
,
1000
0000
0001
0010
0000
0100
1000
0000
0001
0100
0010
1000
0001
0000
0000
0000
,
1000
0000
0010
0000
0100
0001
0000
1000
0001
1000
0100
1000
0001
0100
0010
0000
,
1000
0000
0001
1000
0000
0100
0010
0000
0100
0000
1000
0000
0001
0100
0010
0000
,
0100
0000
0001
1000
0000
0010
0100
0000
0001
1000
0100
0010
0001
1000
0100
0010
,
0001
0000
1000
0001
0000
0010
0100
1000
0001
0000
0100
0000
0010
1000
0001
0000
,
1000
0000
0001
1000
0000
0100
0010
0000
0001
1000
0010
0100
0001
1000
0010
0100
,
0001
0000
0100
0001
1000
0000
0001
1000
0010
1000
0001
1000
0100
0010
0001
1000
,
0020
0100
0100
0100
0100
0130
0110
0000
,
1000
0001
2001
3100
1000
0001
0011
0000
,
0001
0000
0100
0000
0120
0000
1030
0000
0001
0010
0100
0000
1000
0000
0010
1000
,
0001
0100
1000
0001
0010
0100
0010
1000
,
0001
0010
0000
0100
1000
0000
0001
0000
0100
0000
0010
0000
1000
0001
0010
0100
,
1000
0100
0120
0031
1000
0001
0101
0000
,
0001
0000
1000
0000
1002
0000
0013
0000
0001
1000
0010
0000
0100
0000
0010
1000
,
0001
0010
1000
0001
0100
0010
0100
1000
,
0001
1000
0000
0010
0100
0000
0010
0000
1000
0001
0010
0000
0100
1000
0001
1000
,
0010
0000
1000
0001
0100
0000
0010
1000
0001
0010
0100
0000
1000
0000
0000
0000
,
0001
0000
1000
0100
0010
0000
0001
0000
1000
0100
0010
0000
0001
1000
0010
1000
,
0001
0100
0010
0001
1000
0100
0001
1000
,
0100
0010
0000
0001
1000
0000
0010
0000
1000
0000
0001
0000
0100
0001
1000
0100
,
0010
0000
0001
1000
0010
0000
0100
0000
0001
0000
1000
0100
0010
0001
1000
0000
,
0001
0010
0100
1000
0001
0100
0010
1000
0001
0010
0100
0010
0001
1000
0010
0000
,
1010
0000
0000
0101
0000
0000
0000
0000
,
1100
0000
0000
0000
0000
0000
0011
0000
0000
0000
0001
1000
0000
0010
1000
0000
,
1001
0000
1000
0000
0001
0000
0010
0100
0000
1000
0100
0000
0010
0001
0000
1000
,
0010
0000
0100
0000
0001
0000
1000
0001
0000
0010
0100
1000
0001
0100
0010
0100
,
0001
0000
1000
0000
0001
0000
0100
0010
0000
1000
0010
0000
0100
0001
0000
1000
,
0001
0000
0100
0000
0010
0000
1000
0001
0000
0010
0100
0010
0001
0100
0010
1000
,
0001
0000
0000
0000
;

//--------------- dance-double - Fred-104 ----------------
#NOTES:
     dance-double:
     Fred-104:
     Easy:
     7:
     :
00000000
00000000
00000000
00000000
,
00000000
00000000
00000000
00000000
,
00000000
00000000
00000000
00000000
,
00000000
00000000
00000000
00000000
,
00000000
00000000
00000000
00000000
,
00000000
00000000
00000000
00000000
,
00000000
00000000
00000000
00000000
,
00000000
00000000
00000000
00000000
,
00000000
00000000
00000000
00000000
,
00000000
00000000
00000000
00000000
,
00001000
00000000
00000000
00010000
00000000
00000000
00001000
00000000
,
00000000
00000000
00000000
00000000
,
01000000
00000000
00000000
00100000
00000000
00000000
01000000
00000000
,
00000000
00000000
00000000
00000000
,
00010000
00000000
00000000
10000000
00000000
00000000
00010000
00000000
,
00000000
00000000
00000000
01000000
,
01000000
00000000
00000000
00001000
00000000
00000000
00000000
00000000
,
00010000
00000000
00000000
00000100
00000000
00000000
00000000
00000000
,
00010000
00000100
00001000
00000000
,
00000100
00001000
00000001
00001000
,
00000200
00000300
00000020
00000030
,
00000001
00001000
00000001
00001000
,
00000100
00000000
00010000
00000000
,
00001000
00001000
00010000
00010000
,
00001000
00000000
00000000
00011000
00000000
00000000
00000000
00000000
,
01000000
00000000
00000000
01100000
00000000
00000000
00000000
00000000
,
00010000
00010000
01000000
10000000
,
01000000
00010000
00010000
10000000
,
01000000
00010000
00001000
00000010
,
00000100
00001000
00000001
00000010
,
00000100
00000100
00001000
00000001
,
00000100
00000100
00000010
00001000
,
00000100
00000100
00000100
00000000
00010000
00010000
00010000
00000000
,
00022000
00000000
00000000
00033000
,
00001000
00000000
00100000
00000000
00010000
00000000
00000000
10000000
,
00000000
10000000
00000000
00000000
00010000
00000000
00100000
00000000
,
00010000
10000000
00100000
01000000
,
00001000
00000000
00010000
00000000
,
00001000
00000000
00010000
00000000
00001000
00000000
00000000
00010000
,
00000000
00010000
00000000
00000000
00000010
00000000
00001000
00000000
,
00000010
00010000
00001000
00010000
,
00000100
00000100
00001000
00001000
,
00001001
00000000
00000000
00000000
00000110
00000000
00000000
00000001
,
00000000
00001000
00000000
00000000
00000010
00000000
00010000
00000000
,
00001000
00000000
00010000
00000010
,
00010000
00000000
00001000
01000000
,
00001000
00000000
00010000
00000000
00001000
00000000
00000000
00100000
,
00000000
00100000
00000000
00000000
00010000
00000000
10000000
00000000
,
01000000
01000000
01000000
00000000
00100000
00100000
00100000
00000000
,
00022000
00000000
00000000
00033000
,
00010000
00001000
00000020
00000030
,
00001000
00010000
00200000
00300000
,
00010000
00001000
00020000
00030000
,
00010000
00001000
00000100
00000010
,
00001000
00000001
00000200
00000300
,
00000010
00010000
00002000
00003000
,
00100000
00010000
20000000
30000000
,
01000000
00100000
00001000
00010000
,
00022000
00000000
00000000
00033000
,
00010000
00001000
00000200
00000300
,
00000001
00000100
00000020
00000030
,
00001000
00000100
00010000
00000100
,
00010000
00001000
02000000
03000000
,
00001000
00010000
00100000
10000000
,
01000000
01000000
01000000
00000000
00100000
00100000
00100000
00000000
,
00022000
00000000
00000000
00033000
,
00010000
00001000
00000100
00000010
,
00010000
00001000
00000200
00000300
,
00000001
00000000
00001000
00000000
,
00000010
00010000
00011000
00000000
,
00001000
00010000
00100000
10000000
,
01000000
00010000
00002000
00003000
,
00010000
00001000
00010000
00001000
,
00010000
00000000
00011000
00000000
,
00010000
00001000
00000010
00000100
,
00001000
00000001
00000100
00000000
,
00000001
00000010
00001000
00000000
,
00010000
00001000
00011000
00000000
,
00001000
00000000
01000000
00000000
00010000
00010000
00010000
00000000
,
10000000
00000000
01000000
00000000
00100000
00100000
00100000
00000000
,
00001000
00000000
00000000
00011000
00000000
00000000
00000000
00000000
,
00010000
00000000
00000000
00010010
00000000
00000000
00000000
00000000
,
00010000
00001000
00000100
00000000
,
00000001
00000010
00002000
00003000
,
00001000
00010000
01000000
00000000
,
10000000
00100000
00020000
00031000
,
00011000
00000000
00000000
00000000
;

//--------------- dance-double - Fred-104 ----------------
#NOTES:
     dance-double:
     Fred-104:
     Medium:
     12:
     :
00000000
00000000
00000000
00000000
,
00000000
00000000
00000000
00000000
,
00000000
00000000
00000000
00000000
,
00000000
00000000
00000000
00000000
,
00000000
00000000
00000000
00000000
,
00000000
00000000
00000000
00000000
,
00000000
00000000
00000000
00000000
,
00000000
00000000
00000000
00000000
,
00000000
00000000
00000000
00000000
,
00000000
00000000
00000000
00000000
,
00010000
00001000
00010000
00000100
00000010
00000001
00001000
00000000
,
00000001
00000100
00000010
00001000
00000100
00000100
00000000
00010000
,
00001000
00000000
00000000
00101000
00000000
00000000
00110000
00000000
,
00010000
00000000
00000000
10000000
00000000
00000000
00010000
00000000
01000000
00000000
00000000
00000000
00100000
00000000
00000000
00000000
,
10000000
01000000
10000000
00010000
01000000
00001000
00010000
00000000
,
00001000
00000010
00000100
00001000
00000100
00000100
00000000
00001000
,
00000001
00000000
00000000
00000110
00000000
00000000
00010000
00001000
,
00010000
00000000
00000000
00011000
00000000
00000000
00001000
00000000
,
00100000
00010000
10000000
00010000
00100000
01000000
10000000
00000000
,
00010000
10000000
01000000
00010000
00001000
00010000
00000000
00000100
,
00000010
00000000
00000001
00001000
00000000
00000010
00000100
00000010
,
00001000
00000000
00000000
00000001
00000000
00000000
00000010
00000000
00000100
00000000
00010000
00000000
00001000
00000000
00000000
00000000
,
00010000
00001000
00000010
00001000
00010000
00001000
00100000
00000000
,
00001000
00010000
00001000
01000000
00001000
00010000
00001000
00100000
,
00110000
00000000
00000000
01100000
00000000
00000000
00000000
00000000
,
11000000
00000000
00000000
01010000
00000000
00000000
00011000
00000000
,
00010000
00001000
00000000
00001000
00010000
00000000
00000010
00001000
,
00000100
00000010
00000000
00000010
00000100
00000000
00001000
00000001
,
00001000
00000010
00000000
00000010
00010000
00000000
00001000
00100000
,
00010000
10000000
00000000
10000000
01000000
00100000
00010000
00000000
,
10000000
01000000
00010000
01000000
10000000
01000000
00010000
00000000
,
00001000
00000010
00000001
00001000
00000010
00000001
00000010
00000000
,
00001000
00000001
00000010
00000100
00010000
00001000
01000000
00001000
,
00010000
00100000
10000000
00010000
00100000
01000000
10000000
00000000
,
10010000
00000000
10000000
01000000
00100000
00010000
00100000
00101000
,
00000000
00010010
00000000
00010000
00001000
00000100
00000001
00000000
,
00001000
00000100
00000010
00000001
00001000
00000001
00000200
00000320
,
00000130
00001000
00010000
00100000
01000000
00100000
10010000
00000000
,
11000000
00000000
10000000
01000000
00010000
00001000
00010000
00011000
,
00000000
00000110
00000000
00000001
00000001
00001000
00000001
00000100
,
00000001
00000010
00000100
00001000
00000100
00000100
00010000
00010000
,
00011000
00000000
00010010
00000000
00010000
00001000
00011000
00000000
,
00020100
00000000
00031000
00000000
01002000
00000000
00013000
00011000
,
00000000
00101000
00000000
00001000
00010000
00001000
02000000
03100000
,
01000000
01000000
00000000
00010000
00010000
10000000
01000000
00100000
,
00001000
00001000
00000000
00010000
00010000
00000010
00001000
00000100
,
00001100
00000000
00000000
00001000
00000001
00000000
00000010
00000000
00000100
00000000
00000000
00000100
00010000
00000000
00011000
00000000
,
00000000
00010010
00000000
00010000
00001000
00010000
01000000
10000000
,
00010000
10000000
00100000
01000000
00001000
00001000
00010000
00010000
,
00000010
00010000
00001000
00100000
00001000
00010000
00011000
00000000
,
00010000
00000000
00000000
00000010
00000000
00000000
00001000
00000000
00000001
00000000
00000000
00000000
00000010
00000000
00000100
00000000
,
00000010
00000000
00000000
00000001
00000000
00000000
00000100
00000000
00001000
00000000
00010000
00000000
00001000
00000000
00000000
00000000
,
01000000
00000000
00000000
00100000
00000000
00000000
01000000
00000000
00010000
00000000
00000000
00000000
10000000
00000000
01000000
00000000
,
00100000
00000000
00000000
00001000
00000000
00000000
00010000
00000000
00001000
00000000
00000100
00000000
00000010
00000000
00000000
00000000
,
00001000
00000000
00000000
00000001
00000000
00000000
00000010
00000000
00000100
00000000
00000000
00000000
00010000
00000000
00001000
00000000
,
00010000
00000000
00000000
00000100
00000000
00000000
00000010
00000000
00000001
00000000
00000100
00000000
00001000
00000000
00000000
00000000
,
00010000
00000000
00000000
00001000
00000000
00000000
00000010
00000000
00000001
00000000
00000000
00000000
00000100
00000000
00001000
00000000
,
00022000
00000000
00000000
00033000
00000000
00000000
00000000
00000000
00020020
00000000
00030030
00000000
00000000
00000000
00000000
00000000
00202000
00303000
00000000
00000000
00000000
00000000
00000000
00000000
00022000
00000000
00000000
00000000
00033000
00000000
00000000
00000000
,
00001000
00000000
00000000
00010000
00000000
00000000
01000000
00000000
10000000
00010000
10000000
00000000
00010000
00000000
00000000
00000000
,
01000000
00100000
10000000
00010000
00100000
01000000
00100000
00000000
,
00001000
00010000
00000010
00001000
00000100
00000000
00010000
00001000
,
00000100
00000001
00001000
00000100
00000010
00000001
00001000
00000000
,
00000001
00000010
00000100
00000010
00001000
00000000
00010000
01000000
,
00100000
00010000
10000000
00100000
00010000
00001000
00010000
00000000
,
00000100
00000100
00000010
00000010
00000001
00000001
00001000
00001000
,
00002002
00000000
00000000
00003003
,
00000001
00000100
00001000
00010000
00001000
00000100
00000001
00000000
,
00001000
00000001
00000010
00000100
00010000
00001000
00000000
00001000
,
00100000
00010000
10000000
00010000
01000000
00100000
10000000
00000000
,
00010000
00000000
00000000
10000000
00000000
00000000
01000000
00000000
00100000
00000000
01000000
00000000
10000000
00000000
00000000
00000000
,
00010000
10000000
00100000
00010000
00001000
00010000
00100000
00000000
,
10000000
01000000
00010000
00001000
00000010
00000100
00000000
00001000
,
00000001
00000010
00000100
00000010
00000001
00001000
00000010
00000000
,
00010000
00001000
00000010
00001000
00010000
00001000
00200000
00000000
,
00301000
00010000
01000000
10000000
00010000
01000000
00100000
00000000
,
01000000
00010000
10000000
01000000
00100000
00001000
00000000
00001000
,
00010000
00001000
01000000
00001000
00010000
00000100
00001000
00000000
,
00000010
00000000
00000000
00000010
00000000
00000000
00000010
00000000
00000100
00000000
00000001
00000000
00001000
00000000
00000000
00000000
,
00000001
00000100
00000010
00000100
00001000
00010000
00100000
00000000
,
01000000
00100000
10000000
00010000
01000000
00001000
00010000
00001000
,
00011000
00000000
00000000
00010100
00000000
00000000
00000000
00000000
,
00001100
00000000
00000000
00000101
00000000
00000001
00000100
00001000
,
00011000
00000000
00000000
00000000
00010000
00000000
01000000
00100000
00000000
00010000
10000000
00000000
00010000
00000000
01000000
00000000
,
00010000
00000000
00000000
00000000
00010000
00000000
10000000
01000000
00000000
00100000
00001000
00000000
00010000
00000000
00000010
00000000
,
00001000
00000000
00000000
00000000
00001000
00000000
00000100
00000010
00000000
00000100
00001000
00000000
00000001
00000000
00000010
00000000
,
00000100
00000000
00000000
00000000
00000100
00000000
00001000
00000001
00000000
00000001
00000010
00000000
00000100
00000000
00010000
00001000
,
00010000
00000000
00000000
00000000
;

//--------------- dance-double - Fred-104 ----------------
#NOTES:
     dance-double:
     Fred-104:
     Hard:
     16:
     :
00000000
00000000
00000000
00000000
,
00000000
00000000
00000000
00000000
,
00000000
00000000
00000000
00000000
,
00000000
00000000
00000000
00000000
,
00000000
00000000
00000000
00000000
,
00000000
00000000
00000000
00000000
,
00000000
00000000
00000000
00000000
,
00000000
00000000
00000000
00000000
,
00000000
00000000
00000000
00000000
,
00000000
00000000
00000000
00000000
,
00011000
00010000
00000010
00001010
00001000
00000001
00001001
00000000
,
00000001
00000000
00000010
00000000
00000100
00000000
00001000
00000000
00000001
00000000
00001000
00000000
00000001
00000000
00000100
00000010
,
00000100
00000000
00000010
00001001
00000000
00000000
00000101
00000001
,
00001000
00000000
00000000
00000100
00000000
00000000
00010000
00000000
00001000
00000000
01000000
00010000
01000000
00010000
10000000
00010000
,
00100000
00001000
00100000
00101000
00001000
00010000
00010010
00000000
,
00010000
00000000
00001000
00000000
00000100
00000000
00001000
00000000
00010000
00000000
00001000
00000000
00011000
00000000
00010000
00001000
,
00010000
00000000
00001000
00000000
01000000
00000000
01100000
00000000
00000000
00000000
00000000
00000000
01100000
00000000
00010000
00100000
,
01000000
10000000
00100000
10100000
00000000
00000000
10010000
00000000
,
10000000
00100000
00010000
00001000
00000100
00000010
00010000
00000000
,
00001000
00000000
00000100
00000000
00000001
00000000
00001000
00000000
00000001
00000010
00000100
00000000
00001000
00000000
00000001
00001000
,
00000200
00001300
00000100
00000020
00001030
00010000
02000000
03200000
,
00310000
10000000
00000000
00010000
01000000
00000000
00001000
00000000
00020000
00000000
00000000
00000000
00031000
00010000
00000010
00010000
,
00001000
00000000
00010000
00000000
00001000
00000000
00000010
00000000
00000100
00000000
00010000
00000000
00001000
00000000
00100000
00010000
,
10000000
00000000
00010000
00100000
01000000
00000000
00100000
00001000
00010000
00000000
00000100
00000000
00001000
00000001
00000100
00000000
,
00000110
00000000
00000100
00000000
00000010
00000000
00001001
00000000
00000000
00000000
00000000
00000000
00000000
00000000
00000001
00001000
,
00000001
00000000
00001000
00000000
00000100
00000000
00001100
00000000
00000000
00000000
00000000
00000000
00000110
00000000
00000001
00001000
,
00000001
00001000
00000001
00000010
00000100
00000000
00000010
00000010
,
00000001
00000000
00000100
00000000
00001000
00000000
00010000
00000000
00100000
00000000
00000000
00000000
01000000
00010000
01000000
00010000
,
10000000
00000000
00100000
00000000
01000000
00000000
00100000
00000000
00010000
00000000
00000000
00000000
00001000
00010000
00001000
00000000
,
00010000
00000000
00001000
00000000
00000010
00000000
00000100
00000000
00001000
00000001
00000010
00000000
00000002
00000000
00002003
00000000
,
00003001
00000010
00000100
00000000
00000010
00000100
00001000
00000000
00000100
00010000
00001000
00010000
00002000
00000000
00000000
00003000
,
00001000
00100000
00010000
00000000
10000000
00010000
01000000
00000000
00100000
10000000
00010000
00100000
02000000
00000000
00000000
00000000
,
03100000
00010000
10000000
00000000
00100000
01000000
00010000
00000000
01000000
00001000
00010000
00000000
00000100
00001000
00000001
00000000
,
00000010
00000001
00001000
00000001
00000100
00000010
00000110
00000000
,
00000001
00000000
00001000
00000010
00000100
00000000
00000001
00001000
00000100
00000000
00010000
00001000
00010000
00000000
00011000
00000000
,
00000000
00000000
00010010
00000000
00010000
00000000
00001000
00100000
00010000
00000000
01000000
00001000
00010000
00000000
00001000
00000010
,
00000100
00000000
00001000
00000010
00000100
00000000
00001000
00010000
00100000
00000000
01000000
00001000
00020000
00000000
00032000
00000000
,
00103000
00010000
10000000
00000000
00010000
01000000
00001000
00000000
00010000
00000100
00001000
00000000
00000001
00001000
00000100
00000000
,
00000110
00000000
00000100
00001000
00000001
00000000
00001000
00000001
00000010
00000000
00000100
00010000
00001000
00000000
00011000
00000000
,
00000000
00000000
01001000
00000000
00001000
00000000
00010000
00001000
00100000
00000000
00010000
10000000
00100000
00000000
01000000
00000000
,
00010000
10000000
01000000
00000000
00100000
00001000
00100000
00000000
00001000
00010000
00001000
00000000
00010000
00000100
00010000
00000000
,
00021000
00031000
00201000
00301000
00021000
00031000
02002000
03003000
,
00021000
00000000
00030010
00000000
00012000
00000000
00103000
01100000
,
00000000
00000000
10010000
00000000
10000000
01000000
00000000
01000000
00100000
00000000
00001000
00000000
00010000
00001000
00010000
00000000
,
00001000
00000010
00000001
00000000
00000000
00000000
00001000
00000100
00000010
00000000
00000000
00000000
00000001
00000000
00000002
00000000
,
00000103
00000000
00000020
00000000
00000130
00000000
00002000
00000000
00013000
00000000
00200000
00000000
01300000
00010000
10000000
00000000
,
10010000
00000000
00000000
10000000
01000000
00000000
00100000
00000000
00010000
00000000
10000000
00010000
01000000
00000000
01010000
00000000
,
00000000
00000000
01001000
00000000
00001000
00000000
00010000
00000100
00001000
00000000
00000001
00000000
00000100
00000000
00000010
00000000
,
00001000
00000001
00000010
00000000
00000100
00010000
00001000
00000000
01000000
00000000
00010000
00000000
10000000
00010000
00100000
01000000
,
00100000
00001000
00010000
00001000
00000010
00000100
00001100
00000000
,
00000001
00000000
00001000
00000001
00000000
00001000
00000010
00000000
00010000
00000000
00001000
00000000
00100000
00001000
00010000
00000000
,
00001000
00000000
01000000
00010000
00000000
10000000
00010000
00000000
00100000
01000000
00100000
00000000
00001000
00010000
00001000
00000000
,
00010000
00000000
00000010
00001000
00000000
00000010
00000100
00000000
00000010
00000000
00001000
00000000
00000001
00000010
00000100
00000000
,
00010000
00000000
00001000
00010000
00000000
00000010
00010000
00000000
00001000
00100000
00010000
00000000
10000000
00010000
01000000
00000000
,
00100000
00000000
10000000
00010000
00000000
00100000
00010000
00000000
10000000
00000000
00010000
00000000
01000000
00001000
00010000
00000000
,
00001000
00000000
00000010
00000100
00000000
00001000
00000001
00000000
00000100
00000001
00001000
00000000
00000001
00000010
00000100
00000000
,
00001000
00000000
00000001
00000100
00000000
00000010
00000100
00000000
00001000
00010000
00100000
00000000
01000000
00010000
10000000
00000000
,
22000000
00000000
00000000
33000000
00000000
00000000
00000000
00000000
00220000
00000000
00330000
00000000
00000000
00000000
00000000
00000000
00202000
00303000
00000000
00000000
00000000
00000000
00000000
00000000
00022000
00000000
00000000
00000000
00033000
00000000
00000000
00000000
,
00010000
00000000
00001000
00000100
00000000
00001000
00010000
00000000
00001000
00000010
00001000
00010000
00001000
00000000
00000000
00000000
,
00010000
00000000
00000010
00000100
00000000
00000010
00001000
00000000
00000001
00001000
00000100
00000000
00010000
00001000
00010000
00000000
,
00001000
00000000
00100000
00001000
00000000
00010000
00001000
00000000
01000000
00010000
10000000
00000000
00010000
00100000
01000000
00000000
,
10000000
00000000
00010000
10000000
00000000
00100000
01000000
00000000
00010000
10000000
01000000
00000000
00100000
00001000
00010000
00000000
,
00010000
00000000
00000010
00001000
00000000
00000010
00010000
00000000
00001000
00010000
00000100
00000000
00001000
00000001
00000010
00000000
,
00000001
00000000
00001000
00000001
00000000
00000100
00000010
00000000
00001000
00000001
00000010
00000000
00000010
00000001
00001000
00000000
,
00000010
00000000
00010000
00000010
00000000
00001000
00000010
00000000
00010000
00001000
00100000
00010000
10000000
00100000
01000000
00000000
,
20020000
00000000
00000000
30030000
,
00010000
10000000
01000000
00010000
00001000
00010000
00100000
00000000
,
01000000
00000000
00001000
00010000
00001000
00000000
00000010
00000000
00000100
00001000
00000001
00000000
00000100
00000000
00000010
00001000
,
00000001
00000100
00000010
00000100
00001000
00000001
00000010
00001000
,
00000001
00001000
00000000
00000010
00010000
00000000
00001000
00000000
00010000
00000000
00000010
00000000
00010000
00001000
00010000
00001000
,
00010000
00000100
00000010
00000100
00001000
00000100
00010000
00000000
,
00001000
00000000
00010000
00000100
00001000
00000000
00000100
00000000
00010000
00001000
00100000
00000000
00010000
00000000
01000000
00100000
,
10000000
00100000
00010000
10000000
01000000
00100000
01000000
00010000
,
10000000
00000000
00100000
01000000
00010000
00000000
10000000
00000000
01000000
00100000
00010000
00000000
00100000
00001000
00010000
00001000
,
00010000
00000000
00000100
00001000
00000100
00000000
00010000
00000000
00000100
00000000
00001000
00000001
00000100
00000001
00001000
00000000
,
00000001
00000000
00000010
00000100
00001000
00000000
00000100
00000000
00010000
00000000
00000100
00000000
00001000
00000001
00000100
00000001
,
00001000
00000010
00000100
00001000
00010000
00100000
01000000
00100000
,
10000000
00010000
00000000
00100000
01000000
00000000
10000000
00000000
00010000
00000000
00010000
00000000
01000000
00001000
00010000
00001000
,
01000000
00000000
00001000
00000000
00010000
00000100
00001000
00000000
00000001
00000000
00000010
00000100
00000010
00000000
00000001
00000000
,
00001000
00000001
00000010
00000000
00000001
00000010
00000100
00000000
00010000
00001000
00100000
00000000
00010000
10000000
00100000
00000000
,
01100000
00000000
00100000
00000000
10000000
00000000
10010000
00000000
00000000
00000000
00000000
00000000
00000000
00000000
10000000
01000000
,
10000000
00000000
00010000
00000000
00100000
00000000
00110000
00000000
00000000
00000000
00100000
00001000
00000000
00010000
00001000
00000000
,
00011000
00000000
00000000
00000000
00010000
00000000
00000010
00001000
00000000
00000010
00000100
00000000
00000001
00001000
00000000
00000100
,
00000010
00000000
00000001
00000000
00001000
00000000
00000001
00000010
00000000
00000100
00000010
00000001
00001000
00000010
00010000
00000000
,
00001000
00000000
00000000
00000000
01000000
00000000
00010000
10000000
00000000
01000000
00100000
00000000
00010000
10000000
00000000
00100000
,
01000000
00000000
00100000
00000000
00010000
00000000
00001000
00000100
00000000
00000010
00001000
00000001
00000010
00000100
00001000
00000000
,
00001001
00000000
00000000
00000000
;
