#TITLE:ARTEMiS;
#ARTIST:BlackY;
#GENRE:HARD RENAISSANCE;
#BANNER:ARTEMiS.png;
#BACKGROUND:ARTEMiS-bg.png;
#CDTITLE:./CDTitles/WACCA Lily.png;
#MUSIC:ARTEMiS.ogg;
#SAMPLESTART:73.539;
#SAMPLELENGTH:15;
#BPMS:0=186,64=372,72=186,136=93,152=186,212=93,214=186,342=93,356=186,396.5=372,399.5=186;
#STOPS:396.5=0.121,397.25=0.121,398=0.121,398.75=0.12;
#TIMESIGNATURES:0=4=4,212=2=4,214=4=4,354=6=4,360=4=4;
#BGSTAGE:30;

//--------------- dance-single - Fred-104 ----------------
#NOTES:
     dance-single:
     Fred-104:
     Beginner:
     8:
     :
0000
0000
0000
0000
,
0000
0000
0000
0000
,
0000
0000
0000
0000
,
0000
0000
0000
0000
,
0000
0000
0000
0000
,
1001
0000
0000
0000
0001
0000
0000
1000
,
0000
0000
0000
0000
,
0000
0000
0000
0000
,
0000
0000
0000
0000
,
1001
0000
0001
0000
,
0010
0000
0001
0000
,
1000
0000
0010
0000
,
0100
0000
0010
0000
,
1000
0000
1000
0000
,
0001
0000
0001
0000
,
1000
1000
0001
0001
,
2002
0000
0000
0000
,
0000
0000
3003
0000
,
2002
3003
0110
0000
,
1001
0000
0001
0000
,
0010
0000
0001
1000
,
0010
0000
1000
0100
,
1000
0000
0001
1000
,
0001
0001
0100
0100
,
0020
0030
0100
0001
,
1000
0001
1000
0000
,
1001
0000
0000
1001
0000
0000
1001
0000
,
0000
1001
0000
0000
1000
0000
0001
0000
,
1001
0000
0000
1001
0000
0000
0110
0000
,
0000
0110
0000
0000
1000
0000
0001
0000
,
1000
1000
0010
0010
,
0001
0001
0100
0100
,
1000
1000
0001
0001
,
2002
0000
3003
0000
,
2000
0000
0000
3000
,
0002
0000
0000
0003
,
0200
0000
0000
0300
,
0020
0000
0000
0030
,
1000
0000
0000
1000
0000
0000
0000
0000
,
0000
0001
0000
0000
2000
0000
3002
0000
,
0103
0000
0000
0100
0000
0000
0000
0010
,
0000
0010
0000
0000
0100
0000
0100
0000
,
0001
0001
0000
1000
,
0001
0000
0000
1000
0000
0000
0001
0000
,
1000
1000
0001
0001
,
1001
0000
0110
0000
,
1001
0000
0001
0000
,
0010
0000
0010
0000
,
0100
0000
0100
0000
,
1000
0000
1000
0000
,
0001
0000
0100
0000
,
0010
0000
1000
0000
,
0001
0001
1000
1000
,
2002
3003
0001
0001
,
0000
1000
1000
0000
,
0010
0000
0100
0000
,
0001
0000
0010
0000
,
0001
1000
0001
0000
,
0100
0000
0010
0000
,
0000
0100
0001
0000
,
1000
0000
0001
0000
,
1000
1000
1000
1000
,
0010
0000
0100
0100
,
0001
0010
0001
1000
,
0001
0000
0100
0010
,
0100
0100
0001
0000
,
1000
0000
0010
0000
,
0100
0000
0001
0001
,
1000
0000
1000
0000
0110
0000
0000
2002
,
0000
0000
3003
0000
1000
0000
0000
1000
,
0000
0001
0100
0010
,
0100
0001
0010
0001
,
1000
0001
1000
0100
,
1001
0000
0000
0000
0001
0000
0000
0100
,
0000
0010
1000
0010
,
1000
0000
0001
0000
0100
0100
0100
0000
,
0001
0000
0010
0000
0001
0001
0000
0000
,
1000
0001
1001
1000
,
0010
0100
0010
0100
,
0001
0000
1000
0000
0001
0001
0001
0000
,
0100
0010
0100
0001
,
1000
0001
2000
0000
,
3020
0000
0230
0000
,
0302
0000
0000
0000
1003
0000
0000
0010
,
0000
1000
0001
0100
,
0010
1000
2002
0000
,
0000
3003
2002
0000
,
0000
3003
2002
0000
,
0000
3003
0002
2000
,
3003
0000
0000
0000
,
1000
0000
0001
0000
0001
0000
0000
1000
,
0000
0001
0000
0000
1000
0000
0000
0001
,
0100
0100
0010
0100
,
0000
0001
0000
0000
1000
0000
0000
0001
,
0010
0001
1000
0010
,
1000
0100
1000
0000
,
0001
0100
0010
0100
,
0001
0000
0000
2002
0000
0000
3003
0000
,
1001
0000
0000
0000
0110
0000
0000
2002
,
0000
0000
0000
0000
,
0000
0000
0000
0000
,
0000
0000
0000
0000
,
3003
0000
0000
0000
;

//--------------- dance-single - Fred-104 ----------------
#NOTES:
     dance-single:
     Fred-104:
     Easy:
     11:
     :
0000
0000
0000
0000
,
0000
0000
0000
0000
,
0000
0000
0000
0000
,
0000
0000
0000
0000
,
0000
0000
0000
0000
,
0110
0000
0000
0000
0001
0000
0000
1001
,
0000
0000
0000
0000
,
0000
0000
0000
0000
,
0000
0000
0000
0000
,
1001
0001
0010
0001
,
0100
0100
0010
0100
,
0001
1000
0100
1000
,
0001
0100
0010
1000
,
0001
0000
0000
0001
0000
0000
0001
0000
1000
0000
0000
0010
0000
0000
0100
0000
,
0001
0000
0000
0001
0000
0000
0001
0000
0010
0000
0000
0100
0000
0000
0010
0000
,
0001
0100
0010
1000
,
2002
0000
0000
0000
,
0000
0000
3003
0000
,
0220
0330
0001
1000
,
0001
0000
0010
0000
0001
0100
0001
0000
,
1002
1003
0100
1000
,
0001
0000
0000
0000
0100
0000
0000
0000
0001
0000
0000
0001
0000
0000
0001
0000
,
0020
0030
0001
0000
0100
0010
0100
0000
,
0001
0010
0001
0000
1000
0010
1000
0000
,
0002
0000
0003
0020
0030
0002
0203
0302
,
1003
0000
0000
0000
1001
0000
0000
0000
0001
0000
0000
1000
0000
0000
0010
0000
,
0110
0000
0000
0110
0000
0000
1001
0000
,
0000
1001
0000
0000
1000
0000
0100
0000
,
1100
0000
0000
1100
0000
0000
0011
0000
,
0000
0000
0011
0000
0000
0000
0000
0000
0001
0000
0000
1000
0000
0000
0001
0000
,
0100
0100
0010
0010
,
1000
1000
0001
0001
,
1000
0100
1000
0000
0001
0010
0001
0000
,
2002
0000
3003
0000
,
2000
3200
0320
0032
,
0103
0000
0010
0000
0100
0001
1000
0000
,
0001
0000
0010
0000
0001
1000
0001
0000
,
1000
1000
0100
0100
0010
0010
0001
0001
,
1001
0000
0000
1100
0000
0000
1010
0000
,
0000
0110
0000
0000
0101
0000
0001
0000
,
0011
0000
0000
1010
0000
0000
0001
1000
,
0000
0000
1001
0000
0000
0000
0000
0000
1000
0000
0000
0010
0000
0000
1000
0000
,
0100
0000
0110
0000
0000
0011
0000
0000
,
0001
0000
0000
0001
0000
0000
1000
0000
0000
1000
0000
0000
0010
0000
1000
0000
,
0100
0100
0010
0010
,
0002
0000
2000
3003
,
1010
0000
0000
0000
1000
0000
0000
0000
0100
0000
0000
0010
0000
0000
0001
0000
,
0101
0000
0000
0000
0100
0000
0000
0000
0010
0000
0000
0100
0000
0000
0001
0000
,
0011
0000
0000
0000
0001
0000
0000
0000
0100
0000
0000
0010
0000
0000
1000
0000
,
1100
0000
0000
0000
1000
0000
0000
0000
0010
0000
0000
1000
0000
0000
0100
0000
,
0110
0000
0000
0000
0100
0000
0010
0000
0100
0000
0000
0010
0000
0000
0100
0000
,
0101
0000
0000
0000
0001
0000
0010
0000
0001
0000
0000
1000
0000
0000
0001
0000
,
0100
0010
0100
0000
0001
1000
0001
0000
,
2000
0000
0002
3003
0110
0000
1001
0000
,
0001
0000
0010
0100
0000
1000
0010
0000
,
0100
0001
0100
0000
0001
0000
1001
0000
,
1000
0000
0010
0100
0000
0010
1000
0000
,
0100
0010
0001
0000
0100
0000
0110
0000
,
0100
0000
0001
0010
0001
0000
1000
0000
,
0001
0000
0000
0010
0000
0000
0100
0000
1000
0000
0000
0010
0000
0000
1000
0000
,
2002
3003
0110
0000
,
1000
0000
0000
0001
0000
0000
1000
0000
0001
0000
0000
0000
1001
0000
0000
0000
,
1000
0000
0010
1000
0000
0100
0000
1000
,
0001
1000
0001
0000
0010
0000
1001
0000
,
0100
0000
0001
0000
0010
0001
1000
0000
,
0001
1000
0001
0000
1001
0000
1000
0000
,
0010
0000
0000
0010
0000
0000
0010
0000
0100
0000
0000
0000
0001
0000
0000
0000
,
0010
0000
0000
0010
0000
0000
0001
0000
1000
0000
0000
0000
0100
0000
0000
0000
,
0010
0001
1000
0010
,
0100
0000
0001
0000
1001
0000
0000
0001
,
0000
0100
0010
0000
,
0100
0000
0010
0000
1000
0000
0000
0010
,
0000
1000
0100
0010
,
0001
0000
1000
0000
0001
0100
0001
0100
,
0000
0010
1000
0001
,
0100
0010
1000
1001
,
0010
0000
0001
0000
0100
0100
0000
0000
,
0001
0000
0000
0001
0000
0000
0001
0000
1000
0000
0000
0000
1001
0000
0000
0000
,
0001
0100
0010
1000
,
0100
1000
0001
0010
,
0100
1000
0001
0100
,
0010
1000
0000
1000
0001
0000
0010
0000
,
0001
0100
0010
1000
,
0001
0000
1000
0000
1001
0000
0000
0110
,
0000
1001
0001
0100
,
0010
0000
1000
0000
0010
0000
0000
0000
1000
0000
0000
0001
0000
0000
2000
0000
,
0000
0000
0000
0000
3000
0000
0000
0000
0001
0000
0000
1000
0000
0000
0002
0000
,
0000
0000
0000
0000
0003
0000
0000
0000
1000
0000
0000
0001
0000
0000
2002
0000
,
0000
0000
3003
0000
0001
1000
2002
3003
,
1001
1001
0000
0000
2000
0000
3002
0000
,
1003
0000
1010
0000
0001
0010
0000
0011
,
0000
0000
0001
0000
0000
0100
0000
0000
0010
0000
0000
1000
0000
0000
0100
0000
,
1000
0000
1001
0000
0001
0010
0001
0100
,
0000
0000
0110
0000
0000
0010
0000
0000
1000
0000
0000
0100
0000
0000
0010
0000
,
0001
0000
0101
0000
0001
0010
0001
1000
,
0010
0000
0100
0000
0010
0000
1000
0000
0100
0000
0000
0010
0000
0000
0001
0000
,
1001
0110
1010
0101
,
1000
0000
0000
0001
0000
0000
2002
0000
0000
0000
0000
0000
3003
0000
0000
0000
,
0110
0000
0001
0010
0001
1000
0001
0100
,
0000
0000
0220
0000
0000
0000
0000
0000
0000
0000
0000
0330
0000
0000
2002
0000
,
0000
0000
0000
0000
,
0000
0000
0000
0000
,
3003
0000
0000
0000
;

//--------------- dance-single - Fred-104 ----------------
#NOTES:
     dance-single:
     Fred-104:
     Medium:
     14:
     :
0000
0000
0000
0000
,
0000
0000
0000
0000
,
0000
0000
0000
0000
,
0000
0000
0000
0000
,
0000
0000
0000
0000
,
1100
0000
0000
0000
0001
0000
0000
1001
,
0000
0000
0000
0000
,
0000
0000
0000
0000
,
0000
0000
0000
0000
,
0001
0000
0000
0000
0010
0000
0001
0000
1000
0000
0000
0001
0000
0000
0100
0000
,
0010
0000
0000
0000
1000
0000
0100
0000
0010
0000
0000
0001
0000
0000
1000
0000
,
0001
0000
0000
0000
0100
0000
0010
0000
0100
0000
0000
0001
0000
0000
0010
0000
,
0001
0000
0000
0000
0100
0000
0010
0000
1000
0000
0000
0001
0000
0000
1000
0000
,
0001
0000
0000
0001
0000
0000
0001
0000
0100
0000
0000
1000
0000
0000
0100
0000
,
0001
0000
0000
0001
0000
0000
0001
0000
0010
0000
0000
1000
0000
0000
0010
0000
,
0001
0100
0010
1000
0100
0010
0100
1000
,
0002
0000
0000
0000
,
2000
0000
3003
0000
,
2002
3003
1000
0100
0010
0001
1000
0000
,
0001
0100
0001
0010
0001
1000
0010
0100
,
0020
0000
1030
0100
0010
0001
1000
1000
,
0010
0000
0100
0000
0010
0000
1000
0000
1100
0000
0000
0101
0000
0000
1100
0000
,
2000
3100
0010
0001
0100
0010
0100
0001
,
0010
0100
0010
0100
0010
0001
2000
3002
,
2003
0000
3010
0200
0301
2000
3200
0320
,
0031
0000
0100
0000
0010
0000
0000
0000
1010
0000
0000
0101
0000
0000
1100
0000
,
1000
1000
0000
0100
0100
0000
0010
0010
,
0000
0001
0001
0000
1000
0001
1000
0000
,
0001
0010
0010
1000
0010
0010
0001
0100
,
0001
0000
0010
0000
0100
0000
1000
0000
1010
0000
0000
0101
0000
0000
0110
0000
,
0010
1000
0010
0100
0010
1000
0100
0010
,
0001
0010
0100
1000
0001
0100
0010
1000
,
0001
0010
0100
1000
0001
0001
1000
1000
,
2002
0000
3003
0000
,
1000
0100
1000
0100
0000
0010
0001
0010
0000
0001
1000
0001
0000
0100
0010
0000
,
0100
0000
0010
0000
0100
0000
0001
0000
0000
0000
0010
0000
0001
0000
0000
0000
0100
0000
0000
0000
0010
0000
1000
0000
0001
0000
0000
0001
0000
0000
0001
0000
,
0100
0000
0001
0000
0010
0000
0001
0000
0000
0000
0100
0000
0000
0100
0000
0000
1000
0000
0010
0000
1000
0000
0000
0000
0001
0000
0100
0000
0001
0000
0000
0000
,
1000
0000
0100
0000
0001
0000
0010
0000
1000
0000
0100
0000
0001
0000
0010
1000
,
0001
0000
0010
0001
0000
1000
0001
0100
,
0010
0010
0000
1000
0100
2000
3010
2000
,
3100
0010
0001
0001
0000
0100
0010
0010
,
0000
0000
1001
0000
0000
0000
0100
0000
1000
0000
0000
1010
0000
0000
0010
0000
,
0100
0000
1001
0000
0001
0010
0000
0001
,
0100
0000
0000
0010
0000
0000
1010
0000
0000
1000
0000
0000
0001
0000
2000
0000
,
3100
0010
0001
0100
0010
1000
0001
0010
,
0001
0000
0100
1000
0100
0010
1000
0000
,
1100
0000
0000
0000
0011
0000
0000
0000
0001
0000
0000
0100
0000
0000
0010
0000
,
0110
0000
0000
0000
1001
0000
0000
0000
0001
0000
0000
0010
0000
0000
0100
0000
,
1100
0000
0000
0000
1010
0000
0000
0000
1000
0000
0000
0010
0000
0000
0100
0000
,
0101
0000
0000
0000
0011
0000
0000
0000
0001
0000
0000
1000
0000
0000
0001
0000
,
0010
0000
0001
0000
0100
0000
0010
0000
0100
0000
0000
0001
0000
0000
1000
0000
,
0100
0000
0010
0000
0001
0000
1000
0000
0010
0000
0000
0100
0000
0000
0001
0000
,
1000
0100
1000
0001
0100
0010
0100
0010
,
0200
0000
0020
0330
0110
0000
1001
0000
,
0001
0010
0001
1000
0000
0100
1000
0001
,
0100
0010
1000
0010
0100
0000
0101
0000
,
1000
0100
0010
0001
0000
0010
1000
0010
,
0001
1000
0010
0100
0001
0000
1000
0010
,
0100
0001
0010
0001
0100
0000
0001
0010
,
0100
0000
0000
0010
0000
0000
0001
0000
1000
0000
0000
0010
0000
0000
0100
0000
,
0202
0000
0000
0303
0001
1000
0100
0010
,
0001
0000
0000
1000
0000
0000
0010
0000
0110
0000
0000
0000
1001
0000
0000
0000
,
0001
0010
0100
0010
0001
1000
0010
1000
,
0100
0010
0001
0000
0101
0000
1010
0000
,
0001
1000
0100
1000
0010
0100
0010
1000
,
0100
0010
0100
1000
1100
0000
1000
0100
,
0010
0000
0000
1000
0000
0000
0010
0000
0001
0000
0100
0000
0010
0000
0001
0000
,
0010
0000
0000
1000
0000
0000
0001
0000
1000
0000
0100
0000
1000
0000
1000
0000
,
1000
0020
0031
0020
1030
0100
0010
0001
,
1000
1000
1001
0000
0001
0010
0000
0100
,
1000
0000
0001
0100
0010
1000
0000
0100
,
0010
0100
1000
0010
0100
0001
0010
0001
,
0100
0001
0010
0000
0100
1000
0010
0100
,
0010
0000
0000
1000
0000
0000
0100
0000
0110
0000
0000
0000
0011
0000
0000
0000
,
0001
0000
0100
0000
1000
0000
0100
0000
0001
0000
0000
0010
0000
0000
0001
0000
,
0100
0010
1000
0001
0010
0100
1000
0010
,
0100
0001
1000
0100
1000
0100
0010
0001
,
0100
0000
0000
0110
0000
0000
1001
0000
0001
1000
0000
0001
1000
0000
0010
0000
,
0001
0000
0010
0000
0100
0000
0010
0000
1000
0000
0000
0001
0000
0000
0010
0000
,
0100
0001
0100
1000
0001
1000
0010
0100
,
1000
0000
0100
0000
0010
0000
1000
0000
0001
0000
1000
0100
0010
0000
0001
0000
,
1000
1000
0001
0001
0100
0010
0100
0001
,
0010
0100
1000
0001
0100
0010
0100
0001
,
1000
0100
0010
0001
1000
0100
0100
0010
,
0100
0000
0100
0000
1000
0000
0001
0000
0100
0010
0100
0000
0001
1000
0001
0000
,
1000
0100
1000
0100
0010
0000
0000
0000
0002
0000
0000
0023
0000
0000
0230
0000
,
0000
0000
0000
0000
0300
0000
0000
0000
2000
0000
0000
3020
0000
0000
0230
0000
,
0000
0000
0000
0000
0300
0000
0000
0000
0002
0000
0000
2003
0000
0000
0002
0000
,
0000
0000
0000
0000
3003
0000
0000
0000
0001
0000
0000
0010
0000
0000
0001
0000
1000
0000
0000
0010
0000
0000
0100
0000
0220
0000
0000
0000
0000
0000
0330
0000
,
0001
1001
0000
0000
2000
0000
3002
0000
,
1003
0000
1100
0000
0001
0011
0000
0101
,
0000
0000
0011
0000
0000
1010
0000
0000
0101
0000
0000
1100
0000
0000
0010
0000
,
0100
0001
1000
0100
0010
0001
1000
0010
,
0100
0000
0101
0000
0000
1010
0000
0000
0011
0000
0000
1100
0000
0000
0001
0000
,
1000
1000
1001
0000
0001
0010
0100
1000
,
0010
0000
1000
0100
1000
0000
0010
0000
0100
0000
0001
1000
0000
0001
0010
0000
,
0001
0100
0001
0000
1000
0100
1000
0000
0001
0000
0010
0100
0010
0000
0001
1000
,
0001
0000
0000
0100
0000
0000
0220
0000
0000
0000
0000
0000
0330
0000
0000
0000
,
1001
0000
0000
0000
0001
1000
0001
1000
0001
0000
0100
0000
0010
0000
1010
0000
,
0000
0000
0000
0000
2200
3300
0000
0000
0000
0000
0020
0030
0000
0000
0000
0000
0202
0303
0000
0000
0000
0000
0020
0030
0000
0000
0000
0000
2002
0000
0000
0000
,
0000
0000
0000
0000
,
0000
0000
0000
0000
,
3003
0000
0000
0000
;

//--------------- dance-single - Fred-104 ----------------
#NOTES:
     dance-single:
     Fred-104:
     Hard:
     17:
     :
0000
0000
0000
0000
,
0000
0000
0000
0000
,
0000
0000
0000
0000
,
0000
0000
0000
0000
,
0000
0000
0000
0000
,
0110
0000
0000
0000
1010
0000
0000
0101
,
0000
0000
0000
0000
,
0000
0000
0000
0000
,
0000
0000
0000
0000
,
0001
0000
0010
0000
0001
0000
1000
0000
0100
0000
0000
0110
0000
0000
0010
0000
,
0001
0000
1000
0000
0010
0000
0100
0000
0001
0000
0000
0011
0000
0000
0010
0000
,
0001
0000
1000
0000
0010
0000
1000
0000
0100
0000
0000
1100
0000
0000
1000
0000
,
0010
0000
0100
0000
0001
0000
0010
0000
0001
0000
0000
1001
0000
0000
1000
0000
,
0001
0000
0000
0010
0000
0000
0001
0000
0101
0000
0000
1100
0000
0000
1001
0000
,
1000
0000
0000
0010
0000
0000
0100
0000
0110
0000
0000
1010
0000
0000
0011
0000
,
0001
1000
0001
0000
0100
0010
0100
0000
0010
1000
0010
1000
0100
0010
0100
0010
,
0002
0000
0000
0000
,
2000
0000
0000
3003
,
2002
0000
3003
0000
0001
0000
0100
0000
0001
1000
0010
0000
0100
0000
0001
0000
,
1001
0000
1000
0000
0100
0000
1000
0010
1000
0000
0001
0100
0001
0000
0010
0000
,
0200
0000
0000
0000
1300
0000
0001
0100
0001
0010
0100
0000
1000
0010
1000
0010
,
1000
0000
0100
0000
0010
0000
0001
0000
0011
0000
0000
1010
0000
0000
0101
0000
,
0002
0000
0013
0000
0001
0100
0010
0000
1000
0100
1000
0000
0001
0100
0001
0000
,
1000
0100
1000
0100
0010
0100
0010
0100
1000
0000
0001
0000
0200
0000
0320
0000
,
0230
0000
0000
0000
0301
0000
0020
0130
0010
0000
0002
0000
1003
0001
1000
0001
,
1000
0010
0100
0000
0010
1000
0001
0000
0011
0000
0000
1100
0000
0000
0110
0000
,
1002
0013
0100
2001
3010
0100
1002
0013
,
0100
0000
2001
0000
3010
0100
0010
0100
0010
0000
1000
0000
0100
0010
0100
0000
,
1000
0000
0010
0000
0010
0000
0001
0000
0010
0000
0010
0000
1000
0000
0100
0010
,
0100
0000
0010
0001
1000
0001
0100
0000
0110
0000
0000
1010
0000
0000
0101
0000
,
0001
0100
0010
0001
0010
1000
0010
0100
,
0001
1000
0100
0010
0001
1000
0010
0100
,
0001
0010
0001
0000
1000
0100
1000
0000
0001
0100
0001
0100
0010
1000
0010
1000
,
0001
0000
0000
0000
0000
0000
0000
0000
0100
0010
0100
0001
1000
0001
0010
0000
,
0100
0010
0100
0010
0001
1000
0010
1000
0000
0010
0001
0010
0000
1000
0100
0000
,
1000
0000
0100
0000
0010
0000
0001
0000
0000
0000
0100
0000
0010
0000
0000
0000
0001
0000
0010
0000
0100
0000
0001
0000
1000
0000
0000
0010
0000
0000
1000
0000
,
0100
0000
0010
0000
0001
0000
1000
0000
0000
0000
0010
0000
0000
0010
0000
0000
0001
0000
0100
0000
1000
0000
0001
0000
0010
0000
1000
0000
0001
0000
0000
0000
,
1000
0000
0000
0000
0000
0000
0000
0000
0010
0000
0000
0000
1000
0000
0000
0000
0010
0000
0000
0000
0100
0000
0000
0000
0001
0000
0000
0000
0010
0000
0000
0000
0100
0000
0000
0000
1000
0000
0000
0000
0001
0000
0000
0000
1000
0000
0000
0000
0010
0000
0000
0000
0000
0000
0000
0000
0010
0000
0000
0000
0001
0000
0000
0000
0010
0000
0000
0000
0100
0000
0000
0000
1000
0000
0000
0000
0001
0000
0000
0000
1000
0000
0000
0000
0100
0000
0000
0010
0000
0000
0100
0000
0000
0010
0000
0000
,
0100
0000
1000
1010
0000
0010
1000
0001
,
0100
0000
0110
0000
0000
0000
0010
0000
1000
0000
0100
0010
0001
0000
0010
0001
,
1000
0010
0100
0101
0000
0001
0011
0110
,
0000
0000
1100
0000
0000
0000
0010
0000
0110
0000
0000
1001
0000
0000
0001
1000
,
0001
0000
0100
0000
0110
0000
1000
0000
0001
0000
0011
0000
0000
0000
0001
1000
,
0010
0000
0000
1100
0000
0000
0110
0000
0000
0011
0000
0000
0001
1000
0001
2000
,
3100
0000
0010
0000
0001
0000
0100
0000
0010
1000
0100
0010
0001
1000
0010
0100
,
0001
0000
0000
0000
0100
0000
0010
0000
0100
0010
1000
0000
1001
0000
0000
0000
,
1010
0000
0000
0000
0101
0000
0001
1000
0010
0000
0000
0100
0000
0000
0001
0000
,
0011
0000
0000
0000
1100
0000
1000
0100
0010
0000
0000
0001
0000
0000
1000
0000
,
1001
0000
0000
0000
0110
0000
0010
1000
0010
0000
0000
0100
0000
0000
0001
0000
,
0011
0000
0000
0000
1001
0000
0001
0100
0010
0000
0000
1000
0000
0000
0100
0000
,
0110
0000
0010
0000
0001
0000
1000
0000
1001
0000
0000
0001
0000
0000
0100
0000
,
0110
0000
0010
0000
1000
0000
0100
1000
0001
0000
0000
0010
0000
0000
0001
1000
,
0010
0000
0100
0000
0001
0000
1000
0000
0100
0010
0100
0010
0001
0100
0001
0100
,
0002
0000
0000
0000
2000
0000
3003
0000
0110
0000
0000
0000
1001
0000
0001
1000
,
0010
0000
1000
0001
0100
0010
1000
0000
0010
0000
0100
0001
0010
0000
0100
1000
,
0100
0010
0001
0000
1000
0001
0100
0000
0001
0000
0010
0000
0100
0000
1000
0010
,
0100
0000
1000
0100
0020
0000
2030
0000
3001
0000
1000
0001
0100
0000
0001
1000
,
0010
1000
0100
0000
0010
0000
0001
1000
0001
0000
0010
0000
0100
0000
0010
0001
,
0010
0000
0001
0010
0100
0000
1000
0000
0010
0000
1000
0000
0100
0000
1000
0010
,
0100
0000
0000
0010
0000
0000
1000
0000
0001
0000
0000
0010
0000
0000
0100
0000
,
0001
0000
0100
0000
1000
0000
0001
0000
1000
0000
0010
1000
0010
0100
0001
0100
,
0010
0000
0000
1000
0000
0000
0100
0000
0110
0000
0010
0001
0010
0000
0001
0000
,
1000
0000
0010
0100
0020
0000
2030
0000
3001
0000
0010
0100
1000
0000
0100
0010
,
0001
1000
0001
0000
0100
0010
1000
0000
1100
0000
0000
0000
1001
0000
0001
0100
,
0001
0000
0010
0100
0020
0000
0032
0000
1003
0000
0010
0000
0100
0000
0001
0100
,
0010
0100
0001
0000
0010
0000
0001
0000
0011
0000
0000
0000
0001
0000
1000
0000
,
1010
0000
0000
0101
0000
0000
1100
0000
0110
0000
0010
0001
0010
0000
0001
0000
,
0101
0000
0000
1010
0000
0000
1001
0000
0001
0000
0100
0000
0010
1000
0010
0100
,
0001
0000
1000
0100
0010
0000
0001
0100
0010
0000
1000
0000
0001
0100
0001
0000
,
1000
0100
1000
0000
1001
0000
0000
0000
1000
0100
1000
0100
1000
0000
0001
0100
,
0001
0100
0001
0000
0010
0100
0010
0000
0001
0010
0001
0010
0001
0000
1000
0010
,
1000
0010
1000
0000
0100
0010
0100
0000
1000
0010
1000
0010
1000
0000
0001
0010
,
0001
0010
0100
0010
0001
0000
0100
0000
0001
0000
0010
0001
1000
0000
0010
1000
,
0100
0000
0000
1100
0000
0000
0101
0000
1001
0000
0001
0100
0001
0000
0010
0100
,
0010
0000
0001
0000
1000
0100
1000
0000
0010
0000
0100
0010
0000
0100
0001
0000
,
0100
0000
0100
0000
0010
0000
0010
0000
1000
0000
0010
1000
0010
0000
0100
0001
,
0010
0001
0100
0000
0010
1000
0001
0000
0100
0000
0100
0000
1000
0001
1000
0000
,
1100
0000
0000
0101
0000
0000
1001
0000
0001
0100
0000
0001
0010
0000
0100
1000
,
0100
0000
1000
0000
0001
0100
0001
0000
1000
0000
0010
0100
0000
0010
1000
0000
,
0001
0010
0001
1000
0100
1000
0001
0000
1000
0100
1000
0001
0100
0000
0001
1000
,
0010
0000
1000
0100
0010
0000
0001
0000
0100
0000
0010
0100
0010
0100
0001
0000
,
1000
1100
0001
0101
1000
0001
0010
0100
,
0010
0000
0001
0000
0100
0010
0100
0000
0001
0000
0010
0001
0010
0000
0100
1000
,
0010
1000
0100
0000
1000
0010
0100
0000
0001
0010
0001
1000
0001
0000
0100
0001
,
1000
0001
0010
0000
0001
0100
0010
1000
0001
0010
0001
0010
0100
1000
0100
1000
,
0001
1000
0001
1000
0001
0000
0000
0000
2000
0000
0000
3200
0000
0000
0320
0000
,
0000
0000
0000
0000
0031
0100
1000
0100
0002
0000
0000
0203
0000
0000
0320
0000
,
0000
0000
0000
0000
1030
0100
0001
0100
2000
0000
0000
3002
0000
0000
2000
0000
,
0000
0000
0000
0000
3003
0000
0000
0000
0001
0000
0000
0001
0000
0000
0001
0000
1000
0000
0000
1000
0000
0000
1000
0000
2002
0000
0000
0000
0000
0000
3003
0000
,
0110
0000
0110
0000
0000
0000
0000
0000
1000
0001
1000
0001
0010
0100
0010
0100
,
1000
0000
1100
0000
1010
0101
0000
1100
,
0000
0000
0011
0000
0000
0101
0000
0000
1001
0000
0000
0110
0000
0000
0010
0100
,
0010
0000
1000
0100
1000
0000
0001
0100
0001
0000
0010
0000
0100
0000
0010
0000
,
0001
0000
0101
0000
0000
0011
0000
0000
1001
0000
0000
2020
0000
3030
0001
0000
,
1000
1000
1001
0001
0100
0010
0100
0001
,
0010
0000
0100
1000
0010
0000
0100
0001
0010
0000
0100
1000
0000
0001
1000
0000
,
0001
0010
0001
0010
0100
0010
0001
0010
0001
0000
1000
0010
0100
0000
0001
1000
,
0100
0000
0000
0010
0000
0000
2002
0000
0000
0000
0000
0000
3003
0000
0000
0000
,
1010
0000
0000
0000
1000
0100
0010
0001
1000
0000
0001
0000
0100
0000
0110
0000
,
0000
0000
0000
0000
0000
0000
0000
0000
2200
3300
0000
0000
0000
0000
0000
0000
0000
0000
0000
0000
0202
0303
0000
0000
0000
0000
0000
0000
0000
0000
0000
0000
2020
3030
0000
0000
0000
0000
0000
0000
0000
0000
0000
0000
0022
0033
0000
0000
0000
0000
0000
0000
0000
0000
0000
0000
2002
0000
0000
0000
0000
0000
0000
0000
,
0000
0000
0000
0000
,
0000
0000
0000
0000
,
3003
0000
0000
0000
;

//--------------- dance-single - Fred-104 ----------------
#NOTES:
     dance-single:
     Fred-104:
     Challenge:
     18:
     :
0000
0000
0000
0000
,
0000
0000
0000
0000
,
0000
0000
0000
0000
,
0000
0000
0000
0000
,
0000
0000
0000
0000
,
1100
0000
0000
0000
0101
0000
0000
1010
,
0000
0000
0000
0000
,
0000
0000
0000
0000
,
0000
0000
0000
0000
,
1000
0000
0010
0000
0100
0000
0001
0000
0010
0000
1000
0010
0000
0001
0010
0000
,
0001
0000
1000
0000
0010
0000
0100
0000
0010
0000
1000
0010
0000
0100
0010
0000
,
1000
0000
0100
0000
0010
0000
0001
0000
1000
0000
0001
0010
0000
0001
0100
0000
,
0010
0000
1000
0000
0100
0000
0010
0000
0001
0000
0100
1000
0000
0100
0001
0000
,
0010
0000
0000
0001
0000
0000
1000
0000
1100
0000
0000
0101
0000
0000
1100
0000
,
1000
0000
0000
0010
0000
0000
0100
0000
0101
0000
0000
1010
0000
0000
0011
0000
,
0001
0100
0010
1000
0100
0010
0001
1000
0010
0100
0001
0010
0100
1000
0010
0100
,
0002
0000
1000
0000
,
1000
0000
1003
0000
,
2002
0000
3003
0000
1000
0000
0100
0000
1000
0010
0100
0000
0001
0000
1000
0000
,
1010
0000
0010
0000
0100
0000
0001
0010
0100
1000
0010
0100
0001
0000
1000
0001
,
0200
0000
0000
0000
0301
0000
0020
0130
0010
0001
0020
0130
2000
3002
2003
3002
,
2003
0000
0100
0000
3010
1000
0002
0003
1001
0000
0000
0110
0000
0000
1001
0000
,
2000
0000
3100
0000
1000
0010
0100
0001
0010
0001
1000
0010
0100
0010
1000
0001
,
0100
0010
1000
0010
0100
0010
1000
0001
0010
0100
1000
0001
0020
0000
0230
0000
,
2300
0000
0000
0000
3100
0000
0002
0103
0010
0000
0002
1003
0020
0230
0320
0230
,
0310
1000
0001
1000
0100
0010
0001
0000
0011
0000
0000
1010
0000
0000
0101
0000
,
2001
3100
0010
1002
0103
0010
2001
3100
,
0010
0000
1002
0000
0103
0010
0100
0010
1000
0000
0010
0001
0010
0000
1000
0000
,
1100
0000
1000
0000
0010
0000
0210
0000
0001
0000
0310
0000
2100
0000
3100
0010
,
0100
0000
0110
0000
0010
0001
1000
0000
1010
0000
0000
0101
0000
0000
1100
0000
,
2010
3100
0001
1000
0010
0001
1000
0100
,
0010
1000
0010
0001
0010
0100
1000
0001
,
0100
0001
0010
0001
0010
0100
0010
0001
0100
0010
1000
0010
0100
0001
1000
0100
,
1000
0000
0000
0000
0000
0000
0000
0000
0001
0010
0100
1000
0001
0010
0100
1000
,
0001
0100
0001
0100
1000
0100
0010
1000
0000
0100
0010
0001
0000
0010
1000
0000
,
0010
0000
0001
0000
1000
0000
0010
0000
0000
0000
0100
0000
1000
0000
0000
0000
0100
0000
0010
0000
1000
0000
0001
0000
0010
0000
0000
0100
0000
0000
0010
0000
,
0001
0000
0100
0000
0010
0000
0001
0000
0000
0000
0010
0000
0000
1000
0000
0000
0001
0000
1000
0000
0100
0000
0010
0000
0001
0000
1000
0000
0010
0000
0000
0000
,
0100
0000
0000
0000
0000
0000
0000
0000
0001
0000
0000
0000
1000
0000
0000
0000
0010
0000
0000
0000
0010
0000
0000
0000
0001
0000
0000
0000
0100
0000
0000
0000
0100
0000
0000
0000
1000
0000
0000
0000
0100
0000
0000
0000
0010
0000
0000
0000
0001
0000
0000
0000
0010
0000
0000
0000
0001
0000
0000
0000
1000
0000
0000
0000
0010
0000
0000
0000
0100
0000
0000
0000
0001
0000
0000
0000
0010
0000
0000
0000
0010
0000
0000
0000
1000
0000
0000
0100
0000
0000
0010
0000
0000
0001
0000
0000
,
1000
0000
0100
0000
0010
0000
0011
0000
0000
0000
0001
0000
0100
0000
0010
1000
,
0001
0000
0000
1001
0000
0000
1000
0000
0000
0100
0000
0000
0010
0000
0000
0001
0100
0010
1000
0000
0000
0100
1000
0001
,
1000
0010
1000
1100
0000
0001
0101
1001
,
0000
0000
0110
0000
0000
0000
1000
0000
1100
0000
0000
0101
0000
0000
1000
0100
,
0010
0000
0000
0001
0000
0000
0011
0000
0000
1000
0000
0000
0001
0000
0000
0101
0000
0000
0000
0000
0000
0100
0010
1000
,
0010
0000
0000
1010
0000
0000
0101
0000
0000
1100
0000
0000
1000
0100
0010
0002
,
0103
0000
0010
0000
0001
0000
0010
0000
0100
1000
0100
0010
1000
0100
0010
0001
,
1000
0000
0000
0000
0001
0000
0010
0000
0100
1000
0001
0000
1001
0000
0000
0000
,
1100
0000
0000
0000
0011
0000
0001
1000
0010
0000
1000
0100
0000
0100
0001
0000
,
1001
0000
0000
0000
0110
0000
1000
0001
0010
0000
0001
0100
0010
0100
0001
1000
,
0001
0000
0000
0000
0101
0000
0001
1000
0100
0000
1000
0010
0000
0010
0001
0000
,
0101
0000
0000
0000
0000
0000
0000
0000
0000
0000
0000
0000
1001
0000
0000
0000
0000
0000
1000
0000
0010
0000
1000
0000
0010
0000
0000
0000
0000
0000
1000
0000
0000
0010
0000
0000
0100
0000
0000
0001
0000
0000
1000
0000
0000
0000
0000
0000
,
1001
0000
0001
0000
0100
0000
0010
0000
1010
0000
1000
0100
0000
0000
0110
0000
,
0011
0000
0000
0000
0000
0000
0001
0000
0000
0000
0000
0000
1000
0000
0000
0000
0000
0000
0001
0000
0000
0100
0000
0000
0010
0000
0000
0000
0000
0000
0000
0000
0000
1010
0000
0000
0000
0000
0000
0000
0000
0000
0001
0000
0100
0000
0010
0000
,
1000
0000
0100
0000
0010
0000
0001
0000
1000
0001
0010
0100
0010
0001
0010
0100
,
1000
0100
0020
0000
0031
0000
2000
0000
3010
0100
0010
1000
0100
0010
0001
1000
0010
0000
0000
0000
0000
0000
0000
0000
0110
0000
0000
0000
0010
0000
1000
0000
,
0001
0000
0100
0001
0010
0001
0100
0000
0010
0000
1000
0001
0100
0000
0010
1000
,
0100
0010
0001
0100
0010
0001
0010
0100
0001
0000
1000
0000
0010
0000
1000
0010
,
0100
0000
0001
1000
0020
0000
0230
0000
0301
0000
0010
0001
1000
0000
0100
0010
,
0001
0010
1000
0000
0010
0000
0100
1000
0001
0000
0010
0000
0001
0000
0100
0001
,
0010
0000
0000
0000
0000
0000
0001
0000
1000
0000
0001
0000
0100
0000
0000
0000
0000
0000
0010
0000
0000
1000
0000
0000
0001
0000
0000
0000
0000
0000
1000
0000
0000
0000
0000
0000
0100
0000
0000
0000
0000
0000
0010
0000
0000
1000
0000
0000
,
0010
0001
0010
0100
1000
0000
0001
0000
0100
0000
0010
0100
0000
0001
0100
0000
,
0002
0000
1000
0000
0023
0000
0100
0000
0031
0000
1000
0100
0010
0001
0010
0100
,
1000
0000
0000
1010
0000
0000
0101
0000
1001
0000
0001
1000
0001
0000
0100
0001
,
0010
0000
0100
1000
0002
0000
2003
0000
3100
0000
0010
0100
1000
0000
0010
0100
,
1000
0100
0001
0000
1000
0001
0010
0001
0100
0000
0000
0000
0110
0000
0010
1000
,
0001
0000
0100
0001
0020
0000
0230
0000
1300
0000
0001
0000
0100
0000
1000
0100
,
0010
1000
0001
0000
0010
0100
1000
0000
1010
0000
0010
0000
1000
0000
0001
0000
,
0101
0000
0000
1100
0000
0000
0101
0000
0011
0000
0001
1000
0010
0000
0100
0000
,
0110
0000
0000
1001
0000
0000
0110
0000
1010
0000
1000
0000
0010
1000
0100
0010
,
0001
0000
0000
0000
0000
0000
0100
0000
0001
0000
1000
0000
0100
0000
0000
0000
0000
0000
1000
0000
0010
0000
0100
0000
0001
0000
0000
0000
0000
0000
0100
0000
0000
0000
0000
0000
0001
0000
0000
0010
0000
0000
0100
0000
0000
0010
0000
0000
,
0100
1000
0001
0000
1001
0000
0000
0000
0001
0100
0010
1000
0001
0000
0010
0001
,
1000
0001
0100
0001
1000
0001
0010
0000
0100
1000
0100
0010
0100
0000
1000
0001
,
0010
0001
0100
0010
1000
0010
0100
0000
0001
1000
0010
1000
0001
0100
0001
0010
,
0001
0100
0001
0010
0100
0000
0010
0001
1000
0000
0100
0010
0001
0100
0010
1000
,
0100
0000
0000
0110
0000
0000
1001
0000
1010
0000
1000
0001
0100
0000
0001
0010
,
0100
0010
0001
0000
1000
0010
0100
0001
1000
0000
0001
0010
0000
0001
1000
0000
,
1100
0000
1000
0000
0011
0000
0001
0000
1001
0000
0001
1000
0100
0000
0010
1000
,
0010
0001
0010
0000
0100
1000
0001
0000
0101
0000
0101
0000
0010
1000
0001
0000
,
0011
0000
0000
1010
0000
0000
0101
0000
0001
1000
0000
1000
0010
0000
0100
0010
,
1000
0000
0010
1000
0001
1000
0100
0000
1000
0000
0010
0100
0000
0001
0010
0000
,
0001
0100
0001
1000
0010
1000
0001
0010
0001
1000
0001
1000
0001
0000
0100
0010
,
1000
0010
0100
0010
1000
0000
0010
0000
0100
0000
0001
1000
0100
0010
0001
0000
,
1000
0210
0301
0120
1030
0100
1000
0010
,
0100
0000
0001
0000
0010
0001
0100
0000
0010
0000
1000
0100
0010
0000
0001
0100
,
0010
1000
0010
0100
0001
0010
0100
1000
0001
0100
0001
0100
0010
0100
0001
0010
,
0001
0010
0100
0010
0001
1000
0100
0010
0001
0010
0100
1000
0010
0100
0001
1000
,
0001
0100
0010
0100
0001
1000
0001
0000
2002
0000
0003
0002
0000
3000
2000
0000
,
0000
0000
3003
0000
0001
0100
0010
1000
2002
0000
3000
2000
0000
0003
0002
0000
,
0000
0000
3003
0000
1000
0100
0010
0001
2000
0000
0000
3002
0000
0000
2000
0000
,
0000
0000
0000
0000
3003
0000
0000
0000
0001
0000
0100
0010
0000
1000
0001
0000
1000
0000
0100
0010
0000
0001
1000
0000
0002
0000
0000
0000
0000
0000
0003
0000
,
1001
0000
1001
0000
0000
0000
0000
0000
0001
0100
0010
1000
0001
0100
0010
1000
,
0001
0000
1001
0000
1100
0110
0000
0011
,
0000
0000
1010
0000
0000
0101
0000
0000
1100
0000
0000
0011
0000
0000
0010
0100
,
0010
0000
0001
1000
0001
0000
0100
0010
1000
0000
0010
1000
0100
1000
0001
0000
,
0100
0000
0110
0000
0000
1010
0000
0000
0101
0000
0000
2002
0000
3003
1100
0000
,
0110
0000
0010
0000
0011
0000
0001
1000
0010
0000
1000
0100
0010
0001
0100
0001
,
0010
0100
0010
0001
0200
0320
2030
3002
1003
0000
0001
0010
0000
0010
1000
0000
,
0001
0000
0000
0100
0000
0000
0010
0000
0000
0100
0000
0000
0001
0000
0000
0100
0000
0000
0010
0000
0000
1000
0000
0000
0100
0000
0000
0000
0000
0000
1000
0000
0010
0000
0100
0000
0001
0000
0000
0000
0000
0000
0010
0000
0001
0000
1000
0000
,
0001
0000
0100
0010
0000
2000
0002
0000
0000
0000
0000
0000
3003
0000
0000
0000
,
1100
0000
0000
0000
0001
0100
0010
1000
1010
0000
1000
0000
0100
0000
0110
0000
,
0000
0000
0000
0000
0000
0000
0000
0000
0202
0303
0000
0000
0000
0000
0000
0000
0000
0000
0000
0000
2020
3030
0000
0000
0000
0000
0000
0000
0000
0000
0000
0000
0022
0033
0000
0000
0000
0000
0000
0000
0000
0000
0000
0000
2200
3300
0000
0000
0000
0000
0000
0000
0000
0000
0000
0000
2002
0000
0000
0000
0000
0000
0000
0000
,
0000
0000
0000
0000
,
0000
0000
0000
0000
,
3003
0000
0000
0000
;

//--------------- dance-double - Fred-104 ----------------
#NOTES:
     dance-double:
     Fred-104:
     Easy:
     11:
     :
00000000
00000000
00000000
00000000
,
00000000
00000000
00000000
00000000
,
00000000
00000000
00000000
00000000
,
00000000
00000000
00000000
00000000
,
00000000
00000000
00000000
00000000
,
00000110
00000000
00000000
00000000
00011000
00000000
00000000
01100000
,
00000000
00000000
00000000
00000000
,
00000000
00000000
00000000
00000000
,
00000000
00000000
00000000
00000000
,
10010000
10000000
00100000
10000000
,
01000000
00100000
01000000
00100000
,
00001000
00010000
00001000
00000010
,
00000001
00001000
00000001
00000100
,
00000001
00000000
00000000
00000001
00000000
00000000
00000001
00000000
00000100
00000000
00000000
00001000
00000000
00000000
00010000
00000000
,
00001000
00000000
00000000
00001000
00000000
00000000
00001000
00000000
00100000
00000000
00000000
01000000
00000000
00000000
10000000
00000000
,
00010000
01000000
00010000
00000000
10000000
00100000
10000000
00000000
,
20020000
00000000
00000000
00000000
,
00000000
00000000
30030000
00000000
,
02200000
03300000
10000000
00010000
,
10000000
00000000
01000000
00000000
00100000
00001000
00100000
00000000
,
00002000
00003000
00010000
00001000
,
00000010
00000000
00000000
00000000
00000100
00000000
00000000
00000000
00001000
00000000
00000000
00000001
00000000
00000000
00000100
00000000
,
00000002
00000003
00000010
00001000
,
00010000
00001000
01000000
00000000
00100000
10000000
00010000
00000000
,
20000000
00000000
30000000
02000000
03000000
00200000
00302000
00023000
,
00031000
00000000
00000000
00000000
01001000
00000000
00000000
00000000
00010000
00000000
00000000
00000100
00000000
00000000
00010000
00000000
,
00011000
00000000
00000000
00001010
00000000
00000000
00011000
00000000
,
00000000
01010000
00000000
00000000
00010000
00000000
00001000
00000000
,
00011000
00000000
00000000
00010010
00000000
00000000
00011000
00000000
,
00000000
00000000
01001000
00000000
00000000
00000000
00000000
00000000
00001000
00000000
00000000
00010000
00000000
00000000
00010000
00000000
,
00001000
00000100
00000010
00001000
,
00000001
00000100
00000010
00000100
,
00001000
00010000
00100000
00000000
01000000
00010000
10000000
00000000
,
20200000
00000000
30300000
00000000
,
20000000
32000000
03020000
00032000
,
00013000
00000000
00000100
00000000
00000010
00000001
00001000
00000000
,
00000001
00000000
00000100
00000000
00000010
00001000
00000001
00000000
,
00000010
00000100
00000010
00001000
00010000
01000000
00100000
00010000
,
10010000
00000000
00000000
11000000
00000000
00000000
01100000
00000000
,
00000000
00101000
00000000
00000000
00001000
00000000
00010000
00000000
,
00010010
00000000
00000000
01001000
00000000
00000000
00010000
00001000
,
00000000
00000000
00010100
00000000
00000000
00000000
00000000
00000000
00010000
00000000
00000000
00001000
00000000
00000000
00000010
00000000
,
00000001
00000000
00001001
00000000
00000000
00001010
00000000
00000000
,
00001000
00000000
00000000
00001000
00000000
00000000
00000001
00000000
00000000
00000001
00000000
00000000
00000010
00000000
00000100
00000000
,
00010000
00001000
01000000
00001000
,
00020000
00000000
00002000
00033000
,
00011000
00000000
00000000
00000000
00010000
00000000
00000000
00000000
00001000
00000000
00000000
00000010
00000000
00000000
00000100
00000000
,
00001100
00000000
00000000
00000000
00001000
00000000
00000000
00000000
00000001
00000000
00000000
00000100
00000000
00000000
00000010
00000000
,
00000110
00000000
00000000
00000000
00010000
00000000
00000000
00000000
00001000
00000000
00000000
00100000
00000000
00000000
00010000
00000000
,
01010000
00000000
00000000
00000000
00100000
00000000
00000000
00000000
10000000
00000000
00000000
01000000
00000000
00000000
00100000
00000000
,
00110000
00000000
00000000
00000000
01000000
00000000
00001000
00000000
00010000
00000000
00000000
00001000
00000000
00000000
00000100
00000000
,
00000001
00000000
00000000
00000000
00000010
00000000
00000001
00000000
00001000
00000000
00000000
00000010
00000000
00000000
00000100
00000000
,
00000001
00000010
00001000
00000000
00010000
01000000
10000000
00000000
,
00020000
00000000
20000000
30030000
01100000
00000000
10010000
00000000
,
10000000
00000000
00010000
01000000
00000000
00001000
00010000
00000000
,
00001000
00100000
00010000
00000000
01000000
00000000
01010000
00000000
,
00100000
00000000
00001000
00010000
00000000
00001000
00000010
00000000
,
00000100
00001000
00000001
00000000
00000100
00000000
00000110
00000000
,
00001000
00000000
00000001
00000100
00000001
00000000
00000010
00000000
,
00000100
00000000
00000000
00010000
00000000
00000000
00001000
00000000
00100000
00000000
00000000
01000000
00000000
00000000
10000000
00000000
,
20020000
30030000
11000000
00000000
,
00100000
00000000
00000000
00010000
00000000
00000000
01000000
00000000
00001000
00000000
00000000
00000000
00011000
00000000
00000000
00000000
,
00001000
00000000
00010000
00001000
00000000
00000010
00000000
00000100
,
00010000
00001000
00010000
00000000
00010000
00000000
00011000
00000000
,
00001000
00000000
00100000
00010000
00000000
10000000
01000000
00000000
,
00100000
01000000
00100000
00000000
00110000
00000000
00100000
00000000
,
00001000
00000000
00000000
00001000
00000000
00000000
00001000
00000000
00010000
00000000
00000000
00000000
00001000
00000000
00000000
00000000
,
00000100
00000000
00000000
00000010
00000000
00000000
00001000
00000000
00000001
00000000
00000000
00000000
00000100
00000000
00000000
00000000
,
00000010
00000100
00001000
00010000
,
00100000
01000000
00010000
00000000
10010000
00000000
00000000
10000000
,
00000000
01000000
00100000
00010000
,
01000000
00000000
00001000
00000000
00010000
00000000
00000000
00000100
,
00000000
00001000
00000010
00010000
,
00001000
00000000
00010000
00000000
00001000
00010000
00001000
00010000
,
00000000
00001000
00100000
00010000
,
01000000
00001000
00010000
00011000
,
00010000
00000000
00000100
00000000
00001000
00001000
00000000
00000000
,
00000001
00000000
00000000
00001000
00000000
00000000
00000001
00000000
00000100
00000000
00000000
00000000
00000100
00000000
00000000
00000000
,
00000010
00001000
00000100
00001000
,
00000010
00000000
00000000
00001000
00000000
00000000
00000001
00000000
00000010
00000000
00000000
00000000
00000100
00000000
00000000
00000000
,
00010000
00001000
00100000
01000000
,
10000000
00010000
00000000
00010000
01000000
00000000
00100000
00000000
,
10000000
00100000
10000000
01000000
,
10000000
00000000
01000000
00000000
00010000
00000000
00000000
00011000
,
00000000
00001000
00000100
00000001
,
00001000
00000000
00000100
00000000
00000010
00000000
00000000
00000000
00000002
00000000
00000000
00000203
00000000
00000000
00002300
00000000
,
00000000
00000000
00000000
00000000
00003000
00000000
00000000
00000000
00020000
00000000
00000000
00230000
00000000
00000000
20300000
00000000
,
00000000
00000000
00000000
00000000
30000000
00000000
00000000
00000000
01000000
00000000
00000000
00100000
00000000
00000000
00022000
00000000
,
00000000
00000000
00033000
00000000
00010000
00001000
00022000
00033000
,
00010000
00011000
00000000
00000000
00002000
00000000
00003002
00000000
,
00001003
00000000
00001001
00000000
00000001
00000100
00000000
00000110
,
00000000
00000000
00010000
00000000
00000000
00001000
00000000
00000000
01000000
00000000
00000000
00100000
00000000
00000000
10000000
00000000
,
00010000
00000000
10010000
00000000
10000000
01000000
00010000
00001000
,
00000000
00000000
00010000
00000000
00000000
00000100
00000000
00000000
00000010
00000000
00000000
00000001
00000000
00000000
00001000
00000000
,
00000001
00000000
00001001
00000000
00000001
00000010
00000100
00000010
,
00000001
00000000
00000100
00000000
00001000
00000000
00000000
00000000
00010000
00000000
00000000
00100000
00000000
00000000
01000000
00000000
,
00010000
10000000
01000000
00100000
,
00001000
00000000
00000000
00010000
00000000
00000000
00022000
00000000
00000000
00000000
00000000
00000000
00033000
00000000
00000000
00000000
,
00011000
00000000
00010000
00001000
00000100
00000001
00001000
00000100
,
00000000
00000220
00000000
00000000
00000000
00000330
00000000
00002002
,
00000000
00000000
00000000
00000000
,
00000000
00000000
00000000
00000000
,
00003003
00000000
00000000
00000000
;

//--------------- dance-double - Fred-104 ----------------
#NOTES:
     dance-double:
     Fred-104:
     Medium:
     15:
     :
00000000
00000000
00000000
00000000
,
00000000
00000000
00000000
00000000
,
00000000
00000000
00000000
00000000
,
00000000
00000000
00000000
00000000
,
00000000
00000000
00000000
00000000
,
00011000
00000000
00000000
00000000
01000000
00000000
00000000
10010000
,
00000000
00000000
00000000
00000000
,
00000000
00000000
00000000
00000000
,
00000000
00000000
00000000
00000000
,
11000000
00000000
00000000
00000000
01000000
00000000
00100000
00000000
00001000
00000000
00000000
00010000
00000000
00000000
00001000
00000000
,
00000010
00000000
00000000
00000000
00000100
00000000
00001000
00000000
00000001
00000000
00000000
00000010
00000000
00000000
00000100
00000000
,
00010000
00000000
00000000
00000000
00001000
00000000
00010000
00000000
00000100
00000000
00000000
00001000
00000000
00000000
00000001
00000000
,
00000100
00000000
00000000
00000000
00000001
00000000
00000010
00000000
00001000
00000000
00000000
00010000
00000000
00000000
01000000
00000000
,
10000000
00000000
00000000
10000000
00000000
00000000
10000000
00000000
00100000
00000000
00000000
00001000
00000000
00000000
00000010
00000000
,
00000100
00000000
00000000
00000001
00000000
00000000
00000001
00000000
00000010
00000000
00000000
00010000
00000000
00000000
00100000
00000000
,
01000000
00100000
01000000
10000000
00100000
01000000
00001000
00010000
,
00002000
00000000
00000000
00000000
,
00020000
00000000
00033000
00000000
,
00022000
00033000
00010000
00001000
00000010
00000001
00001000
00000000
,
00000001
00000100
00000010
00000100
00001000
00010000
00100000
01000000
,
00020000
00000000
10030000
01000000
00010000
00001000
00010000
00100000
,
10000000
00000000
00100000
00000000
00010000
00000000
00001000
00000000
00010000
00000000
00000000
00000100
00000000
00000000
00000010
00000000
,
00000002
00000103
00001000
00010000
01000000
00100000
00001000
00010000
,
00000010
00001000
00010000
00001000
00000010
00010000
00002000
02003000
,
03020000
00000000
00031000
00020000
00130000
00020000
02030000
03002000
,
00013000
00000000
00001000
00000000
00000010
00000000
00000100
00000000
00001000
00000000
00000000
00000001
00000000
00000000
00001000
00000000
,
00000100
00000110
00000000
00000001
00001001
00000000
00010000
00010100
,
00000000
00001000
01001000
00000000
00100000
00010000
10000000
00010000
,
01000000
01100000
00000000
00100000
10100000
00000000
10000000
11000000
,
00000000
00000000
00100000
00000000
00102000
00000000
00013000
00000000
00001000
00000000
00000000
00010000
00000000
00000000
00000100
00000000
,
00001000
00000100
00000010
00010000
00100000
01000000
00010000
00001000
,
00010000
00100000
10000000
00010000
01000000
00100000
00010000
00001000
,
00000100
00000010
00010000
00001000
00000010
00000001
00001000
00000010
,
00000220
00000000
00000330
00000000
,
00010000
00001000
00010000
00001000
00000000
00000010
00000001
00001000
00000000
00000010
00000100
00000010
00000000
00001000
00000001
00000000
,
00001000
00000000
00000001
00000000
00000010
00000000
00001000
00000000
00000000
00000000
00010000
00000000
01000000
00000000
00000000
00000000
00100000
00000000
00000000
00000000
00010000
00000000
10000000
00000000
01000000
00000000
00000000
00100000
00000000
00000000
00001000
00000000
,
00010000
00000000
00000000
00000000
00001000
00000000
00000100
00000000
00000000
00000000
00000010
00000000
00000000
00001000
00000000
00000000
00000100
00000000
00000010
00000000
00000001
00000000
00001000
00000000
00000000
00000000
00000100
00000000
00010000
00000000
00000000
00000000
,
00001000
00000000
00000100
00000000
00000001
00000000
00000010
00000000
00001000
00000000
00010000
00000000
01000000
00000000
10000000
00010000
,
10000000
00000000
01000000
00100000
00000000
00001000
00010000
00001000
,
00000010
00000000
00000001
00000000
00000000
00000000
00001000
00000000
00000001
00000000
00000100
00000010
00000100
00000000
00000001
00001000
,
00000001
00001000
00000100
00000100
00000000
00010000
00001000
00001000
,
00000000
00000000
00011000
00000000
00000000
00000000
00001000
00000000
00010000
00000000
00000000
01000000
00000000
00000000
10000000
00000000
,
00010000
00000000
10010000
00000000
10000000
01000000
00000000
00010000
,
01000000
00000000
00000000
10000000
00000000
00000000
10100000
00000000
00000000
00100000
00000000
00000000
01000000
00000000
00010000
00000000
,
10000000
01000000
00010000
00001000
00000010
00000100
00001000
00000100
,
00000010
00000000
00000001
00000100
00001000
00010000
00100000
10000000
,
10010000
00000000
00000000
00000000
01100000
00000000
00000000
00000000
10000000
00000000
00000000
01000000
00000000
00000000
00100000
00000000
,
00101000
00000000
00000000
00000000
00010010
00000000
00000000
00000000
00010000
00000000
00000000
00001000
00000000
00000000
00000100
00000000
,
00000101
00000000
00000000
00000000
00000011
00000000
00000000
00000000
00000001
00000000
00000000
00001000
00000000
00000000
00000010
00000000
,
00010010
00000000
00000000
00000000
01001000
00000000
00000000
00000000
00001000
00000000
00000000
00100000
00000000
00000000
00010000
00000000
,
01000000
00000000
00010000
00000000
00100000
00000000
00010000
00000000
10000000
00000000
00000000
01000000
00000000
00000000
00100000
00000000
,
00001000
00000000
00010000
00000000
00100000
00000000
10000000
00000000
01000000
00000000
00000000
00010000
00000000
00000000
00001000
00000000
,
00010000
00000100
00000010
00000001
00001000
00000010
00010000
00001000
,
00020000
00000000
00002000
00033000
00011000
00000000
00001001
00000000
,
00000001
00000010
00000100
00000010
00000000
00000001
00000010
00010000
,
00100000
01000000
10000000
00100000
01000000
00000000
01010000
00000000
,
10000000
01000000
00010000
00001000
00000000
00010000
00000100
00000010
,
00000001
00001000
00000010
00000100
00000010
00001000
00000001
00000010
,
00000100
00001000
00000001
00000100
00001000
00010000
00001000
00000010
,
00000001
00000000
00000000
00000100
00000000
00000000
00001000
00000000
00010000
00000000
00000000
00100000
00000000
00000000
10000000
00000000
,
20020000
00000000
30030000
00000000
10000000
10000000
01000000
00010000
,
00001000
00000000
00000000
00010000
00000000
00000000
00001000
00000000
00011000
00000000
00000000
00000000
10010000
00000000
00000000
00000000
,
00010000
00100000
10000000
00100000
00010000
10000000
01000000
00010000
,
01000000
00100000
00001000
00010000
00011000
00000000
00001001
00000000
,
00001000
00000100
00000010
00001000
00000010
00000001
00000010
00000100
,
00001000
00000001
00000100
00001000
00011000
00000000
00001000
00010000
,
00001000
00000000
00000000
01000000
00000000
00000000
00010000
00000000
00100000
00000000
00001000
00000000
00010000
00000000
00001000
00000000
,
00000010
00000000
00000000
00000100
00000000
00000000
00001000
00000000
00000001
00000000
00000100
00000000
00001000
00000000
00000100
00000000
,
00000001
00000000
00001000
00000100
00001000
00000000
00000100
00010000
00000100
00000000
00000000
00010000
00000000
00000000
00001000
00000000
,
00010000
00000000
00000000
00000000
00000000
00000000
00000000
00000000
00001000
00000000
00000000
00000000
00000000
00000000
00000000
00000000
00011000
00000000
00000000
00000000
00000000
00000000
00000000
00000000
00000000
00000000
00000000
00000000
00000000
00000000
00000000
00000000
00000100
00000000
00000000
00000000
00000000
00000000
00000000
00000000
00020000
00030000
00000000
00000000
00000000
00000000
00000000
00000000
00020000
00030000
00000000
00000000
00000000
00000000
00000000
00000000
01000000
00000000
00000000
00000000
00000000
00000000
00000000
00000000
,
00002000
00003000
00000000
00000000
00000000
00000000
00000000
00000000
00002000
00003000
00000000
00000000
00000000
00000000
00000000
00000000
00000100
00000000
00000000
00000000
00000000
00000000
00000000
00000000
00010000
00000000
00000000
00000000
00000000
00000000
00000000
00000000
00000010
00000000
00000000
00000000
00000000
00000000
00000000
00000000
00002000
00003000
00000000
00000000
00000000
00000000
00000000
00000000
00002000
00003000
00000000
00000000
00000000
00000000
00000000
00000000
00100000
00000000
00000000
00000000
00000000
00000000
00000000
00000000
,
00020000
00030000
00000000
00000000
00000000
00000000
00000000
00000000
00020000
00030000
00000000
00000000
00000000
00000000
00000000
00000000
00000010
00000000
00000000
00000000
00000000
00000000
00000000
00000000
00001000
00000000
00000000
00000000
00000000
00000000
00000000
00000000
00000100
00000000
00000000
00000000
00000000
00000000
00000000
00000000
00020000
00030000
00000000
00000000
00000000
00000000
00000000
00000000
00020000
00030000
00000000
00000000
00000000
00000000
00000000
00000000
01000000
00000000
00000000
00000000
00000000
00000000
00000000
00000000
,
00002000
00003000
00000000
00000000
00000000
00000000
00000000
00000000
00002000
00003000
00000000
00000000
00000000
00000000
00000000
00000000
00000100
00000000
00000000
00000000
00000000
00000000
00000000
00000000
00020000
00030000
00000000
00000000
00000000
00000000
00000000
00000000
00020000
00030000
00000000
00000000
00000000
00000000
00000000
00000000
01000000
00000000
00000000
00000000
00000000
00000000
00000000
00000000
00002000
00003000
00000000
00000000
00000000
00000000
00000000
00000000
00002000
00003000
00000000
00000000
00000000
00000000
00000000
00000000
,
00000010
00000000
00000000
00010000
00000000
00000000
00001000
00000000
00101000
00000000
00000000
00000000
00010010
00000000
00000000
00000000
,
00000010
00000000
00001000
00000000
00000010
00000000
00000100
00000000
00000001
00000000
00000000
00000010
00000000
00000000
00001000
00000000
,
00010000
01000000
00100000
00010000
00100000
01000000
10000000
00100000
,
00010000
00001000
00010000
00000100
00000010
00000001
00001000
00000010
,
00010010
00000000
00000000
01001000
00000000
00000000
00011000
00000000
00001000
00010000
00000000
00001000
00100000
00000000
00010000
00000000
,
01000000
00000000
00001000
00000000
00010000
00000000
00001000
00000000
00100000
00000000
00000000
00001000
00000000
00000000
00010000
00000000
,
00000010
00001000
00000100
00010000
00000100
00001000
00000100
00000010
,
00001000
00000000
00010000
00000000
01000000
00000000
00100000
00000000
00010000
00000000
01000000
00001000
00010000
00000000
00001000
00000000
,
00010000
00010000
00001000
00001000
00100000
00001000
00010000
00001000
,
01000000
00001000
00100000
00001000
00010000
00001000
00000010
00000100
,
00001000
00000001
00000100
00000010
00000100
00000001
00000100
00001000
,
00010000
00000000
00100000
00000000
10000000
00000000
00010000
00000000
10000000
01000000
10000000
01000000
00100000
00010000
00100000
00010000
,
00100000
00000000
00001000
00000000
00010000
00000000
00000000
00000000
00000020
00000000
00000000
00002030
00000000
00000000
00003002
00000000
,
00000000
00000000
00000000
00000000
00000103
00001000
00010000
00001000
00200000
00000000
00000000
00320000
00000000
00000000
20030000
00000000
,
00000000
00000000
00000000
00000000
30100000
10000000
01000000
00010000
00002000
00000000
00000000
00003020
00000000
00000000
00000032
00000000
,
00000000
00000000
00000000
00000000
00000000
00000000
00000000
00000000
00001003
00000000
00000000
00001000
00000000
00000000
00000010
00000000
00010000
00000000
00000000
00010000
00000000
00000000
00001000
00000000
00022000
00000000
00000000
00000000
00000000
00000000
00033000
00000000
,
00010000
00000000
00011000
00000000
00000000
00000000
00000000
00000000
00020000
00000000
00000000
00000000
00032000
00000000
00000000
00003000
,
00011000
00000000
00010010
00000000
00001000
00001100
00000000
00000101
,
00000000
00000000
00001010
00000000
00000000
00000011
00000000
00000000
00001100
00000000
00000000
00010100
00000000
00000000
00010000
00000000
,
00001000
00000000
00100000
00001000
00100000
00000000
00010000
00000000
10000000
00000000
00100000
00000000
01000000
00000000
00010000
00000000
,
10000000
00000000
11000000
00000000
00000000
01010000
00000000
00000000
00011000
00000000
00000000
00002020
00000000
00003030
00000011
00000000
,
00000001
00001000
00001001
00000000
00000001
00000100
00000010
00000100
,
00001000
00010000
00100000
00000000
01000000
00000000
00010000
10000000
00010000
00000000
00000000
10000000
00000000
00000000
01000000
00000000
,
00100000
00010000
00100000
00000000
00001000
00010000
00001000
00000000
00010000
00000010
00001000
00000000
00000010
00001000
00000010
00001000
,
00000001
00000000
00001000
00000000
00000000
00002200
00000000
00000000
00000000
00000000
00000000
00000000
00003300
00000000
00000000
00000000
,
00011000
00000000
00000000
00000000
00010000
00001000
00010000
00001000
00010000
00000000
00001000
00000000
01000000
00000000
01010000
00000000
,
00000000
00000000
00000000
00000000
20200000
30300000
00000000
00000000
00000000
00000000
00220000
00330000
00000000
00000000
00000000
00000000
00022000
00033000
00000000
00000000
00000000
00000000
00002200
00003300
00000000
00000000
00000000
00000000
00000202
00000000
00000000
00000000
,
00000000
00000000
00000000
00000000
,
00000000
00000000
00000000
00000000
,
00000303
00000000
00000000
00000000
;

//--------------- dance-double - Fred-104 ----------------
#NOTES:
     dance-double:
     Fred-104:
     Hard:
     17:
     :
00000000
00000000
00000000
00000000
,
00000000
00000000
00000000
00000000
,
00000000
00000000
00000000
00000000
,
00000000
00000000
00000000
00000000
,
00000000
00000000
00000000
00000000
,
00011000
00000000
00000000
00000000
00010010
00000000
00000000
01001000
,
00000000
00000000
00000000
00000000
,
00000000
00000000
00000000
00000000
,
00000000
00000000
00000000
00000000
,
00010000
00000000
00001000
00000000
00000010
00000000
00000001
00000000
00001000
00000000
00000000
00001100
00000000
00000000
00000100
00000000
,
00000010
00000000
00000001
00000000
00001000
00000000
00000010
00000000
00001000
00000000
00000000
00001100
00000000
00000000
00000100
00000000
,
00000010
00000000
00000001
00000000
00000100
00000000
00001000
00000000
00010000
00000000
00000000
00110000
00000000
00000000
00100000
00000000
,
01000000
00000000
00010000
00000000
00100000
00000000
01000000
00000000
10000000
00000000
00000000
10100000
00000000
00000000
00100000
00000000
,
01000000
00000000
00000000
00100000
00000000
00000000
10000000
00000000
11000000
00000000
00000000
01100000
00000000
00000000
00110000
00000000
,
00100000
00000000
00000000
00001000
00000000
00000000
00010000
00000000
00010010
00000000
00000000
00001010
00000000
00000000
00001001
00000000
,
00000001
00000100
00000001
00000000
00001000
00000100
00001000
00000000
00000010
00001000
00000010
00010000
00001000
00010000
00001000
00010000
,
00002000
00000000
00000000
00000000
,
00020000
00000000
00000000
00033000
,
00022000
00000000
00033000
00000000
00001000
00000000
00010000
00000000
00100000
01000000
00010000
00000000
01000000
00000000
00100000
00000000
,
10100000
00000000
10000000
00000000
01000000
00000000
00100000
00010000
00100000
00000000
00001000
00010000
00001000
00000000
01000000
00000000
,
00020000
00000000
00000000
00000000
00130000
00000000
00001000
00010000
00001000
00000010
00000100
00000000
00001000
00000010
00001000
00000000
,
00000001
00000000
00000010
00000000
00001000
00000000
00010000
00000000
00011000
00000000
00000000
01100000
00000000
00000000
11000000
00000000
,
20000000
00000000
30100000
00000000
01000000
00010000
01000000
00000000
00001000
00010000
00001000
00000000
00010000
00000100
00010000
00000000
,
00000100
00001000
00000100
00001000
00000001
00000100
00000001
00000100
00000010
00000000
00001000
00000000
00000200
00000000
00000320
00000000
,
00000032
00000000
00000000
00000000
00001003
00000000
00000002
00000103
00000001
00000000
00000020
00000000
00000130
00001000
00000100
00010000
,
00001000
00100000
00010000
00000000
00100000
01000000
10000000
00000000
10100000
00000000
00000000
01010000
00000000
00000000
11000000
00000000
,
10000000
01000000
00010000
00001000
00000010
00000001
00000100
00001000
,
00010000
00000000
00100000
00000000
10000000
00010000
10000000
00010000
10000000
00000000
01000000
00000000
00100000
00000000
00010000
00000000
,
01000000
00000000
00010000
00000000
00001000
00000000
00000010
00000000
00010000
00000000
00001000
00000000
00100000
00000000
01000000
00100000
,
01000000
00000000
00100000
00001000
00010000
00001000
00100000
00000000
00110000
00000000
00000000
00101000
00000000
00000000
00011000
00000000
,
00010000
00001000
00000010
00000001
00001000
00000100
00000010
00000001
,
00000100
00001000
00010000
00001000
01000000
00100000
10000000
01000000
,
10000000
00100000
01000000
00000000
00100000
10000000
01000000
00000000
00100000
00010000
00100000
00001000
00010000
00001000
00010000
00001000
,
00010000
00000000
00000000
00000000
00000000
00000000
00000000
00000000
00001000
00100000
00001000
00100000
00010000
10000000
00010000
10000000
,
00010000
00100000
01000000
10000000
00010000
00100000
01000000
10000000
00000000
00100000
01000000
00010000
00000000
10000000
01000000
00000000
,
00100000
00000000
00001000
00000000
00010000
00000000
00001000
00000000
00000000
00000000
00000010
00000000
00000100
00000000
00000000
00000000
00001000
00000000
00000000
00000000
00000001
00000000
00000100
00000000
00000010
00000000
00000000
00000010
00000000
00000000
00000010
00000000
,
00001000
00000000
00000000
00000000
00000001
00000000
00000010
00000000
00000000
00000000
00000100
00000000
00000000
00000010
00000000
00000000
00001000
00000000
00010000
00000000
01000000
00000000
00100000
00000000
00010000
00000000
01000000
00000000
00100000
00000000
00000000
00000000
,
10000000
00000000
00000000
00000000
00000000
00000000
00000000
00000000
10000000
00000000
00000000
00000000
01000000
00000000
00000000
00000000
00100000
00000000
00000000
00000000
01000000
00000000
00000000
00000000
00100000
00000000
00000000
00000000
00010000
00000000
00000000
00000000
00100000
00000000
00000000
00000000
00001000
00000000
00000000
00000000
00010000
00000000
00000000
00000000
00000100
00000000
00000000
00000000
00001000
00000000
00000000
00000000
00000000
00000000
00000000
00000000
00001000
00000000
00000000
00000000
00000100
00000000
00000000
00000000
00000010
00000000
00000000
00000000
00000001
00000000
00000000
00000000
00000100
00000000
00000000
00000000
00000010
00000000
00000000
00000000
00001000
00000000
00000000
00000000
00000100
00000000
00000000
00010000
00000000
00000000
00001000
00000000
00000000
00010000
00000000
00000000
,
00001000
00000000
00100000
00110000
00000000
00010000
01000000
00001000
,
00010000
00000000
00011000
00000000
00000000
00000000
00010000
00000000
00000100
00000000
00001000
00000010
00001000
00000000
00000100
00010000
,
00000100
00010000
00001000
00011000
00000000
00100000
00110000
01010000
,
00000000
00000000
01001000
00000000
00000000
00000000
00010000
00000000
00011000
00000000
00000000
00010010
00000000
00000000
00000010
00001000
,
00000010
00000000
00001000
00000000
00001100
00000000
00000100
00000000
00000010
00000000
00000011
00000000
00000000
00000000
00000001
00001000
,
00000010
00000000
00000000
00001010
00000000
00000000
00010100
00000000
00000000
00011000
00000000
00000000
00001000
01000000
00001000
02000000
,
03010000
00000000
00100000
00000000
00001000
00000000
00010000
00000000
00000010
00001000
00000010
00001000
00000100
00010000
00001000
00010000
,
00001000
00000000
00000000
00000000
00010000
00000000
00100000
00000000
01000000
00010000
00100000
00000000
00010000
00000000
10000000
00000000
,
10100000
00000000
00000000
00000000
11000000
00000000
01000000
00100000
01000000
00000000
00000000
00100000
00000000
00000000
00001000
00000000
,
00011000
00000000
00000000
00000000
00010010
00000000
00000010
00001000
00000010
00000000
00000000
00000100
00000000
00000000
00000001
00000000
,
00000011
00000000
00000000
00000000
00001001
00000000
00001000
00000010
00001000
00000000
00000000
00000100
00000000
00000000
00010000
00000000
,
00011000
00000000
00000000
00000000
00101000
00000000
00001000
01000000
00001000
00000000
00000000
00100000
00000000
00000000
00010000
00000000
,
10010000
00000000
10000000
00000000
01000000
00000000
00100000
00000000
00110000
00000000
00000000
00100000
00000000
00000000
00001000
00000000
,
00011000
00000000
00010000
00000000
00000010
00000000
00001000
00000010
00000100
00000000
00000000
00000001
00000000
00000000
00001000
00000001
,
00000010
00000000
00000001
00000000
00001000
00000000
00000100
00000000
00001000
00000010
00001000
00000100
00010000
00001000
00100000
00001000
,
00020000
00000000
00000000
00000000
00002000
00000000
00033000
00000000
00011000
00000000
00000000
00000000
10010000
00000000
00010000
10000000
,
00010000
00000000
01000000
00000000
00100000
10000000
00100000
00000000
10000000
00000000
01000000
00100000
01000000
00000000
00100000
00001000
,
00010000
00001000
01000000
00000000
00001000
00010000
00001000
00000000
00000010
00000000
00000001
00000000
00001000
00000000
00000001
00000010
,
00000100
00000000
00000001
00000100
00000020
00000000
00000032
00000000
00001003
00000000
00000100
00001000
00000001
00000000
00001000
00000010
,
00001000
00000001
00000010
00000000
00000100
00000000
00010000
00000000
00001000
00000000
00010000
00000000
01000000
00000000
00100000
00010000
,
01000000
00000000
00100000
10000000
00010000
00000000
10000000
00000000
01000000
00000000
00100000
00000000
00010000
00000000
01000000
00010000
,
01000000
00000000
00000000
00010000
00000000
00000000
00000100
00000000
00001000
00000000
00000000
00010000
00000000
00000000
00001000
00000000
,
00022000
00000000
00000000
00000000
00033000
00000000
00000000
00000000
00010000
00000000
00000100
00001000
00000100
00000010
00000001
00001000
,
00000001
00000000
00000000
00000100
00000000
00000000
00000010
00000000
00001010
00000000
00001000
00000100
00001000
00000000
00000100
00000000
,
00010000
00000000
00001000
01000000
00002000
00000000
00023000
00000000
00030010
00000000
00001000
00000000
00000100
00000000
00000010
00000001
,
00001000
00000010
00000100
00000000
00000010
00000000
00010000
00000000
00001000
00000000
00000000
00000000
01100000
00000000
01000000
00010000
,
10000000
00000000
00010000
10000000
00020000
00000000
20030000
00000000
31000000
00000000
00100000
00000000
00010000
00000000
01000000
00001000
,
00010000
00001000
00010000
00000000
00000100
00000000
00001000
00000000
00001100
00000000
00000000
00000000
00000100
00000000
00000010
00000000
,
00000011
00000000
00000000
00001010
00000000
00000000
00000101
00000000
00000001
00000000
00001000
00000010
00010000
00000000
00001000
00000000
,
00011000
00000000
00000000
00010100
00000000
00000000
00011000
00000000
00001000
00000000
01000000
00000000
00010000
00100000
00001000
00010000
,
00001000
00000000
00100000
00010000
01000000
00000000
00001000
00010000
00001000
00000000
00000100
00000000
00000010
00001000
00000100
00000000
,
00010000
00001000
00010000
00000000
00011000
00000000
00000000
00000000
00001000
01000000
00001000
01000000
00001000
00000000
00010000
00000100
,
00010000
00000100
00010000
00000000
00001000
00010000
00001000
00000000
00100000
00010000
00100000
00010000
00100000
00000000
00001000
00100000
,
00001000
00100000
00001000
00000000
00010000
00000010
00010000
00000000
00000010
00001000
00000010
00001000
00000010
00000000
00001000
00000100
,
00010000
00001000
00010000
00000000
00001000
00000000
00100000
00000000
00010000
00000000
01000000
00001000
00010000
00000000
00000010
00010000
,
00001000
00000000
00000000
00100000
00000000
00000000
00001000
00000000
00011000
00000000
00010000
00000100
00010000
00000000
00000010
00001000
,
00000010
00000000
00001000
00000000
00000100
00010000
00000100
00000000
00010000
00000000
00001000
00100000
00000000
00010000
01000000
00000000
,
00001000
00000000
00001000
00000000
00010000
00000000
00010000
00000000
00000010
00000000
00001000
00000100
00001000
00000000
00000010
00010000
,
00001000
00000000
00000000
00000000
00010000
00000000
00000000
00000000
00000100
00000000
00000000
00000000
00000000
00000000
00000000
00000000
00010000
00000000
00000000
00000000
00001000
00000000
00000000
00000000
01000000
00000000
00000000
00000000
00000000
00000000
00000000
00000000
00002000
00003000
00000000
00000000
00000000
00000000
00000000
00000000
00002000
00003000
00000000
00000000
00000000
00000000
00000000
00000000
00000010
00000000
00000000
00000000
00001000
00000000
00000000
00000000
00000100
00000000
00000000
00000000
00000000
00000000
00000000
00000000
,
00010100
00000000
00000000
00011000
00000000
00000000
00010010
00000000
00010000
00001000
00000000
00100000
00001000
00000000
01000000
00010000
,
01000000
00000000
00010000
00000000
00100000
01000000
00100000
00000000
00010000
00000000
01000000
00001000
00000000
00010000
00000100
00000000
,
00001000
00000010
00001000
00000100
00010000
00001000
00010000
00000000
00001000
00100000
00001000
00100000
00010000
00000000
01000000
00001000
,
00010000
00000000
00001000
00100000
00010000
00000000
01000000
00000000
00100000
00000000
00010000
00001000
00000100
00000010
00010000
00000000
,
00001000
00001000
00010000
00010000
00001000
00010000
01000000
10000000
,
00010000
00000000
01000000
00000000
00100000
10000000
00100000
00000000
10000000
00000000
01000000
00100000
01000000
00000000
00100000
00010000
,
00100000
00001000
00010000
00000000
00000010
00001000
00000100
00000000
00001000
00000010
00001000
00000010
00000100
00000000
00000001
00000010
,
00000001
00000010
00000100
00000000
00000010
00000001
00001000
00000000
00000001
00000100
00000010
00001000
00000100
00010000
00001000
00100000
,
00010000
01000000
00100000
10000000
00010000
00000000
00000000
00000000
20000000
00000000
00000000
32000000
00000000
00000000
03020000
00000000
,
00000000
00000000
00000000
00000000
00031000
00000010
00000001
00001000
00000002
00000000
00000000
00000203
00000000
00000000
00002300
00000000
,
00000000
00000000
00000000
00000000
00013000
00100000
10000000
00010000
20000000
00000000
00000000
32000000
00000000
00000000
03200000
00000000
,
00000000
00000000
00000000
00000000
00000000
00000000
00000000
00000000
00301000
00000000
00000000
00010000
00000000
00000000
00001000
00000000
00010000
00000000
00000000
00001000
00000000
00000000
00010000
00000000
00022000
00000000
00000000
00000000
00000000
00000000
00033000
00000000
,
00011000
00000000
00010010
00000000
00000000
00000000
00000000
00000000
00010000
00001000
00010000
00001000
00100000
00010000
10000000
00010000
,
10000000
00000000
11000000
00000000
10100000
01010000
00000000
00110000
,
00000000
00000000
01001000
00000000
00000000
00010100
00000000
00000000
00101000
00000000
00000000
00010010
00000000
00000000
00010000
00001000
,
00010000
00000000
00000010
00001000
00000010
00000000
00010000
00001000
00010000
00000000
00000100
00000000
00001000
00000000
00000100
00000000
,
00010000
00000000
00010010
00000000
00000000
01001000
00000000
00000000
00010100
00000000
00000000
00202000
00000000
00303000
00001000
00000000
,
00010000
00001000
00101000
00100000
00010000
10000000
01000000
00100000
,
00010000
00000000
10000000
01000000
00010000
00000000
00001000
00000010
00000100
00000000
00001000
00000010
00000000
00000100
00000001
00000000
,
00001000
00000001
00001000
00000001
00000010
00000100
00000010
00000100
00000010
00000000
00000001
00000100
00001000
00000000
00010000
00100000
,
01000000
00000000
00000000
01010000
00000000
00000000
20020000
00000000
00000000
00000000
00000000
00000000
30030000
00000000
00000000
00000000
,
11000000
00000000
00000000
00000000
10000000
01000000
00100000
00001000
00010000
00000000
00000100
00000000
00001000
00000000
00001001
00000000
,
00000000
00000000
00000000
00000000
00000000
00000000
00000000
00000000
00000022
00000033
00000000
00000000
00000000
00000000
00000000
00000000
00000000
00000000
00000000
00000000
00002020
00003030
00000000
00000000
00000000
00000000
00000000
00000000
00000000
00000000
00000000
00000000
00022000
00033000
00000000
00000000
00000000
00000000
00000000
00000000
00000000
00000000
00000000
00000000
02020000
03030000
00000000
00000000
00000000
00000000
00000000
00000000
00000000
00000000
00000000
00000000
22000000
00000000
00000000
00000000
00000000
00000000
00000000
00000000
,
00000000
00000000
00000000
00000000
,
00000000
00000000
00000000
00000000
,
33000000
00000000
00000000
00000000
;

//--------------- dance-double - Fred-104 ----------------
#NOTES:
     dance-double:
     Fred-104:
     Challenge:
     18:
     :
00000000
00000000
00000000
00000000
,
00000000
00000000
00000000
00000000
,
00000000
00000000
00000000
00000000
,
00000000
00000000
00000000
00000000
,
00000000
00000000
00000000
00000000
,
01100000
00000000
00000000
00000000
00011000
00000000
00000000
00000110
,
00000000
00000000
00000000
00000000
,
00000000
00000000
00000000
00000000
,
00000000
00000000
00000000
00000000
,
00001000
00000000
00000001
00000000
00000010
00000000
00000100
00000000
00000010
00000000
00000000
00000001
00000000
00000000
00001000
00000000
,
00000001
00000000
00000100
00000000
00000010
00000000
00000100
00000000
00001000
00000000
00000000
00010000
00000000
00000000
00100000
00000000
,
01000000
00000000
00010000
00000000
10000000
00000000
01000000
00000000
00100000
00000000
00000000
00001000
00000000
00000000
00010000
00000000
,
00100000
00000000
10000000
00000000
01000000
00000000
00010000
00000000
00001000
00000000
00000000
00000010
00000000
00000000
00000100
00000000
,
00001000
00000000
00000000
00000010
00000000
00000000
00000100
00000000
00000101
00000000
00000000
00001100
00000000
00000000
00011000
00000000
,
00010000
00000000
00000000
00100000
00000000
00000000
10000000
00000000
11000000
00000000
00000000
00110000
00000000
00000000
01010000
00000000
,
01000000
00001000
00010000
00000000
00000100
00001000
00000010
00000000
00000100
00000001
00000010
00000001
00001000
00000010
00010000
00001000
,
00020000
00000000
00001000
00000000
,
00001000
00000000
00031000
00000000
,
00022000
00000000
00033000
00000000
00010000
00000000
00001000
00000000
00000010
00000100
00010000
00000000
00001000
00000000
00100000
00000000
,
01100000
00000000
01000000
00000000
10000000
00000000
00010000
00100000
01000000
00100000
00010000
01000000
00001000
00000000
00010000
00001000
,
00020000
00000000
00000000
00000000
00031000
00000000
00020000
00030100
00001000
00000000
00000020
00001030
00000200
00020300
00030200
00020300
,
00031000
00000000
00010000
00000000
01000000
00100000
00010000
00000000
01010000
00000000
00000000
01001000
00000000
00000000
00011000
00000000
,
00010000
00000000
00000100
00000000
00001000
00000000
00000010
00001000
00000100
00001000
00000010
00010000
00001000
00010000
00000100
00010000
,
00001000
00100000
00010000
00100000
00001000
01000000
00010000
01000000
00001000
00010000
00001000
00010000
00002000
00000000
00023000
00000000
,
00032000
00000000
00000000
00000000
00013000
00000000
00000200
00001300
00000010
00000000
00020000
00031000
00020000
00230000
02300000
03020000
,
10030000
01000000
10000000
00000000
01000000
00100000
00001000
00000000
00011000
00000000
00000000
00010010
00000000
00000000
00001010
00000000
,
00000001
00000100
00001000
00010000
00100000
10000000
01000000
00010000
,
00001000
00000000
00000010
00000000
00000001
00001000
00000010
00001000
00000001
00000000
00000010
00000100
00000010
00000000
00001000
00000000
,
00010000
00000000
00000000
00000000
00000000
00000000
00000000
00000000
01000000
00000000
00000000
00000000
00000000
00000000
00000000
00000000
00100000
00000000
00000000
00000000
00000000
00000000
00000000
00000000
00010000
00000000
00000000
00000000
00000000
00000000
00000000
00000000
02000000
03000000
00000000
00000000
00000000
00000000
00000000
00000000
02000000
03000000
00000000
00000000
00000000
00000000
00000000
00000000
10000000
00000000
00000000
00000000
00000000
00000000
00000000
00000000
00010000
00000000
00000000
00000000
10000000
00000000
00000000
00000000
,
01000000
00000000
00100000
00000000
00001000
00000000
00010000
00000000
00010100
00000000
00000000
00001100
00000000
00000000
00001010
00000000
,
00001001
00000001
00001000
00000001
00000100
00000010
00000100
00001000
,
00010000
00100000
10000000
00010000
00100000
01000000
10000000
00010000
,
10000000
00010000
01000000
00010000
00100000
00001000
00010000
00001000
00000010
00000100
00001000
00000001
00000100
00001000
00010000
00001000
,
00010000
00000000
00000000
00000000
00000000
00000000
00000000
00000000
00010000
00001000
00000010
00000100
00001000
00000100
00000010
00000001
,
00001000
00000010
00001000
00000010
00000001
00000010
00000100
00000001
00000000
00001000
00000001
00000010
00000000
00001000
00010000
00000000
,
00100000
00000000
01000000
00000000
00010000
00000000
10000000
00000000
00000000
00000000
01000000
00000000
00100000
00000000
00000000
00000000
00001000
00000000
00010000
00000000
00000100
00000000
00010000
00000000
00001000
00000000
00000000
00010000
00000000
00000000
00000100
00000000
,
00001000
00000000
00000100
00000000
00000010
00000000
00000001
00000000
00000000
00000000
00001000
00000000
00000000
00000001
00000000
00000000
00000010
00000000
00000100
00000000
00000010
00000000
00001000
00000000
00010000
00000000
00100000
00000000
01000000
00000000
00000000
00000000
,
00010000
00000000
00000000
00000000
00000000
00000000
00000000
00000000
10000000
00000000
00000000
00000000
01000000
00000000
00000000
00000000
10000000
00000000
00000000
00000000
00100000
00000000
00000000
00000000
00010000
00000000
00000000
00000000
00001000
00000000
00000000
00000000
00010000
00000000
00000000
00000000
01000000
00000000
00000000
00000000
00010000
00000000
00000000
00000000
00001000
00000000
00000000
00000000
00000100
00000000
00000000
00000000
00001000
00000000
00000000
00000000
00010000
00000000
00000000
00000000
00001000
00000000
00000000
00000000
00000010
00000000
00000000
00000000
00001000
00000000
00000000
00000000
00010000
00000000
00000000
00000000
00000100
00000000
00000000
00000000
00001000
00000000
00000000
00000000
00000010
00000000
00000000
00000100
00000000
00000000
00000001
00000000
00000000
00001000
00000000
00000000
,
00000001
00000000
00001000
00000000
00000100
00000000
00000110
00000000
00000000
00000000
00000010
00000000
00000001
00000000
00001000
00000100
,
00010000
00000000
00000000
00011000
00000000
00000000
00010000
00000000
00000000
00000010
00000000
00000000
00001000
00000000
00000000
00000100
00010000
00001000
00010000
00000000
00000000
00001000
00100000
00010000
,
00100000
00001000
00010000
00011000
00000000
00010000
00010010
00011000
,
00000000
00000000
00101000
00000000
00000000
00000000
00100000
00000000
00110000
00000000
00000000
10010000
00000000
00000000
10000000
01000000
,
00100000
00000000
00000000
00000000
00000000
00000000
00110000
00000000
00000000
01000000
00000000
00000000
00001000
00000000
00000000
00011000
00000000
00000000
00000000
00000000
00000000
00010000
00001000
00010000
,
00000100
00000000
00000000
00001100
00000000
00000000
00000110
00000000
00000000
00000011
00000000
00000000
00001000
00000010
00000001
00000020
,
00001030
00000000
00000001
00000000
00000010
00000000
00000100
00000000
00000010
00001000
00010000
01000000
00100000
00010000
10000000
00010000
,
01000000
00000000
00000000
00000000
00100000
00000000
01000000
00000000
00010000
00100000
00001000
00000000
00011000
00000000
00000000
00000000
,
00010010
00000000
00000000
00000000
00001010
00000000
00001000
00000100
00010000
00000000
00000010
00001000
00000000
00000100
00010000
00000000
,
00011000
00000000
00000000
00000000
00010100
00000000
00010000
00001000
01000000
00000000
00010000
00100000
00001000
00010000
00001000
01000000
,
00010000
00000000
00000000
00000000
00110000
00000000
00100000
00001000
00010000
00000000
00001000
00000010
00000000
00000100
00001000
00000000
,
00001001
00000000
00000000
00000000
00000000
00000000
00000000
00000000
00000000
00000000
00000000
00000000
00000110
00000000
00000000
00000000
00000000
00000000
00001000
00000000
00000100
00000000
00001000
00000000
00000100
00000000
00000000
00000000
00000000
00000000
00000010
00000000
00000000
00000001
00000000
00000000
00000000
00000000
00000000
00001000
00000000
00000000
00000010
00000000
00000000
00000000
00000000
00000000
,
00000110
00000000
00000001
00000000
00001000
00000000
00000100
00000000
00010100
00000000
00010000
00001000
00000000
00000000
01001000
00000000
,
00011000
00000000
00000000
00000000
00000000
00000000
00001000
00000000
00000000
00000000
00000000
00000000
00100000
00000000
00000000
00000000
00000000
00000000
00010000
00000000
00000000
01000000
00000000
00000000
00100000
00000000
00000000
00000000
00000000
00000000
00000000
00000000
00000000
01100000
00000000
00000000
00000000
00000000
00000000
00000000
00000000
00000000
00100000
00000000
10000000
00000000
00100000
00000000
,
01000000
00000000
00010000
00000000
10000000
00000000
01000000
00000000
00100000
00010000
00100000
00001000
00010000
00000100
00001000
00000100
,
00000010
00000001
00000020
00000000
00000031
00000000
00002000
00000000
00003001
00000100
00000001
00000100
00000010
00001000
00000100
00010000
00001000
00000000
00000000
00000000
00000000
00000000
00000000
00000000
00011000
00000000
00000000
00000000
00010000
00000000
00000100
00000000
,
00001000
00000000
00000100
00000010
00000001
00000000
00001000
00000000
00000001
00000000
00000100
00000010
00000001
00000000
00000010
00000100
,
00000001
00001000
00000010
00001000
00000100
00010000
00001000
00000000
00010000
00000000
01000000
00000000
00100000
00000000
00010000
10000000
,
00100000
00000000
01000000
00010000
00200000
00000000
00302000
00000000
00013000
00000000
00001000
00000100
00000010
00000000
00001000
00000001
,
00000010
00000001
00000100
00000000
00000010
00000000
00001000
00000001
00000100
00000000
00001000
00000000
00000100
00000000
00000010
00001000
,
00000100
00000000
00000000
00000000
00000000
00000000
00000010
00000000
00000001
00000000
00001000
00000000
00000001
00000000
00000000
00000000
00000000
00000000
00001000
00000000
00000000
00000100
00000000
00000000
00010000
00000000
00000000
00000000
00000000
00000000
00001000
00000000
00000000
00000000
00000000
00000000
00010000
00000000
00000000
00000000
00000000
00000000
01000000
00000000
00000000
00100000
00000000
00000000
,
00010000
10000000
00100000
01000000
00010000
00000000
00100000
00000000
00001000
00000000
00010000
00001000
00000000
00010000
00000100
00000000
,
00001000
00000000
00000100
00000000
00010000
00000000
00001000
00000000
01000000
00000000
00010000
00100000
00001000
00010000
00000010
00001000
,
00000100
00000000
00000000
00010100
00000000
00000000
00011000
00000000
01001000
00000000
00001000
00010000
00001000
00000000
00100000
00010000
,
10000000
00000000
00100000
01000000
00020000
00000000
02030000
00000000
03001000
00000000
00010000
00000100
00001000
00000000
00000010
00001000
,
00000100
00001000
00000010
00000000
00010000
00001000
00100000
00001000
00010000
00000000
00000000
00000000
00011000
00000000
00010000
00001000
,
00000010
00000000
00000100
00010000
00002000
00000000
00203000
00000000
01300000
00000000
10000000
00000000
00100000
00000000
10000000
00100000
,
01000000
00010000
00100000
00000000
00001000
00010000
00000010
00000000
00001010
00000000
00001000
00000000
00000100
00000000
00010000
00000000
,
00010100
00000000
00000000
00010010
00000000
00000000
00011000
00000000
00101000
00000000
00001000
00100000
00010000
00000000
01000000
00000000
,
01010000
00000000
00000000
01001000
00000000
00000000
00011000
00000000
00010010
00000000
00000010
00000000
00001000
00000100
00000010
00000001
,
00001000
00000000
00000000
00000000
00000000
00000000
00000010
00000000
00001000
00000000
00000010
00000000
00000100
00000000
00000000
00000000
00000000
00000000
00000001
00000000
00000010
00000000
00000100
00000000
00000010
00000000
00000000
00000000
00000000
00000000
00000001
00000000
00000000
00000000
00000000
00000000
00001000
00000000
00000000
00000010
00000000
00000000
00000100
00000000
00000000
00000010
00000000
00000000
,
00001000
00000100
00010000
00000000
00011000
00000000
00000000
00000000
00001000
00100000
00010000
00100000
00001000
00000000
00010000
00000010
,
00001000
00000010
00010000
00001000
00100000
00010000
01000000
00000000
00010000
00100000
00001000
00010000
00001000
00000000
01000000
00001000
,
00010000
00001000
00000010
00000100
00001000
00000010
00000100
00000000
00000010
00001000
00000100
00010000
00000010
00000000
00001000
00000100
,
00010000
00001000
01000000
00010000
00100000
00000000
00001000
00010000
00001000
00000000
00100000
00010000
01000000
00010000
00100000
00001000
,
00100000
00000000
00000000
00101000
00000000
00000000
00110000
00000000
01010000
00000000
00010000
10000000
00010000
00000000
01000000
00100000
,
01000000
00001000
00010000
00000000
00001000
00000100
00000010
00001000
00000001
00000000
00000010
00000001
00000000
00001000
00000001
00000000
,
00000101
00000000
00000100
00000000
00000110
00000000
00000010
00000000
00001010
00000000
00001000
00000001
00001000
00000000
00000001
00000100
,
00000010
00001000
00000100
00000000
00010000
00001000
00010000
00000000
00011000
00000000
00011000
00000000
00010000
00001000
01000000
00000000
,
01010000
00000000
00000000
00101000
00000000
00000000
00011000
00000000
00010000
00000010
00000000
00000010
00001000
00000000
00000100
00001000
,
00000010
00000000
00000100
00000001
00000010
00000001
00001000
00000000
00000010
00000000
00010000
00000010
00000000
00001000
00000100
00000000
,
00010000
00001000
01000000
00001000
00010000
00000100
00001000
00000000
00000010
00001000
00000100
00010000
00001000
00000000
00100000
00010000
,
01000000
00001000
00010000
00000000
00000010
00001000
00000100
00000000
00010000
00000000
00001000
00010000
01000000
00100000
00010000
00000000
,
01000000
00020000
00030100
00002000
00013000
00001000
00100000
00010000
,
10000000
00000000
00010000
00000000
00100000
01000000
10000000
00000000
00010000
00000000
10000000
01000000
00010000
00000000
01000000
00100000
,
00010000
10000000
00010000
00000000
01000000
10000000
01000000
00000000
00100000
10000000
01000000
00100000
00010000
00000000
00100000
00001000
,
00010000
00000100
00001000
00000000
00000100
00000010
00000001
00000100
00000010
00001000
00000100
00010000
00001000
00100000
00010000
10000000
,
00100000
01000000
00010000
00100000
00001000
00000000
00000000
00000000
00022000
00000000
00003000
00002000
00000000
00003000
00002000
00000000
,
00000000
00000000
00033000
00000000
00001000
00010000
00100000
00010000
00022000
00000000
00030000
00020000
00000000
00030000
00020000
00000000
,
00000000
00000000
00033000
00000000
00010000
00001000
00000010
00001000
00020000
00000000
00000000
00032000
00000000
00000000
00020000
00000000
,
00000000
00000000
00000000
00000000
00033000
00000000
00000000
00000000
00010000
00000000
00001000
00000010
00000000
00001000
00010000
00000000
00001000
00000000
00010000
00100000
00000000
00010000
00001000
00000000
00020000
00000000
00000000
00000000
00000000
00000000
00030000
00000000
,
00011000
00000000
00011000
00000000
00000000
00000000
00000000
00000000
00001000
00010000
00000010
00010000
00001000
01000000
00001000
00010000
,
00001000
00000000
00011000
00000000
00010100
00001001
00000000
00000110
,
00000000
00000000
00000101
00000000
00000000
00001010
00000000
00000000
00011000
00000000
00000000
01010000
00000000
00000000
00100000
10000000
,
00010000
00000000
01000000
00100000
01000000
00000000
00010000
10000000
00100000
00000000
10000000
01000000
00100000
00010000
01000000
00000000
,
00010000
00000000
00110000
00000000
00000000
00101000
00000000
00000000
00010010
00000000
00000000
02002000
00000000
03003000
00011000
00000000
,
00010100
00000000
00000100
00000000
00001100
00000000
00001000
00000001
00000100
00000000
00000001
00000010
00000001
00001000
00000010
00001000
,
00000100
00010000
00001000
00010000
02000000
03200000
00320000
20030000
30100000
00000000
10000000
01000000
00000000
01000000
00010000
00000000
,
10000000
00000000
00000000
01000000
00000000
00000000
10000000
00000000
00000000
00100000
00000000
00000000
10000000
00000000
00000000
01000000
00000000
00000000
10000000
00000000
00000000
00010000
00000000
00000000
01000000
00000000
00000000
00000000
00000000
00000000
00010000
00000000
00000000
00100000
00000000
00000000
00001000
00000000
00000000
00000000
00000000
00000000
00010000
00000000
00000010
00000000
00001000
00000000
,
00000010
00000000
00000000
00001000
00000000
00000000
00002200
00000000
00000000
00000000
00000000
00000000
00003300
00000000
00000000
00000000
,
00001001
00000000
00000000
00000000
00000001
00001000
00000100
00000010
00000001
00000000
00000100
00000000
00000010
00000000
00001010
00000000
,
00000000
00000000
00000000
00000000
00000000
00000000
00000000
00000000
00020020
00030030
00000000
00000000
00000000
00000000
00000000
00000000
00000000
00000000
00000000
00000000
00202000
00303000
00000000
00000000
00000000
00000000
00000000
00000000
00000000
00000000
00000000
00000000
00020200
00030300
00000000
00000000
00000000
00000000
00000000
00000000
00000000
00000000
00000000
00000000
02002000
03003000
00000000
00000000
00000000
00000000
00000000
00000000
00000000
00000000
00000000
00000000
00022000
00000000
00000000
00000000
00000000
00000000
00000000
00000000
,
00000000
00000000
00000000
00000000
,
00000000
00000000
00000000
00000000
,
00033000
00000000
00000000
00000000
;
