#TITLE:AREA 51;
#ARTIST:96;
#BANNER:AREA 51.png;
#BACKGROUND:AREA 51-bg.png;
#CDTITLE:./CDTitles/jb ripples.png;
#MUSIC:AREA 51.ogg;
#SAMPLESTART:24.256;
#SAMPLELENGTH:15;
#DISPLAYBPM:188;
#BPMS:0=189,4=188;
#BGSTAGE:27;

//--------------- dance-single - Fred-104 ----------------
#NOTES:
     dance-single:
     Fred-104:
     Beginner:
     5:
     :
0000
0000
0000
0000
,
0000
0000
0000
0000
,
0000
0000
0000
0000
,
0000
0000
0000
0000
,
0000
0000
0000
0000
,
2000
3000
0000
0000
,
0002
0003
0000
0000
,
2000
3000
0000
0000
,
0002
0003
0000
0000
,
2000
3000
0001
0000
,
0200
0300
0010
0000
,
0200
0300
0001
0000
,
2000
3000
0001
0000
,
2000
3000
0100
0000
,
2000
3000
0001
0000
,
0200
0300
0001
0000
,
2000
3000
0001
0000
,
2000
0000
0000
0000
,
3002
0000
0000
0000
,
1003
0000
0001
0000
,
0100
0100
0010
0010
,
0100
0000
0001
0000
,
1000
1000
0100
0100
,
1000
0000
0001
0000
,
0010
0010
0100
0010
,
0010
0000
0001
0000
,
1000
1000
0001
0001
,
0010
0000
0100
0000
,
0010
0010
0001
1000
,
0001
0000
1000
0000
,
0100
1000
0100
1000
,
0100
0000
0010
0000
,
0100
0100
0010
0010
,
0001
0000
1000
0000
,
0002
0000
0000
0003
,
1000
0000
0001
0000
,
0100
0000
0010
0000
,
1000
0000
0001
0000
,
0010
0010
0100
0000
,
0010
0000
0010
0000
,
0001
0000
1000
0000
,
0010
0000
1000
0000
,
0001
0001
1000
1000
,
0100
0000
1000
0000
,
0001
0000
0010
0000
,
0100
0000
1000
0000
,
0001
0001
1000
0010
,
0100
0000
0010
0000
,
0100
0000
0100
0000
,
0002
0000
0000
0003
,
1000
0100
0010
0000
,
0220
0000
0000
0330
,
2002
0000
0000
3003
,
0001
0000
1000
0000
,
0100
0100
1000
0000
,
0001
0000
0100
0000
,
0010
0100
0020
0000
,
0130
0000
0001
0000
,
1000
0001
1000
0001
,
2000
3000
0001
0000
,
0010
0010
0100
0100
,
1000
0000
0001
0000
,
0100
0100
0010
0100
,
0200
0000
0000
0300
,
0001
0002
0000
0003
,
1000
0000
0001
0000
,
0100
0000
0010
0000
,
1000
0000
0001
0000
,
0010
0010
0100
1000
,
0200
0300
0020
0030
,
0002
0003
2000
3000
,
0002
0003
0200
0300
,
0010
0010
0100
0100
,
0002
0003
2000
3000
,
0200
0300
0020
0030
,
0200
0300
0020
0030
,
0001
0001
1000
1000
,
1001
0000
0000
0000
,
0110
0000
0000
0000
,
2002
0000
0000
0000
,
0000
0000
0000
3003
,
2002
0000
3003
0000
;

//--------------- dance-single - Fred-104 ----------------
#NOTES:
     dance-single:
     Fred-104:
     Easy:
     8:
     :
0000
0000
0000
0000
,
0000
0000
0000
0000
,
0000
0000
0000
0000
,
0000
0000
0000
0000
,
0000
0000
0000
0000
,
1001
1001
0000
0000
,
0110
0110
0000
0000
,
1001
1001
0000
0000
,
0110
0110
1000
0001
,
1000
0100
0001
0100
,
1000
0100
0002
0003
,
0001
0100
1000
0100
,
0001
0100
2000
3000
,
1000
0010
0001
0010
,
1000
0010
0002
0003
,
0001
0010
1000
0010
,
0001
0010
2000
3000
,
1000
1000
0001
0001
,
0100
0010
0100
0000
0001
1000
0001
0000
,
1001
0000
0000
0001
0000
0000
0100
0000
,
0020
0030
0200
0300
,
0001
1000
0200
0300
,
0100
1000
0010
0100
,
0010
0000
0000
1000
0000
0000
0010
0000
,
0200
0300
0002
0003
,
0010
0100
2000
3000
,
0002
2003
3002
0103
,
0110
0000
0000
0010
0000
0000
0100
0000
,
0002
0003
2000
3000
,
0001
0010
0200
0300
,
1000
1000
0001
0001
,
0010
0000
0000
0001
0000
0000
0100
0000
,
0002
0003
2000
3000
,
0001
0010
0200
0300
,
1000
0001
1000
0010
,
0100
0000
0000
0100
0000
0000
0100
0000
,
0001
0000
0000
0001
0000
0000
0001
0000
,
1000
0000
0000
0010
0000
0000
0100
0000
,
0010
0000
0000
1000
0000
0000
0001
0000
,
0010
0000
0000
0010
0000
0000
0100
0000
,
1000
0000
0000
1000
0000
0000
0001
0000
,
0100
0000
0000
0010
0000
0000
0100
0000
,
0010
0010
0100
0100
,
0001
0000
0000
1000
0000
0000
0001
0000
,
0010
0000
0000
0100
0000
0000
1000
0000
,
0010
0000
0000
0100
0000
0000
0010
0000
,
0100
0000
0000
0001
0000
0000
0010
0000
,
0100
0000
0000
0010
0000
0000
0001
0000
,
1000
0000
0000
0001
0000
0000
0100
0000
,
0010
0000
0000
1000
0000
0000
0001
0000
,
0010
0010
0100
0100
,
1000
0000
0000
0001
0000
0000
1000
0000
,
2002
0000
0000
3003
,
1001
1000
0100
0000
,
0110
0010
0001
0000
,
1001
0001
0100
0000
,
0010
0010
0100
0100
,
0110
0000
0001
0000
,
1000
0100
0001
0100
,
1000
0000
0001
0000
,
0100
0010
0200
0300
,
0001
0100
1000
0100
,
0001
1000
0010
0100
,
0002
0000
0003
0001
0000
0000
1000
0000
,
0010
0220
0000
0330
,
0001
1000
0001
0010
,
1000
0010
0001
1000
,
0020
0030
0100
0001
,
1000
0100
0010
0000
0001
0100
0010
0000
,
1001
0001
0010
0100
,
1000
0001
0100
0010
,
0100
0001
0100
0010
,
1000
0000
0100
0000
0010
0001
0010
0000
,
0001
1000
0010
0100
,
0001
1000
0100
1000
,
0010
0100
0010
1000
,
0001
0010
0001
0000
1000
0010
1000
0000
,
1001
1001
0000
0000
,
0110
0110
0000
0000
,
2002
0000
0000
0000
,
0000
0000
0000
3003
,
2002
0000
3003
0000
;

//--------------- dance-single - Fred-104 ----------------
#NOTES:
     dance-single:
     Fred-104:
     Medium:
     11:
     :
0000
0000
0000
0000
,
0000
0000
0000
0000
,
0000
0000
0000
0000
,
0000
0000
0000
0000
,
0000
0000
0000
0000
,
1100
1100
0100
0010
,
0011
0011
0001
0100
,
1010
1010
0010
0100
,
0101
0000
0101
0000
0001
1000
0001
0000
,
0200
0000
0320
0000
0130
0001
1000
0001
,
2000
0000
3200
0000
0310
0001
0010
0001
,
0020
0000
0230
0000
1300
0001
0100
0010
,
2000
0000
3002
0000
0013
0100
1000
0001
,
0200
0000
0320
0000
0130
0001
1000
0001
,
0020
0000
0230
0000
0310
0001
1000
0010
,
0200
0000
0320
0000
0130
0010
1000
0001
,
0020
0000
0230
0000
0310
0001
0100
0010
,
0100
0100
0010
0010
,
0100
0001
0100
0010
1000
0001
1000
0000
,
1001
0000
0001
0010
0000
0100
1000
0001
,
1000
0000
0010
0000
0100
0001
0100
0000
,
0002
0000
1003
0100
0010
0001
1000
0000
,
0001
0100
0001
0000
0010
0100
0010
0000
,
0011
0000
0001
1000
0000
0001
0010
0100
,
0020
0000
0031
0000
0100
0010
0100
0000
,
0001
0000
1000
0100
0010
0001
1000
0000
,
0002
0203
0320
1030
,
1001
0000
1000
0100
0000
1000
0001
1000
,
0010
0000
0100
0000
0010
1000
0001
0000
,
0020
0000
0130
0010
0001
1000
0010
0000
,
0100
0010
0100
0000
0001
0100
0001
0000
,
0010
0010
0001
0001
0000
1000
0001
0100
,
0001
0000
1000
0000
0100
0010
0100
0000
,
1000
0000
0001
0100
0010
1000
0100
0000
,
2000
3002
0203
0310
,
1001
0000
0000
1000
0000
0001
0100
0000
,
0001
0000
0000
0010
0000
0001
1000
0000
,
0100
0000
0000
0010
0000
0100
1000
0000
,
0001
0100
0001
1000
0000
0001
0010
0000
,
0110
0000
0000
0100
0000
1000
0001
0000
,
0100
0000
0000
0010
0000
0100
0001
0000
,
1000
0000
0000
0100
0000
0010
0001
0000
,
0100
0010
0100
0000
0001
1000
0001
0000
,
1001
0000
0000
0001
0000
0010
0100
0000
,
1000
0000
0000
0010
0000
0100
0010
0000
,
1000
0000
0000
0100
0000
0010
0001
0000
,
1000
0100
1000
0100
0000
0010
0100
0000
,
1001
0000
0000
1000
0000
0100
0010
0000
,
0100
0000
0000
0010
0000
0001
1000
0000
,
0001
0000
0000
0100
0000
0001
1000
0000
,
0100
0010
0001
0000
0010
0001
1000
0000
,
1001
0000
0001
0001
0000
0100
0010
1000
,
2002
0000
0000
3003
,
2000
0000
3010
1000
0010
1000
0001
1000
,
0200
0000
1300
0100
0010
0100
0020
0000
,
0032
0000
1000
0000
1003
0001
0020
0000
,
0230
0310
2002
3003
,
2000
0000
3200
0000
0301
0100
1000
0000
,
0001
0100
1000
0000
0100
0001
1000
0000
,
0001
0010
0100
0001
0100
1000
0001
0000
,
1000
0010
0100
0001
2000
0000
3002
0000
,
0023
0000
0130
1000
0001
0100
0010
1000
,
0001
0010
0001
0010
0100
1000
0100
0000
,
2002
0000
3003
2000
0000
3001
0100
0010
,
0100
0202
0000
0303
,
2001
0000
3001
0010
0100
1000
0001
1000
,
0010
0100
0001
1000
0100
0010
0001
0000
,
2002
0000
3003
1000
0001
0100
0010
0000
,
1000
0010
1000
0010
0001
0010
1000
0000
,
0002
0000
0103
0010
1000
0001
0010
0000
,
0200
0000
1300
0100
0010
0100
1000
0001
,
0200
0000
0310
0100
0001
0100
0010
0000
,
2000
0000
3001
0010
0100
1000
0001
0010
,
0200
0000
1300
0001
0100
0010
2000
0000
,
3001
0000
0100
0010
0001
0010
0100
0001
,
2000
0000
3001
1000
0100
1000
0001
0100
,
0010
1000
0100
0010
0001
0100
0010
0000
,
1010
0000
0101
0000
1000
0100
0010
0001
,
0011
0000
1100
0000
0001
0100
0010
1000
,
2002
0000
0000
0000
,
0000
0000
0000
3003
,
2002
0000
3003
0000
;

//--------------- dance-single - Fred-104 ----------------
#NOTES:
     dance-single:
     Fred-104:
     Hard:
     15:
     :
0000
0000
0000
0000
,
0000
0000
0000
0000
,
0000
0000
0000
0000
,
0000
0000
0000
0000
,
0000
0000
0000
0000
,
1100
0000
1100
0000
1000
0100
1000
0001
,
0101
0000
0101
0000
0001
0100
0001
1000
,
1001
0000
1001
0000
0001
0010
0100
1000
,
0010
1000
0010
0000
0100
0001
0100
0000
0001
0000
0010
0000
0100
0000
1000
0000
,
1002
0000
1003
0100
0010
0001
0100
0001
,
0020
0000
0130
0010
0001
1000
0010
0100
,
0002
0000
0103
1000
0100
0001
1000
0100
,
0010
0001
1000
0010
0100
0100
0100
0001
,
2000
0000
0000
0000
3010
1000
0010
0000
0100
0000
0001
0000
1000
0000
0100
0000
,
0020
0000
0000
0000
0031
1000
0001
0000
0100
0000
0001
0000
1000
0000
0010
0000
,
0200
0000
0000
0000
0310
1000
0010
0000
0100
0000
0010
0000
1000
0000
0001
0000
,
0020
0000
0000
0000
0130
0010
0100
0000
1000
0000
0001
0000
0100
0000
0010
0000
,
0200
0000
0301
1000
0100
0100
0010
0010
,
0001
0000
0100
0001
0100
0000
0010
1000
0010
0000
1000
0001
0100
0001
1000
0000
,
0200
0000
0310
0100
0010
0001
1000
0010
,
0200
0000
0301
1000
0100
0001
0100
0010
,
0200
0000
0000
0000
1300
0000
0001
1000
0001
0000
1000
0100
1000
0000
0001
0000
,
0100
0010
0100
0010
0100
0000
0001
0000
1000
0000
0001
0010
0002
0000
0000
0000
,
2003
0000
3010
0100
1000
0100
0010
1000
,
0002
0000
1003
0100
0001
0100
0010
0100
,
2000
0000
3010
1000
0001
0010
0200
0000
,
1300
0100
0010
0001
0100
0010
1000
0100
0010
0001
0000
0000
,
2100
0000
0000
0000
3001
0000
1000
0000
0001
0000
0100
0010
0100
0000
0001
0000
,
0200
0000
0310
0100
1000
0100
0001
1000
,
0002
0000
0000
0000
1003
0000
0100
0010
0100
0000
0010
0000
0001
0000
1000
0000
,
0001
0010
0001
0000
1000
0010
1000
0000
0001
0000
0010
0000
0200
0000
0000
0000
,
1300
0010
0100
0002
1000
1003
0100
0010
,
0002
0000
0103
1000
0100
0001
0010
0100
,
2000
0000
3001
0010
0001
1000
0010
0100
,
0001
0010
0100
1000
0001
0100
0010
1000
0001
0010
0000
0000
,
1001
0000
1000
0100
0100
0010
0100
0100
,
2000
0000
3010
2000
0100
3100
0010
0001
,
2000
0010
3010
0200
0010
0310
2000
0000
,
3001
0000
0010
0000
0100
0000
2000
0000
0000
0000
3001
1000
0001
0000
0000
0000
,
1000
0000
0001
0000
0100
0000
0020
0000
0000
0000
1030
0001
0010
0000
0001
0000
,
0200
0000
0000
0000
0301
0000
0020
0000
0000
0000
0130
1000
0100
0000
0010
0000
,
0100
0000
1000
0000
0001
0000
0200
0000
0000
0000
0310
1000
0001
0000
1000
0000
,
0001
0100
1000
0001
0010
1000
1001
0000
,
2100
0000
0000
0000
3100
0000
0010
0000
0001
0000
1000
0001
1000
0000
0010
0000
,
0200
0000
0000
0000
0301
0000
1000
0000
0100
0000
0010
0001
0010
0000
0001
0000
,
2000
0000
0000
0000
3001
0000
0100
0000
0010
0000
0100
0001
0100
0000
0010
0000
,
1000
0001
0010
0200
0000
1300
1001
0000
,
0002
0000
0000
0000
0103
0000
0001
0000
1000
0000
0001
0010
0001
0000
1000
0000
,
0020
0000
0000
0000
0130
0000
0001
0000
1000
0000
0100
0010
0100
0000
1000
0000
,
0002
0000
0000
0000
0103
0000
0010
0000
0100
0000
0001
1000
0001
0000
0010
0000
,
0100
0000
1000
0001
1000
0000
0010
0100
0010
0000
0100
0001
0100
0000
0001
0000
,
1001
0000
1000
1100
0000
0001
1000
0001
,
0202
0000
0000
0000
0000
0000
0303
0000
0001
1000
0001
1000
0001
1000
0001
0000
,
2001
0000
0000
0000
3100
1000
0100
0000
0010
0000
0001
0000
1000
0000
0010
0000
,
0210
0000
0000
0000
0301
1000
0001
0000
0100
0010
0100
0000
0001
0000
0010
0000
,
0210
0000
0000
0000
1300
0000
0001
0100
0001
0000
0010
0000
0100
0000
1000
0000
,
0001
0000
0100
0010
0100
0000
0001
0000
2002
0000
0000
0000
3003
0000
0000
0000
,
1002
0000
0000
0000
0013
0001
0010
0000
0100
1000
0100
1000
0001
0000
0100
0000
,
0010
0000
1000
0000
0001
0010
0001
0000
1000
0100
1000
0000
0001
0100
0001
0000
,
1000
0010
0100
0010
0001
0010
0100
0001
,
1000
0000
0000
0000
0000
0000
0000
0000
0001
0000
0000
0000
0000
0000
0000
0000
0020
0030
0000
0000
0000
0000
0000
0000
0020
0030
0000
0000
0000
0000
0000
0000
2000
0000
0000
0000
0000
0000
0000
0000
0000
0000
0000
0000
0000
0000
0000
0000
3002
0000
0000
0000
0000
0000
0000
0000
0000
0000
0000
0000
0003
0000
0000
0000
,
0201
0000
0000
0000
0301
0000
1000
0100
1000
0100
1000
0000
0001
0100
0001
0000
,
1000
0000
0000
0000
0000
0000
0001
0000
0000
0010
0000
0000
0001
0000
0000
0000
0000
0000
1000
0000
0000
0000
0000
0000
0100
0000
0000
0000
0010
0000
0000
0000
0001
0000
0000
0000
1000
0000
0000
0000
0001
0000
0000
0000
0100
0000
0000
0000
,
0201
0000
0000
0320
0000
2030
3001
0010
,
0100
2200
0000
3300
,
2010
0000
0000
0000
3001
0100
0001
0000
1000
0100
1000
0100
1000
0000
0001
0000
,
0010
0100
0010
0000
0001
0000
1000
0010
1000
0000
0001
0000
1000
0000
0100
0000
,
0120
0000
0000
0000
0000
0000
0031
1000
0001
0000
0010
0000
0100
0000
1000
0000
,
0001
0100
0001
0000
1000
0100
1000
0000
0001
1000
0001
1000
0100
0000
0010
0000
,
0012
0000
0103
0001
1000
0100
0010
0001
,
2001
0000
3001
0100
0010
1000
0010
0100
,
0102
0000
1003
0100
0010
0001
1000
0010
,
0210
0000
0301
0100
0010
1000
0001
0010
,
0210
0000
0000
0000
1300
0000
0001
0100
0001
0000
1000
0000
0100
0000
0010
0000
,
0021
0000
0000
0000
0031
0000
0100
0001
0100
0000
0010
0000
1000
0000
0100
0000
,
2100
0000
0000
0000
3100
0000
0010
0001
0010
0000
0100
0000
1000
0000
0010
0000
,
0100
0001
0100
0000
0010
1000
0010
0000
1000
0001
1000
0001
1000
0000
0100
0000
,
1100
0000
0101
0000
1000
0100
0010
0001
,
0011
0000
0000
0000
1010
0000
0000
1000
0001
0010
0001
0010
0100
1000
0100
1000
,
0002
0000
0000
0000
,
0000
0000
0000
0000
0000
0000
0000
0003
,
2002
0000
3003
0000
;

//--------------- dance-double - Fred-104 ----------------
#NOTES:
     dance-double:
     Fred-104:
     Easy:
     8:
     :
00000000
00000000
00000000
00000000
,
00000000
00000000
00000000
00000000
,
00000000
00000000
00000000
00000000
,
00000000
00000000
00000000
00000000
,
00000000
00000000
00000000
00000000
,
00011000
00011000
00000000
00000000
,
01001000
01001000
00000000
00000000
,
00010010
00010010
00000000
00000000
,
00011000
00011000
00001000
00010000
,
00001000
00010000
01000000
10000000
,
00010000
10000000
02000000
03000000
,
10000000
01000000
00010000
00001000
,
00010000
00001000
00020000
00030000
,
00001000
00010000
00001000
00000010
,
00000001
00001000
00000002
00000003
,
00001000
00000010
00000100
00001000
,
00010000
00100000
02000000
03000000
,
00010000
00010000
10000000
10000000
,
01000000
00100000
00001000
00000000
00010000
00001000
00010000
00000000
,
00011000
00000000
00000000
00010000
00000000
00000000
00000010
00000000
,
00020000
00030000
00002000
00003000
,
00010000
00001000
00000200
00000300
,
00000010
00001000
00000010
00000100
,
00000010
00000000
00000000
00010000
00000000
00000000
00000010
00000000
,
00002000
00003000
00000002
00000003
,
00000100
00001000
00020000
00030000
,
00002000
00023000
00032000
00013000
,
00011000
00000000
00000000
00001000
00000000
00000000
00100000
00000000
,
00020000
00030000
20000000
30000000
,
00100000
01000000
00200000
00300000
,
10000000
01000000
00100000
00001000
,
00010000
00000000
00000000
00001000
00000000
00000000
01000000
00000000
,
00002000
00003000
00020000
00030000
,
00001000
00010000
00000200
00000300
,
00001000
00000100
00000010
00000001
,
00001000
00000000
00000000
00000001
00000000
00000000
00000100
00000000
,
00000010
00000000
00000000
00010000
00000000
00000000
00001000
00000000
,
00100000
00000000
00000000
00001000
00000000
00000000
00010000
00000000
,
00001000
00000000
00000000
01000000
00000000
00000000
00010000
00000000
,
10000000
00000000
00000000
00100000
00000000
00000000
01000000
00000000
,
00010000
00000000
00000000
00100000
00000000
00000000
00010000
00000000
,
01000000
00000000
00000000
00001000
00000000
00000000
00010000
00000000
,
00001000
00001000
00010000
00010000
,
00001000
00000000
00000000
00010000
00000000
00000000
00000010
00000000
,
00001000
00000000
00000000
00000001
00000000
00000000
00000010
00000000
,
00000100
00000000
00000000
00010000
00000000
00000000
00001000
00000000
,
00000100
00000000
00000000
00000010
00000000
00000000
00001000
00000000
,
00000001
00000000
00000000
00000100
00000000
00000000
00001000
00000000
,
00010000
00000000
00000000
01000000
00000000
00000000
10000000
00000000
,
00010000
00000000
00000000
10000000
00000000
00000000
01000000
00000000
,
00100000
00100000
00001000
00001000
,
00010000
00000000
00000000
00001000
00000000
00000000
00010000
00000000
,
00022000
00000000
00000000
00033000
,
00011000
00001000
01000000
00000000
,
01100000
00100000
10000000
00000000
,
11000000
01000000
00100000
00000000
,
00001000
00001000
00010000
00010000
,
00011000
00000000
00010000
00000000
,
00001000
00010000
01000000
00010000
,
00001000
00000000
00010000
00000000
,
00001000
00010000
00002000
00003000
,
00010000
00001000
00000100
00000001
,
00001000
00000100
00000010
00000001
,
00002000
00000000
00003000
00001000
00000000
00000000
00000010
00000000
,
00010000
00022000
00000000
00033000
,
00001000
00010000
00100000
00010000
,
00001000
00010000
00100000
10000000
,
00020000
00030000
10000000
01000000
,
00100000
00010000
00100000
00000000
00001000
00010000
00001000
00000000
,
00011000
00010000
00001000
01000000
,
00001000
00010000
00001000
00100000
,
00001000
00010000
00000010
00010000
,
00000100
00000000
00001000
00000000
00000100
00001000
00000100
00000000
,
00000010
00000001
00001000
00000010
,
00000100
00001000
00010000
00100000
,
01000000
00010000
10000000
01000000
,
00100000
00010000
00100000
00000000
00001000
00010000
00001000
00000000
,
00011000
00101000
00000000
00000000
,
00011000
00010100
00000000
00000000
,
00000220
00000000
00000000
00000000
,
00000000
00000000
00000000
00000330
,
00000022
00000000
00000033
00000000
;

//--------------- dance-double - Fred-104 ----------------
#NOTES:
     dance-double:
     Fred-104:
     Medium:
     12:
     :
00000000
00000000
00000000
00000000
,
00000000
00000000
00000000
00000000
,
00000000
00000000
00000000
00000000
,
00000000
00000000
00000000
00000000
,
00000000
00000000
00000000
00000000
,
00011000
00000000
00010010
00000000
00010000
00010000
00010000
00000000
,
00011000
00000000
00101000
00000000
00001000
00001000
00001000
00000000
,
00011000
00000000
00010100
00000000
00010000
00010000
00010000
00000000
,
00001000
00100000
00010000
00000000
10000000
00010000
01000000
00100000
,
01000000
00000000
10010000
00000000
10000000
01000000
00100000
00010000
,
00100000
00000000
00101000
00000000
00001000
00010000
00000010
00001000
,
00000010
00000000
00001001
00000000
00001000
00000100
00000010
00000001
,
00001000
00000000
00001001
00000000
00000001
00000100
00001000
00010000
,
00001000
00000000
00011000
00000000
00001000
00010000
01000000
00100000
,
00010000
00000000
10010000
00000000
00010000
10000000
00100000
00010000
,
00001000
00000000
00011000
00000000
00010000
00001000
00000010
00000001
,
00000010
00000000
00000110
00000000
00001000
00000001
00000100
00001000
,
00010000
00010000
00001000
00001000
,
00010000
00001000
00000100
00000001
00000100
00000010
00001000
00000001
,
00000021
00000000
00000031
00000010
00000000
00000010
00000100
00001000
,
00000002
00000000
00000103
00001000
00010000
00001000
00010000
00100000
,
02000000
00000000
03010000
10000000
01000000
10000000
01000000
00100000
,
00001000
00010000
00100000
00000000
01000000
00010000
10000000
00000000
,
10020000
00000000
10030000
01000000
00000000
01000000
00100000
00001000
,
00010000
00000000
00001000
00000100
00000001
00000100
00000010
00000000
,
00001000
00000000
00000100
00000010
00001000
00000000
00010000
00000000
,
00002000
00023000
00031000
00011000
,
01100000
00000000
10000000
01000000
00000000
00100000
00001000
00010000
,
00001000
00000000
00010000
00001000
00000100
00000001
00000010
00000000
,
00000001
00000000
00001000
00000001
00000100
00000010
00010000
00001000
,
00010000
01000000
00100000
01000000
10000000
00010000
01000000
00000000
,
00010000
10000000
00010000
10000000
00000000
01000000
00100000
00001000
,
00010000
00000000
00001000
00000100
00000001
00000100
00000010
00000000
,
00001000
00000000
00000001
00000010
00001000
00010000
01000000
00100000
,
00020000
20030000
30100000
01100000
,
10010000
00000000
10000000
01000000
00000000
00100000
00001000
00000000
,
00010000
00000000
00000100
00001000
00000000
00000100
00000010
00000000
,
00000001
00000000
00001000
00000010
00000000
00010000
00001000
00000000
,
01000000
00001000
00010000
00001000
00000000
00010000
00001000
00000000
,
00011000
00000000
00010000
00001000
00000000
00000100
00000010
00000000
,
00001000
00000000
00000100
00000010
00000000
00000001
00001000
00000000
,
00000001
00000000
00000100
00001000
00000000
00010000
00001000
00000000
,
00010000
01000000
00100000
00000000
00010000
10000000
00100000
00000000
,
10010000
00000000
10000000
01000000
00000000
00100000
00001000
00010000
,
00001000
00000000
00010000
00000100
00000000
00001000
00000001
00000010
,
00000100
00000000
00000010
00000001
00000000
00001000
00000001
00000010
,
00000100
00010000
00001000
00010000
00000000
00001000
01000000
00000000
,
01100000
00000000
00100000
10000000
00000000
01000000
00100000
00001000
,
00010000
00000000
00001000
00000100
00000000
00000010
00001000
00000001
,
00000010
00000000
00000100
00010000
00000000
00001000
00010000
00000000
,
00001000
00000010
00000001
00000000
00001000
00000010
00010000
00000000
,
00011000
00000000
00001000
00001000
00000000
01000000
00010000
10000000
,
20020000
00000000
00000000
30030000
,
11000000
00000000
10000000
01000000
00100000
01000000
00100000
00001000
,
00020000
00000000
00031000
00000100
00000010
00001000
00000002
00000000
,
00002003
00000000
00003001
00000010
00000100
00010000
00001000
00000000
,
00010000
00000000
00001000
00010000
00022000
00000000
00033000
00000000
,
01100000
00000000
00010000
10000000
01000000
00100000
01000000
10000000
,
00010000
01000000
00100000
00010000
00001000
00000100
00000010
00000000
,
00001000
00000001
00000010
00000001
00000010
00000100
00001000
00000001
,
00000100
00000000
00001000
00010000
00002000
00000000
00003000
00000000
,
00011000
00000000
00001000
00010000
00001000
00010000
00100000
01000000
,
00100000
10000000
00010000
10000000
01000000
00100000
00001000
00000000
,
00011000
00000000
00000000
00010000
00000000
00000010
00001000
00000000
,
00001100
00002002
00000000
00003003
,
00000110
00000000
00001000
00000100
00000010
00000001
00001000
00000001
,
00000100
00000010
00000100
00001000
00010000
00100000
01000000
00000000
,
20020000
00000000
30030000
10000000
01000000
00100000
00001000
00010000
,
00001000
00000010
00000001
00000010
00000100
00001000
00000001
00001000
,
00001010
00000000
00001001
00000000
00000001
00000100
00000010
00010000
,
00001000
00000000
00011000
00000000
00001000
00100000
00010000
10000000
,
00010000
00000000
10010000
00000000
10000000
01000000
00100000
00001000
,
00010000
00000000
00010010
00000000
00010000
00001000
00000100
00000001
,
00000010
00000000
00000110
00000000
00000001
00000100
00001000
00010000
,
00001000
00000000
00011000
00000000
00001000
00010000
00100000
01000000
,
00010000
00000000
10010000
00000000
10000000
01000000
00100000
00001000
,
00010000
00000000
00011000
00000000
00010000
00001000
00000100
00000001
,
00001000
00000000
00001100
00000000
00000100
00000010
00000001
00001000
,
00000100
00000000
00010100
00000000
00010000
00001000
01000000
00001000
,
00020000
00000000
00000000
00000000
,
00000000
00000000
00000000
00030000
,
00022000
00000000
00033000
00000000
;

//--------------- dance-double - Fred-104 ----------------
#NOTES:
     dance-double:
     Fred-104:
     Hard:
     15:
     :
00000000
00000000
00000000
00000000
,
00000000
00000000
00000000
00000000
,
00000000
00000000
00000000
00000000
,
00000000
00000000
00000000
00000000
,
00000000
00000000
00000000
00000000
,
00011000
00000000
00011000
00000000
00010000
00001000
00000100
00000001
,
00000011
00000000
00000011
00000000
00000001
00001000
00000100
00010000
,
00011000
00000000
00011000
00000000
00001000
00010000
00100000
10000000
,
00010000
00100000
01000000
10000000
00100000
00010000
00001000
00010000
,
00012000
00000000
00013000
00001000
00000010
00000100
00001000
00000100
,
00000020
00000000
00000031
00000100
00000010
00000100
00001000
00010000
,
00002000
00000000
00013000
01000000
00100000
01000000
10000000
00010000
,
01000000
00100000
10000000
01000000
00010000
00001000
00000010
00000100
,
00002000
00000000
00000000
00000000
00003010
00000100
00000010
00000000
00001000
00000000
00000100
00000000
00010000
00000000
00001000
00000000
,
02000000
00000000
00000000
00000000
03001000
00010000
00001000
00000000
01000000
00000000
00100000
00000000
00010000
00000000
00001000
00000000
,
00000200
00000000
00000000
00000000
00000310
00000100
00000010
00000000
00000100
00000000
00001000
00000000
00010000
00000000
00100000
00000000
,
02000000
00000000
00000000
00000000
03001000
00010000
00001000
00000000
00100000
00000000
00001000
00000000
00010000
00000000
00001000
00000000
,
00000020
00000000
00000031
00001000
00000100
00000100
00010000
00010000
,
00001000
00000000
00100000
00010000
00100000
00000000
00010000
10000000
00010000
00000000
01000000
00100000
01000000
00010000
01000000
00000000
,
00020000
00000000
10030000
01000000
00010000
00001000
00000100
00000001
,
00002000
00000000
00003100
00000010
00000001
00000100
00001000
00010000
,
00002000
00000000
00000000
00000000
01003000
00000000
01000000
00010000
01000000
00000000
00010000
10000000
00010000
00000000
10000000
00000000
,
01000000
00100000
01000000
00100000
00010000
00000000
00100000
00000000
00001000
00000000
00100000
00000000
00002000
00000000
00000000
00000000
,
00023000
00000000
00031000
00000010
00000001
00000010
00000100
00001000
,
00000200
00000000
00010300
00001000
00010000
00100000
10000000
00100000
,
02000000
00000000
03010000
10000000
02000000
00000000
03100000
00100000
,
00001000
00010000
00001000
00010000
00000010
00001000
00000100
00000010
00000001
00001000
00000000
00000000
,
00002100
00000000
00000000
00000000
00003001
00000000
00000100
00000000
00000010
00000000
00001000
00000001
00001000
00000000
00000100
00000000
,
00020000
00000000
00031000
00010000
00100000
01000000
00001000
00010000
,
00200000
00000000
00000000
00000000
10300000
00000000
00010000
10000000
00010000
10000000
00010000
00000000
10000000
00000000
01000000
00000000
,
00010000
00001000
00010000
00000000
00000010
00001000
00000010
00000000
00000100
00000000
00000001
00000000
00002000
00000000
00000000
00000000
,
00003100
00000010
00001000
00020000
00000000
00031000
00010000
00100000
,
02000000
00000000
03010000
00100000
01000000
00100000
00001000
00010000
,
00000020
00000000
00010030
00001000
00000010
00000001
00000010
00000100
,
00010000
00001000
00010000
00000010
00001000
00000010
00010000
00001000
01000000
00010000
00000000
00000000
,
10010000
00000000
10000000
01000000
00010000
00001000
00000010
00000001
,
00002000
00000000
00003001
00002000
00000100
00003100
00010000
00001000
,
00020000
00001000
00031000
02000000
00001000
03001000
00010000
00010000
,
00001000
00000000
00010000
00000000
00100000
00000000
20000000
00000000
00000000
00000000
31000000
00100000
01000000
00000000
00000000
00000000
,
00100000
00000000
00001000
00000000
00010000
00000000
00001000
00000000
00000100
00000000
00000001
00000000
00001000
00000001
00001000
00000000
,
00000200
00000000
00000000
00000000
00000310
00000000
00000001
00000000
00001000
00000000
00000010
00000000
00010000
00001000
00010000
00000000
,
00001000
00000000
00010000
00000000
00100000
00000000
01000000
00000000
00100000
00000000
10000000
00000000
00010000
10000000
00010000
00000000
,
10000000
01000000
00010000
00001000
00010000
01000000
10000000
00000000
,
00020000
00000000
00000000
00000000
10030000
00000000
01000000
00000000
00100000
00000000
00001000
00010000
00001000
00000000
01000000
00000000
,
00002000
00000000
00013000
00001000
00000100
00000010
00001000
00000001
,
00000020
00000000
00000000
00000000
00000130
00000000
00001000
00000000
00000100
00000000
00010000
00001000
00010000
00000000
00001000
00000000
,
00100000
00010000
00100000
02000000
00000000
03100000
00001000
00000000
,
00021000
00000000
00000000
00000000
00030010
00000000
00010000
00000000
00001000
00000000
00000100
00000000
00000001
00001000
00000001
00000000
,
00000200
00000000
00000310
00000100
00001000
00010000
00100000
01000000
,
00200000
00000000
00000000
00000000
10300000
00000000
00010000
00000000
00100000
00000000
00001000
00010000
00001000
00000000
01000000
00000000
,
00001000
00000000
00010000
00001000
00010000
00000000
00000100
00001000
00000100
00000000
00000010
00000001
00000010
00000000
00000001
00000000
,
00001001
00000000
00000001
00000101
00000000
00001000
00000100
00010000
,
00022000
00000000
00000000
00033000
,
00012000
00000000
00000000
00000000
01003000
00001000
01000000
00000000
00001000
00000000
00010000
00000000
00000100
00000000
00000010
00000000
,
00000012
00000000
00000000
00000000
00001003
00000001
00001000
00000000
00000010
00000000
00000100
00000000
00001000
00000000
00010000
00000000
,
00012000
00000000
00000000
00000000
00013000
00000000
00100000
01000000
00100000
00000000
10000000
00000000
00100000
00000000
01000000
00000000
,
00010000
10000000
01000000
00010000
00002000
00000000
00013000
00000000
,
00012000
00000000
00000000
00000000
00013000
00000100
00010000
00000000
00000100
00001000
00000100
00001000
00000100
00000000
00000010
00000000
,
00000001
00000000
00001000
00000000
00000010
00001000
00000010
00000000
00010000
00001000
00010000
00000000
00000010
00001000
00000010
00000000
,
00010000
00001000
00000010
00001000
00010000
00001000
00000010
00001000
,
00010000
00000000
00001000
00010000
00000010
00000000
00010000
00000000
00002000
00000000
00000000
00000000
00000000
00000000
00000000
00000000
,
00023000
00000000
00000000
00000000
00031000
00000000
00100000
00010000
00100000
01000000
10000000
00000000
00010000
10000000
00100000
00000000
,
01000000
00000000
00000000
00100000
00000000
00000000
10000000
00000000
00000000
00010000
00000000
00000000
10000000
00000000
01000000
00000000
00100000
00000000
00010000
00000000
00100000
00000000
00001000
00000000
,
00021000
00000000
00000000
00032000
00000000
00023000
00030010
00001000
,
00000001
00000022
00000000
00000033
,
00000120
00000000
00000000
00000000
00001030
00000001
00001000
00000000
00000001
00000100
00000001
00001000
00000100
00000000
00010000
00000000
,
00001000
00010000
00100000
00010000
00001000
00010000
00100000
10000000
,
00200000
00000000
00000000
00000000
00000000
00000000
10300000
00010000
10000000
00000000
01000000
00000000
00100000
00000000
00001000
00000000
,
00010000
00001000
00010000
00000000
00000010
00001000
00000010
00000000
00010000
00001000
00010000
00001000
00010000
00000000
00001000
00000000
,
00020000
00000000
00031000
00010000
00100000
10000000
00010000
00100000
,
02000000
00000000
03100000
00001000
00010000
00001000
00000010
00000001
,
00000020
00000000
00000130
00001000
00000001
00000100
00001000
00010000
,
00002000
00000000
00013000
00100000
01000000
00010000
10000000
01000000
,
00200000
00000000
00301000
00010000
00100000
10000000
01000000
00010000
,
00002000
00000000
00013000
00001000
00000100
00000001
00000010
00001000
,
00020000
00000000
00000000
00000000
00031000
00000000
00100000
00010000
00100000
00000000
00010000
00000000
10000000
00000000
00100000
00000000
,
01000000
00010000
01000000
00000000
00001000
00010000
00001000
00000000
00010000
00000100
00010000
00000100
00010000
00000000
00001000
00000000
,
00011000
00000000
00010010
00000000
00010000
00001000
00000100
00000001
,
00000011
00000000
00000000
00000000
00000110
00000000
00000000
00000000
00010000
00001000
00010000
00001000
01000000
00010000
01000000
00010000
,
20000000
00000000
00000000
00000000
,
00000000
00000000
00000000
00000000
00000000
00000000
00000000
30000000
,
20200000
00000000
30300000
00000000
;
