#VERSION:0.83;
#TITLE:ARACHNE;
#ARTIST:MAX MAXIMIZER;
#BANNER:ARACHNE.png;
#BACKGROUND:ARACHNE-bg.png;
#CDTITLE:./CDTitles/RB colette -Spring-.png;
#MUSIC:ARACHNE.ogg;
#SAMPLESTART:71.043;
#SAMPLELENGTH:15;
#BPMS:0=179,36=89.5,44=179,59=358,60=179,124=44.75,132=89.5,148=179,160=358,168=179,232=89.5,240=179,256=89.5,260=179;
#STOPS:59=0.168;
#BGSTAGE:29;

//--------------- dance-single - Fred-104 ----------------
#NOTEDATA:;
#STEPSTYPE:dance-single;
#DESCRIPTION:Fred-104;
#DIFFICULTY:Beginner;
#METER:5;
#CREDIT:Fred-104;
#NOTES:
0000
0000
0000
0000
,
0000
0000
0000
0000
,
0000
0000
0000
0000
,
0000
0000
0000
0000
,
0000
0000
0000
0000
,
1000
0000
0001
0000
,
0010
0000
0010
0000
,
0100
0000
0100
0000
,
1000
1000
1000
1000
,
0002
0000
0003
0000
,
2000
0000
3000
0000
,
0001
0000
0000
0000
,
1000
0000
0000
0000
,
0010
0000
0000
0000
,
1000
1000
0001
2002
,
3003
0000
1000
0000
,
0010
0000
0010
0000
,
0001
0000
0001
0000
,
0010
0000
0100
0100
,
0010
0000
0010
0000
,
1000
0000
1000
1000
,
0001
0000
0001
0000
,
1000
0000
1000
1000
,
0100
0000
0100
0000
,
0010
0000
0010
0010
,
0001
0000
1000
0000
,
0001
0000
1000
1000
,
0001
0000
0010
0000
,
1000
0000
0100
0000
,
0001
0000
1000
0000
,
0001
0001
0001
0001
,
0002
0000
0003
0000
,
2000
0000
3000
0000
,
0110
0010
0010
0000
,
0001
0000
0001
1000
,
0001
0100
0100
1000
,
0010
0010
0001
1000
,
2002
0000
0000
0000
,
0000
0000
0000
3003
,
2002
0000
0000
0000
,
0000
0000
0000
0000
,
0000
0000
0000
0000
,
3003
0000
0001
0000
,
0010
0000
0100
0100
,
0100
0000
1000
0000
,
0001
0000
1000
1000
,
1000
0000
0001
0000
,
1000
0000
0100
0100
,
0001
0000
0100
0000
,
1000
1000
1000
1000
,
1000
0000
0001
0000
,
0100
0000
0001
0000
,
0010
0000
0010
0000
,
0100
0000
0100
0000
,
1000
0000
1000
0000
,
0001
0000
0001
0000
,
0100
0000
0100
0000
,
0010
0010
0010
0010
,
1001
0000
0000
0000
,
0000
0000
0000
0000
,
1001
0000
0000
0000
,
0110
0000
0000
0000
,
1001
0000
0000
0000
,
1001
0000
0001
0001
,
0100
0110
0010
0110
,
1000
0000
0001
0000
,
1000
1000
0001
0001
,
1001
0000
0000
0000
;

//--------------- dance-single - Fred-104 ----------------
#NOTEDATA:;
#STEPSTYPE:dance-single;
#DESCRIPTION:Fred-104;
#DIFFICULTY:Easy;
#METER:10;
#CREDIT:Fred-104;
#NOTES:
0000
0000
0000
0000
,
0000
0000
0000
0000
,
0000
0000
0000
0000
,
0000
0000
0000
0000
,
0000
0000
0000
0000
,
1000
0000
0000
1000
0000
0000
1000
0000
0000
0000
0001
0000
0100
0000
0000
0000
,
0001
0000
0000
0001
0000
0000
0001
0000
0000
0000
0010
0000
0100
0000
0000
0000
,
1100
0000
0101
0000
,
1100
0010
0101
0010
,
2002
0000
0000
3003
,
0220
0000
0000
0330
,
1000
0000
0000
1000
0000
0000
1000
0000
0100
0000
0000
0000
0010
0000
0000
0000
,
0001
0000
0000
0001
0000
0000
0001
0000
0100
0000
0000
0000
0010
0000
0000
0000
,
0100
0000
0000
0100
0000
0000
0100
0000
0001
0000
0000
0000
0010
0000
0000
0000
,
0100
0000
0000
0000
0000
0000
0000
0000
0000
0000
0000
0000
0100
0000
0000
0000
0000
0000
0000
0000
0000
0000
0000
0000
0100
0000
0000
0000
0000
0000
0000
0000
1000
0000
0000
0000
0000
0000
0000
0000
0000
0000
0000
0000
0000
0000
0000
0000
2002
3003
0000
0000
0000
0000
0000
0000
0000
0000
0000
0000
0000
0000
0000
0000
,
0001
0000
0000
0001
0000
0000
0001
0000
0000
0000
0100
0000
0001
0000
0000
0000
,
0010
0000
0000
0010
0000
0000
0010
0000
0000
0000
0100
0000
1000
0000
0000
0000
,
0001
0000
0000
0001
0000
0000
0001
0000
0000
0000
1000
0000
0010
0000
0000
0000
,
0100
0000
0000
0100
0000
0000
0100
0000
0001
0000
0000
0000
1001
0000
0000
0000
,
1000
0000
0000
1000
0000
0000
0010
0000
0000
0000
0100
0000
0001
0000
0000
0000
,
1000
0000
0000
1000
0000
0000
1000
0000
0000
0000
0100
0000
0010
0000
0000
0000
,
0011
0000
1001
0000
,
1010
0000
1001
0001
,
1000
0000
0000
1000
0000
0000
0100
0000
0000
0000
0010
0000
0010
0000
0000
0000
,
0001
0000
0000
0001
0000
0000
1000
0000
0000
0000
0010
0000
0010
0000
0000
0000
,
1000
0100
1000
0100
,
0001
0010
0001
0010
,
1000
0000
0000
1000
0000
0000
1000
0000
0000
0000
0001
0000
0010
0000
0000
0000
,
0100
0000
0000
0100
0000
0000
0100
0000
0000
0000
1000
0000
0001
0000
0000
0000
,
1000
0100
0001
0010
,
1000
0001
1000
0000
0010
0100
0010
0000
,
2000
0000
3002
0000
,
2003
0000
0000
0000
0002
0000
0000
3003
,
1001
0000
0000
0000
0001
0000
0100
0000
0110
0000
0000
0000
0010
0010
0000
1000
,
0100
0000
0000
0000
0010
0000
0001
0000
0011
0000
0000
0001
1000
0001
0000
0001
,
0101
0000
0000
0000
0100
0000
0100
0000
0110
0000
0000
0000
0010
0100
0000
0100
,
0101
0000
1001
0000
1000
0100
1000
0100
0000
0010
0001
0000
0100
0000
0010
0000
,
0220
0000
0000
0000
,
0000
0000
0000
0330
,
1001
0000
0000
0000
,
2002
0000
0000
0000
,
0000
0000
0000
0000
0000
3003
0000
0000
,
1000
0000
0000
1000
0000
0000
1000
0000
0000
0000
0001
0000
0010
0000
0000
0000
,
0100
0000
0000
0100
0000
0000
0100
0000
0000
0000
1000
0000
0001
0000
0000
0000
,
0100
0000
0000
0100
0000
0000
0100
0000
0000
0000
0010
0000
0100
0000
0000
0000
,
0001
0000
0000
1000
0000
0000
0001
0000
0010
0000
0000
0000
0110
0000
0000
0000
,
1000
0000
0000
1000
0000
0000
1000
0000
0000
0000
0010
0000
1000
0000
0000
0000
,
0100
0000
0000
0100
0000
0000
0100
0000
0000
0000
0010
0000
0001
0000
0000
0000
,
1001
0000
0110
0000
,
1000
0010
0001
0100
,
1000
0000
0000
0001
0000
0000
0010
0000
0000
0000
0100
0000
0100
0000
0000
0000
,
1000
0000
0000
0001
0000
0000
0100
0000
0000
0000
0010
0000
0010
0000
0000
0000
,
1000
0000
0000
0100
0000
0000
0100
0000
0010
0000
0000
0001
0000
0000
0001
0000
,
0100
0000
0000
0010
0000
0000
0010
0000
0100
0000
0000
0000
0001
0000
0000
0000
,
0010
0000
0000
0010
0000
0000
0010
0000
0000
0000
0100
0000
0100
0000
0000
0000
,
1000
0000
0000
1000
0000
0000
1000
0000
0000
0000
0001
0000
0001
0000
0000
0000
,
1100
0000
0000
1000
0000
0000
0001
0000
0101
0000
0000
0001
0000
0000
1000
0000
,
1100
1001
0011
1001
,
0110
0000
0000
0000
,
0000
0000
0000
0000
,
0001
0000
0000
0001
0000
0000
0001
0000
0000
0000
0100
0000
0010
0000
0000
0000
,
1000
0000
0000
1000
0000
0000
1000
0000
0000
0000
0001
0000
0010
0000
0000
0000
,
0100
0000
0000
0100
0000
0000
0010
0000
0001
0000
0000
0001
0000
0000
1000
0000
,
0010
0000
0000
0010
0000
0000
0100
0000
0001
0000
1000
0000
0001
0000
0000
0000
,
1000
0100
0110
0000
0001
0100
0110
0000
,
1000
0100
0001
0010
,
1000
0000
0100
0000
0010
0001
0010
0000
,
1001
0000
0000
0000
;

//--------------- dance-single - Fred-104 ----------------
#NOTEDATA:;
#STEPSTYPE:dance-single;
#DESCRIPTION:Fred-104;
#DIFFICULTY:Medium;
#METER:13;
#CREDIT:Fred-104;
#NOTES:
0000
0000
0000
0000
,
0000
0000
0000
0000
,
0000
0000
0000
0000
,
0000
0000
0000
0000
,
0000
0000
0000
0000
,
1000
0000
0000
1000
0000
0000
1000
0000
0000
0000
0010
0000
0100
0000
0001
0000
,
0010
0000
0000
0010
0000
0000
0010
0000
0000
0000
0100
0000
0010
0000
0001
0000
,
0101
1000
1100
0001
,
1100
1010
0101
0011
,
1001
0000
0001
0000
0010
0000
0010
0000
0100
1000
0100
0000
1000
0010
1000
0000
,
0001
0010
0100
1000
0001
0010
0100
1000
0001
0100
0010
1000
0001
0100
0010
1000
,
0001
0000
0000
0001
0000
0000
0001
0000
0010
0000
0010
0000
0100
0000
0000
0000
,
1000
0000
0000
1000
0000
0000
1000
0000
0010
0000
0010
0000
0100
0000
0000
0000
,
0010
0000
0000
0010
0000
0000
0010
0000
1000
0000
1000
0000
0100
0000
0000
0000
,
0010
0000
0000
0000
0000
0000
0000
0000
0000
0000
0000
0000
0010
0000
0000
0000
0000
0000
0000
0000
0000
0000
0000
0000
0010
0000
0000
0000
0000
0000
0000
0000
0001
0000
0000
0000
0000
0000
0000
0000
0000
0000
0000
0000
0000
0000
0000
0000
2002
3003
0000
0000
0000
0000
0000
0000
0000
0000
0000
0000
0000
0000
0000
0000
,
1000
0000
0000
1000
0000
0000
1000
0000
0000
0000
0010
0000
1000
0000
0001
0000
,
0010
0000
0000
0010
0000
0000
0010
0000
0000
0000
0100
0000
0010
0000
0001
0000
,
0100
0000
0000
0100
0000
0000
0100
0000
0000
0000
0010
0000
1000
0000
0001
0000
,
0010
0000
0000
0010
0000
0000
0010
0000
0100
0000
0010
0000
0001
0000
1000
0000
,
0001
0000
0000
0001
0000
0000
0001
0000
0000
0000
0100
0000
1000
0000
0100
0000
,
0010
0000
0000
0010
0000
0000
0010
0000
0000
0000
1000
0000
0100
0000
0010
0000
,
0011
0000
0000
0001
0000
0000
1000
0000
1010
0000
0000
1000
0000
0000
0001
0000
,
0101
0000
0000
0001
0000
0000
1000
0000
1100
0000
1000
0000
0001
0000
0000
0000
,
0100
0000
0000
0100
0000
0000
0100
0000
0010
0000
1000
0000
0010
0000
1000
0000
,
0001
0000
0000
0001
0000
0000
0001
0000
0010
0000
0100
0000
1000
0000
0001
0000
,
1000
0000
0000
0100
0000
0000
0001
0000
0100
0000
0000
1000
0000
0000
0001
0000
,
1000
0000
0000
0010
0000
0000
0001
0000
0010
0000
1000
0000
0001
0000
1000
0000
,
0100
0000
0000
0010
0000
0000
0010
0000
0001
0000
1000
0000
0010
0000
1000
0000
,
0001
0000
0000
0001
0000
0000
0010
0000
0100
0000
1000
0000
0001
0000
0010
0000
,
0100
0000
0000
0100
0000
0000
0100
0000
0010
0000
0000
0010
0000
0000
0010
0000
,
1000
0100
0001
1000
0010
0001
1001
0000
,
0002
0000
0203
0000
,
0320
0000
0000
0000
0000
0000
0000
0000
2030
0000
0000
0000
0000
0000
0000
3000
,
1001
0000
0000
1000
0100
0100
0100
0010
0011
0000
0000
0001
1000
0001
0000
0001
,
0101
0000
0000
0100
0010
0010
1000
1000
1001
0000
0000
0001
0010
0100
0000
0100
,
1100
0000
0000
0001
1000
1000
0010
0010
0110
0000
0000
0100
0001
1000
0000
1000
,
1001
0000
0110
0000
0001
0010
0100
1000
0000
0001
0100
0000
0110
0000
0110
0000
,
2002
0000
0000
0000
,
0000
0000
0000
3003
,
0110
0000
0000
0000
,
2002
0000
0000
0000
,
0000
0000
0000
0000
0000
3003
0000
0000
,
0001
0000
0000
0001
0000
0000
0001
0000
0000
0000
0100
0000
0001
0000
0010
0000
,
0100
0000
0000
0100
0000
0000
0100
0000
0000
0000
1000
0000
0010
0000
0100
0000
,
0010
0000
0000
0010
0000
0000
0010
0000
0000
0000
0100
0000
0001
0000
1000
0000
,
0100
0000
0000
0100
0000
0000
0100
0000
1000
0000
0010
0000
0100
0000
0001
0000
,
1000
0000
0000
1000
0000
0000
1000
0000
0000
0000
0100
0000
0001
0000
0100
0000
,
1000
0000
0000
1000
0000
0000
1000
0000
0000
0000
0010
0000
0001
0000
0010
0000
,
1000
0000
0000
0100
0000
0000
0001
0000
1000
0000
0000
0010
0000
0000
0001
0000
,
0100
0000
0000
0010
0000
0000
0001
0000
1000
0000
0100
0000
0010
0000
1000
0000
,
0001
0000
0000
0001
0000
0000
0001
0000
0000
0000
0100
0000
0010
0000
0100
0000
,
1000
0000
0000
1000
0000
0000
1000
0000
0000
0000
0100
0000
0001
0000
1000
0000
,
0100
0000
0000
0100
0000
0000
0100
0000
0000
0000
0001
0000
0100
0000
0010
0000
,
0100
0000
0000
0100
0000
0000
0100
0000
1000
0000
0001
0000
0100
0000
0010
0000
,
1010
0000
0000
1000
0000
0000
1000
0000
0000
0000
0100
0000
0001
0000
0100
0000
,
0010
0000
0000
0010
0000
0000
0010
0000
0000
0000
0001
0000
0010
0000
0100
0000
,
1100
0000
0000
0010
0000
0000
0001
0000
0101
0000
0000
0010
0000
0000
1000
0000
,
1001
0000
0000
0100
0000
0000
0010
0000
0001
0000
1000
0000
0010
0000
1000
0000
,
0001
0000
0000
0001
0000
0000
0001
0000
0100
0000
0010
0000
0010
0000
0000
0000
0100
0000
0000
0100
0000
0000
0100
0000
0001
0000
0010
0000
0010
0000
0000
0000
,
0100
0000
0000
0100
0000
0000
0100
0000
1000
0000
1000
0000
0010
0000
0000
0000
1000
0000
0000
1000
0000
0000
1000
0000
0100
0000
0010
0000
0001
1000
0001
1000
,
0001
0000
0000
0001
0000
0000
0001
0000
0000
0000
0100
0000
0010
0000
1000
0000
,
0100
0000
0000
0100
0000
0000
0100
0000
0000
0000
0010
0000
0100
0000
1000
0000
,
1010
0000
0000
1000
0000
0000
0100
0000
0010
0000
0000
0001
0000
0000
1000
0000
,
1001
0000
0000
0001
0000
0000
0100
0000
0010
0000
1000
0000
0100
0000
0010
0000
,
0011
0000
1000
0000
0100
0010
0011
0000
1010
0000
0001
0000
0010
0100
1100
0000
,
1000
0100
0110
0000
0001
0100
0110
0000
,
1000
0100
0001
1000
0010
0001
0010
0100
,
1100
0000
0000
0000
;

//--------------- dance-single - Fred-104 ----------------
#NOTEDATA:;
#STEPSTYPE:dance-single;
#DESCRIPTION:Fred-104;
#DIFFICULTY:Hard;
#METER:16;
#CREDIT:Fred-104;
#NOTES:
0000
0000
0000
0000
,
0000
0000
0000
0000
,
0000
0000
0000
0000
,
0000
0000
0000
0000
,
0000
0000
0000
0000
,
0001
0000
0000
0001
0000
0000
0011
0000
0000
0000
0001
1000
0010
0000
0100
0000
,
0010
0000
0000
0010
0000
0000
1010
0000
0000
0000
1000
0000
0100
0000
0010
0000
,
0011
0000
0000
1000
0000
0000
0001
0000
0101
0000
0000
1000
0000
0000
0001
0000
,
0011
1010
1100
0101
,
1001
0000
0000
0000
0000
0000
0001
0000
0000
0000
0000
0000
0010
0000
0000
0100
0000
0000
1000
0000
0000
0000
0000
0000
0001
0000
0000
0100
0000
0000
0010
0000
0000
0000
0000
0000
1000
0000
0001
0000
0100
0000
0001
0000
0100
0000
0001
0000
,
1000
0000
0000
0000
0000
0000
0100
0000
0000
0000
0000
0000
0010
0000
0000
0000
0000
0000
0001
0000
0000
0000
0000
0000
0010
0000
0000
0000
0100
0000
0000
0000
1000
0000
0000
0000
0001
0000
0000
0000
0100
0000
0000
0000
0001
0000
0000
0000
0100
0000
0000
0010
0000
0000
0100
0000
0000
0000
0000
0000
0001
0000
0000
0100
0000
0000
0001
0000
0000
0000
0000
0000
1000
0000
0000
0100
0000
0000
1000
0000
0000
0100
0000
0000
0010
0000
0000
0000
0000
0000
0001
0000
0000
0000
0000
0000
,
1001
0000
0000
0001
0000
0000
0001
0000
0010
0000
0010
0000
0100
0000
0100
0000
,
1000
0000
0000
1000
0000
0000
1000
0000
0010
0000
0010
0000
0100
0000
0100
0000
,
0001
0000
0000
0001
0000
0000
0001
0000
1000
0000
0100
0000
0010
0000
0001
0000
,
1000
0000
0000
0000
0000
0000
0000
0000
0000
0000
0000
0000
1000
0000
0000
0000
0000
0000
0000
0000
0000
0000
0000
0000
1000
0000
0000
0000
0000
0000
0000
0000
1001
0000
0000
0000
0000
0000
0000
0000
0001
0000
0000
0000
1000
0000
0000
0000
0002
0003
0000
0000
0000
0000
0000
0000
0000
0000
0000
0000
0000
0000
0000
0000
,
0100
0000
0010
1000
0000
1000
0010
0000
0000
0000
0100
0001
0100
0000
0001
0000
,
1000
0000
0001
0010
0000
0010
0001
0000
0000
0000
0100
0010
0100
0000
0001
0000
,
1000
0000
0100
0010
0000
0010
0100
0000
0000
0000
1000
0001
1000
0000
0001
0000
,
0100
0000
0000
0100
0000
0000
0100
0000
0010
0000
1000
0000
0010
0000
0100
0000
,
0001
0000
1000
0100
0000
0100
0010
0000
0000
0000
0100
1000
0100
0000
0010
0000
,
0001
0000
0100
0010
0000
0010
0100
0000
0000
0000
0001
0010
0001
0000
1000
0000
,
1001
0000
0000
0010
0000
0000
0010
0000
1001
0000
0000
0100
0000
0000
0100
0000
,
1001
0000
0000
0010
0000
0000
0010
0000
1001
0000
1000
0000
0100
0000
0010
0000
,
0001
0000
1000
0010
0000
1000
0010
0000
0100
0000
0001
1000
0001
0000
0010
0000
,
0100
0000
1000
0001
0000
1000
0001
0000
0100
0000
0010
1000
0010
0000
0100
0000
,
1001
0000
0000
0100
0000
0000
0100
0000
1001
0000
0000
0010
0000
0000
0010
0000
,
1001
0000
0000
0100
0000
0000
0100
0000
0110
0000
0010
0000
1000
0000
0001
0000
,
0010
0000
0100
1000
0000
0100
1000
0000
0001
0000
0100
0010
1000
0000
0001
0000
,
1000
0000
0100
0010
0000
0100
0010
0000
0001
0000
1000
0010
0100
0000
0001
0000
,
1000
0000
0001
0010
0000
0100
1000
0000
0001
0000
1000
0010
0000
0100
0001
0000
,
1001
1000
1100
0100
0110
0010
0011
0000
,
0202
0000
0000
0303
2200
0000
0000
3300
,
2020
0000
0000
3030
0022
0000
0000
0033
,
1001
0000
0000
0001
0010
0010
0010
0010
0110
0000
0000
0100
1000
1000
0000
0001
,
0101
0000
0000
0000
0000
0000
1000
0000
0100
0000
0100
0000
0100
0000
0100
0000
0110
0000
0000
0000
0000
0000
0001
0100
0001
0000
0001
0000
0000
0000
1000
0000
,
1010
0000
0000
0001
1000
1000
1000
1000
1100
0000
0000
0001
0010
0010
0000
0001
,
1001
0000
0110
1000
0001
0001
0001
0011
0000
0010
0110
0100
1100
1000
1001
0000
,
0220
0000
0000
0000
,
0000
0000
0000
0330
,
2002
0000
3003
0000
,
0001
0010
0001
0000
1000
0010
1000
0000
,
0001
1000
0001
0000
2002
3003
0000
0000
,
0001
0000
0100
0001
0000
0001
0010
0000
0000
0000
0100
1000
0100
1000
0100
0000
,
0010
0000
0001
1000
0000
1000
0001
0000
0000
0000
0100
0010
0100
0010
0100
0000
,
0001
0000
0010
0100
0000
0100
1000
0000
0000
0000
0001
0100
0001
0100
0001
0000
,
1000
0000
0100
0010
0000
0010
0001
0000
1000
0000
0010
0000
0100
0000
0001
0000
,
1000
0000
0001
0010
0000
0010
0100
0000
0000
0000
1000
0010
1000
0001
0010
0000
,
0100
0000
1000
0001
0000
0001
0100
0000
0000
0000
0010
1000
0100
0010
0100
0000
,
1100
0000
1000
0001
0000
0001
0100
0000
0101
0000
0001
1000
0000
1000
0100
0000
,
1000
0001
1000
0000
0001
0100
0001
0000
1000
0100
0010
0001
1000
0100
0010
0001
,
1000
0000
0001
0010
0000
0010
0100
0000
1000
0000
0001
0100
0010
0100
0001
0000
,
1000
0000
0100
0010
0000
0010
0001
0000
1000
0000
0100
0010
0001
1000
0010
0000
,
0110
0000
0100
0001
0000
0001
0100
0000
0110
0000
0010
1000
0000
1000
0010
0000
,
1001
0000
1000
0100
0000
0100
0010
0000
0001
0000
1000
0010
0100
0010
1000
0000
,
1001
0000
0001
0010
0000
0010
0100
0000
1000
0000
0001
0100
0001
0010
0001
0000
,
1001
0000
1000
0100
0000
0100
0010
0000
0001
0000
1000
0010
0100
0010
1000
0000
,
1001
0000
0001
0010
0000
0010
0100
0000
1100
0000
1000
0001
0000
0001
0100
0000
,
0010
1000
0010
0000
0100
0001
0100
0000
0001
0010
0001
0010
0100
1000
0100
1000
,
0001
0000
0000
0001
0000
0000
0001
0000
0010
0000
0100
0000
1000
0000
1000
0000
0010
0000
0000
0010
0000
0000
0010
0000
0100
0000
0001
0000
1000
0000
1000
0000
,
0100
0000
0000
0100
0000
0000
0100
0000
0010
0000
0001
0000
1000
0000
1000
0000
0001
0000
0000
0001
0000
0000
0001
0000
0100
0000
0010
0000
0100
0010
0100
0010
,
0100
0000
0000
0100
0000
0000
0100
0000
0000
0000
0001
1000
0001
0000
1000
0000
,
1010
0000
0000
0010
0000
0000
0010
0000
0000
0000
0100
0001
1000
0000
0100
0000
,
0110
0000
0000
0001
0000
0000
1000
0000
0110
0000
0000
1000
0000
0000
0001
0000
,
0011
0000
0000
1000
0000
0000
0001
0000
0100
0000
0010
0000
0100
0000
0001
0000
,
1001
0000
0000
1000
0100
0000
0010
0000
0011
0000
0000
0000
1010
0000
0000
0000
1001
0000
0000
0001
0010
0000
0100
0000
1100
0000
0000
0000
0101
0000
0000
0000
,
1000
0000
0100
0010
0100
0010
0001
0000
1000
0000
0010
0100
0010
0100
0001
0000
,
1000
0000
0100
0000
0010
0000
0001
0000
1000
0010
1000
0010
0100
0001
0100
0001
,
1000
0000
0000
0000
;

//--------------- dance-single - Fred-104† ----------------
#NOTEDATA:;
#STEPSTYPE:dance-single;
#DESCRIPTION:Fred-104†;
#DIFFICULTY:Challenge;
#METER:18;
#CREDIT:Fred-104†;
#NOTES:
0000
0000
0000
0000
,
0000
0000
0000
0000
,
0000
0000
0000
0000
,
0000
0000
0000
0000
,
0000
0000
0000
0000
,
1100
0000
0000
0101
0000
0000
1100
0000
0000
0000
0001
1000
0100
0000
0010
0000
,
0011
0000
0000
1010
0000
0000
0011
0000
0000
0000
0001
1000
0010
0000
0100
0000
,
0001
1000
0001
0000
0010
0100
0010
0000
0100
1000
0100
0000
1000
0010
1000
0000
,
0001
0010
0001
0010
0100
1000
0100
1000
0001
0100
0010
1000
0010
0100
0001
0000
,
1001
0000
0000
0000
0000
0000
1000
0000
0000
0001
0000
0000
0010
0000
0000
0100
0000
0000
0010
0000
0000
0100
0000
0000
1000
0000
0000
0000
0000
0000
0001
0000
0000
0000
0000
0000
0010
0000
0000
0000
0000
0000
0100
0000
0000
0000
0000
0000
1000
0000
0000
0000
0000
0000
0001
0000
0000
0000
0000
0000
0010
0000
0000
0000
0000
0000
0100
0000
0000
0000
0000
0000
1000
0000
0000
0000
0001
0000
0000
0000
0100
0000
0000
0000
0010
0000
0000
0000
0100
0000
0000
0000
0001
0000
0000
0000
,
1000
0000
0000
0100
0000
0000
1000
0000
0000
0100
0000
0000
0010
0000
0000
0001
0000
0000
0010
0000
0000
0001
0000
0000
1000
0000
0000
0000
0010
0000
0000
0000
0100
0000
0000
0000
0001
0000
0000
0000
0100
0000
0000
0000
0010
0000
0000
0000
1000
0000
0000
0001
0000
0000
1000
0000
0000
0001
0000
0000
0100
0000
0000
0010
0000
0000
0100
0000
0000
0010
0000
0000
1000
0000
0000
0100
0000
0000
1000
0000
0000
0100
0000
0000
0010
0000
0000
0001
0000
0000
0010
0000
0000
0001
0000
0000
,
1000
0000
0000
0010
0000
0000
1010
0000
0001
0000
1000
0000
0001
0000
0100
0000
,
0001
0000
0000
1000
0000
0000
1100
0000
0010
0000
0001
0000
1000
0000
0010
0000
,
0100
0000
0000
0001
0000
0000
1010
0000
0001
0000
1000
0000
0100
0000
0010
0000
,
0001
0000
0000
0000
0000
0000
0000
0000
0000
0000
0000
0000
0000
0000
0000
0000
0000
0000
0000
0000
0000
0000
0000
0000
0000
0000
0000
0000
0000
0000
0000
0000
0000
0000
0000
0000
1000
0000
0000
0000
0000
0000
0000
0000
0000
0000
0000
0000
0000
0000
0000
0000
0000
0000
0000
0000
0000
0000
0000
0000
0000
0000
0000
0000
0000
0000
0000
0000
0000
0000
0000
0000
0110
0000
0000
0000
0000
0000
0000
0000
0000
0000
0000
0000
0000
0000
0000
0000
0000
0000
0000
0000
0000
0000
0000
0000
0110
0000
0000
0000
0000
0000
0000
0000
0000
0000
0000
0000
0000
0000
0000
0000
0000
0000
0000
0000
0000
0000
0000
0000
0001
0000
0000
0000
0000
0000
0000
0000
1000
0000
0000
0000
0000
0000
0000
0000
0001
0000
0000
0000
0000
0000
0000
0000
2000
0000
0000
3000
0000
0000
0000
0000
0000
0000
0000
0000
0000
0000
0000
0000
0000
0000
0000
0000
0000
0000
0000
0000
0000
0000
0000
0000
0000
0000
0000
0000
0000
0000
0000
0000
0000
0000
0000
0000
0000
0000
0000
0000
0000
0000
0000
0000
,
0110
0000
0001
0010
0000
0010
0001
0000
1000
0000
0010
0100
0001
0000
1000
0000
,
0100
0000
0010
0001
0000
0001
0010
0000
0100
0000
1000
0010
0100
0000
0001
0000
,
1000
0000
0001
0100
0000
0100
0010
0000
0100
0000
0001
0010
0100
0000
1000
0000
,
0001
0000
0100
0001
0000
0001
0010
0000
0011
0000
1000
0000
0101
0000
1000
0000
,
1001
0000
0001
0010
0000
0100
1000
0000
0001
0000
0100
0010
1000
0000
0100
0000
,
1000
0000
0010
0100
0000
0001
0100
0000
0010
0000
1000
0001
0010
0000
0100
0000
,
1100
0000
0000
0001
0000
0000
1000
0000
0101
0000
0000
1000
0000
0000
0001
0000
,
0110
0000
0000
0000
0000
0000
0000
0000
0000
0001
0000
0000
0000
0000
0000
0000
0000
0000
1000
0000
0000
0000
0000
0000
0011
0000
0000
0000
0000
0000
1000
0000
0000
0000
0000
0000
1010
0000
0000
0000
0000
0000
0001
0000
1000
0000
0001
0000
,
1000
0000
0001
0010
0000
1000
0010
0000
0001
0000
1000
0010
0100
0001
1000
0000
,
0100
0000
0010
0001
0000
1000
0001
0000
0100
0000
0010
0100
1000
0100
0001
0000
,
1001
0000
0001
0100
0000
0100
1000
0000
1001
0000
1000
0100
0000
0100
0001
0000
,
1001
0000
0000
0000
0000
0000
0001
0000
0000
0100
0000
0000
0000
0000
0000
0100
0000
0000
1000
0000
0000
0000
0000
0000
0100
0000
0000
0000
0000
0000
0010
0000
0000
0100
0000
0000
0001
0000
0000
0000
0000
0000
1000
0000
0010
0000
1000
0000
,
0001
0000
1000
0100
0000
0010
0001
0000
0010
0100
1000
0001
0100
0010
1000
0000
,
1001
0000
0001
0100
0000
0010
1000
0000
0001
0010
0100
0010
0001
1000
0010
0000
,
0100
0001
0100
0001
0100
0001
0100
0000
0010
1000
0010
1000
0010
1000
0010
0000
,
1000
0100
1000
0100
0010
0001
0010
0001
1000
0010
1000
0010
0100
0001
0100
0001
,
0020
0000
0230
0000
,
2300
0000
0000
0000
0000
0000
0000
0000
3002
0000
0000
0000
0000
0000
0000
0003
,
1001
0000
0000
1000
1010
1010
1010
1010
1001
0000
0000
0001
0101
0101
0000
1100
,
1001
0000
0000
0000
0000
0000
0010
0000
0011
0000
0011
0000
0011
0000
0011
0000
0011
0000
0000
0000
0002
0000
0013
0100
0110
0000
0110
0000
0000
0000
1100
0000
,
1100
0000
0000
0001
0101
0101
1100
1100
0101
0000
0000
0001
0011
1010
0000
0011
,
0110
0000
0000
0000
1001
0000
1000
0001
0010
0000
0110
0000
1100
0000
0110
0000
0000
0000
0001
0000
1100
0000
0001
0000
0101
0000
1000
0000
0110
0000
0000
0000
,
2002
0000
0000
0000
,
0000
0000
0000
3003
,
0110
0000
MMMM
0000
,
1000
0001
1000
0001
1000
0001
1000
0001
,
1000
0001
1000
0001
1000
0001
0000
0000
,
1000
0010
0000
0010
0001
0000
0010
0000
0100
0000
0010
1000
0010
1000
0001
0000
,
1000
0001
0000
0001
0010
0000
0100
0000
0010
0000
1000
0010
0001
1000
0010
0000
,
0100
0001
0000
0001
1000
0000
0100
0000
0001
0000
0100
0010
0100
0001
0100
0000
,
1000
0001
0000
0001
0100
0000
1000
0100
0001
0000
0011
0000
0110
0000
1100
0000
,
0001
0010
0000
0100
0010
0000
1000
0000
0010
0000
0100
0010
0001
0100
0010
0000
,
1000
0001
0000
0100
1000
0000
0100
0000
0010
0000
0100
1000
0100
0001
1000
0000
,
0001
0100
0000
0100
1000
0000
1001
0000
1000
0100
0000
0100
0001
0000
1001
0000
,
1000
0010
1000
0010
0100
0001
0100
0001
0010
0100
0010
0100
1000
0001
1000
0001
,
0010
0000
0000
0100
0000
0000
1000
0001
0100
0010
1000
0100
0010
0001
1000
0000
,
0010
0000
0000
1000
0000
0000
0100
0010
0001
0100
0010
1000
0010
0100
0001
0000
,
1000
0010
0000
0010
0001
0000
1000
0000
0001
0010
0000
0010
1000
0000
0001
0000
,
1000
0100
0000
0100
0001
0000
0100
0000
1000
0001
0100
0010
1000
0001
0010
0000
,
0100
1000
0100
1000
0001
0100
0001
1000
0100
0000
0010
0001
0010
0100
1000
0000
,
0001
0100
0010
0100
0001
1000
0100
0010
0001
0000
1000
0010
0100
0001
1000
0000
,
0001
0010
0100
1000
0100
0010
0001
1000
0001
0100
0010
1000
0010
0100
0001
1000
,
0100
0010
0001
0100
0010
1000
0100
0010
0001
0010
0100
1000
0010
0100
0001
0010
,
0100
0000
0000
0100
0000
0000
0200
0000
1000
0000
1000
0000
1000
0000
1300
0000
0001
0000
0000
0001
0000
0000
0002
0000
0100
0000
0100
0000
0100
0000
0103
0000
,
0010
0000
0000
0000
0000
0000
0000
0000
0000
0010
0000
0000
0000
0000
0000
0000
0000
0000
0020
0000
0000
0000
0000
0000
1000
0000
0000
0000
0000
0000
1000
0000
0000
0000
0000
0000
1000
0000
0000
0000
0000
0000
1030
0000
0000
0000
0000
0000
0001
0000
0000
0000
0000
0000
0000
0000
0000
0001
0000
0000
0000
0000
0000
0000
0000
0000
0002
0000
0000
0000
0000
0000
1000
0000
0000
0000
0000
0000
1000
0000
0000
0000
0000
0000
1003
0000
0001
0000
1000
0000
0001
0000
1000
0000
0001
0000
,
1000
0000
0000
0100
0000
0000
0110
0000
0000
0000
0001
0100
1000
0000
0100
0000
,
0010
0000
0000
0100
0000
0000
0101
0000
0000
0000
1000
0100
0010
0000
0001
0000
,
0012
0000
0000
0100
0000
0000
1003
0000
2010
0000
0000
0100
0000
0000
3001
0000
,
1002
0000
0000
0100
0000
0000
0103
0000
0010
1000
0100
0010
0001
0000
1000
0000
,
1001
0000
0000
0001
0010
0000
0100
0000
0101
0000
0001
0100
1000
0000
0000
0000
1001
0000
0000
1000
0010
0000
0100
0000
1100
0000
0100
0001
1000
0000
0000
0000
,
1001
0000
0001
0100
1000
0100
0001
0000
1001
0000
1000
0100
0001
0100
1000
0000
,
0001
0010
0001
0010
0100
1000
0100
1000
0001
0100
0010
1000
0100
0010
0001
1000
,
1001
0000
0000
0000
;

//--------------- dance-double - Fred-104 ----------------
#NOTEDATA:;
#STEPSTYPE:dance-double;
#DESCRIPTION:Fred-104;
#DIFFICULTY:Easy;
#METER:11;
#CREDIT:Fred-104;
#NOTES:
00000000
00000000
00000000
00000000
,
00000000
00000000
00000000
00000000
,
00000000
00000000
00000000
00000000
,
00000000
00000000
00000000
00000000
,
00000000
00000000
00000000
00000000
,
00001000
00000000
00000000
00001000
00000000
00000000
00001000
00000000
00000000
00000000
00100000
00000000
00001000
00000000
00000000
00000000
,
00010000
00000000
00000000
00010000
00000000
00000000
00010000
00000000
00000000
00000000
00000010
00000000
00001000
00000000
00000000
00000000
,
00001100
00000000
00000011
00000000
,
00000011
00000110
00001100
00010100
,
00011000
00000000
00001000
00000000
00010000
00100000
10000000
00000000
,
00010000
01000000
10000000
01000000
00010000
10000000
01000000
00010000
,
00001000
00000000
00000000
00001000
00000000
00000000
00001000
00000000
00100000
00000000
00000000
00000000
00001000
00000000
00000000
00000000
,
00010000
00000000
00000000
00010000
00000000
00000000
00010000
00000000
00000010
00000000
00000000
00000000
00001000
00000000
00000000
00000000
,
00000100
00000000
00000000
00000100
00000000
00000000
00000010
00000000
00000001
00000000
00000000
00000000
00000100
00000000
00000000
00000000
,
00001000
00000000
00000000
00000000
00000000
00000000
00000000
00000000
00000000
00000000
00000000
00000000
00001000
00000000
00000000
00000000
00000000
00000000
00000000
00000000
00000000
00000000
00000000
00000000
00001000
00000000
00000000
00000000
00000000
00000000
00000000
00000000
00010000
00000000
00000000
00000000
00000000
00000000
00000000
00000000
00001000
00000000
00000000
00000000
00000000
00000000
00000000
00000000
00022000
00033000
00000000
00000000
00000000
00000000
00000000
00000000
00000000
00000000
00000000
00000000
00000000
00000000
00000000
00000000
,
00001000
00000000
00000000
00010000
00000000
00000000
00100000
00000000
00000000
00000000
01000000
00000000
00100000
00000000
00000000
00000000
,
10000000
00000000
00000000
00010000
00000000
00000000
10000000
00000000
00000000
00000000
01000000
00000000
00010000
00000000
00001000
00000000
,
00010000
00000000
00000000
00000100
00000000
00000000
00001000
00000000
00000000
00000000
00000100
00000000
00000010
00000000
00000000
00000000
,
00000001
00000000
00000000
00000100
00000000
00000000
00001000
00000000
00000100
00000000
00001000
00000000
00010000
00000000
00000000
00000000
,
00001000
00000000
00000000
00010000
00000000
00000000
00001000
00000000
00000000
00000000
00100000
00000000
00001000
00000000
00000000
00000000
,
00010000
00000000
00000000
00001000
00000000
00000000
00000100
00000000
00000000
00000000
00000010
00000000
00001000
00000000
00000100
00000000
,
00000010
00000000
00000000
00000001
00000000
00000000
00001000
00000000
00000001
00000000
00000000
00000100
00000000
00000000
00001000
00000000
,
00010000
00000000
00000000
01000000
00000000
00000000
10000000
00000000
01000000
00000000
00100000
00000000
00010000
00000000
01000000
00000000
,
00001000
00000000
00000000
00010000
00000000
00000000
00001000
00000000
00000000
00000000
00100000
00000000
00010000
00000000
00000000
00000000
,
01000000
00000000
00000000
00010000
00000000
00000000
00100000
00000000
00000000
00000000
01000000
00000000
10000000
00000000
00000000
00000000
,
00010000
00000000
00000000
10000000
00000000
00000000
01000000
00000000
00010000
00000000
00000000
00001000
00000000
00000000
00010000
00000000
,
00000100
00000000
00000000
00000010
00000000
00000000
00000001
00000000
00001000
00000000
00000010
00000000
00000100
00000000
00000000
00000000
,
00000001
00000000
00000000
00000001
00000000
00000000
00000001
00000000
00000010
00000000
00001000
00000000
00010000
00000000
00000000
00000000
,
00001000
00000000
00000000
00001000
00000000
00000000
00001000
00000000
00010000
00000000
00100000
00000000
10000000
00000000
00000000
00000000
,
00010000
10000000
01000000
00000000
00010000
00001000
00000100
00000000
,
00000001
00001000
00000010
00000000
00000100
00001000
00010000
00000000
,
00002000
00000000
00023000
00000000
,
00032000
00000000
00000000
00000000
00023000
00000000
00000000
00030000
,
00011000
00000000
00000000
00000000
00010000
00000000
00001000
00000000
00000100
00000000
00000000
00000000
00000001
00001000
00000000
00000100
,
00000110
00000000
00000000
00000000
00000001
00000000
00000100
00000000
00000010
00000000
00000000
00000000
00000100
00001000
00000000
00010000
,
00011000
00000000
00000000
00000000
00001000
00000000
00010000
00000000
01000000
00000000
00000000
00000000
00100000
00010000
00000000
10000000
,
00010000
00000000
01000000
00000000
00100000
01000000
00010000
01000000
00000000
00100000
10000000
00000000
01000000
00100000
00001000
00000000
,
00022000
00000000
00000000
00000000
,
00000000
00000000
00000000
00033000
,
01100000
00000000
00000000
00000000
,
20020000
00000000
00000000
00000000
,
00000000
00000000
00000000
00000000
00000000
30030000
00000000
00000000
,
10000000
00000000
00000000
01000000
00000000
00000000
00100000
00000000
00000000
00000000
00001000
00000000
00010000
00000000
00000000
00000000
,
00001000
00000000
00000000
00010000
00000000
00000000
00000100
00000000
00000000
00000000
00000010
00000000
00000100
00000000
00000000
00000000
,
00001000
00000000
00000000
00000001
00000000
00000000
00000100
00000000
00000000
00000000
00001000
00000000
00010000
00000000
00000000
00000000
,
00001000
00000000
00000000
00010000
00000000
00000000
00001000
00000000
01000000
00000000
00010000
00000000
01000000
00000000
00000000
00000000
,
00100000
00000000
00000000
10000000
00000000
00000000
01000000
00000000
00000000
00000000
10000000
00000000
00100000
00000000
00000000
00000000
,
01000000
00000000
00000000
00010000
00000000
00000000
10000000
00000000
00000000
00000000
01000000
00000000
00010000
00000000
00000000
00000000
,
00001000
00000000
00000000
00001000
00000000
00000000
00001000
00000000
00010000
00000000
00000000
00010000
00000000
00000000
00010000
00000000
,
00000100
00000000
00000000
00000100
00000000
00000000
00000100
00000000
00000010
00000000
00000000
00000000
00000011
00000000
00000000
00000000
,
00000001
00000000
00000000
00000100
00000000
00000000
00001000
00000000
00000000
00000000
00010000
00000000
00001000
00000000
00000000
00000000
,
00010000
00000000
00000000
01000000
00000000
00000000
00010000
00000000
00000000
00000000
01000000
00000000
00100000
00000000
00000000
00000000
,
00010000
00000000
00000000
10000000
00000000
00000000
00100000
00000000
01000000
00000000
00000000
00100000
00000000
00000000
00010000
00000000
,
00001000
00000000
00000000
00010000
00000000
00000000
00000010
00000000
00001000
00000000
00000010
00000000
00000100
00000000
00000000
00000000
,
00000010
00000000
00000000
00001000
00000000
00000000
00000001
00000000
00000000
00000000
00000010
00000000
00000100
00000000
00000000
00000000
,
00010000
00000000
00000000
00001000
00000000
00000000
00100000
00000000
00000000
00000000
00010000
00000000
00100000
00000000
00000000
00000000
,
01000000
00000000
00000000
10000000
00000000
00000000
00010000
00000000
01000000
00000000
00000000
00010000
00000000
00000000
10000000
00000000
,
11000000
00010000
00101000
00010000
,
00011000
00000000
00000000
00000000
,
00000000
00000000
00000000
00000000
,
00000001
00000000
00000000
00000001
00000000
00000000
00000001
00000000
00000000
00000000
00000100
00000000
00000010
00000000
00000100
00000000
,
00001000
00000000
00000000
00001000
00000000
00000000
00001000
00000000
00000000
00000000
00010000
00000000
00001000
00000000
01000000
00000000
,
00010000
00000000
00000000
00010000
00000000
00000000
00100000
00000000
01000000
00000000
00000000
01000000
00000000
00000000
10000000
00000000
,
00010000
00000000
00000000
01000000
00000000
00000000
00100000
00000000
00010000
00000000
00001000
00000000
00010000
00000000
00000000
00000000
,
00001000
00010000
00010010
00000000
00010000
00001000
00101000
00000000
,
00001000
00010000
00100000
00000000
00010000
00001000
00010000
00000000
,
00001000
00010000
00000100
00000000
00001000
00000001
00000100
00000000
,
00001001
00000000
00000000
00000000
;

//--------------- dance-double - Fred-104 ----------------
#NOTEDATA:;
#STEPSTYPE:dance-double;
#DESCRIPTION:Fred-104;
#DIFFICULTY:Medium;
#METER:14;
#CREDIT:Fred-104;
#NOTES:
00000000
00000000
00000000
00000000
,
00000000
00000000
00000000
00000000
,
00000000
00000000
00000000
00000000
,
00000000
00000000
00000000
00000000
,
00000000
00000000
00000000
00000000
,
00010000
00000000
00000000
00010000
00000000
00000000
00010000
00000000
00000000
00000000
00001000
00000000
00010000
00000000
01000000
00000000
,
00100000
00000000
00000000
00100000
00000000
00000000
00100000
00000000
00000000
00000000
00010000
00000000
10000000
00000000
01000000
00000000
,
01100000
00001000
00010010
00001000
,
00001100
00000101
00000011
00001010
,
00001001
00000000
00000001
00000000
00000100
00000000
00000100
00000000
00001000
00010000
00001000
00000000
01000000
00000000
00010000
00000000
,
00100000
01000000
10000000
01000000
00100000
01000000
10000000
00000000
00010000
01000000
00100000
00010000
00001000
00010000
00001000
00000000
,
00010000
00000000
00000000
00001000
00000000
00000000
00000100
00000000
00000010
00000000
00001000
00000000
00000100
00000000
00000000
00000000
,
00000010
00000000
00000000
00000001
00000000
00000000
00001000
00000000
00000010
00000000
00000100
00000000
00001000
00000000
00000000
00000000
,
00010000
00000000
00000000
00100000
00000000
00000000
01000000
00000000
00010000
00000000
00100000
00000000
01000000
00000000
00000000
00000000
,
10000000
00000000
00000000
00000000
00000000
00000000
00000000
00000000
00000000
00000000
00000000
00000000
00100000
00000000
00000000
00000000
00000000
00000000
00000000
00000000
00000000
00000000
00000000
00000000
00010000
00000000
00000000
00000000
00000000
00000000
00000000
00000000
00001000
00000000
00000000
00000000
00000000
00000000
00000000
00000000
00000100
00000000
00000000
00000000
00000001
00000000
00000000
00000000
00000200
00000300
00000000
00000000
00000000
00000000
00000000
00000000
00000000
00000000
00000000
00000000
00000000
00000000
00000000
00000000
,
00000001
00000000
00000000
00000010
00000000
00000000
00001000
00000000
00000000
00000000
01000000
00000000
00010000
00000000
00100000
00000000
,
01000000
00000000
00000000
10000000
00000000
00000000
00100000
00000000
10000000
00000000
01000000
00000000
00010000
00000000
00001000
00000000
,
00010000
00000000
00000000
00001000
00000000
00000000
00000100
00000000
00000000
00000000
00000001
00000000
00001000
00000000
00000100
00000000
,
00000010
00000000
00000000
00000001
00000000
00000000
00001000
00000000
00000010
00000000
00000100
00000000
00001000
00000000
00010000
00000000
,
00001000
00000000
00000000
00001000
00000000
00000000
00001000
00000000
00000000
00000000
00010000
00000000
01000000
00000000
00010000
00000000
,
00001000
00000000
00000000
00001000
00000000
00000000
00001000
00000000
00000000
00000000
00000100
00000000
00001000
00000000
00010000
00000000
,
00011000
00000000
00000000
00100000
00000000
00000000
10000000
00000000
11000000
00000000
00000000
00010000
00000000
00000000
00001000
00000000
,
00001010
00000000
00000000
00000001
00000000
00000000
00001000
00000000
00001001
00000000
00000001
00000000
00000100
00000000
00001000
00000000
,
00010000
00000000
00000000
00010000
00000000
00000000
00010000
00000000
00001000
00000000
01000000
00000000
00100000
00000000
01000000
00000000
,
00010000
00000000
00000000
00010000
00000000
00000000
00010000
00000000
10000000
00000000
01000000
00000000
00010000
00000000
00001000
00000000
,
00010000
00000000
00000000
00001000
00000000
00000000
00000010
00000000
00000001
00000000
00000000
00001000
00000000
00000000
00000001
00000000
,
00000100
00000000
00000000
00001000
00000000
00000000
00100000
00000000
00010000
00000000
01000000
00000000
00100000
00000000
10000000
00000000
,
00010000
00000000
00000000
00100000
00000000
00000000
10000000
00000000
00100000
00000000
00001000
00000000
00010000
00000000
00001000
00000000
,
00000100
00000000
00000000
00000001
00000000
00000000
00001000
00000000
00000001
00000000
00000100
00000000
00001000
00000000
00010000
00000000
,
00001000
00000000
01000000
00010000
00000000
00010000
10000000
00000000
01000000
00000000
00100000
00001000
00000000
00001000
00010000
00000000
,
00001000
00000100
00000010
00001000
00000100
00000010
00000001
00001000
,
00000020
00000000
00000230
00000000
,
00002300
00000000
00000000
00000000
00023000
00000000
00000000
00030000
,
00011000
00000000
00000000
00001000
00010000
00100000
00100000
10000000
11000000
00000000
00000000
01000000
00100000
00110000
00000000
00100000
,
00101000
00000000
00000000
00001000
00010000
00001000
00000100
00000100
00000101
00000000
00000001
00000010
00000100
00000001
00000000
00000100
,
00001100
00000000
00000000
00000001
00000010
00001000
00010000
00100000
10100000
00000000
10000000
00010000
01000000
01000000
00000000
00100000
,
10100000
00000000
01010000
00000000
10000000
01000000
00100000
00001000
00000000
00010000
00000100
00000010
00000001
00000100
00001000
00000000
,
00022000
00000000
00000000
00000000
,
00000000
00000000
00000000
00033000
,
00011000
00000000
00000000
00000000
,
00022000
00000000
00000000
00000000
,
00000000
00000000
00000000
00000000
00000000
00033000
00000000
00000000
,
00001000
00000000
00000000
01000000
00000000
00000000
00010000
00000000
00000000
00000000
00100000
00000000
01000000
00000000
10000000
00000000
,
00010000
00000000
00000000
01000000
00000000
00000000
10000000
00000000
01000000
00000000
00010000
00000000
10000000
00000000
01000000
00000000
,
00100000
00000000
00000000
00001000
00000000
00000000
00000010
00000000
00000000
00000000
00000100
00000000
00001000
00000000
00000001
00000000
,
00000100
00000000
00000000
00010000
00000000
00000000
00000100
00000000
00000001
00000000
00001000
00000000
00000100
00000000
00000010
00000000
,
00001000
00000000
00000000
00010000
00000000
00000000
00001000
00000000
00000000
00000000
01000000
00000000
00010000
00000000
00100000
00000000
,
01000000
00000000
00000000
10000000
00000000
00000000
00010000
00000000
01000000
00000000
00100000
00000000
00010000
00000000
00001000
00000000
,
00011000
00000000
00000000
01000000
00000000
00000000
00001000
00000000
00011000
00000000
00000000
00000100
00000000
00000000
00010000
00000000
,
00011000
00000000
00000000
00001000
00000000
00000000
00010000
00000000
00100000
00000000
10000000
00010000
10000000
00000000
01000000
00000000
,
00100000
00000000
00000000
00001000
00000000
00000000
00010000
00000000
00000000
00000000
00000100
00001000
00000100
00000000
00000010
00000000
,
00000001
00000000
00000000
00001000
00000000
00000000
00000010
00000000
00000000
00000000
00000100
00000001
00000100
00000000
00000010
00000000
,
00001000
00000000
00000000
00000100
00000000
00000000
00000010
00000000
00001000
00000000
00000000
01000000
00000000
00000000
00010000
00000000
,
00100000
00000000
00000000
01000000
00000000
00000000
10000000
00000000
00100000
00000000
00010000
00001000
00010000
00000000
00000100
00000000
,
00010000
00000000
00000000
00001000
00000000
00000000
01000000
00000000
00010000
00000000
00100000
01000000
00100000
00000000
00001000
00000000
,
00010000
00000000
00000000
00001000
00000000
00000000
00000100
00000000
00000010
00000000
00001000
00000010
00001000
00000000
00000100
00000000
,
00000010
00000000
00000000
00001000
00000000
00000000
00010000
00000000
01000000
00000000
00000000
00100000
00000000
00000000
00001000
00000000
,
00010000
00001000
00000010
00000100
00001000
00000010
00000100
00001000
,
00010000
00000000
00000000
00010000
00000000
00000000
00010000
00000000
00001000
00000000
00000010
00000000
00000100
00000000
00000000
00000000
00001000
00000000
00000000
00001000
00000000
00000000
00001000
00000000
00000001
00000000
00000100
00000000
00001000
00000000
00000000
00000000
,
00010000
00000000
00000000
00010000
00000000
00000000
00010000
00000000
00001000
00000000
00010000
00000000
00100000
00000000
00000000
00000000
01000000
00000000
00000000
01000000
00000000
00000000
01000000
00000000
00010000
00000000
00100000
00000000
01000000
00000000
01000000
00000000
,
11000000
00000000
00000000
10000000
00000000
00000000
00010000
00000000
00000000
00000000
01000000
00100000
01000000
00000000
00010000
00000000
,
10000000
00000000
00000000
01000000
00000000
00000000
00100000
00000000
00000000
00000000
00001000
00010000
00001000
00000000
00010000
00000000
,
00010010
00000000
00000000
00000010
00000000
00000000
00001000
00000000
00000100
00000000
00000000
00000010
00000000
00000000
00000001
00000000
,
00001001
00000000
00000000
00001000
00000000
00000000
00000001
00000000
00000100
00000000
00000010
00000000
00000100
00000000
00001000
00000000
,
00011000
00001000
00110000
10010000
01000000
00100000
00101000
00010010
,
00010000
00001000
00000010
00001000
00010000
00001000
00000100
00001000
,
00010000
00001000
00000010
00000001
00000100
00001000
00010000
00100000
,
10100000
00000000
00000000
00000000
;

//--------------- dance-double - Fred-104 ----------------
#NOTEDATA:;
#STEPSTYPE:dance-double;
#DESCRIPTION:Fred-104;
#DIFFICULTY:Hard;
#METER:16;
#CREDIT:Fred-104;
#NOTES:
00000000
00000000
00000000
00000000
,
00000000
00000000
00000000
00000000
,
00000000
00000000
00000000
00000000
,
00000000
00000000
00000000
00000000
,
00000000
00000000
00000000
00000000
,
00010000
00000000
00000000
00001000
00000000
00000000
00011000
00000000
00000000
00000000
00010000
00000100
00010000
00000000
00001000
00000000
,
01000000
00000000
00000000
00010000
00000000
00000000
00110000
00000000
00000000
00000000
01000000
00000000
10000000
00000000
00100000
00000000
,
00010000
00000000
00000000
00001000
00000000
00000000
00000010
00000000
00000001
00000000
00000000
00001000
00000000
00000000
00000001
00000000
,
00000101
00001010
01010000
10100000
,
10010000
00000000
10000000
00000000
01000000
00000000
01000000
00000000
00100000
00001000
00010000
00001000
00000100
00000001
00001000
00000000
,
00000100
00000000
00000000
00000000
00000000
00000000
00000010
00000000
00000000
00000000
00000000
00000000
00000001
00000000
00000000
00000000
00000000
00000000
00001000
00000000
00000000
00000000
00000000
00000000
00000001
00000000
00000000
00000000
00000100
00000000
00000000
00000000
00000010
00000000
00000000
00000000
00000100
00000000
00000000
00000000
00001000
00000000
00000000
00000000
00010000
00000000
00000000
00000000
00001000
00000000
00000000
00010000
00000000
00000000
00001000
00000000
00000000
00000000
00000000
00000000
00010000
00000000
00000000
00001000
00000000
00000000
01000000
00000000
00000000
00000000
00000000
00000000
00010000
00000000
00000000
01000000
00000000
00000000
00001000
00000000
00000000
00010000
00000000
00000000
00001000
00000000
00000000
00000000
00000000
00000000
00010000
00000000
00000000
00000000
00000000
00000000
,
00011000
00000000
00000000
00010000
00000000
00000000
00010000
00000000
00001000
00000000
01000000
00000000
00010000
00000000
00010000
00000000
,
00100000
00000000
00000000
00100000
00000000
00000000
00100000
00000000
01000000
00000000
10000000
00000000
00010000
00000000
00010000
00000000
,
00100000
00000000
00000000
00100000
00000000
00000000
00100000
00000000
01000000
00000000
00010000
00000000
00001000
00000000
00001000
00000000
,
00010000
00000000
00000000
00000000
00000000
00000000
00000000
00000000
00000000
00000000
00000000
00000000
00010000
00000000
00000000
00000000
00000000
00000000
00000000
00000000
00000000
00000000
00000000
00000000
00010000
00000000
00000000
00000000
00000000
00000000
00000000
00000000
00011000
00000000
00000000
00000000
00000000
00000000
00000000
00000000
00001000
00000000
00000000
00000000
00010000
00000000
00000000
00000000
00002000
00003000
00000000
00000000
00000000
00000000
00000000
00000000
00000000
00000000
00000000
00000000
00000000
00000000
00000000
00000000
,
00010000
00000000
00000010
00001000
00000000
00001000
00000010
00000000
00000000
00000000
00000100
00000001
00000100
00000000
00000010
00000000
,
00001000
00000000
00000001
00000010
00000000
00000010
00000001
00000000
00000000
00000000
00000100
00000010
00000100
00000000
00001000
00000000
,
00010000
00000000
00001000
01000000
00000000
01000000
00001000
00000000
00000000
00000000
00100000
01000000
00100000
00000000
00010000
00000000
,
10000000
00000000
00000000
01000000
00000000
00000000
00010000
00000000
00001000
00000000
00000100
00000000
00000001
00000000
00000010
00000000
,
00000100
00000000
00010000
00001000
00000000
00001000
00010000
00000000
00000000
00000000
00100000
01000000
00100000
00000000
10000000
00000000
,
00010000
00000000
10000000
01000000
00000000
01000000
00100000
00000000
00000000
00000000
00001000
00010000
00001000
00000000
00010000
00000000
,
00011000
00000000
00000000
00000010
00000000
00000000
00000010
00000000
00001001
00000000
00000000
00000100
00000000
00000000
00000100
00000000
,
00001001
00000000
00000000
00000010
00000000
00000000
00000010
00000000
00000110
00000000
00000001
00000000
00000100
00000000
00001000
00000000
,
00010000
00000000
00001000
00100000
00000000
00100000
00010000
00000000
01000000
00000000
00100000
00000000
10000000
00000000
01000000
00000000
,
00100000
00000000
00001000
00010000
00000000
00010000
00000100
00000000
00001000
00000000
00000001
00000000
00000100
00000000
00000010
00000000
,
00000110
00000000
00000000
00010000
00000000
00000000
00010000
00000000
00011000
00000000
00000000
00001000
00000000
00000000
00001000
00000000
,
00011000
00000000
00000000
01000000
00000000
00000000
01000000
00000000
10010000
00000000
10000000
00000000
01000000
00000000
00100000
00000000
,
00001000
00000000
00010000
00000010
00000000
00000010
00010000
00000000
00001000
00000000
00000100
00000010
00000100
00000000
00000001
00000000
,
00001000
00000000
00000001
00000010
00000000
00000010
00000100
00000000
00010000
00000000
00001000
00100000
00001000
00000000
00010000
00000000
,
00001000
00000000
01000000
00010000
00000000
01000000
00010000
00000000
10000000
00000000
01000000
00100000
00000000
01000000
00100000
00000000
,
00001000
00010000
00001000
00000000
00010000
00000010
00010000
00000000
00000010
00001000
00000010
00000000
00000100
00000001
00000100
00000000
,
00000220
00000000
00000000
00000330
00022000
00000000
00000000
00033000
,
02200000
00000000
00000000
03300000
20020000
00000000
00000000
30030000
,
01100000
00000000
00000000
10000000
01000000
01000000
00010000
00010000
00011000
00000000
00000000
00001000
00010000
00010000
00000000
00000010
,
00001010
00000000
00000000
00000000
00000000
00000000
00001000
00000000
00000001
00000000
00000001
00000000
00000100
00000000
00000100
00000000
00001100
00000000
00000000
00000000
00000000
00000000
00010000
00001000
00010000
00000000
00010000
00000000
00000000
00000000
00001000
00000000
,
00011000
00000000
00000000
00001000
00010000
00010000
00100000
00100000
10100000
00000000
00000000
10000000
01000000
01000000
00000000
00100000
,
00101000
00000000
00001000
00010000
00000100
00000100
00001000
00001001
00000000
00000001
00000100
00001000
00010000
01000000
10000000
00000000
,
20020000
00000000
00000000
00000000
,
00000000
00000000
00000000
30030000
,
02200000
00000000
03300000
00000000
,
10000000
00100000
00010000
00001000
,
00000010
00000000
00000001
00000000
00002002
00003003
00000000
00000000
,
00000001
00000000
00000010
00000100
00000000
00000100
00010000
00000000
00000000
00000000
00001000
01000000
00001000
01000000
00001000
00000000
,
00100000
00000000
00010000
00100000
00000000
00100000
01000000
00000000
00000000
00000000
10000000
00100000
10000000
00100000
10000000
00000000
,
01000000
00000000
00100000
00001000
00000000
00001000
00010000
00000000
00000000
00000000
00000100
00001000
00000100
00001000
00000100
00000000
,
00000010
00000000
00000001
00000100
00000000
00000100
00000010
00000000
00000100
00000000
00001000
00000000
00010000
00000000
00100000
00000000
,
01000000
00000000
00010000
10000000
00000000
10000000
01000000
00000000
00000000
00000000
00100000
00001000
00010000
00000010
00010000
00000000
,
00001000
00000000
00010000
00000100
00000000
00000100
00001000
00000000
00000000
00000000
00000100
00000010
00000001
00001000
00000010
00000000
,
00001000
00000000
00000000
00000001
00000000
00000000
00000010
00000000
00001000
00000000
00000000
01000000
00000000
00000000
00010000
00000000
,
10000000
00000000
00000000
01000000
00000000
00000000
00010000
00000000
00000010
00000000
00001000
00000100
00000010
00000000
00000001
00000000
,
00001000
00000000
00000001
00000010
00000000
00000010
00000100
00000000
00000010
00000000
00001000
00010000
00001000
00010000
00001000
00000000
,
00010000
00000000
00000100
00010000
00000000
00010000
00001000
00000000
00010000
00000000
00100000
01000000
00100000
01000000
00010000
00000000
,
10000000
00000000
01000000
00100000
00000000
00100000
00001000
00000000
00010000
00000000
00000100
00001000
00000000
00001000
00000010
00000000
,
00010000
00000000
00001000
00100000
00000000
00100000
00010000
00000000
01000000
00000000
00100000
10000000
00100000
10000000
01000000
00000000
,
01100000
00000000
00010000
10000000
00000000
00010000
10000000
00000000
01000000
00000000
00100000
00001000
00010000
00001000
00010000
00000000
,
00011000
00000000
00010000
00000100
00000000
00000100
00000010
00000000
00000001
00000000
00001000
00000010
00000100
00000001
00001000
00000000
,
00001001
00000000
00000001
00000100
00000000
00000100
00001000
00000000
00011000
00000000
00010000
01000000
00000000
01000000
10000000
00000000
,
00010000
10000000
01000000
00000000
00100000
00010000
00100000
00000000
00001000
00010000
00000010
00000000
00001000
00000001
00000100
00000000
,
00000010
00000000
00000000
00000010
00000000
00000000
00000010
00000000
00001000
00000000
00000001
00000000
00000010
00000000
00001000
00000000
00010000
00000000
00000000
00010000
00000000
00000000
00010000
00000000
00001000
00000000
00100000
00000000
01000000
00000000
10000000
00000000
,
00100000
00000000
00000000
00100000
00000000
00000000
00100000
00000000
01000000
00000000
00010000
00000000
00100000
00000000
01000000
00000000
00010000
00000000
00000000
00010000
00000000
00000000
00010000
00000000
00001000
00000000
00001000
00000000
00010000
00001000
00010000
00001000
,
00010000
00000000
00000000
00010000
00000000
00000000
00010000
00000000
00000000
00000000
00000010
00001000
00000010
00000000
00000100
00000000
,
00000101
00000000
00000000
00000001
00000000
00000000
00000001
00000000
00000000
00000000
00000100
00000010
00000100
00000000
00001000
00000000
,
00011000
00000000
00000000
00001000
00000000
00000000
01000000
00000000
10010000
00000000
00000000
10000000
00000000
00000000
01000000
00000000
,
01100000
00000000
00000000
00100000
00000000
00000000
00001000
00000000
00010000
00000000
00001000
00000000
00000100
00000000
00000001
00000000
,
00000011
00000000
00000000
00000001
00000100
00000000
00001000
00000000
00011000
00000000
00000000
00000000
01001000
00000000
00000000
00000000
00011000
00000000
00000000
00001000
00010000
00000000
01000000
00000000
11000000
00000000
00000000
00000000
01100000
00000000
00000000
00000000
,
00010000
00000000
10000000
01000000
10000000
01000000
00100000
00000000
00001000
00000000
00010000
00000010
00001000
00000001
00001000
00000000
,
00000001
00000010
00000001
00000000
00001000
00000010
00001000
00000000
00000100
00000000
00000010
00000000
00001000
00000000
00010000
00000000
,
00011000
00000000
00000000
00000000
;

//--------------- dance-double - Fred-104† ----------------
#NOTEDATA:;
#STEPSTYPE:dance-double;
#DESCRIPTION:Fred-104†;
#DIFFICULTY:Challenge;
#METER:18;
#CREDIT:Fred-104†;
#NOTES:
00000000
00000000
00000000
00000000
,
00000000
00000000
00000000
00000000
,
00000000
00000000
00000000
00000000
,
00000000
00000000
00000000
00000000
,
00000000
00000000
00000000
00000000
,
00001000
00000000
00100000
00010000
00000000
00100000
00010000
00000000
00000000
00000000
10000000
00100000
01000000
00000000
00100000
00000000
,
00010000
00000000
00001000
00010000
00000000
00001000
00010000
00000000
00000000
00000000
00000100
00001000
00000001
00000000
00001000
00000000
,
00001001
00000000
00000001
00000100
00001000
00000000
00010000
00000000
00011000
00000000
00001000
00010000
01000000
00000000
10000000
00000000
,
00010000
01000000
00010000
00000000
10000000
00100000
10000000
00000000
01000000
00100000
00010000
00100000
00001000
00010000
00001000
00000000
,
00011000
00000000
00000000
00000000
00000000
00000000
00010000
00000000
00000000
00001000
00000000
00000000
00000100
00000000
00000000
00000010
00000000
00000000
00000100
00000000
00000000
00000010
00000000
00000000
00001000
00000000
00000000
00000000
00000000
00000000
00000010
00000000
00000000
00000000
00000000
00000000
00000100
00000000
00000000
00000000
00000000
00000000
00001000
00000000
00000000
00000000
00000000
00000000
00010000
00000000
00000000
00000000
00000000
00000000
01000000
00000000
00000000
00000000
00000000
00000000
00100000
00000000
00000000
00000000
00000000
00000000
01000000
00000000
00000000
00000000
00000000
00000000
00010000
00000000
00000000
00000000
00001000
00000000
00000000
00000000
00000010
00000000
00000000
00000000
00000100
00000000
00000000
00000000
00000010
00000000
00000000
00000000
00001000
00000000
00000000
00000000
,
00010000
00000000
00000000
00001000
00000000
00000000
00010000
00000000
00000000
00001000
00000000
00000000
00000100
00000000
00000000
00000010
00000000
00000000
00000100
00000000
00000000
00000010
00000000
00000000
00001000
00000000
00000000
00000000
00000010
00000000
00000000
00000000
00000100
00000000
00000000
00000000
00001000
00000000
00000000
00000000
00010000
00000000
00000000
00000000
00100000
00000000
00000000
00000000
01000000
00000000
00000000
00000000
00010000
00000000
00000000
00000000
00100000
00000000
00000000
00000000
01000000
00000000
00000000
00000000
00010000
00000000
00000000
00000000
00001000
00000000
00000000
00000000
00000010
00000000
00000000
00000100
00000000
00000000
00001000
00000000
00000000
00000100
00000000
00000000
00010000
00000000
00000000
00001000
00000000
00000000
01000000
00000000
00000000
00001000
00000000
00000000
,
00010000
00000000
00000000
00010000
00000000
00000000
00010000
00000000
00001000
00000000
00000100
00000000
00000001
00000000
00001000
00000000
,
00000001
00000000
00000000
00000001
00000000
00000000
00000001
00000000
00000010
00000000
00000100
00000000
00000010
00000000
00001000
00000000
,
00010000
00000000
00000000
00010000
00000000
00000000
00010000
00000000
00001000
00000000
00010000
00000000
00100000
00000000
01000000
00000000
,
00100000
00000000
00000000
00000000
00000000
00000000
00000000
00000000
00000000
00000000
00000000
00000000
00000000
00000000
00000000
00000000
00000000
00000000
00000000
00000000
00000000
00000000
00000000
00000000
00000000
00000000
00000000
00000000
00000000
00000000
00000000
00000000
00000000
00000000
00000000
00000000
00100000
00000000
00000000
00000000
00000000
00000000
00000000
00000000
00000000
00000000
00000000
00000000
00000000
00000000
00000000
00000000
00000000
00000000
00000000
00000000
00000000
00000000
00000000
00000000
00000000
00000000
00000000
00000000
00000000
00000000
00000000
00000000
00000000
00000000
00000000
00000000
00100000
00000000
00000000
00000000
00000000
00000000
00000000
00000000
00000000
00000000
00000000
00000000
00000000
00000000
00000000
00000000
00000000
00000000
00000000
00000000
00000000
00000000
00000000
00000000
01100000
00000000
00000000
00000000
00000000
00000000
00000000
00000000
00000000
00000000
00000000
00000000
00000000
00000000
00000000
00000000
00000000
00000000
00000000
00000000
00000000
00000000
00000000
00000000
10000000
00000000
00000000
00000000
00000000
00000000
00000000
00000000
00010000
00000000
00000000
00000000
00000000
00000000
00000000
00000000
10000000
00000000
00000000
00000000
00000000
00000000
00000000
00000000
00020000
00000000
00000000
00030000
00000000
00000000
00000000
00000000
00000000
00000000
00000000
00000000
00000000
00000000
00000000
00000000
00000000
00000000
00000000
00000000
00000000
00000000
00000000
00000000
00000000
00000000
00000000
00000000
00000000
00000000
00000000
00000000
00000000
00000000
00000000
00000000
00000000
00000000
00000000
00000000
00000000
00000000
00000000
00000000
00000000
00000000
00000000
00000000
,
01100000
00000000
10000000
01000000
00000000
01000000
10000000
00000000
00100000
00000000
01000000
00100000
00010000
00000000
00001000
00000000
,
00010000
00000000
00001000
00100000
00000000
00100000
00001000
00000000
00010000
00000000
00001000
00000010
00000100
00000000
00000010
00000000
,
00000001
00000000
00000100
00000001
00000000
00000001
00000100
00000000
00000010
00000000
00000001
00000010
00000100
00000000
00001000
00000000
,
00010000
00000000
00001000
00100000
00000000
00100000
00001000
00000000
00011000
00000000
00000010
00000000
00011000
00000000
00100000
00000000
,
00011000
00000000
00001000
01000000
00000000
00010000
01000000
00000000
00100000
00000000
10000000
00010000
00100000
00000000
01000000
00000000
,
10000000
00000000
00010000
01000000
00000000
00100000
01000000
00000000
00010000
00000000
00100000
01000000
00010000
00000000
00001000
00000000
,
00011000
00000000
00000000
00000010
00000000
00000000
00010000
00000000
00011000
00000000
00000000
00100000
00000000
00000000
00001000
00000000
,
00011000
00000000
00000000
00000000
00000000
00000000
00000000
00000000
00000000
00000100
00000000
00000000
00000000
00000000
00000000
00000000
00000000
00000000
00010000
00000000
00000000
00000000
00000000
00000000
00011000
00000000
00000000
00000000
00000000
00000000
00001000
00000000
00000000
00000000
00000000
00000000
01001000
00000000
00000000
00000000
00000000
00000000
01000000
00000000
00010000
00000000
01000000
00000000
,
00010000
00000000
10000000
01000000
00000000
00010000
01000000
00000000
10000000
00000000
00010000
01000000
00010000
01000000
00010000
00000000
,
00100000
00000000
00001000
00000010
00000000
00001000
00010000
00000000
00001000
00000000
00010000
00000100
00010000
00000100
00001000
00000000
,
00001001
00000000
00000000
00000001
00000000
00000000
00000100
00000000
00001000
00000000
00000000
01000000
00000000
00000000
00010000
00000000
,
00100000
00000000
00000000
00000000
00000000
00000000
00000000
00000000
00000000
10000000
00000000
00000000
00000000
00000000
00000000
00000000
00000000
00000000
00100000
00000000
00000000
00000000
00000000
00000000
00001000
00000000
00000000
00000000
00000000
00000000
00000010
00000000
00000000
00000100
00000000
00000000
00001000
00000000
00000000
00000000
00000000
00000000
00000010
00000000
00001000
00000000
00000010
00000000
,
00001000
00000000
00000001
00000010
00000000
00000010
00000100
00000000
00010000
00001000
00010000
00001000
01000000
00010000
01000000
00000000
,
00010000
00000000
00100000
01000000
00000000
01000000
10000000
00000000
00100000
10000000
00100000
10000000
01000000
00100000
00010000
00000000
,
00100000
00001000
00010000
00000000
00001000
00010000
00000100
00000000
00001000
00000100
00000010
00000000
00000100
00000010
00000001
00000000
,
00001000
00000001
00000010
00000100
00001000
00000100
00010000
00001000
00100000
00010000
00100000
01000000
10000000
00010000
01000000
00000000
,
02200000
00000000
00000000
03300000
00022000
00000000
00000000
00033000
,
00000220
00000000
00000000
00000330
00002002
00000000
00000000
00003003
,
00001001
00000000
00000000
00000001
00000101
00000100
00001100
00001000
00011000
00000000
00000000
00001000
01000000
01001000
00000000
10000000
,
10010000
00000000
00000000
00000000
00000000
00000000
10000000
00000000
10100000
00000000
00100000
00000000
00110000
00000000
00010000
00000000
00011000
00000000
00000000
00000000
00002000
00000000
00013000
00000100
00001000
00000000
00001001
00000000
00000000
00000000
00000001
00000000
,
00000101
00000000
00000000
00000001
00000011
00000010
00001010
00001000
00011000
00000000
00000000
00010000
00000010
00001010
00000000
00100000
,
00110000
00000000
00000000
00000000
00001100
00000000
00000100
00010000
00001000
00000000
00010000
00000000
00100000
00000000
10000000
00000000
11000000
00000000
01000000
00000000
01010000
00000000
00010000
00000000
00011000
00000000
00010100
00000000
00001100
00000000
00000000
00000000
,
00000022
00000000
00000000
00000000
,
00000000
00000000
00000000
00000033
,
00001001
00000000
MMMMMMMM
00000000
,
00010000
00001000
00010000
00001000
00010000
00001000
00010000
00001000
,
00010000
00001000
00010000
00001000
00010000
00001000
00000000
00000000
,
00010000
00001000
00000000
00001000
00000100
00000000
00000001
00000000
00001000
00000000
00000100
00000010
00000100
00000010
00000001
00000000
,
00001000
00000010
00000000
00000010
00000100
00000000
00001000
00000000
00010000
00000000
00100000
01000000
00010000
01000000
00010000
00000000
,
00100000
01000000
00000000
01000000
10000000
00000000
00010000
00000000
01000000
00000000
00100000
00010000
00001000
00010000
00001000
00000000
,
00010000
00001000
00000000
00000010
00001000
00000000
00010000
00001000
00010000
00000000
00010010
00000000
00001000
00000000
00101000
00000000
,
00010000
00001000
00000000
00000100
00000001
00000000
00001000
00000000
00000100
00000000
00000001
00000100
00000010
00000100
00001000
00000000
,
00000001
00000100
00000000
00000010
00000100
00000000
00001000
00000000
00010000
00000000
00001000
01000000
00010000
10000000
00010000
00000000
,
11000000
00000000
01000000
00100000
00000000
00100000
00001000
00000000
00011000
00000000
00010000
00000100
00000000
00000100
00001000
00000000
,
00000001
00000100
00000010
00000000
00001000
00000100
00010000
00000000
00001000
01000000
00010000
10000000
01000000
00100000
00010000
00000000
,
00100000
00000000
00000000
01000000
00000000
01000000
10000000
00000000
00000000
00100000
10000000
01000000
00100000
00001000
00010000
00001000
,
00010000
00000000
00000000
00001000
00000000
00000100
00000001
00000000
00000000
00001000
00000100
00000010
00000001
00000010
00000100
00001000
,
00000001
00000100
00000000
00001000
00010000
00000000
00011000
00000000
00001000
00010000
00000000
01000000
00100000
00000000
00110000
00000000
,
10000000
01000000
00000000
01000000
00010000
00000000
00001000
00000000
00010000
00000100
00001000
00000100
00000010
00000001
00001000
00000000
,
00000001
00000010
00000100
00001000
00000000
00000010
00000100
00000000
00001000
00000000
00010000
00001000
01000000
00010000
00100000
00000000
,
01000000
10000000
00010000
01000000
00000000
00100000
00010000
00000000
00001000
00000000
00010000
00000010
00001000
00000010
00000100
00000000
,
00000001
00000010
00000100
00001000
00000100
00000010
00000001
00000000
00001000
00000010
00000100
00000001
00000100
00000010
00001000
00000000
,
00000001
00000010
00000100
00000010
00001000
00010000
01000000
00100000
01000000
10000000
00010000
01000000
00100000
10000000
01000000
00100000
,
00001000
00000000
00000000
00001000
00000000
00000000
00002000
00000000
00010000
00000000
00010000
00000000
00010000
00000000
00013000
00000000
00000010
00000000
00000000
00000010
00000000
00000000
00000020
00000000
00001000
00000000
00001000
00000000
00001000
00000000
00001030
00000000
,
00000001
00000000
00000000
00000000
00000000
00000000
00000000
00000000
00000000
00000001
00000000
00000000
00000000
00000000
00000000
00000000
00000000
00000000
00000002
00000000
00000000
00000000
00000000
00000000
00000100
00000000
00000000
00000000
00000000
00000000
00000100
00000000
00000000
00000000
00000000
00000000
00000100
00000000
00000000
00000000
00000000
00000000
00000203
00000000
00000000
00000000
00000000
00000000
00001000
00000000
00000000
00000000
00000000
00000000
00000000
00000000
00000000
00001000
00000000
00000000
00000000
00000000
00000000
00000000
00000000
00000000
00001300
00000000
00000000
00000000
00000000
00000000
00010000
00000000
00000000
00000000
00000000
00000000
00010000
00000000
00000000
00000000
00000000
00000000
00001000
00000000
00010000
00000000
00001000
00000000
00010000
00000000
00001000
00000000
00010000
00000000
,
00001000
00000000
00000000
01000000
00000000
00000000
01010000
00000000
00000000
00000000
10000000
01000000
00100000
00000000
00001000
00000000
,
00010000
00000000
00000000
00001000
00000000
00000000
00011000
00000000
00000000
00000000
00010000
00001000
00000100
00000000
00000001
00000000
,
00000012
00000000
00000000
00001000
00000000
00000000
00000013
00000000
00002010
00000000
00000000
00000001
00000000
00000000
00003010
00000000
,
00000120
00000000
00000000
00000100
00000000
00000000
00000130
00000000
00000001
00000010
00000100
00000010
00001000
00000000
00010000
00000000
,
00011000
00000000
00000000
00001000
00010000
00000000
00100000
00000000
10100000
00000000
10000000
01000000
00010000
00000000
00000000
00000000
00011000
00000000
00000000
00010000
00001000
00000000
00000100
00000000
00000101
00000000
00000001
00000010
00001000
00000000
00000000
00000000
,
00011000
00000000
00010000
00001000
00000010
00001000
00010000
00000000
00011000
00000000
00001000
00010000
00100000
00010000
00001000
00000000
,
00010000
00001000
00010000
00001000
00000100
00000010
00000100
00000010
00001000
00000001
00000010
00000100
00001000
00010000
00100000
01000000
,
10000000
00000000
00000000
00000000
;
